  0
SECTION
  2
HEADER
  9
$ACADVER
  1
AC1014
  9
$ACADMAINTVER
 70
     9
  9
$DWGCODEPAGE
  3
ANSI_1252
  9
$INSBASE
 10
24.97224495395203
 20
8.200134360033807
 30
0.0
  9
$EXTMIN
 10
22.2308330833697
 20
6.939454979518412
 30
0.0
  9
$EXTMAX
 10
35.10024815840381
 20
12.15226219921341
 30
0.0
  9
$LIMMIN
 10
0.0
 20
0.0
  9
$LIMMAX
 10
36.0
 20
36.0
  9
$ORTHOMODE
 70
     1
  9
$REGENMODE
 70
     1
  9
$FILLMODE
 70
     1
  9
$QTEXTMODE
 70
     0
  9
$MIRRTEXT
 70
     1
  9
$DRAGMODE
 70
     0
  9
$LTSCALE
 40
1.0
  9
$OSMODE
 70
    37
  9
$ATTMODE
 70
     1
  9
$TEXTSIZE
 40
0.2
  9
$TRACEWID
 40
0.05
  9
$TEXTSTYLE
  7
STANDARD
  9
$CLAYER
  8
ADP2DETAIL
  9
$CELTYPE
  6
BYLAYER
  9
$CECOLOR
 62
   256
  9
$CELTSCALE
 40
1.0
  9
$DELOBJ
 70
     1
  9
$DISPSILH
 70
     0
  9
$DIMSCALE
 40
1.0
  9
$DIMASZ
 40
0.125
  9
$DIMEXO
 40
0.0625
  9
$DIMDLI
 40
0.38
  9
$DIMRND
 40
0.0
  9
$DIMDLE
 40
0.0
  9
$DIMEXE
 40
0.18
  9
$DIMTP
 40
0.0
  9
$DIMTM
 40
0.0
  9
$DIMTXT
 40
0.125
  9
$DIMCEN
 40
0.1875
  9
$DIMTSZ
 40
0.125
  9
$DIMTOL
 70
     0
  9
$DIMLIM
 70
     0
  9
$DIMTIH
 70
     0
  9
$DIMTOH
 70
     0
  9
$DIMSE1
 70
     0
  9
$DIMSE2
 70
     0
  9
$DIMTAD
 70
     0
  9
$DIMZIN
 70
     3
  9
$DIMBLK
  1

  9
$DIMASO
 70
     1
  9
$DIMSHO
 70
     1
  9
$DIMPOST
  1

  9
$DIMAPOST
  1

  9
$DIMALT
 70
     0
  9
$DIMALTD
 70
     1
  9
$DIMALTF
 40
25.4
  9
$DIMLFAC
 40
1.0
  9
$DIMTOFL
 70
     0
  9
$DIMTVP
 40
0.0
  9
$DIMTIX
 70
     0
  9
$DIMSOXD
 70
     0
  9
$DIMSAH
 70
     0
  9
$DIMBLK1
  1

  9
$DIMBLK2
  1

  9
$DIMSTYLE
  2
STANDARD
  9
$DIMCLRD
 70
     0
  9
$DIMCLRE
 70
     0
  9
$DIMCLRT
 70
     0
  9
$DIMTFAC
 40
1.0
  9
$DIMGAP
 40
0.125
  9
$DIMJUST
 70
     0
  9
$DIMSD1
 70
     0
  9
$DIMSD2
 70
     0
  9
$DIMTOLJ
 70
     1
  9
$DIMTZIN
 70
     0
  9
$DIMALTZ
 70
     0
  9
$DIMALTTZ
 70
     0
  9
$DIMFIT
 70
     3
  9
$DIMUPT
 70
     0
  9
$DIMUNIT
 70
     2
  9
$DIMDEC
 70
     4
  9
$DIMTDEC
 70
     4
  9
$DIMALTU
 70
     2
  9
$DIMALTTD
 70
     2
  9
$DIMTXSTY
  7
STANDARD
  9
$DIMAUNIT
 70
     0
  9
$LUNITS
 70
     5
  9
$LUPREC
 70
     4
  9
$SKETCHINC
 40
0.1
  9
$FILLETRAD
 40
0.062
  9
$AUNITS
 70
     0
  9
$AUPREC
 70
     0
  9
$MENU
  1
acad
  9
$ELEVATION
 40
0.0
  9
$PELEVATION
 40
0.0
  9
$THICKNESS
 40
0.0
  9
$LIMCHECK
 70
     0
  9
$BLIPMODE
 70
     0
  9
$CHAMFERA
 40
0.0
  9
$CHAMFERB
 40
0.0
  9
$CHAMFERC
 40
0.0
  9
$CHAMFERD
 40
0.0
  9
$SKPOLY
 70
     0
  9
$TDCREATE
 40
2450386.498667627
  9
$TDUPDATE
 40
2452297.069192337
  9
$TDINDWG
 40
0.0589543287
  9
$TDUSRTIMER
 40
0.0589543287
  9
$USRTIMER
 70
     1
  9
$ANGBASE
 50
0.0
  9
$ANGDIR
 70
     0
  9
$PDMODE
 70
     0
  9
$PDSIZE
 40
0.0
  9
$PLINEWID
 40
0.0
  9
$COORDS
 70
     2
  9
$SPLFRAME
 70
     0
  9
$SPLINETYPE
 70
     6
  9
$SPLINESEGS
 70
     8
  9
$ATTDIA
 70
     0
  9
$ATTREQ
 70
     1
  9
$HANDLING
 70
 22529
  9
$HANDSEED
  5
372
  9
$SURFTAB1
 70
     6
  9
$SURFTAB2
 70
     6
  9
$SURFTYPE
 70
     6
  9
$SURFU
 70
     6
  9
$SURFV
 70
     6
  9
$UCSNAME
  2

  9
$UCSORG
 10
0.0
 20
0.0
 30
0.0
  9
$UCSXDIR
 10
1.0
 20
0.0
 30
0.0
  9
$UCSYDIR
 10
0.0
 20
1.0
 30
0.0
  9
$PUCSNAME
  2

  9
$PUCSORG
 10
0.0
 20
0.0
 30
0.0
  9
$PUCSXDIR
 10
1.0
 20
0.0
 30
0.0
  9
$PUCSYDIR
 10
0.0
 20
1.0
 30
0.0
  9
$USERI1
 70
     0
  9
$USERI2
 70
     0
  9
$USERI3
 70
     0
  9
$USERI4
 70
     0
  9
$USERI5
 70
     0
  9
$USERR1
 40
0.0
  9
$USERR2
 40
0.0
  9
$USERR3
 40
0.0
  9
$USERR4
 40
0.0
  9
$USERR5
 40
0.0
  9
$WORLDVIEW
 70
     1
  9
$SHADEDGE
 70
     3
  9
$SHADEDIF
 70
    70
  9
$TILEMODE
 70
     1
  9
$MAXACTVP
 70
    15
  9
$PINSBASE
 10
4.403525741743744E+99
 20
7.061986388769092E+99
 30
0.0
  9
$PLIMCHECK
 70
     0
  9
$PEXTMIN
 10
1.000000000000000E+20
 20
1.000000000000000E+20
 30
1.000000000000000E+20
  9
$PEXTMAX
 10
-1.000000000000000E+20
 20
-1.000000000000000E+20
 30
-1.000000000000000E+20
  9
$PLIMMIN
 10
0.0
 20
0.0
  9
$PLIMMAX
 10
12.0
 20
9.0
  9
$UNITMODE
 70
     0
  9
$VISRETAIN
 70
     0
  9
$PLINEGEN
 70
     0
  9
$PSLTSCALE
 70
     1
  9
$TREEDEPTH
 70
  3020
  9
$PICKSTYLE
 70
     1
  9
$CMLSTYLE
  2
STANDARD
  9
$CMLJUST
 70
     0
  9
$CMLSCALE
 40
1.0
  9
$PROXYGRAPHICS
 70
     1
  9
$MEASUREMENT
 70
     0
  0
ENDSEC
  0
SECTION
  2
CLASSES
  0
CLASS
  1
ACDBDICTIONARYWDFLT
  2
AcDbDictionaryWithDefault
  3
AutoCAD 2000
 90
        0
280
     0
281
     0
  0
CLASS
  1
ACDBPLACEHOLDER
  2
AcDbPlaceHolder
  3
AutoCAD 2000
 90
        0
280
     0
281
     0
  0
CLASS
  1
LAYOUT
  2
AcDbLayout
  3
AutoCAD 2000
 90
        0
280
     0
281
     0
  0
CLASS
  1
DICTIONARYVAR
  2
AcDbDictionaryVar
  3
AutoCAD 2000
 90
        0
280
     0
281
     0
  0
CLASS
  1
LONG_TRANSACTION
  2
AcDbLongTransaction
  3
AutoCAD 2000
 90
        0
280
     0
281
     0
  0
CLASS
  1
LWPOLYLINE
  2
AcDbPolyline
  3
AutoCAD 2000
 90
        0
280
     0
281
     1
  0
CLASS
  1
HATCH
  2
AcDbHatch
  3
AutoCAD 2000
 90
        0
280
     0
281
     1
  0
CLASS
  1
XRECORD
  2
AcDbXrecord
  3
AutoCAD 2000
 90
        0
280
     0
281
     0
  0
CLASS
  1
LONG_TRANSACTION
  2
AcDbLongTransaction
  3
AutoCAD 2000
 90
        0
280
     0
281
     0
  0
CLASS
  1
LWPOLYLINE
  2
AcDbPolyline
  3
AutoCAD 2000
 90
        0
280
     0
281
     1
  0
CLASS
  1
HATCH
  2
AcDbHatch
  3
AutoCAD 2000
 90
        0
280
     0
281
     1
  0
CLASS
  1
XRECORD
  2
AcDbXrecord
  3
AutoCAD 2000
 90
        0
280
     0
281
     0
  0
CLASS
  1
LONG_TRANSACTION
  2
AcDbLongTransaction
  3
AutoCAD 2000
 90
        0
280
     0
281
     0
  0
CLASS
  1
LWPOLYLINE
  2
AcDbPolyline
  3
AutoCAD 2000
 90
        0
280
     0
281
     1
  0
CLASS
  1
HATCH
  2
AcDbHatch
  3
AutoCAD 2000
 90
        0
280
     0
281
     1
  0
CLASS
  1
XRECORD
  2
AcDbXrecord
  3
AutoCAD 2000
 90
        0
280
     0
281
     0
  0
CLASS
  1
LONG_TRANSACTION
  2
AcDbLongTransaction
  3
AutoCAD 2000
 90
        0
280
     0
281
     0
  0
CLASS
  1
LWPOLYLINE
  2
AcDbPolyline
  3
AutoCAD 2000
 90
        0
280
     0
281
     1
  0
CLASS
  1
HATCH
  2
AcDbHatch
  3
AutoCAD 2000
 90
        0
280
     0
281
     1
  0
CLASS
  1
XRECORD
  2
AcDbXrecord
  3
AutoCAD 2000
 90
        0
280
     0
281
     0
  0
CLASS
  1
LONG_TRANSACTION
  2
AcDbLongTransaction
  3
AutoCAD 2000
 90
        0
280
     0
281
     0
  0
CLASS
  1
LWPOLYLINE
  2
AcDbPolyline
  3
AutoCAD 2000
 90
        0
280
     0
281
     1
  0
CLASS
  1
HATCH
  2
AcDbHatch
  3
AutoCAD 2000
 90
        0
280
     0
281
     1
  0
CLASS
  1
XRECORD
  2
AcDbXrecord
  3
AutoCAD 2000
 90
        0
280
     0
281
     0
  0
CLASS
  1
LONG_TRANSACTION
  2
AcDbLongTransaction
  3
AutoCAD 2000
 90
        0
280
     0
281
     0
  0
CLASS
  1
LWPOLYLINE
  2
AcDbPolyline
  3
AutoCAD 2000
 90
        0
280
     0
281
     1
  0
CLASS
  1
HATCH
  2
AcDbHatch
  3
AutoCAD 2000
 90
        0
280
     0
281
     1
  0
CLASS
  1
XRECORD
  2
AcDbXrecord
  3
AutoCAD 2000
 90
        0
280
     0
281
     0
  0
CLASS
  1
LONG_TRANSACTION
  2
AcDbLongTransaction
  3
AutoCAD 2000
 90
        0
280
     0
281
     0
  0
CLASS
  1
LWPOLYLINE
  2
AcDbPolyline
  3
AutoCAD 2000
 90
        0
280
     0
281
     1
  0
CLASS
  1
HATCH
  2
AcDbHatch
  3
AutoCAD 2000
 90
        0
280
     0
281
     1
  0
CLASS
  1
XRECORD
  2
AcDbXrecord
  3
AutoCAD 2000
 90
        0
280
     0
281
     0
  0
ENDSEC
  0
SECTION
  2
TABLES
  0
TABLE
  2
VPORT
  5
8
330
0
100
AcDbSymbolTable
 70
     2
  0
VPORT
  5
34F
330
8
100
AcDbSymbolTableRecord
100
AcDbViewportTableRecord
  2
*ACTIVE
 70
     0
 10
0.0
 20
0.0
 11
1.0
 21
1.0
 12
28.66635141459568
 22
9.544647290772584
 13
0.0
 23
0.0
 14
0.5740882589684922
 24
0.5740882589684922
 15
0.5
 25
0.5
 16
0.0
 26
0.0
 36
1.0
 17
0.0
 27
0.0
 37
0.0
 40
8.236137295938565
 41
1.570528967254408
 42
50.0
 43
0.0
 44
0.0
 50
0.0
 51
0.0
 71
     0
 72
   100
 73
     1
 74
     0
 75
     0
 76
     0
 77
     0
 78
     0
  0
ENDTAB
  0
TABLE
  2
LTYPE
  5
5
330
0
100
AcDbSymbolTable
 70
     2
  0
LTYPE
  5
12
330
5
100
AcDbSymbolTableRecord
100
AcDbLinetypeTableRecord
  2
BYBLOCK
 70
     0
  3

 72
    65
 73
     0
 40
0.0
  0
LTYPE
  5
13
330
5
100
AcDbSymbolTableRecord
100
AcDbLinetypeTableRecord
  2
BYLAYER
 70
     0
  3

 72
    65
 73
     0
 40
0.0
  0
LTYPE
  5
14
330
5
100
AcDbSymbolTableRecord
100
AcDbLinetypeTableRecord
  2
CONTINUOUS
 70
     0
  3
Solid line
 72
    65
 73
     0
 40
0.0
  0
LTYPE
  5
124
330
5
100
AcDbSymbolTableRecord
100
AcDbLinetypeTableRecord
  2
HIDDEN2
 70
     0
  3
_ _ _ _ _ _ _ _ _ _ _ _ _ _ _ _ _ _ _ _ _ _ _ _
 72
    65
 73
     2
 40
0.1875
 49
0.125
 74
     0
 49
-0.0625
 74
     0
  0
ENDTAB
  0
TABLE
  2
LAYER
  5
2
330
0
100
AcDbSymbolTable
 70
     5
  0
LAYER
  5
F
330
2
100
AcDbSymbolTableRecord
100
AcDbLayerTableRecord
  2
0
 70
     0
 62
     7
  6
CONTINUOUS
  0
LAYER
  5
128
330
2
100
AcDbSymbolTableRecord
100
AcDbLayerTableRecord
  2
ADP1DETAIL
 70
     0
 62
     7
  6
CONTINUOUS
  0
LAYER
  5
12A
330
2
100
AcDbSymbolTableRecord
100
AcDbLayerTableRecord
  2
DEFPOINTS
 70
     0
 62
     7
  6
CONTINUOUS
  0
LAYER
  5
12B
330
2
100
AcDbSymbolTableRecord
100
AcDbLayerTableRecord
  2
ADP2DETAIL
 70
     0
 62
     5
  6
CONTINUOUS
  0
LAYER
  5
12C
330
2
100
AcDbSymbolTableRecord
100
AcDbLayerTableRecord
  2
ADPDIM
 70
     0
 62
     3
  6
CONTINUOUS
  0
ENDTAB
  0
TABLE
  2
STYLE
  5
3
330
0
100
AcDbSymbolTable
 70
     2
  0
STYLE
  5
10
330
3
100
AcDbSymbolTableRecord
100
AcDbTextStyleTableRecord
  2
STANDARD
 70
     0
 40
0.0
 41
1.0
 50
0.0
 71
     0
 42
0.2
  3
txt
  4

  0
STYLE
  5
1AD
330
3
100
AcDbSymbolTableRecord
100
AcDbTextStyleTableRecord
  2
ARIAL_WIDE
 70
     0
 40
0.0
 41
1.25
 50
0.0
 71
     0
 42
0.2
  3
ARIAL.TTF
  4

1001
ACAD
1000
Arial
1071
       34
  0
ENDTAB
  0
TABLE
  2
VIEW
  5
6
330
0
100
AcDbSymbolTable
 70
     0
  0
ENDTAB
  0
TABLE
  2
UCS
  5
7
330
0
100
AcDbSymbolTable
 70
     0
  0
ENDTAB
  0
TABLE
  2
APPID
  5
9
330
0
100
AcDbSymbolTable
 70
     1
  0
APPID
  5
11
330
9
100
AcDbSymbolTableRecord
100
AcDbRegAppTableRecord
  2
ACAD
 70
     0
  0
ENDTAB
  0
TABLE
  2
DIMSTYLE
  5
A
330
0
100
AcDbSymbolTable
 70
     1
  0
DIMSTYLE
105
1A1
330
A
100
AcDbSymbolTableRecord
100
AcDbDimStyleTableRecord
  2
STANDARD
 70
     0
  3

  4

  5

  6

  7

 40
1.0
 41
0.18
 42
0.0625
 43
0.38
 44
0.18
 45
0.0
 46
0.0
 47
0.0
 48
0.0
140
0.18
141
0.09
142
0.0
143
25.4
144
1.0
145
0.0
146
1.0
147
0.09
 71
     0
 72
     0
 73
     1
 74
     1
 75
     0
 76
     0
 77
     0
 78
     0
170
     0
171
     2
172
     0
173
     0
174
     0
175
     0
176
     0
177
     0
178
     0
270
     2
271
     4
272
     4
273
     2
274
     2
340
10
275
     0
280
     0
281
     0
282
     0
283
     1
284
     0
285
     0
286
     0
287
     3
288
     0
  0
ENDTAB
  0
TABLE
  2
BLOCK_RECORD
  5
1
330
0
100
AcDbSymbolTable
 70
     5
  0
BLOCK_RECORD
  5
18
102
{ACAD_XDICTIONARY
360
202
102
}
330
1
100
AcDbSymbolTableRecord
100
AcDbBlockTableRecord
  2
*MODEL_SPACE
  0
BLOCK_RECORD
  5
15
102
{ACAD_XDICTIONARY
360
200
102
}
330
1
100
AcDbSymbolTableRecord
100
AcDbBlockTableRecord
  2
*PAPER_SPACE
  0
BLOCK_RECORD
  5
11E
330
1
100
AcDbSymbolTableRecord
100
AcDbBlockTableRecord
  2
*D0
  0
BLOCK_RECORD
  5
11F
330
1
100
AcDbSymbolTableRecord
100
AcDbBlockTableRecord
  2
*D1
  0
BLOCK_RECORD
  5
120
330
1
100
AcDbSymbolTableRecord
100
AcDbBlockTableRecord
  2
*D2
  0
BLOCK_RECORD
  5
121
330
1
100
AcDbSymbolTableRecord
100
AcDbBlockTableRecord
  2
*D3
  0
BLOCK_RECORD
  5
122
330
1
100
AcDbSymbolTableRecord
100
AcDbBlockTableRecord
  2
*D4
  0
ENDTAB
  0
ENDSEC
  0
SECTION
  2
BLOCKS
  0
BLOCK
  5
12F
330
18
100
AcDbEntity
  8
0
100
AcDbBlockBegin
  2
*MODEL_SPACE
 70
     0
 10
0.0
 20
0.0
 30
0.0
  3
*MODEL_SPACE
  1

  0
ENDBLK
  5
130
330
18
100
AcDbEntity
  8
0
100
AcDbBlockEnd
  0
BLOCK
  5
12D
330
15
100
AcDbEntity
 67
     1
  8
0
100
AcDbBlockBegin
  2
*PAPER_SPACE
 70
     0
 10
0.0
 20
0.0
 30
0.0
  3
*PAPER_SPACE
  1

  0
ENDBLK
  5
12E
330
15
100
AcDbEntity
 67
     1
  8
0
100
AcDbBlockEnd
  0
BLOCK
  5
132
330
11E
100
AcDbEntity
  8
0
100
AcDbBlockBegin
  2
*D0
 70
     1
 10
0.0
 20
0.0
 30
0.0
  3
*D0
  1

  0
LINE
  5
133
330
11E
100
AcDbEntity
  8
0
  6
BYBLOCK
 62
     0
100
AcDbLine
 10
30.05567183810712
 20
8.90065552911375
 30
0.0
 11
29.84762974380062
 21
8.762024771355727
 31
0.0
  0
LINE
  5
134
330
11E
100
AcDbEntity
  8
0
  6
BYBLOCK
 62
     0
100
AcDbLine
 10
30.02096616983288
 20
8.727319103081487
 30
0.0
 11
30.09037750638136
 21
9.073991955146013
 31
0.0
  0
LINE
  5
135
330
11E
100
AcDbEntity
  8
0
  6
BYBLOCK
 62
     0
100
AcDbLine
 10
31.16843492752278
 20
9.767097765101393
 30
0.0
 11
31.54343492752278
 21
9.767097765101393
 31
0.0
  0
LINE
  5
136
330
11E
100
AcDbEntity
  8
0
  6
BYBLOCK
 62
     0
100
AcDbLine
 10
31.35593492752278
 20
9.579597765101393
 30
0.0
 11
31.35593492752278
 21
9.954597765101393
 31
0.0
  0
TEXT
  5
137
330
11E
100
AcDbEntity
  8
0
  6
BYBLOCK
 62
     0
100
AcDbText
 10
29.22348746793619
 20
8.271016848212029
 30
0.0
 40
0.125
  1
%%c3 1/8
 50
33.67786862690651
 72
     1
 11
29.46621923757203
 21
8.507868382132686
 31
0.0
100
AcDbText
 73
     2
  0
POINT
  5
138
330
11E
100
AcDbEntity
  8
DEFPOINTS
  6
BYBLOCK
 62
     0
100
AcDbPoint
 10
30.05567183810712
 20
8.90065552911375
 30
0.0
  0
POINT
  5
139
330
11E
100
AcDbEntity
  8
DEFPOINTS
  6
BYBLOCK
 62
     0
100
AcDbPoint
 10
32.65619801693843
 20
10.63354000108903
 30
0.0
  0
ENDBLK
  5
13A
330
11E
100
AcDbEntity
  8
0
100
AcDbBlockEnd
  0
BLOCK
  5
13B
330
11F
100
AcDbEntity
  8
0
100
AcDbBlockBegin
  2
*D1
 70
     1
 10
0.0
 20
0.0
 30
0.0
  3
*D1
  1

  0
LINE
  5
13C
330
11F
100
AcDbEntity
  8
0
  6
BYBLOCK
 62
     0
100
AcDbLine
 10
31.31792651696674
 20
9.771502940407996
 30
0.0
 11
29.31474578514512
 21
9.771502940407996
 31
0.0
  0
LINE
  5
13D
330
11F
100
AcDbEntity
  8
0
  6
BYBLOCK
 62
     0
100
AcDbLine
 10
30.2791083447391
 20
11.31767745685169
 30
0.0
 11
29.31474578514512
 21
11.31767745685169
 31
0.0
  0
LINE
  5
13E
330
11F
100
AcDbEntity
  8
0
  6
BYBLOCK
 62
     0
100
AcDbLine
 10
29.49474578514512
 20
9.771502940407996
 30
0.0
 11
29.49474578514512
 21
10.10709019862984
 31
0.0
  0
LINE
  5
13F
330
11F
100
AcDbEntity
  8
0
  6
BYBLOCK
 62
     0
100
AcDbLine
 10
29.49474578514512
 20
11.31767745685169
 30
0.0
 11
29.49474578514512
 21
10.98209019862984
 31
0.0
  0
LINE
  5
140
330
11F
100
AcDbEntity
  8
0
  6
BYBLOCK
 62
     0
100
AcDbLine
 10
29.61974578514512
 20
9.646502940407996
 30
0.0
 11
29.36974578514512
 21
9.896502940407996
 31
0.0
  0
LINE
  5
141
330
11F
100
AcDbEntity
  8
0
  6
BYBLOCK
 62
     0
100
AcDbLine
 10
29.61974578514512
 20
11.19267745685169
 30
0.0
 11
29.36974578514512
 21
11.44267745685169
 31
0.0
  0
TEXT
  5
142
330
11F
100
AcDbEntity
  8
0
  6
BYBLOCK
 62
     0
100
AcDbText
 10
29.55724578514512
 20
10.23209019862984
 30
0.0
 40
0.125
  1
1 9/16
 50
90.0
 72
     1
 11
29.49474578514512
 21
10.54459019862984
 31
0.0
100
AcDbText
 73
     2
  0
POINT
  5
143
330
11F
100
AcDbEntity
  8
DEFPOINTS
  6
BYBLOCK
 62
     0
100
AcDbPoint
 10
31.38042651696674
 20
9.771502940407996
 30
0.0
  0
POINT
  5
144
330
11F
100
AcDbEntity
  8
DEFPOINTS
  6
BYBLOCK
 62
     0
100
AcDbPoint
 10
30.3416083447391
 20
11.31767745685169
 30
0.0
  0
POINT
  5
145
330
11F
100
AcDbEntity
  8
DEFPOINTS
  6
BYBLOCK
 62
     0
100
AcDbPoint
 10
29.49474578514512
 20
11.31767745685169
 30
0.0
  0
ENDBLK
  5
146
330
11F
100
AcDbEntity
  8
0
100
AcDbBlockEnd
  0
BLOCK
  5
147
330
120
100
AcDbEntity
  8
0
100
AcDbBlockBegin
  2
*D2
 70
     1
 10
0.0
 20
0.0
 30
0.0
  3
*D2
  1

  0
LINE
  5
148
330
120
100
AcDbEntity
  8
0
  6
BYBLOCK
 62
     0
100
AcDbLine
 10
24.90974495395203
 20
11.3876343600338
 30
0.0
 11
24.90974495395203
 21
11.90397143833177
 31
0.0
  0
LINE
  5
149
330
120
100
AcDbEntity
  8
0
  6
BYBLOCK
 62
     0
100
AcDbLine
 10
27.40974495395203
 20
11.3876343600338
 30
0.0
 11
27.40974495395203
 21
11.90397143833177
 31
0.0
  0
LINE
  5
14A
330
120
100
AcDbEntity
  8
0
  6
BYBLOCK
 62
     0
100
AcDbLine
 10
24.90974495395203
 20
11.72397143833177
 30
0.0
 11
25.7639116206187
 21
11.72397143833177
 31
0.0
  0
LINE
  5
14B
330
120
100
AcDbEntity
  8
0
  6
BYBLOCK
 62
     0
100
AcDbLine
 10
27.40974495395203
 20
11.72397143833177
 30
0.0
 11
26.55557828728536
 21
11.72397143833177
 31
0.0
  0
LINE
  5
14C
330
120
100
AcDbEntity
  8
0
  6
BYBLOCK
 62
     0
100
AcDbLine
 10
24.78474495395203
 20
11.59897143833177
 30
0.0
 11
25.03474495395203
 21
11.84897143833177
 31
0.0
  0
LINE
  5
14D
330
120
100
AcDbEntity
  8
0
  6
BYBLOCK
 62
     0
100
AcDbLine
 10
27.28474495395203
 20
11.59897143833177
 30
0.0
 11
27.53474495395203
 21
11.84897143833177
 31
0.0
  0
TEXT
  5
14E
330
120
100
AcDbEntity
  8
0
  6
BYBLOCK
 62
     0
100
AcDbText
 10
25.8889116206187
 20
11.66147143833176
 30
0.0
 40
0.125
  1
2 1/2
 72
     1
 11
26.15974495395203
 21
11.72397143833177
 31
0.0
100
AcDbText
 73
     2
  0
POINT
  5
14F
330
120
100
AcDbEntity
  8
DEFPOINTS
  6
BYBLOCK
 62
     0
100
AcDbPoint
 10
24.90974495395203
 20
11.3251343600338
 30
0.0
  0
POINT
  5
150
330
120
100
AcDbEntity
  8
DEFPOINTS
  6
BYBLOCK
 62
     0
100
AcDbPoint
 10
27.40974495395203
 20
11.3251343600338
 30
0.0
  0
POINT
  5
151
330
120
100
AcDbEntity
  8
DEFPOINTS
  6
BYBLOCK
 62
     0
100
AcDbPoint
 10
27.40974495395203
 20
11.72397143833177
 30
0.0
  0
ENDBLK
  5
152
330
120
100
AcDbEntity
  8
0
100
AcDbBlockEnd
  0
BLOCK
  5
153
330
121
100
AcDbEntity
  8
0
100
AcDbBlockBegin
  2
*D3
 70
     1
 10
0.0
 20
0.0
 30
0.0
  3
*D3
  1

  0
LINE
  5
154
330
121
100
AcDbEntity
  8
0
  6
BYBLOCK
 62
     0
100
AcDbLine
 10
30.64295650638253
 20
11.24436171198737
 30
0.0
 11
30.64295650638253
 21
11.82496982803255
 31
0.0
  0
LINE
  5
155
330
121
100
AcDbEntity
  8
0
  6
BYBLOCK
 62
     0
100
AcDbLine
 10
32.02541534834249
 20
11.24436171198737
 30
0.0
 11
32.02541534834249
 21
11.82496982803255
 31
0.0
  0
LINE
  5
156
330
121
100
AcDbEntity
  8
0
  6
BYBLOCK
 62
     0
100
AcDbLine
 10
30.64295650638253
 20
11.64496982803255
 30
0.0
 11
30.93835259402918
 21
11.64496982803255
 31
0.0
  0
LINE
  5
157
330
121
100
AcDbEntity
  8
0
  6
BYBLOCK
 62
     0
100
AcDbLine
 10
32.02541534834249
 20
11.64496982803255
 30
0.0
 11
31.73001926069584
 21
11.64496982803255
 31
0.0
  0
LINE
  5
158
330
121
100
AcDbEntity
  8
0
  6
BYBLOCK
 62
     0
100
AcDbLine
 10
30.51795650638252
 20
11.51996982803255
 30
0.0
 11
30.76795650638253
 21
11.76996982803255
 31
0.0
  0
LINE
  5
159
330
121
100
AcDbEntity
  8
0
  6
BYBLOCK
 62
     0
100
AcDbLine
 10
31.90041534834249
 20
11.51996982803255
 30
0.0
 11
32.15041534834249
 21
11.76996982803255
 31
0.0
  0
TEXT
  5
15A
330
121
100
AcDbEntity
  8
0
  6
BYBLOCK
 62
     0
100
AcDbText
 10
31.06335259402918
 20
11.58246982803255
 30
0.0
 40
0.125
  1
1 3/8
 72
     1
 11
31.33418592736251
 21
11.64496982803255
 31
0.0
100
AcDbText
 73
     2
  0
POINT
  5
15B
330
121
100
AcDbEntity
  8
DEFPOINTS
  6
BYBLOCK
 62
     0
100
AcDbPoint
 10
30.64295650638253
 20
11.18186171198737
 30
0.0
  0
POINT
  5
15C
330
121
100
AcDbEntity
  8
DEFPOINTS
  6
BYBLOCK
 62
     0
100
AcDbPoint
 10
32.02541534834249
 20
11.18186171198737
 30
0.0
  0
POINT
  5
15D
330
121
100
AcDbEntity
  8
DEFPOINTS
  6
BYBLOCK
 62
     0
100
AcDbPoint
 10
32.02541534834249
 20
11.64496982803255
 30
0.0
  0
ENDBLK
  5
15E
330
121
100
AcDbEntity
  8
0
100
AcDbBlockEnd
  0
BLOCK
  5
15F
330
122
100
AcDbEntity
  8
0
100
AcDbBlockBegin
  2
*D4
 70
     1
 10
0.0
 20
0.0
 30
0.0
  3
*D4
  1

  0
LINE
  5
160
330
122
100
AcDbEntity
  8
0
  6
BYBLOCK
 62
     0
100
AcDbLine
 10
30.35593492752278
 20
11.48036073336162
 30
0.0
 11
30.35593492752278
 21
12.15226219921341
 31
0.0
  0
LINE
  5
161
330
122
100
AcDbEntity
  8
0
  6
BYBLOCK
 62
     0
100
AcDbLine
 10
32.35593492752278
 20
11.48036073336162
 30
0.0
 11
32.35593492752278
 21
12.15226219921341
 31
0.0
  0
LINE
  5
162
330
122
100
AcDbEntity
  8
0
  6
BYBLOCK
 62
     0
100
AcDbLine
 10
30.35593492752278
 20
11.97226219921341
 30
0.0
 11
31.18926826085611
 21
11.97226219921341
 31
0.0
  0
LINE
  5
163
330
122
100
AcDbEntity
  8
0
  6
BYBLOCK
 62
     0
100
AcDbLine
 10
32.35593492752278
 20
11.97226219921341
 30
0.0
 11
31.52260159418945
 21
11.97226219921341
 31
0.0
  0
LINE
  5
164
330
122
100
AcDbEntity
  8
0
  6
BYBLOCK
 62
     0
100
AcDbLine
 10
30.23093492752278
 20
11.8472621992134
 30
0.0
 11
30.48093492752278
 21
12.0972621992134
 31
0.0
  0
LINE
  5
165
330
122
100
AcDbEntity
  8
0
  6
BYBLOCK
 62
     0
100
AcDbLine
 10
32.23093492752278
 20
11.8472621992134
 30
0.0
 11
32.48093492752278
 21
12.0972621992134
 31
0.0
  0
TEXT
  5
166
330
122
100
AcDbEntity
  8
0
  6
BYBLOCK
 62
     0
100
AcDbText
 10
31.31426826085611
 20
11.9097621992134
 30
0.0
 40
0.125
  1
2
 72
     1
 11
31.35593492752278
 21
11.97226219921341
 31
0.0
100
AcDbText
 73
     2
  0
POINT
  5
167
330
122
100
AcDbEntity
  8
DEFPOINTS
  6
BYBLOCK
 62
     0
100
AcDbPoint
 10
30.35593492752278
 20
11.41786073336163
 30
0.0
  0
POINT
  5
168
330
122
100
AcDbEntity
  8
DEFPOINTS
  6
BYBLOCK
 62
     0
100
AcDbPoint
 10
32.35593492752278
 20
11.41786073336163
 30
0.0
  0
POINT
  5
169
330
122
100
AcDbEntity
  8
DEFPOINTS
  6
BYBLOCK
 62
     0
100
AcDbPoint
 10
32.35593492752278
 20
11.97226219921341
 30
0.0
  0
ENDBLK
  5
16A
330
122
100
AcDbEntity
  8
0
100
AcDbBlockEnd
  0
ENDSEC
  0
SECTION
  2
ENTITIES
  0
ARC
  5
16B
330
18
100
AcDbEntity
  8
ADP1DETAIL
100
AcDbCircle
 10
27.40974495395203
 20
11.5051343600338
 30
0.0
 40
0.43
100
AcDbArc
 50
197.9225350038457
 51
214.036062765995
  0
ARC
  5
16C
330
18
100
AcDbEntity
  8
ADP1DETAIL
100
AcDbCircle
 10
27.03010704985807
 20
11.38234974464919
 30
0.0
 40
0.031
100
AcDbArc
 50
63.83697566057705
 51
197.922535003846
  0
ARC
  5
16D
330
18
100
AcDbEntity
  8
ADP1DETAIL
100
AcDbCircle
 10
27.40974495395203
 20
11.5051343600338
 30
0.0
 40
0.43
100
AcDbArc
 50
197.9225350038457
 51
342.0774649961542
  0
DIMENSION
  5
16E
330
18
100
AcDbEntity
  8
ADPDIM
100
AcDbDimension
  2
*D2
 10
27.40974495395203
 20
11.72397143833177
 30
0.0
 11
26.15974495395203
 21
11.72397143833177
 31
0.0
  1
2 1/2
100
AcDbAlignedDimension
 13
24.90974495395203
 23
11.3251343600338
 33
0.0
 14
27.40974495395203
 24
11.3251343600338
 34
0.0
100
AcDbRotatedDimension
  0
ARC
  5
16F
330
18
100
AcDbEntity
  8
ADP1DETAIL
100
AcDbCircle
 10
26.58647927989541
 20
10.6686343600338
 30
0.0
 40
0.5
100
AcDbArc
 50
270.0
 51
0.0
  0
ARC
  5
170
330
18
100
AcDbEntity
  8
ADP1DETAIL
100
AcDbCircle
 10
26.80547927989541
 20
10.3251343600338
 30
0.0
 40
1.0
100
AcDbArc
 50
270.0
 51
0.0
  0
LINE
  5
171
330
18
100
AcDbEntity
  8
ADP1DETAIL
100
AcDbLine
 10
25.15083668040212
 20
11.20833319637492
 30
0.0
 11
25.15083668040212
 21
8.322179778554302
 31
0.0
  0
LINE
  5
172
330
18
100
AcDbEntity
  8
ADP1DETAIL
100
AcDbLine
 10
24.90974495395203
 20
8.200134360033807
 30
0.0
 11
24.90974495395203
 21
11.3251343600338
 31
0.0
  0
LINE
  5
173
330
18
100
AcDbEntity
  8
ADP1DETAIL
100
AcDbLine
 10
26.80547927989541
 20
9.325134360033807
 30
0.0
 11
25.402866524977
 21
9.26932607117564
 31
0.0
  0
LINE
  5
174
330
18
100
AcDbEntity
  8
ADP1DETAIL
100
AcDbLine
 10
25.03474495395203
 20
8.200134360033807
 30
0.0
 11
24.90974495395203
 21
8.200134360033807
 31
0.0
  0
ARC
  5
175
330
18
100
AcDbEntity
  8
ADP1DETAIL
100
AcDbCircle
 10
25.04052816587053
 20
8.311172451386088
 30
0.0
 40
0.111188593260513
100
AcDbArc
 50
267.0185501044695
 51
7.213651404718345
  0
ARC
  5
176
330
18
100
AcDbEntity
  8
ADP1DETAIL
100
AcDbCircle
 10
25.40974495395203
 20
9.019420714660748
 30
0.0
 40
0.25
100
AcDbArc
 50
91.5766187604145
 51
180.0
  0
LINE
  5
177
330
18
100
AcDbEntity
  8
ADP1DETAIL
100
AcDbLine
 10
25.40057962678839
 20
10.25160054392985
 30
0.0
 11
26.58647927989541
 21
10.1686343600338
 31
0.0
  0
ARC
  5
178
330
18
100
AcDbEntity
  8
ADP1DETAIL
100
AcDbCircle
 10
25.04052816587053
 20
11.21409626868152
 30
0.0
 40
0.1111885932605123
100
AcDbArc
 50
352.7863485952806
 51
92.98144989553074
  0
ARC
  5
179
330
18
100
AcDbEntity
  8
ADP1DETAIL
100
AcDbCircle
 10
25.44618124060276
 20
10.54686269030497
 30
0.0
 40
0.29876285288589
100
AcDbArc
 50
188.6754878693441
 51
261.2203508494926
  0
LINE
  5
17A
330
18
100
AcDbEntity
  8
ADP1DETAIL
100
AcDbLine
 10
24.90974495395203
 20
11.3251343600338
 30
0.0
 11
25.03474495395203
 21
11.3251343600338
 31
0.0
  0
ARC
  5
17B
330
18
100
AcDbEntity
  8
ADP1DETAIL
100
AcDbCircle
 10
31.74088069027687
 20
10.92693040137404
 30
0.0
 40
0.125
100
AcDbArc
 50
90.0
 51
184.3822403591446
  0
LINE
  5
17C
330
18
100
AcDbEntity
  8
ADP1DETAIL
100
AcDbLine
 10
31.61624612971663
 20
10.91737915465146
 30
0.0
 11
31.72655606445291
 21
9.822149315961162
 31
0.0
  0
LINE
  5
17D
330
18
100
AcDbEntity
  8
ADP2DETAIL
  6
HIDDEN2
100
AcDbLine
 10
32.35593492752278
 20
11.32970972736057
 30
0.0
 11
30.35593492752278
 21
11.32970972736057
 31
0.0
  0
DIMENSION
  5
17E
330
18
100
AcDbEntity
  8
ADPDIM
100
AcDbDimension
  2
*D4
 10
32.35593492752278
 20
11.97226219921341
 30
0.0
 11
31.35593492752278
 21
11.97226219921341
 31
0.0
  1
2
100
AcDbAlignedDimension
 13
30.35593492752278
 23
11.41786073336163
 33
0.0
 14
32.35593492752278
 24
11.41786073336163
 34
0.0
100
AcDbRotatedDimension
  0
DIMENSION
  5
17F
330
18
100
AcDbEntity
  8
ADPDIM
100
AcDbDimension
  2
*D3
 10
32.02541534834249
 20
11.64496982803255
 30
0.0
 11
31.33418592736251
 21
11.64496982803255
 31
0.0
  1
1 3/8
100
AcDbAlignedDimension
 13
30.64295650638253
 23
11.18186171198737
 33
0.0
 14
32.02541534834249
 24
11.18186171198737
 34
0.0
100
AcDbRotatedDimension
  0
DIMENSION
  5
180
330
18
100
AcDbEntity
  8
ADPDIM
100
AcDbDimension
  2
*D0
 10
32.65619801693843
 20
10.63354000108903
 30
0.0
 11
29.46621923757203
 21
8.507868382132686
 31
0.0
 70
     3
100
AcDbDiametricDimension
 15
30.05567183810712
 25
8.90065552911375
 35
0.0
 40
0.0
  0
ARC
  5
181
330
18
100
AcDbEntity
  8
ADP1DETAIL
100
AcDbCircle
 10
31.35593492752278
 20
9.765009374933702
 30
0.0
 40
0.375
100
AcDbArc
 50
171.2355192817106
 51
8.764480718289892
  0
ARC
  5
182
330
18
100
AcDbEntity
  8
ADP1DETAIL
100
AcDbCircle
 10
31.35593492752278
 20
9.767097765101393
 30
0.0
 40
1.5625
100
AcDbArc
 50
124.6850163783781
 51
55.31498362162188
  0
LINE
  5
183
330
18
100
AcDbEntity
  8
ADP1DETAIL
100
AcDbLine
 10
30.35593492752278
 20
11.41786073336163
 30
0.0
 11
32.35593492752278
 21
11.41786073336163
 31
0.0
  0
LINE
  5
184
330
18
100
AcDbEntity
  8
ADP1DETAIL
100
AcDbLine
 10
31.74326208670013
 20
11.05193040137405
 30
0.0
 11
30.35593492752278
 21
11.05193040137405
 31
0.0
  0
DIMENSION
  5
185
330
18
100
AcDbEntity
  8
ADPDIM
100
AcDbDimension
  2
*D1
 10
29.49474578514512
 20
11.31767745685169
 30
0.0
 11
29.49474578514512
 21
10.54459019862984
 31
0.0
  1
1 9/16
100
AcDbAlignedDimension
 13
31.38042651696674
 23
9.771502940407996
 33
0.0
 14
30.3416083447391
 24
11.31767745685169
 34
0.0
 50
90.0
100
AcDbRotatedDimension
  0
LINE
  5
186
330
18
100
AcDbEntity
  8
ADP1DETAIL
100
AcDbLine
 10
30.98531379059265
 20
9.822149315961159
 30
0.0
 11
31.09562372532892
 21
10.91737915465146
 31
0.0
  0
ARC
  5
187
330
18
100
AcDbEntity
  8
ADP1DETAIL
100
AcDbCircle
 10
27.40974495395203
 20
11.5051343600338
 30
0.0
 40
0.43
100
AcDbArc
 50
325.0680927988324
 51
342.0774649961542
  0
ARC
  5
188
330
18
100
AcDbEntity
  8
ADP1DETAIL
100
AcDbCircle
 10
27.40974495395203
 20
12.1551343600338
 30
0.0
 40
0.8299999999999998
100
AcDbArc
 50
243.8369756605774
 51
296.1630243394225
  0
LINE
  5
189
330
18
100
AcDbEntity
  8
ADP2DETAIL
  6
HIDDEN2
100
AcDbLine
 10
27.51074023940597
 20
11.25896281843534
 30
0.0
 11
27.62129657692284
 21
11.15152285980285
 31
0.0
  0
LINE
  5
18A
330
18
100
AcDbEntity
  8
ADP2DETAIL
  6
HIDDEN2
100
AcDbLine
 10
27.51245814455783
 20
11.32149103178084
 30
0.0
 11
27.51074023940597
 21
11.25896281843534
 31
0.0
  0
LINE
  5
18B
330
18
100
AcDbEntity
  8
ADP2DETAIL
  6
HIDDEN2
100
AcDbLine
 10
27.2963482390808
 20
11.25896281843534
 30
0.0
 11
27.20024146975282
 21
11.13335263701021
 31
0.0
  0
LINE
  5
18C
330
18
100
AcDbEntity
  8
ADP2DETAIL
  6
HIDDEN2
100
AcDbLine
 10
27.2963482390808
 20
11.3254623271756
 30
0.0
 11
27.2963482390808
 21
11.25896281843534
 31
0.0
  0
ARC
  5
18D
330
18
100
AcDbEntity
  8
ADP1DETAIL
100
AcDbCircle
 10
26.84623885168025
 20
11.12452843167421
 30
0.0
 40
0.25
100
AcDbArc
 50
359.2708010441794
 51
34.03606276599496
  0
LINE
  5
18E
330
18
100
AcDbEntity
  8
ADP1DETAIL
100
AcDbLine
 10
27.08647927989542
 20
10.6686343600338
 30
0.0
 11
27.09621860513342
 21
11.12134678689646
 31
0.0
  0
LINE
  5
18F
330
18
100
AcDbEntity
  8
ADP2DETAIL
  6
HIDDEN2
100
AcDbLine
 10
27.28895541067095
 20
11.25896281843534
 30
0.0
 11
27.51074023940597
 21
11.25896281843534
 31
0.0
  0
ARC
  5
190
330
18
100
AcDbEntity
  8
ADP1DETAIL
100
AcDbCircle
 10
27.96723148157187
 20
11.1157646494471
 30
0.0
 40
0.25
100
AcDbArc
 50
145.0680927988324
 51
184.61576437552
  0
LINE
  5
191
330
18
100
AcDbEntity
  8
ADP1DETAIL
100
AcDbLine
 10
27.7180422878782
 20
11.09564635562537
 30
0.0
 11
27.80547927989541
 21
10.3251343600338
 31
0.0
  0
ARC
  5
192
330
18
100
AcDbEntity
  8
ADP1DETAIL
100
AcDbCircle
 10
27.78938285804599
 20
11.38234974464919
 30
0.0
 40
0.031
100
AcDbArc
 50
342.0774649961539
 51
116.1630243394229
  0
LINE
  5
193
330
18
100
AcDbEntity
  8
ADP2DETAIL
  6
HIDDEN2
100
AcDbLine
 10
30.53206409201502
 20
11.18186171198737
 30
0.0
 11
30.75384892075003
 21
11.18186171198737
 31
0.0
  0
LINE
  5
194
330
18
100
AcDbEntity
  8
ADP2DETAIL
  6
HIDDEN2
100
AcDbLine
 10
30.53945692042487
 20
11.18186171198737
 30
0.0
 11
30.44335015109688
 21
11.05625153056224
 31
0.0
  0
LINE
  5
195
330
18
100
AcDbEntity
  8
ADP1DETAIL
100
AcDbLine
 10
30.35593492752278
 20
11.05193040137405
 30
0.0
 11
30.35593492752278
 21
11.41786073336163
 31
0.0
  0
ARC
  5
196
330
18
100
AcDbEntity
  8
ADP1DETAIL
100
AcDbCircle
 10
30.97098916476868
 20
10.92693040137404
 30
0.0
 40
0.125
100
AcDbArc
 50
355.6177596408554
 51
90.0
  0
LINE
  5
197
330
18
100
AcDbEntity
  8
ADP2DETAIL
  6
HIDDEN2
100
AcDbLine
 10
30.53945692042487
 20
11.29564230875046
 30
0.0
 11
30.53945692042487
 21
11.18186171198737
 31
0.0
  0
LINE
  5
198
330
18
100
AcDbEntity
  8
ADP2DETAIL
  6
HIDDEN2
100
AcDbLine
 10
30.75384892075003
 20
11.18186171198737
 30
0.0
 11
30.87952700371739
 21
11.04886269450684
 31
0.0
  0
LINE
  5
199
330
18
100
AcDbEntity
  8
ADP2DETAIL
  6
HIDDEN2
100
AcDbLine
 10
30.75384892075003
 20
11.30747189341249
 30
0.0
 11
30.75384892075003
 21
11.18186171198737
 31
0.0
  0
LINE
  5
19A
330
18
100
AcDbEntity
  8
ADP1DETAIL
100
AcDbLine
 10
32.35593492752278
 20
11.41786073336163
 30
0.0
 11
32.35593492752278
 21
11.05193040137405
 31
0.0
  0
LINE
  5
19B
330
18
100
AcDbEntity
  8
ADP1DETAIL
100
AcDbLine
 10
32.35593492752278
 20
11.05193040137405
 30
0.0
 11
31.74088069027687
 21
11.05193040137405
 31
0.0
  0
LINE
  5
19C
330
18
100
AcDbEntity
  8
ADP2DETAIL
  6
HIDDEN2
100
AcDbLine
 10
32.13630776270999
 20
11.18186171198737
 30
0.0
 11
32.26198584567736
 21
11.04886269450684
 31
0.0
  0
LINE
  5
19D
330
18
100
AcDbEntity
  8
ADP2DETAIL
  6
HIDDEN2
100
AcDbLine
 10
32.13630776270999
 20
11.30747189341249
 30
0.0
 11
32.13630776270999
 21
11.18186171198737
 31
0.0
  0
LINE
  5
19E
330
18
100
AcDbEntity
  8
ADP2DETAIL
  6
HIDDEN2
100
AcDbLine
 10
31.92191576238482
 20
11.18186171198737
 30
0.0
 11
31.82580899305685
 21
11.05625153056224
 31
0.0
  0
LINE
  5
19F
330
18
100
AcDbEntity
  8
ADP2DETAIL
  6
HIDDEN2
100
AcDbLine
 10
31.92379250411166
 20
11.29564230875046
 30
0.0
 11
31.92191576238482
 21
11.18186171198737
 31
0.0
  0
LINE
  5
1A0
330
18
100
AcDbEntity
  8
ADP2DETAIL
  6
HIDDEN2
100
AcDbLine
 10
31.91452293397498
 20
11.18186171198737
 30
0.0
 11
32.13630776270999
 21
11.18186171198737
 31
0.0
  0
TEXT
  5
1AE
330
18
100
AcDbEntity
  8
ADPDIM
100
AcDbText
 10
22.2308330833697
 20
6.976460436544333
 30
0.0
 40
0.125
  1
J U L I U S  B L U M  &  C O . ,  I N C .      ( 8 0 0 )  5 2 6 - 6 2 9 3        W W W . J U L I U S B L U M . C O M        P A R T  N o .  3 7 6
 41
1.25
  7
ARIAL_WIDE
 72
     1
 11
28.66554062088676
 21
7.101460436544333
 31
0.0
100
AcDbText
 73
     3
  0
ENDSEC
  0
SECTION
  2
OBJECTS
  0
DICTIONARY
  5
C
330
0
100
AcDbDictionary
  3
ACAD_GROUP
350
D
  3
ACAD_LAYOUT
350
1A7
  3
ACAD_MLINESTYLE
350
E
  3
ACAD_PLOTSETTINGS
350
1A8
  3
ACAD_PLOTSTYLENAME
350
1A5
  3
ACDBHEADERROUNDTRIPXREC
350
350
  3
ACDBVARIABLEDICTIONARY
350
208
  0
DICTIONARY
  5
202
330
18
100
AcDbDictionary
280
     1
  3
ACAD_LAYOUTSELFREF
360
371
  0
DICTIONARY
  5
200
330
15
100
AcDbDictionary
280
     1
  3
ACAD_LAYOUTSELFREF
360
370
  0
DICTIONARY
  5
D
102
{ACAD_REACTORS
330
C
102
}
330
C
100
AcDbDictionary
  0
DICTIONARY
  5
1A7
102
{ACAD_REACTORS
330
C
102
}
330
C
100
AcDbDictionary
  0
DICTIONARY
  5
E
102
{ACAD_REACTORS
330
C
102
}
330
C
100
AcDbDictionary
  3
STANDARD
350
1B
  0
DICTIONARY
  5
1A8
102
{ACAD_REACTORS
330
C
102
}
330
C
100
AcDbDictionary
  0
ACDBDICTIONARYWDFLT
  5
1A5
102
{ACAD_REACTORS
330
C
102
}
330
C
100
AcDbDictionary
281
     1
  3
Normal
350
1A6
100
AcDbDictionaryWithDefault
340
1A6
  0
DICTIONARY
  5
350
102
{ACAD_REACTORS
330
C
102
}
330
C
100
AcDbDictionary
  3
CEPSNTYPE
350
35A
  3
FINGERPRINTGUID
350
35B
  3
HYPERLINKBASE
350
353
  3
INSUNITS
350
359
  3
LAYOUTDICT
350
355
  3
LWETCUNION
350
358
  3
PLOTSETDICT
350
356
  3
PLOTSTYLNAMDICT
350
357
  3
PSVPSCALE
350
35D
  3
PUCSBASE
350
360
  3
PUCSORGBACK
350
366
  3
PUCSORGBOTTOM
350
362
  3
PUCSORGFRONT
350
365
  3
PUCSORGLEFT
350
363
  3
PUCSORGRIGHT
350
364
  3
PUCSORGTOP
350
361
  3
PUCSORTHOREF
350
35E
  3
PUCSORTHOVIEW
350
35F
  3
STYLESHEET
350
354
  3
TSTACKALIGN
350
351
  3
TSTACKSIZE
350
352
  3
UCSBASE
350
369
  3
UCSORGBACK
350
36F
  3
UCSORGBOTTOM
350
36B
  3
UCSORGFRONT
350
36E
  3
UCSORGLEFT
350
36C
  3
UCSORGRIGHT
350
36D
  3
UCSORGTOP
350
36A
  3
UCSORTHOREF
350
367
  3
UCSORTHOVIEW
350
368
  3
VERSIONGUID
350
35C
  0
DICTIONARY
  5
208
102
{ACAD_REACTORS
330
C
102
}
330
C
100
AcDbDictionary
  3
DIMASSOC
350
209
  0
XRECORD
  5
371
102
{ACAD_REACTORS
330
202
102
}
330
202
100
AcDbXrecord
340
18
  0
XRECORD
  5
370
102
{ACAD_REACTORS
330
200
102
}
330
200
100
AcDbXrecord
340
15
  0
MLINESTYLE
  5
1B
102
{ACAD_REACTORS
330
E
102
}
330
E
100
AcDbMlineStyle
  2
STANDARD
 70
     0
  3

 62
     0
 51
90.0
 52
90.0
 71
     2
 49
0.5
 62
   256
  6
BYLAYER
 49
-0.5
 62
   256
  6
BYLAYER
  0
ACDBPLACEHOLDER
  5
1A6
102
{ACAD_REACTORS
330
1A5
102
}
330
1A5
100
AcDbPlaceHolder
280
     0
  0
XRECORD
  5
35A
102
{ACAD_REACTORS
330
350
102
}
330
350
100
AcDbXrecord
 90
        0
  0
XRECORD
  5
35B
102
{ACAD_REACTORS
330
350
102
}
330
350
100
AcDbXrecord
  1
{6DC90F6B-B77C-4A06-806C-FBD4A1E4890A}
  0
XRECORD
  5
353
102
{ACAD_REACTORS
330
350
102
}
330
350
100
AcDbXrecord
  1

  0
XRECORD
  5
359
102
{ACAD_REACTORS
330
350
102
}
330
350
100
AcDbXrecord
 90
        0
  0
XRECORD
  5
355
102
{ACAD_REACTORS
330
350
102
}
330
350
100
AcDbXrecord
340
1A7
  0
XRECORD
  5
358
102
{ACAD_REACTORS
330
350
102
}
330
350
100
AcDbXrecord
 90
    14877
  0
XRECORD
  5
356
102
{ACAD_REACTORS
330
350
102
}
330
350
100
AcDbXrecord
340
1A8
  0
XRECORD
  5
357
102
{ACAD_REACTORS
330
350
102
}
330
350
100
AcDbXrecord
340
1A5
  0
XRECORD
  5
35D
102
{ACAD_REACTORS
330
350
102
}
330
350
100
AcDbXrecord
 40
0.0
  0
XRECORD
  5
360
102
{ACAD_REACTORS
330
350
102
}
330
350
100
AcDbXrecord
340
0
  0
XRECORD
  5
366
102
{ACAD_REACTORS
330
350
102
}
330
350
100
AcDbXrecord
 10
0.0
 20
0.0
 30
0.0
  0
XRECORD
  5
362
102
{ACAD_REACTORS
330
350
102
}
330
350
100
AcDbXrecord
 10
0.0
 20
0.0
 30
0.0
  0
XRECORD
  5
365
102
{ACAD_REACTORS
330
350
102
}
330
350
100
AcDbXrecord
 10
0.0
 20
0.0
 30
0.0
  0
XRECORD
  5
363
102
{ACAD_REACTORS
330
350
102
}
330
350
100
AcDbXrecord
 10
0.0
 20
0.0
 30
0.0
  0
XRECORD
  5
364
102
{ACAD_REACTORS
330
350
102
}
330
350
100
AcDbXrecord
 10
0.0
 20
0.0
 30
0.0
  0
XRECORD
  5
361
102
{ACAD_REACTORS
330
350
102
}
330
350
100
AcDbXrecord
 10
0.0
 20
0.0
 30
0.0
  0
XRECORD
  5
35E
102
{ACAD_REACTORS
330
350
102
}
330
350
100
AcDbXrecord
340
0
  0
XRECORD
  5
35F
102
{ACAD_REACTORS
330
350
102
}
330
350
100
AcDbXrecord
 70
     0
  0
XRECORD
  5
354
102
{ACAD_REACTORS
330
350
102
}
330
350
100
AcDbXrecord
  1

  0
XRECORD
  5
351
102
{ACAD_REACTORS
330
350
102
}
330
350
100
AcDbXrecord
 90
        1
  0
XRECORD
  5
352
102
{ACAD_REACTORS
330
350
102
}
330
350
100
AcDbXrecord
 90
       70
  0
XRECORD
  5
369
102
{ACAD_REACTORS
330
350
102
}
330
350
100
AcDbXrecord
340
0
  0
XRECORD
  5
36F
102
{ACAD_REACTORS
330
350
102
}
330
350
100
AcDbXrecord
 10
0.0
 20
0.0
 30
0.0
  0
XRECORD
  5
36B
102
{ACAD_REACTORS
330
350
102
}
330
350
100
AcDbXrecord
 10
0.0
 20
0.0
 30
0.0
  0
XRECORD
  5
36E
102
{ACAD_REACTORS
330
350
102
}
330
350
100
AcDbXrecord
 10
0.0
 20
0.0
 30
0.0
  0
XRECORD
  5
36C
102
{ACAD_REACTORS
330
350
102
}
330
350
100
AcDbXrecord
 10
0.0
 20
0.0
 30
0.0
  0
XRECORD
  5
36D
102
{ACAD_REACTORS
330
350
102
}
330
350
100
AcDbXrecord
 10
0.0
 20
0.0
 30
0.0
  0
XRECORD
  5
36A
102
{ACAD_REACTORS
330
350
102
}
330
350
100
AcDbXrecord
 10
0.0
 20
0.0
 30
0.0
  0
XRECORD
  5
367
102
{ACAD_REACTORS
330
350
102
}
330
350
100
AcDbXrecord
340
0
  0
XRECORD
  5
368
102
{ACAD_REACTORS
330
350
102
}
330
350
100
AcDbXrecord
 70
     0
  0
XRECORD
  5
35C
102
{ACAD_REACTORS
330
350
102
}
330
350
100
AcDbXrecord
  1
{85E85576-315E-493B-B4AD-63AC389B5E47}
  0
DICTIONARYVAR
  5
209
102
{ACAD_REACTORS
330
208
102
}
330
208
100
DictionaryVariables
280
     0
  1
1
  0
ENDSEC
  0
EOF
