  0
SECTION
  2
HEADER
  9
$ACADVER
  1
AC1015
  9
$ACADMAINTVER
 70
    20
  9
$DWGCODEPAGE
  3
ANSI_1252
  9
$INSBASE
 10
20.97514061331112
 20
5.18503407923086
 30
0.0
  9
$EXTMIN
 10
21.55957042141768
 20
4.102295010469731
 30
-0.0000000000112498
  9
$EXTMAX
 10
28.52215583683243
 20
7.538269093653966
 30
0.0000000000002956
  9
$LIMMIN
 10
0.0
 20
0.0
  9
$LIMMAX
 10
36.0
 20
36.0
  9
$ORTHOMODE
 70
     1
  9
$REGENMODE
 70
     1
  9
$FILLMODE
 70
     1
  9
$QTEXTMODE
 70
     0
  9
$MIRRTEXT
 70
     1
  9
$LTSCALE
 40
1.0
  9
$ATTMODE
 70
     1
  9
$TEXTSIZE
 40
0.2
  9
$TRACEWID
 40
0.05
  9
$TEXTSTYLE
  7
STANDARD
  9
$CLAYER
  8
ADPDIM
  9
$CELTYPE
  6
CONTINUOUS
  9
$CECOLOR
 62
   256
  9
$CELTSCALE
 40
1.0
  9
$DISPSILH
 70
     0
  9
$DIMSCALE
 40
1.0
  9
$DIMASZ
 40
0.25
  9
$DIMEXO
 40
0.0625
  9
$DIMDLI
 40
0.38
  9
$DIMRND
 40
0.0
  9
$DIMDLE
 40
0.0
  9
$DIMEXE
 40
0.18
  9
$DIMTP
 40
0.0
  9
$DIMTM
 40
0.0
  9
$DIMTXT
 40
0.125
  9
$DIMCEN
 40
0.1875
  9
$DIMTSZ
 40
0.0
  9
$DIMTOL
 70
     0
  9
$DIMLIM
 70
     0
  9
$DIMTIH
 70
     0
  9
$DIMTOH
 70
     0
  9
$DIMSE1
 70
     0
  9
$DIMSE2
 70
     0
  9
$DIMTAD
 70
     0
  9
$DIMZIN
 70
     3
  9
$DIMBLK
  1

  9
$DIMASO
 70
     1
  9
$DIMSHO
 70
     1
  9
$DIMPOST
  1

  9
$DIMAPOST
  1

  9
$DIMALT
 70
     0
  9
$DIMALTD
 70
     1
  9
$DIMALTF
 40
25.4
  9
$DIMLFAC
 40
1.0
  9
$DIMTOFL
 70
     0
  9
$DIMTVP
 40
0.0
  9
$DIMTIX
 70
     0
  9
$DIMSOXD
 70
     0
  9
$DIMSAH
 70
     1
  9
$DIMBLK1
  1
Oblique
  9
$DIMBLK2
  1
Oblique
  9
$DIMSTYLE
  2
STANDARD
  9
$DIMCLRD
 70
     0
  9
$DIMCLRE
 70
     0
  9
$DIMCLRT
 70
     0
  9
$DIMTFAC
 40
1.0
  9
$DIMGAP
 40
0.125
  9
$DIMJUST
 70
     0
  9
$DIMSD1
 70
     0
  9
$DIMSD2
 70
     0
  9
$DIMTOLJ
 70
     1
  9
$DIMTZIN
 70
     0
  9
$DIMALTZ
 70
     0
  9
$DIMALTTZ
 70
     0
  9
$DIMUPT
 70
     0
  9
$DIMDEC
 70
     4
  9
$DIMTDEC
 70
     4
  9
$DIMALTU
 70
     2
  9
$DIMALTTD
 70
     1
  9
$DIMTXSTY
  7
STANDARD
  9
$DIMAUNIT
 70
     0
  9
$DIMADEC
 70
     0
  9
$DIMALTRND
 40
0.0
  9
$DIMAZIN
 70
     0
  9
$DIMDSEP
 70
    46
  9
$DIMATFIT
 70
     3
  9
$DIMFRAC
 70
     2
  9
$DIMLDRBLK
  1

  9
$DIMLUNIT
 70
     5
  9
$DIMLWD
 70
    -2
  9
$DIMLWE
 70
    -2
  9
$DIMTMOVE
 70
     0
  9
$LUNITS
 70
     5
  9
$LUPREC
 70
     4
  9
$SKETCHINC
 40
0.1
  9
$FILLETRAD
 40
0.0
  9
$AUNITS
 70
     0
  9
$AUPREC
 70
     0
  9
$MENU
  1
acad
  9
$ELEVATION
 40
0.0
  9
$PELEVATION
 40
0.0
  9
$THICKNESS
 40
0.0
  9
$LIMCHECK
 70
     0
  9
$CHAMFERA
 40
0.0
  9
$CHAMFERB
 40
0.0
  9
$CHAMFERC
 40
0.0
  9
$CHAMFERD
 40
0.0
  9
$SKPOLY
 70
     0
  9
$TDCREATE
 40
2450382.686217396
  9
$TDUCREATE
 40
2450382.852884063
  9
$TDUPDATE
 40
2456037.300087628
  9
$TDUUPDATE
 40
2456037.466754294
  9
$TDINDWG
 40
0.1230210995
  9
$TDUSRTIMER
 40
0.1230210995
  9
$USRTIMER
 70
     1
  9
$ANGBASE
 50
0.0
  9
$ANGDIR
 70
     0
  9
$PDMODE
 70
     0
  9
$PDSIZE
 40
0.0
  9
$PLINEWID
 40
0.0
  9
$SPLFRAME
 70
     0
  9
$SPLINETYPE
 70
     6
  9
$SPLINESEGS
 70
     8
  9
$HANDSEED
  5
87E
  9
$SURFTAB1
 70
     6
  9
$SURFTAB2
 70
     6
  9
$SURFTYPE
 70
     6
  9
$SURFU
 70
     6
  9
$SURFV
 70
     6
  9
$UCSBASE
  2

  9
$UCSNAME
  2

  9
$UCSORG
 10
0.0
 20
0.0
 30
0.0
  9
$UCSXDIR
 10
1.0
 20
0.0
 30
0.0
  9
$UCSYDIR
 10
0.0
 20
1.0
 30
0.0
  9
$UCSORTHOREF
  2

  9
$UCSORTHOVIEW
 70
     0
  9
$UCSORGTOP
 10
0.0
 20
0.0
 30
0.0
  9
$UCSORGBOTTOM
 10
0.0
 20
0.0
 30
0.0
  9
$UCSORGLEFT
 10
0.0
 20
0.0
 30
0.0
  9
$UCSORGRIGHT
 10
0.0
 20
0.0
 30
0.0
  9
$UCSORGFRONT
 10
0.0
 20
0.0
 30
0.0
  9
$UCSORGBACK
 10
0.0
 20
0.0
 30
0.0
  9
$PUCSBASE
  2

  9
$PUCSNAME
  2

  9
$PUCSORG
 10
0.0
 20
0.0
 30
0.0
  9
$PUCSXDIR
 10
1.0
 20
0.0
 30
0.0
  9
$PUCSYDIR
 10
0.0
 20
1.0
 30
0.0
  9
$PUCSORTHOREF
  2

  9
$PUCSORTHOVIEW
 70
     0
  9
$PUCSORGTOP
 10
0.0
 20
0.0
 30
0.0
  9
$PUCSORGBOTTOM
 10
0.0
 20
0.0
 30
0.0
  9
$PUCSORGLEFT
 10
0.0
 20
0.0
 30
0.0
  9
$PUCSORGRIGHT
 10
0.0
 20
0.0
 30
0.0
  9
$PUCSORGFRONT
 10
0.0
 20
0.0
 30
0.0
  9
$PUCSORGBACK
 10
0.0
 20
0.0
 30
0.0
  9
$USERI1
 70
     0
  9
$USERI2
 70
     0
  9
$USERI3
 70
     0
  9
$USERI4
 70
     0
  9
$USERI5
 70
     0
  9
$USERR1
 40
0.0
  9
$USERR2
 40
0.0
  9
$USERR3
 40
0.0
  9
$USERR4
 40
0.0
  9
$USERR5
 40
0.0
  9
$WORLDVIEW
 70
     1
  9
$SHADEDGE
 70
     3
  9
$SHADEDIF
 70
    70
  9
$TILEMODE
 70
     1
  9
$MAXACTVP
 70
    15
  9
$PINSBASE
 10
0.0
 20
0.0
 30
0.0
  9
$PLIMCHECK
 70
     0
  9
$PEXTMIN
 10
1.000000000000000E+20
 20
1.000000000000000E+20
 30
1.000000000000000E+20
  9
$PEXTMAX
 10
-1.000000000000000E+20
 20
-1.000000000000000E+20
 30
-1.000000000000000E+20
  9
$PLIMMIN
 10
0.0
 20
0.0
  9
$PLIMMAX
 10
12.0
 20
9.0
  9
$UNITMODE
 70
     0
  9
$VISRETAIN
 70
     0
  9
$PLINEGEN
 70
     0
  9
$PSLTSCALE
 70
     1
  9
$TREEDEPTH
 70
  3020
  9
$CMLSTYLE
  2
STANDARD
  9
$CMLJUST
 70
     0
  9
$CMLSCALE
 40
1.0
  9
$PROXYGRAPHICS
 70
     1
  9
$MEASUREMENT
 70
     0
  9
$CELWEIGHT
370
    -1
  9
$ENDCAPS
280
     0
  9
$JOINSTYLE
280
     0
  9
$LWDISPLAY
290
     0
  9
$INSUNITS
 70
     0
  9
$HYPERLINKBASE
  1

  9
$STYLESHEET
  1
monochrome.ctb
  9
$XEDIT
290
     1
  9
$CEPSNTYPE
380
     0
  9
$PSTYLEMODE
290
     1
  9
$FINGERPRINTGUID
  2
{38A508F5-02C0-4BB5-9AF6-CCEFFDF6C003}
  9
$VERSIONGUID
  2
{757B7292-8BD3-4BBD-BAD7-2D0F69C66E80}
  9
$EXTNAMES
290
     1
  9
$PSVPSCALE
 40
0.0
  9
$OLESTARTUP
290
     0
  0
ENDSEC
  0
SECTION
  2
CLASSES
  0
CLASS
  1
ACDBDICTIONARYWDFLT
  2
AcDbDictionaryWithDefault
  3
ObjectDBX Classes
 90
        0
280
     0
281
     0
  0
CLASS
  1
ACDBPLACEHOLDER
  2
AcDbPlaceHolder
  3
ObjectDBX Classes
 90
        0
280
     0
281
     0
  0
CLASS
  1
LAYOUT
  2
AcDbLayout
  3
ObjectDBX Classes
 90
        0
280
     0
281
     0
  0
CLASS
  1
DICTIONARYVAR
  2
AcDbDictionaryVar
  3
ObjectDBX Classes
 90
        0
280
     0
281
     0
  0
CLASS
  1
TABLESTYLE
  2
AcDbTableStyle
  3
ObjectDBX Classes
 90
     2047
280
     0
281
     0
  0
CLASS
  1
SORTENTSTABLE
  2
AcDbSortentsTable
  3
ObjectDBX Classes
 90
        0
280
     0
281
     0
  0
ENDSEC
  0
SECTION
  2
TABLES
  0
TABLE
  2
VPORT
  5
13
330
0
100
AcDbSymbolTable
 70
     5
  0
VPORT
  5
878
330
13
100
AcDbSymbolTableRecord
100
AcDbViewportTableRecord
  2
*Active
 70
     0
 10
0.0
 20
0.0
 11
1.0
 21
1.0
 12
25.04086312912505
 22
5.820282052061848
 13
0.0
 23
0.0
 14
0.5740882589684922
 24
0.5740882589684922
 15
0.5
 25
0.5
 16
0.0
 26
0.0
 36
1.0
 17
0.0
 27
0.0
 37
0.0
 40
3.892614780464866
 41
1.796747967479674
 42
50.0
 43
0.0
 44
0.0
 50
0.0
 51
0.0
 71
     0
 72
   100
 73
     1
 74
     0
 75
     0
 76
     0
 77
     0
 78
     0
281
     0
 65
     1
110
0.0
120
0.0
130
0.0
111
1.0
121
0.0
131
0.0
112
0.0
122
1.0
132
0.0
 79
     0
146
0.0
  0
ENDTAB
  0
TABLE
  2
LTYPE
  5
F
330
0
100
AcDbSymbolTable
 70
     3
  0
LTYPE
  5
10
330
F
100
AcDbSymbolTableRecord
100
AcDbLinetypeTableRecord
  2
BYBLOCK
 70
     0
  3

 72
    65
 73
     0
 40
0.0
  0
LTYPE
  5
6
330
F
100
AcDbSymbolTableRecord
100
AcDbLinetypeTableRecord
  2
BYLAYER
 70
     0
  3

 72
    65
 73
     0
 40
0.0
  0
LTYPE
  5
5
330
F
100
AcDbSymbolTableRecord
100
AcDbLinetypeTableRecord
  2
CONTINUOUS
 70
     0
  3
Solid line
 72
    65
 73
     0
 40
0.0
  0
LTYPE
  5
23
330
F
100
AcDbSymbolTableRecord
100
AcDbLinetypeTableRecord
  2
HIDDEN2
 70
     0
  3
_ _ _ _ _ _ _ _ _ _ _ _ _ _ _ _ _ _ _ _ _ _ _ _
 72
    65
 73
     2
 40
0.1875
 49
0.125
 74
     0
 49
-0.0625
 74
     0
  0
LTYPE
  5
2BA
330
F
100
AcDbSymbolTableRecord
100
AcDbLinetypeTableRecord
  2
CENTER
 70
     0
  3
Center ____ _ ____ _ ____ _ ____ _ ____ _ ____
 72
    65
 73
     4
 40
2.0
 49
1.25
 74
     0
 49
-0.25
 74
     0
 49
0.25
 74
     0
 49
-0.25
 74
     0
  0
ENDTAB
  0
TABLE
  2
LAYER
  5
B
330
0
100
AcDbSymbolTable
 70
     5
  0
LAYER
  5
C
330
B
100
AcDbSymbolTableRecord
100
AcDbLayerTableRecord
  2
0
 70
     0
 62
     7
  6
CONTINUOUS
370
    -3
390
B5
  0
LAYER
  5
4
330
B
100
AcDbSymbolTableRecord
100
AcDbLayerTableRecord
  2
ADP1DETAIL
 70
     0
 62
     7
  6
CONTINUOUS
370
    -3
390
B5
  0
LAYER
  5
2F
330
B
100
AcDbSymbolTableRecord
100
AcDbLayerTableRecord
  2
DEFPOINTS
 70
     0
 62
     7
  6
CONTINUOUS
290
     0
370
    -3
390
B5
  0
LAYER
  5
27
330
B
100
AcDbSymbolTableRecord
100
AcDbLayerTableRecord
  2
ADPDIM
 70
     0
 62
     3
  6
CONTINUOUS
370
    -3
390
B5
  0
LAYER
  5
22
330
B
100
AcDbSymbolTableRecord
100
AcDbLayerTableRecord
  2
ADP2DETAIL
 70
     0
 62
     5
  6
CONTINUOUS
370
    -3
390
B5
  0
ENDTAB
  0
TABLE
  2
STYLE
  5
D
330
0
100
AcDbSymbolTable
 70
     4
  0
STYLE
  5
E
330
D
100
AcDbSymbolTableRecord
100
AcDbTextStyleTableRecord
  2
STANDARD
 70
     0
 40
0.0
 41
1.0
 50
0.0
 71
     0
 42
0.2
  3
txt
  4

  0
STYLE
  5
BC
330
D
100
AcDbSymbolTableRecord
100
AcDbTextStyleTableRecord
  2
ARIAL_WIDE
 70
     0
 40
0.0
 41
1.25
 50
0.0
 71
     0
 42
0.2
  3
arial.ttf
  4

1001
ACAD
1000
Arial
1071
       34
  0
STYLE
  5
2B9
330
D
100
AcDbSymbolTableRecord
100
AcDbTextStyleTableRecord
  2

 70
     1
 40
0.0
 41
1.0
 50
0.0
 71
     0
 42
0.2
  3
ltypeshp.shx
  4

  0
ENDTAB
  0
TABLE
  2
VIEW
  5
11
330
0
100
AcDbSymbolTable
 70
     0
  0
ENDTAB
  0
TABLE
  2
UCS
  5
12
330
0
100
AcDbSymbolTable
 70
     0
  0
ENDTAB
  0
TABLE
  2
APPID
  5
15
330
0
100
AcDbSymbolTable
 70
    12
  0
APPID
  5
16
330
15
100
AcDbSymbolTableRecord
100
AcDbRegAppTableRecord
  2
ACAD
 70
     0
  0
APPID
  5
28D
330
15
100
AcDbSymbolTableRecord
100
AcDbRegAppTableRecord
  2
ACAD_EXEMPT_FROM_CAD_STANDARDS
 70
     0
  0
APPID
  5
2E6
330
15
100
AcDbSymbolTableRecord
100
AcDbRegAppTableRecord
  2
ACAD_DSTYLE_DIMTEXT_FILL
 70
     0
  0
APPID
  5
2E7
330
15
100
AcDbSymbolTableRecord
100
AcDbRegAppTableRecord
  2
ACAD_DSTYLE_DIMEXT_LENGTH
 70
     0
  0
APPID
  5
2E8
330
15
100
AcDbSymbolTableRecord
100
AcDbRegAppTableRecord
  2
ACAD_DSTYLE_DIMEXT_ENABLED
 70
     0
  0
APPID
  5
2E9
330
15
100
AcDbSymbolTableRecord
100
AcDbRegAppTableRecord
  2
ACAD_DSTYLE_DIM_LINETYPE
 70
     0
  0
APPID
  5
2EA
330
15
100
AcDbSymbolTableRecord
100
AcDbRegAppTableRecord
  2
ACAD_DSTYLE_DIM_EXT1_LINETYPE
 70
     0
  0
APPID
  5
2EB
330
15
100
AcDbSymbolTableRecord
100
AcDbRegAppTableRecord
  2
ACAD_DSTYLE_DIM_EXT2_LINETYPE
 70
     0
  0
APPID
  5
3AB
330
15
100
AcDbSymbolTableRecord
100
AcDbRegAppTableRecord
  2
ACAD_DSTYLE_DIMJOGGED_JOGANGLE_SYMBOL
 70
     0
  0
APPID
  5
40F
330
15
100
AcDbSymbolTableRecord
100
AcDbRegAppTableRecord
  2
ACAD_DSTYLE_DIMARC_LENGTH_SYMBOL
 70
     0
  0
APPID
  5
659
330
15
100
AcDbSymbolTableRecord
100
AcDbRegAppTableRecord
  2
DCO15
 70
     0
  0
APPID
  5
837
330
15
100
AcDbSymbolTableRecord
100
AcDbRegAppTableRecord
  2
ACAD_PSEXT
 70
     0
  0
ENDTAB
  0
TABLE
  2
DIMSTYLE
  5
17
330
0
100
AcDbSymbolTable
 70
     2
100
AcDbDimStyleTable
 71
     1
340
1D
  0
DIMSTYLE
105
1D
102
{ACAD_REACTORS
330
70A
330
70C
330
77A
330
788
330
7B4
330
7C2
102
}
330
17
100
AcDbSymbolTableRecord
100
AcDbDimStyleTableRecord
  2
STANDARD
 70
     0
340
E
  0
ENDTAB
  0
TABLE
  2
BLOCK_RECORD
  5
1
330
0
100
AcDbSymbolTable
 70
     8
  0
BLOCK_RECORD
  5
2
102
{ACAD_XDICTIONARY
360
10F
102
}
330
1
100
AcDbSymbolTableRecord
100
AcDbBlockTableRecord
  2
*MODEL_SPACE
340
B8
  0
BLOCK_RECORD
  5
8
102
{ACAD_XDICTIONARY
360
111
102
}
330
1
100
AcDbSymbolTableRecord
100
AcDbBlockTableRecord
  2
*PAPER_SPACE
340
B9
  0
BLOCK_RECORD
  5
3A7
330
1
100
AcDbSymbolTableRecord
100
AcDbBlockTableRecord
  2
_Oblique
340
0
102
{BLKREFS
331
76A
331
76B
331
7AE
331
7AF
331
7C8
331
7C9
331
7F5
331
7F6
331
7FF
331
800
331
809
331
80A
102
}
  0
BLOCK_RECORD
  5
71A
330
1
100
AcDbSymbolTableRecord
100
AcDbBlockTableRecord
  2
*D1
340
0
  0
BLOCK_RECORD
  5
727
330
1
100
AcDbSymbolTableRecord
100
AcDbBlockTableRecord
  2
*D2
340
0
  0
BLOCK_RECORD
  5
77B
330
1
100
AcDbSymbolTableRecord
100
AcDbBlockTableRecord
  2
*D3
340
0
  0
BLOCK_RECORD
  5
789
330
1
100
AcDbSymbolTableRecord
100
AcDbBlockTableRecord
  2
*D4
340
0
  0
BLOCK_RECORD
  5
7B5
330
1
100
AcDbSymbolTableRecord
100
AcDbBlockTableRecord
  2
*D5
340
0
  0
BLOCK_RECORD
  5
7C3
330
1
100
AcDbSymbolTableRecord
100
AcDbBlockTableRecord
  2
*D6
340
0
  0
ENDTAB
  0
ENDSEC
  0
SECTION
  2
BLOCKS
  0
BLOCK
  5
3
330
2
100
AcDbEntity
  8
0
100
AcDbBlockBegin
  2
*MODEL_SPACE
 70
     0
 10
0.0
 20
0.0
 30
0.0
  3
*MODEL_SPACE
  1

  0
ENDBLK
  5
7
330
2
100
AcDbEntity
  8
0
100
AcDbBlockEnd
  0
BLOCK
  5
9
330
8
100
AcDbEntity
 67
     1
  8
0
100
AcDbBlockBegin
  2
*PAPER_SPACE
 70
     0
 10
0.0
 20
0.0
 30
0.0
  3
*PAPER_SPACE
  1

  0
ENDBLK
  5
A
330
8
100
AcDbEntity
 67
     1
  8
0
100
AcDbBlockEnd
  0
BLOCK
  5
3A9
330
3A7
100
AcDbEntity
  8
0
100
AcDbBlockBegin
  2
_Oblique
 70
     0
 10
0.0
 20
0.0
 30
0.0
  3
_Oblique
  1

  0
LINE
  5
3A8
330
3A7
100
AcDbEntity
  8
0
  6
ByBlock
 62
     0
370
    -2
100
AcDbLine
 10
-0.5
 20
-0.5
 30
0.0
 11
0.5
 21
0.5
 31
0.0
  0
ENDBLK
  5
3AA
330
3A7
100
AcDbEntity
  8
0
100
AcDbBlockEnd
  0
BLOCK
  5
725
330
71A
100
AcDbEntity
  8
0
100
AcDbBlockBegin
  2
*D1
 70
     1
 10
0.0
 20
0.0
 30
0.0
  3
*D1
  1

  0
LINE
  5
766
330
71A
100
AcDbEntity
  8
ADPDIM
  6
Continuous
 62
     0
370
    -2
100
AcDbLine
 10
22.4383223707037
 20
7.286951859140273
 30
0.0
 11
21.56059862230771
 21
7.286951859140274
 31
0.0
  0
LINE
  5
767
330
71A
100
AcDbEntity
  8
ADPDIM
  6
Continuous
 62
     0
370
    -2
100
AcDbLine
 10
22.4383223707037
 20
6.536951859140273
 30
0.0
 11
21.56059862230771
 21
6.536951859140274
 31
0.0
  0
LINE
  5
768
330
71A
100
AcDbEntity
  8
ADPDIM
  6
Continuous
 62
     0
370
    -2
100
AcDbLine
 10
21.74059862230771
 20
7.286951859140274
 30
0.0
 11
21.74059862230771
 21
7.160934929073094
 31
0.0
  0
LINE
  5
769
330
71A
100
AcDbEntity
  8
ADPDIM
  6
Continuous
 62
     0
370
    -2
100
AcDbLine
 10
21.74059862230771
 20
6.536951859140274
 30
0.0
 11
21.74059862230771
 21
6.57760159573976
 31
0.0
  0
INSERT
  5
76A
330
71A
100
AcDbEntity
  8
ADPDIM
  6
Continuous
 62
     0
370
    -2
100
AcDbBlockReference
  2
_Oblique
 10
21.74059862230771
 20
7.286951859140274
 30
0.0
 41
0.25
 42
0.25
 43
0.25
 50
90.0
  0
INSERT
  5
76B
330
71A
100
AcDbEntity
  8
ADPDIM
  6
Continuous
 62
     0
370
    -2
100
AcDbBlockReference
  2
_Oblique
 10
21.74059862230771
 20
6.536951859140274
 30
0.0
 41
0.25
 42
0.25
 43
0.25
 50
270.0
  0
MTEXT
  5
76C
330
71A
100
AcDbEntity
  8
ADPDIM
  6
Continuous
 62
     0
100
AcDbMText
 10
21.74059862230771
 20
6.86926826240643
 30
0.0
 40
0.125
 41
0.0
 71
     5
 72
     1
  1
\A1;3/4
 11
0.0000000000000001
 21
1.0
 31
0.0
 73
     1
 44
1.0
1001
ACAD
1000
MTEXTBEGIN
1070
    73
1070
     1
1070
    44
1040
1.0
1070
    74
1070
     0
1000
MTEXTEND
  0
POINT
  5
76D
330
71A
100
AcDbEntity
  8
DEFPOINTS
  6
Continuous
 62
     0
100
AcDbPoint
 10
22.5008223707037
 20
7.286951859140273
 30
0.0
  0
POINT
  5
76E
330
71A
100
AcDbEntity
  8
DEFPOINTS
  6
Continuous
 62
     0
100
AcDbPoint
 10
22.5008223707037
 20
6.536951859140273
 30
0.0
  0
POINT
  5
76F
330
71A
100
AcDbEntity
  8
DEFPOINTS
  6
Continuous
 62
     0
100
AcDbPoint
 10
21.74059862230771
 20
6.536951859140274
 30
0.0
  0
ENDBLK
  5
726
330
71A
100
AcDbEntity
  8
0
100
AcDbBlockEnd
  0
BLOCK
  5
732
330
727
100
AcDbEntity
  8
0
100
AcDbBlockBegin
  2
*D2
 70
     1
 10
0.0
 20
0.0
 30
0.0
  3
*D2
  1

  0
LINE
  5
7AA
330
727
100
AcDbEntity
  8
ADPDIM
  6
Continuous
 62
     0
370
    -2
100
AcDbLine
 10
22.5008223707037
 20
6.474451859140273
 30
0.0
 11
22.5008223707037
 21
5.267378452090191
 31
0.0
  0
LINE
  5
7AB
330
727
100
AcDbEntity
  8
ADPDIM
  6
Continuous
 62
     0
370
    -2
100
AcDbLine
 10
23.2508223707037
 20
6.47445185914027
 30
0.0
 11
23.2508223707037
 21
5.267378452090191
 31
0.0
  0
LINE
  5
7AC
330
727
100
AcDbEntity
  8
ADPDIM
  6
Continuous
 62
     0
370
    -2
100
AcDbLine
 10
23.2508223707037
 20
5.447378452090191
 30
0.0
 11
22.5008223707037
 21
5.447378452090191
 31
0.0
  0
LINE
  5
7AD
330
727
100
AcDbEntity
  8
ADPDIM
  6
Continuous
 62
     0
370
    -2
100
AcDbLine
 10
22.5008223707037
 20
5.447378452090191
 30
0.0
 11
22.2508223707037
 21
5.447378452090191
 31
0.0
  0
INSERT
  5
7AE
330
727
100
AcDbEntity
  8
ADPDIM
  6
Continuous
 62
     0
370
    -2
100
AcDbBlockReference
  2
_Oblique
 10
23.2508223707037
 20
5.447378452090191
 30
0.0
 41
0.25
 42
0.25
 43
0.25
  0
INSERT
  5
7AF
330
727
100
AcDbEntity
  8
ADPDIM
  6
Continuous
 62
     0
370
    -2
100
AcDbBlockReference
  2
_Oblique
 10
22.5008223707037
 20
5.447378452090191
 30
0.0
 41
0.25
 42
0.25
 43
0.25
 50
180.0
  0
MTEXT
  5
7B0
330
727
100
AcDbEntity
  8
ADPDIM
  6
Continuous
 62
     0
100
AcDbMText
 10
21.95915570403704
 20
5.447378452090191
 30
0.0
 40
0.125
 41
0.0
 71
     5
 72
     1
  1
\A1;3/4
 73
     1
 44
1.0
1001
ACAD
1000
MTEXTBEGIN
1070
    73
1070
     1
1070
    44
1040
1.0
1070
    74
1070
     0
1000
MTEXTEND
  0
POINT
  5
7B1
330
727
100
AcDbEntity
  8
DEFPOINTS
  6
Continuous
 62
     0
100
AcDbPoint
 10
22.5008223707037
 20
6.536951859140273
 30
0.0
  0
POINT
  5
7B2
330
727
100
AcDbEntity
  8
DEFPOINTS
  6
Continuous
 62
     0
100
AcDbPoint
 10
23.2508223707037
 20
6.53695185914027
 30
0.0
  0
POINT
  5
7B3
330
727
100
AcDbEntity
  8
DEFPOINTS
  6
Continuous
 62
     0
100
AcDbPoint
 10
23.2508223707037
 20
5.447378452090191
 30
0.0
  0
ENDBLK
  5
733
330
727
100
AcDbEntity
  8
0
100
AcDbBlockEnd
  0
BLOCK
  5
786
330
77B
100
AcDbEntity
  8
0
100
AcDbBlockBegin
  2
*D3
 70
     1
 10
0.0
 20
0.0
 30
0.0
  3
*D3
  1

  0
LINE
  5
805
330
77B
100
AcDbEntity
  8
ADPDIM
  6
Continuous
 62
     0
370
    -2
100
AcDbLine
 10
25.21741819984885
 20
6.474451859140273
 30
0.0
 11
25.21741819984885
 21
5.267378452090191
 31
0.0
  0
LINE
  5
806
330
77B
100
AcDbEntity
  8
ADPDIM
  6
Continuous
 62
     0
370
    -2
100
AcDbLine
 10
27.72991819984885
 20
6.474451859140273
 30
0.0
 11
27.72991819984885
 21
5.267378452090191
 31
0.0
  0
LINE
  5
807
330
77B
100
AcDbEntity
  8
ADPDIM
  6
Continuous
 62
     0
370
    -2
100
AcDbLine
 10
25.21741819984885
 20
5.447378452090191
 30
0.0
 11
26.07783486651551
 21
5.447378452090191
 31
0.0
  0
LINE
  5
808
330
77B
100
AcDbEntity
  8
ADPDIM
  6
Continuous
 62
     0
370
    -2
100
AcDbLine
 10
27.72991819984885
 20
5.447378452090191
 30
0.0
 11
26.86950153318218
 21
5.447378452090191
 31
0.0
  0
INSERT
  5
809
330
77B
100
AcDbEntity
  8
ADPDIM
  6
Continuous
 62
     0
370
    -2
100
AcDbBlockReference
  2
_Oblique
 10
25.21741819984885
 20
5.447378452090191
 30
0.0
 41
0.25
 42
0.25
 43
0.25
 50
180.0
  0
INSERT
  5
80A
330
77B
100
AcDbEntity
  8
ADPDIM
  6
Continuous
 62
     0
370
    -2
100
AcDbBlockReference
  2
_Oblique
 10
27.72991819984885
 20
5.447378452090191
 30
0.0
 41
0.25
 42
0.25
 43
0.25
  0
MTEXT
  5
80B
330
77B
100
AcDbEntity
  8
ADPDIM
  6
Continuous
 62
     0
100
AcDbMText
 10
26.47366819984885
 20
5.447378452090191
 30
0.0
 40
0.125
 41
0.0
 71
     5
 72
     1
  1
\A1;2 1/2
 73
     1
 44
1.0
1001
ACAD
1000
MTEXTBEGIN
1070
    73
1070
     1
1070
    44
1040
1.0
1070
    74
1070
     0
1000
MTEXTEND
  0
POINT
  5
80C
330
77B
100
AcDbEntity
  8
DEFPOINTS
  6
Continuous
 62
     0
100
AcDbPoint
 10
25.21741819984885
 20
6.536951859140273
 30
0.0
  0
POINT
  5
80D
330
77B
100
AcDbEntity
  8
DEFPOINTS
  6
Continuous
 62
     0
100
AcDbPoint
 10
27.72991819984885
 20
6.536951859140273
 30
0.0
  0
POINT
  5
80E
330
77B
100
AcDbEntity
  8
DEFPOINTS
  6
Continuous
 62
     0
100
AcDbPoint
 10
27.72991819984885
 20
5.447378452090191
 30
0.0
  0
ENDBLK
  5
787
330
77B
100
AcDbEntity
  8
0
100
AcDbBlockEnd
  0
BLOCK
  5
794
330
789
100
AcDbEntity
  8
0
100
AcDbBlockBegin
  2
*D4
 70
     1
 10
0.0
 20
0.0
 30
0.0
  3
*D4
  1

  0
LINE
  5
7FB
330
789
100
AcDbEntity
  8
ADPDIM
  6
Continuous
 62
     0
370
    -2
100
AcDbLine
 10
25.65991819984886
 20
6.223995918519902
 30
0.0
 11
25.65991819984886
 21
5.840269007536363
 31
0.0
  0
LINE
  5
7FC
330
789
100
AcDbEntity
  8
ADPDIM
  6
Continuous
 62
     0
370
    -2
100
AcDbLine
 10
25.21741819984885
 20
6.474451859140273
 30
0.0
 11
25.21741819984885
 21
5.840269007536363
 31
0.0
  0
LINE
  5
7FD
330
789
100
AcDbEntity
  8
ADPDIM
  6
Continuous
 62
     0
370
    -2
100
AcDbLine
 10
25.65991819984886
 20
6.020269007536363
 30
0.0
 11
25.21741819984885
 21
6.020269007536363
 31
0.0
  0
LINE
  5
7FE
330
789
100
AcDbEntity
  8
ADPDIM
  6
Continuous
 62
     0
370
    -2
100
AcDbLine
 10
25.21741819984885
 20
6.020269007536363
 30
0.0
 11
24.96741819984885
 21
6.020269007536363
 31
0.0
  0
INSERT
  5
7FF
330
789
100
AcDbEntity
  8
ADPDIM
  6
Continuous
 62
     0
370
    -2
100
AcDbBlockReference
  2
_Oblique
 10
25.65991819984886
 20
6.020269007536363
 30
0.0
 41
0.25
 42
0.25
 43
0.25
  0
INSERT
  5
800
330
789
100
AcDbEntity
  8
ADPDIM
  6
Continuous
 62
     0
370
    -2
100
AcDbBlockReference
  2
_Oblique
 10
25.21741819984885
 20
6.020269007536363
 30
0.0
 41
0.25
 42
0.25
 43
0.25
 50
180.0
  0
MTEXT
  5
801
330
789
100
AcDbEntity
  8
ADPDIM
  6
Continuous
 62
     0
100
AcDbMText
 10
24.63408486651552
 20
6.020269007536363
 30
0.0
 40
0.125
 41
0.0
 71
     5
 72
     1
  1
\A1;7/16
 73
     1
 44
1.0
1001
ACAD
1000
MTEXTBEGIN
1070
    73
1070
     1
1070
    44
1040
1.0
1070
    74
1070
     0
1000
MTEXTEND
  0
POINT
  5
802
330
789
100
AcDbEntity
  8
DEFPOINTS
  6
Continuous
 62
     0
100
AcDbPoint
 10
25.65991819984886
 20
6.286495918519902
 30
0.0
  0
POINT
  5
803
330
789
100
AcDbEntity
  8
DEFPOINTS
  6
Continuous
 62
     0
100
AcDbPoint
 10
25.21741819984885
 20
6.536951859140273
 30
0.0
  0
POINT
  5
804
330
789
100
AcDbEntity
  8
DEFPOINTS
  6
Continuous
 62
     0
100
AcDbPoint
 10
25.21741819984885
 20
6.020269007536363
 30
0.0
  0
ENDBLK
  5
795
330
789
100
AcDbEntity
  8
0
100
AcDbBlockEnd
  0
BLOCK
  5
7C0
330
7B5
100
AcDbEntity
  8
0
100
AcDbBlockBegin
  2
*D5
 70
     1
 10
0.0
 20
0.0
 30
0.0
  3
*D5
  1

  0
LINE
  5
7F1
330
7B5
100
AcDbEntity
  8
ADPDIM
  6
Continuous
 62
     0
370
    -2
100
AcDbLine
 10
25.65991819984886
 20
6.223995918519902
 30
0.0
 11
25.65991819984886
 21
5.840269007536363
 31
0.0
  0
LINE
  5
7F2
330
7B5
100
AcDbEntity
  8
ADPDIM
  6
Continuous
 62
     0
370
    -2
100
AcDbLine
 10
27.28741819984884
 20
6.223995918519892
 30
0.0
 11
27.28741819984884
 21
5.840269007536363
 31
0.0
  0
LINE
  5
7F3
330
7B5
100
AcDbEntity
  8
ADPDIM
  6
Continuous
 62
     0
370
    -2
100
AcDbLine
 10
25.65991819984886
 20
6.020269007536363
 30
0.0
 11
26.07783486651551
 21
6.020269007536363
 31
0.0
  0
LINE
  5
7F4
330
7B5
100
AcDbEntity
  8
ADPDIM
  6
Continuous
 62
     0
370
    -2
100
AcDbLine
 10
27.28741819984884
 20
6.020269007536363
 30
0.0
 11
26.86950153318218
 21
6.020269007536363
 31
0.0
  0
INSERT
  5
7F5
330
7B5
100
AcDbEntity
  8
ADPDIM
  6
Continuous
 62
     0
370
    -2
100
AcDbBlockReference
  2
_Oblique
 10
25.65991819984886
 20
6.020269007536363
 30
0.0
 41
0.25
 42
0.25
 43
0.25
 50
180.0
  0
INSERT
  5
7F6
330
7B5
100
AcDbEntity
  8
ADPDIM
  6
Continuous
 62
     0
370
    -2
100
AcDbBlockReference
  2
_Oblique
 10
27.28741819984884
 20
6.020269007536363
 30
0.0
 41
0.25
 42
0.25
 43
0.25
  0
MTEXT
  5
7F7
330
7B5
100
AcDbEntity
  8
ADPDIM
  6
Continuous
 62
     0
100
AcDbMText
 10
26.47366819984885
 20
6.020269007536363
 30
0.0
 40
0.125
 41
0.0
 71
     5
 72
     1
  1
\A1;1 5/8
 73
     1
 44
1.0
1001
ACAD
1000
MTEXTBEGIN
1070
    73
1070
     1
1070
    44
1040
1.0
1070
    74
1070
     0
1000
MTEXTEND
  0
POINT
  5
7F8
330
7B5
100
AcDbEntity
  8
DEFPOINTS
  6
Continuous
 62
     0
100
AcDbPoint
 10
25.65991819984886
 20
6.286495918519902
 30
0.0
  0
POINT
  5
7F9
330
7B5
100
AcDbEntity
  8
DEFPOINTS
  6
Continuous
 62
     0
100
AcDbPoint
 10
27.28741819984884
 20
6.286495918519892
 30
0.0
  0
POINT
  5
7FA
330
7B5
100
AcDbEntity
  8
DEFPOINTS
  6
Continuous
 62
     0
100
AcDbPoint
 10
27.28741819984884
 20
6.020269007536363
 30
0.0
  0
ENDBLK
  5
7C1
330
7B5
100
AcDbEntity
  8
0
100
AcDbBlockEnd
  0
BLOCK
  5
7CE
330
7C3
100
AcDbEntity
  8
0
100
AcDbBlockBegin
  2
*D6
 70
     1
 10
0.0
 20
0.0
 30
0.0
  3
*D6
  1

  0
LINE
  5
7C4
330
7C3
100
AcDbEntity
  8
ADPDIM
  6
Continuous
 62
     0
370
    -2
100
AcDbLine
 10
27.28741819984884
 20
6.223995918519902
 30
0.0
 11
27.28741819984884
 21
5.840269007536363
 31
0.0
  0
LINE
  5
7C5
330
7C3
100
AcDbEntity
  8
ADPDIM
  6
Continuous
 62
     0
370
    -2
100
AcDbLine
 10
27.72991819984885
 20
6.474451859140273
 30
0.0
 11
27.72991819984885
 21
5.840269007536363
 31
0.0
  0
LINE
  5
7C6
330
7C3
100
AcDbEntity
  8
ADPDIM
  6
Continuous
 62
     0
370
    -2
100
AcDbLine
 10
27.28741819984884
 20
6.020269007536363
 30
0.0
 11
27.72991819984885
 21
6.020269007536363
 31
0.0
  0
LINE
  5
7C7
330
7C3
100
AcDbEntity
  8
ADPDIM
  6
Continuous
 62
     0
370
    -2
100
AcDbLine
 10
27.72991819984885
 20
6.020269007536363
 30
0.0
 11
27.97991819984885
 21
6.020269007536363
 31
0.0
  0
INSERT
  5
7C8
330
7C3
100
AcDbEntity
  8
ADPDIM
  6
Continuous
 62
     0
370
    -2
100
AcDbBlockReference
  2
_Oblique
 10
27.28741819984884
 20
6.020269007536363
 30
0.0
 41
0.25
 42
0.25
 43
0.25
 50
180.0
  0
INSERT
  5
7C9
330
7C3
100
AcDbEntity
  8
ADPDIM
  6
Continuous
 62
     0
370
    -2
100
AcDbBlockReference
  2
_Oblique
 10
27.72991819984885
 20
6.020269007536363
 30
0.0
 41
0.25
 42
0.25
 43
0.25
  0
MTEXT
  5
7CA
330
7C3
100
AcDbEntity
  8
ADPDIM
  6
Continuous
 62
     0
100
AcDbMText
 10
28.31325153318218
 20
6.020269007536363
 30
0.0
 40
0.125
 41
0.0
 71
     5
 72
     1
  1
\A1;7/16
 73
     1
 44
1.0
1001
ACAD
1000
MTEXTBEGIN
1070
    73
1070
     1
1070
    44
1040
1.0
1070
    74
1070
     0
1000
MTEXTEND
  0
POINT
  5
7CB
330
7C3
100
AcDbEntity
  8
DEFPOINTS
  6
Continuous
 62
     0
100
AcDbPoint
 10
27.28741819984884
 20
6.286495918519902
 30
0.0
  0
POINT
  5
7CC
330
7C3
100
AcDbEntity
  8
DEFPOINTS
  6
Continuous
 62
     0
100
AcDbPoint
 10
27.72991819984885
 20
6.536951859140273
 30
0.0
  0
POINT
  5
7CD
330
7C3
100
AcDbEntity
  8
DEFPOINTS
  6
Continuous
 62
     0
100
AcDbPoint
 10
27.72991819984885
 20
6.020269007536363
 30
0.0
  0
ENDBLK
  5
7CF
330
7C3
100
AcDbEntity
  8
0
100
AcDbBlockEnd
  0
ENDSEC
  0
SECTION
  2
ENTITIES
  0
LINE
  5
6BE
330
2
100
AcDbEntity
  8
ADP1DETAIL
  6
Continuous
100
AcDbLine
 10
22.5008223707037
 20
7.286951859140273
 30
0.0
 11
22.5008223707037
 21
6.536951859140273
 31
0.0
  0
LINE
  5
6BF
330
2
100
AcDbEntity
  8
ADP1DETAIL
  6
Continuous
100
AcDbLine
 10
22.5008223707037
 20
6.536951859140273
 30
0.0
 11
23.2508223707037
 21
6.536951859140273
 31
0.0
  0
LINE
  5
6C0
330
2
100
AcDbEntity
  8
ADP1DETAIL
  6
Continuous
100
AcDbLine
 10
23.2508223707037
 20
6.536951859140273
 30
0.0
 11
23.2508223707037
 21
7.286951859140273
 31
0.0
  0
LINE
  5
6C1
330
2
100
AcDbEntity
  8
ADP1DETAIL
  6
Continuous
100
AcDbLine
 10
23.2508223707037
 20
7.286951859140273
 30
0.0
 11
22.5008223707037
 21
7.286951859140273
 31
0.0
  0
LINE
  5
6DA
330
2
100
AcDbEntity
  8
ADP2DETAIL
  6
HIDDEN2
100
AcDbLine
 10
23.0058223707037
 20
6.536951859140272
 30
0.0
 11
23.0058223707037
 21
7.286951859140274
 31
0.0
  0
LINE
  5
6DB
330
2
100
AcDbEntity
  8
ADP2DETAIL
  6
HIDDEN2
100
AcDbLine
 10
22.7458223707037
 20
6.536951859140273
 30
0.0
 11
22.7458223707037
 21
7.286951859140272
 31
0.0
  0
LINE
  5
6DC
330
2
100
AcDbEntity
  8
ADPDIM
  6
CENTER
 48
0.5
100
AcDbLine
 10
22.8758223707037
 20
6.286495918519902
 30
0.0
 11
22.8758223707037
 21
7.536951859140273
 31
0.0
  0
LINE
  5
6DF
330
2
100
AcDbEntity
  8
ADP1DETAIL
  6
Continuous
100
AcDbLine
 10
25.21741819984885
 20
6.536951859140273
 30
0.0
 11
25.21741819984885
 21
7.286951859140273
 31
0.0
  0
LINE
  5
6E0
330
2
100
AcDbEntity
  8
ADP1DETAIL
  6
Continuous
100
AcDbLine
 10
27.72991819984885
 20
6.536951859140273
 30
0.0
 11
27.72991819984885
 21
7.286951859140273
 31
0.0
  0
LINE
  5
6E1
330
2
100
AcDbEntity
  8
ADP1DETAIL
  6
Continuous
100
AcDbLine
 10
25.21741819984885
 20
6.536951859140273
 30
0.0
 11
27.72991819984885
 21
6.536951859140273
 31
0.0
  0
LINE
  5
6E2
330
2
100
AcDbEntity
  8
ADP1DETAIL
  6
Continuous
100
AcDbLine
 10
25.21741819984885
 20
7.286951859140273
 30
0.0
 11
27.72991819984885
 21
7.286951859140273
 31
0.0
  0
LINE
  5
6EC
330
2
100
AcDbEntity
  8
ADP2DETAIL
  6
HIDDEN2
100
AcDbLine
 10
27.41741819984885
 20
6.536951859140272
 30
0.0
 11
27.41741819984884
 21
7.297195797863507
 31
0.0
  0
LINE
  5
6ED
330
2
100
AcDbEntity
  8
ADP2DETAIL
  6
HIDDEN2
100
AcDbLine
 10
27.15741819984884
 20
6.536951859140273
 30
0.0
 11
27.15741819984884
 21
7.297195797863505
 31
0.0
  0
LINE
  5
6EE
330
2
100
AcDbEntity
  8
ADPDIM
  6
CENTER
 48
0.5
100
AcDbLine
 10
27.28741819984884
 20
6.286495918519902
 30
0.0
 11
27.28741819984885
 21
7.536951859140273
 31
0.0
  0
LINE
  5
6EF
330
2
100
AcDbEntity
  8
ADP2DETAIL
  6
HIDDEN2
100
AcDbLine
 10
25.52991819984885
 20
6.536951859140272
 30
0.0
 11
25.52991819984885
 21
7.297195797863507
 31
0.0
  0
LINE
  5
6F0
330
2
100
AcDbEntity
  8
ADP2DETAIL
  6
HIDDEN2
100
AcDbLine
 10
25.78991819984885
 20
6.536951859140273
 30
0.0
 11
25.78991819984885
 21
7.297195797863505
 31
0.0
  0
LINE
  5
6F1
330
2
100
AcDbEntity
  8
ADPDIM
  6
CENTER
 48
0.5
100
AcDbLine
 10
25.65991819984886
 20
6.286495918519902
 30
0.0
 11
25.65991819984885
 21
7.536951859140273
 31
0.0
  0
DIMENSION
  5
70A
330
2
100
AcDbEntity
  8
ADPDIM
  6
Continuous
100
AcDbDimension
  2
*D2
 10
23.2508223707037
 20
5.447378452090191
 30
0.0
 11
21.95915570403704
 21
5.447378452090191
 31
0.0
 70
   160
  1
<>
 71
     5
 42
0.7499999999999965
  3
STANDARD
100
AcDbAlignedDimension
 13
22.5008223707037
 23
6.536951859140273
 33
0.0
 14
23.2508223707037
 24
6.53695185914027
 34
0.0
100
AcDbRotatedDimension
1001
ACAD
1000
DSTYLE
1002
{
1070
    41
1040
0.25
1070
    73
1070
     0
1070
    74
1070
     0
1070
    78
1070
     3
1070
   140
1040
0.125
1070
   141
1040
0.1875
1070
   147
1040
0.125
1070
   171
1070
     1
1070
   173
1070
     1
1070
   274
1070
     1
1070
   276
1070
     2
1070
   277
1070
     5
1070
   343
1005
3A7
1070
   344
1005
3A7
1002
}
  0
DIMENSION
  5
70C
330
2
100
AcDbEntity
  8
ADPDIM
  6
Continuous
100
AcDbDimension
  2
*D1
 10
21.74059862230771
 20
6.536951859140274
 30
0.0
 11
21.74059862230771
 21
6.86926826240643
 31
0.0
 70
   160
 71
     5
 42
0.75
  3
STANDARD
100
AcDbAlignedDimension
 13
22.5008223707037
 23
7.286951859140273
 33
0.0
 14
22.5008223707037
 24
6.536951859140273
 34
0.0
 50
90.0
100
AcDbRotatedDimension
1001
ACAD
1000
DSTYLE
1002
{
1070
    41
1040
0.25
1070
    73
1070
     0
1070
    74
1070
     0
1070
    78
1070
     3
1070
   140
1040
0.125
1070
   141
1040
0.1875
1070
   147
1040
0.125
1070
   171
1070
     1
1070
   173
1070
     1
1070
   274
1070
     1
1070
   276
1070
     2
1070
   277
1070
     5
1070
   343
1005
3A7
1070
   344
1005
3A7
1002
}
  0
DIMENSION
  5
77A
330
2
100
AcDbEntity
  8
ADPDIM
  6
Continuous
100
AcDbDimension
  2
*D3
 10
27.72991819984885
 20
5.447378452090191
 30
0.0
 11
26.47366819984885
 21
5.447378452090191
 31
0.0
 70
    32
 71
     5
 42
2.512499999999999
  3
STANDARD
100
AcDbAlignedDimension
 13
25.21741819984885
 23
6.536951859140273
 33
0.0
 14
27.72991819984885
 24
6.536951859140273
 34
0.0
100
AcDbRotatedDimension
1001
ACAD
1000
DSTYLE
1002
{
1070
    41
1040
0.25
1070
    73
1070
     0
1070
    74
1070
     0
1070
    78
1070
     3
1070
   140
1040
0.125
1070
   141
1040
0.1875
1070
   147
1040
0.125
1070
   171
1070
     1
1070
   173
1070
     1
1070
   274
1070
     1
1070
   276
1070
     2
1070
   277
1070
     5
1070
   343
1005
3A7
1070
   344
1005
3A7
1002
}
  0
DIMENSION
  5
788
330
2
100
AcDbEntity
  8
ADPDIM
  6
Continuous
100
AcDbDimension
  2
*D4
 10
25.21741819984885
 20
6.020269007536363
 30
0.0
 11
24.63408486651552
 21
6.020269007536363
 31
0.0
 70
    32
 71
     5
 42
0.4425000000000061
  3
STANDARD
100
AcDbAlignedDimension
 13
25.65991819984886
 23
6.286495918519902
 33
0.0
 14
25.21741819984885
 24
6.536951859140273
 34
0.0
100
AcDbRotatedDimension
1001
ACAD
1000
DSTYLE
1002
{
1070
    41
1040
0.25
1070
    73
1070
     0
1070
    74
1070
     0
1070
    78
1070
     3
1070
   140
1040
0.125
1070
   141
1040
0.1875
1070
   147
1040
0.125
1070
   171
1070
     1
1070
   173
1070
     1
1070
   274
1070
     1
1070
   276
1070
     2
1070
   277
1070
     5
1070
   343
1005
3A7
1070
   344
1005
3A7
1002
}
  0
DIMENSION
  5
7B4
330
2
100
AcDbEntity
  8
ADPDIM
  6
Continuous
100
AcDbDimension
  2
*D5
 10
27.28741819984884
 20
6.020269007536363
 30
0.0
 11
26.47366819984885
 21
6.020269007536363
 31
0.0
 70
    32
 71
     5
 42
1.627499999999983
  3
STANDARD
100
AcDbAlignedDimension
 13
25.65991819984886
 23
6.286495918519902
 33
0.0
 14
27.28741819984884
 24
6.286495918519892
 34
0.0
100
AcDbRotatedDimension
1001
ACAD
1000
DSTYLE
1002
{
1070
    41
1040
0.25
1070
    73
1070
     0
1070
    74
1070
     0
1070
    78
1070
     3
1070
   140
1040
0.125
1070
   141
1040
0.1875
1070
   147
1040
0.125
1070
   171
1070
     1
1070
   173
1070
     1
1070
   274
1070
     1
1070
   276
1070
     2
1070
   277
1070
     5
1070
   343
1005
3A7
1070
   344
1005
3A7
1002
}
  0
DIMENSION
  5
7C2
330
2
100
AcDbEntity
  8
ADPDIM
  6
Continuous
100
AcDbDimension
  2
*D6
 10
27.72991819984885
 20
6.020269007536363
 30
0.0
 11
28.31325153318218
 21
6.020269007536363
 31
0.0
 70
    32
 71
     5
 42
0.4425000000000097
  3
STANDARD
100
AcDbAlignedDimension
 13
27.28741819984884
 23
6.286495918519902
 33
0.0
 14
27.72991819984885
 24
6.536951859140273
 34
0.0
100
AcDbRotatedDimension
1001
ACAD
1000
DSTYLE
1002
{
1070
    41
1040
0.25
1070
    73
1070
     0
1070
    74
1070
     0
1070
    78
1070
     3
1070
   140
1040
0.125
1070
   141
1040
0.1875
1070
   147
1040
0.125
1070
   171
1070
     1
1070
   173
1070
     1
1070
   274
1070
     1
1070
   276
1070
     2
1070
   277
1070
     5
1070
   343
1005
3A7
1070
   344
1005
3A7
1002
}
  0
TEXT
  5
840
330
2
100
AcDbEntity
  8
ADPDIM
100
AcDbText
 10
21.60951427610437
 20
4.481686484227182
 30
0.0
 40
0.125
  1
J U L I U S  B L U M  &  C O . ,  I N C .      ( 8 0 0 )  5 2 6 - 6 2 9 3
 41
1.25
  7
ARIAL_WIDE
 72
     1
 11
24.76345143504025
 21
4.606686484227182
 31
0.0
100
AcDbText
 73
     3
  0
TEXT
  5
841
330
2
100
AcDbEntity
  8
ADPDIM
100
AcDbText
 10
21.66467073926944
 20
4.139674391479262
 30
0.0
 40
0.125
  1
 W W W . J U L I U S B L U M . C O M        P A R T  N o .  364M
 41
1.25
  7
ARIAL_WIDE
 72
     1
 11
24.76345143504025
 21
4.264674391479262
 31
0.0
100
AcDbText
 73
     3
  0
ENDSEC
  0
SECTION
  2
OBJECTS
  0
DICTIONARY
  5
1B
330
0
100
AcDbDictionary
281
     1
  3
ACAD_COLOR
350
25C
  3
ACAD_GROUP
350
19
  3
ACAD_LAYOUT
350
B6
  3
ACAD_MATERIAL
350
25B
  3
ACAD_MLINESTYLE
350
1A
  3
ACAD_PLOTSETTINGS
350
B7
  3
ACAD_PLOTSTYLENAME
350
B4
  3
ACAD_TABLESTYLE
350
25D
  3
ACDBHEADERROUNDTRIPXREC
350
879
  3
AcDbVariableDictionary
350
117
  3
ASE_INDEX_DICTIONARY
350
658
  0
DICTIONARY
  5
10F
330
2
100
AcDbDictionary
280
     1
281
     1
  3
ACAD_LAYOUTSELFREF
360
252
  3
ACAD_SORTENTS
360
275
  0
DICTIONARY
  5
111
330
8
100
AcDbDictionary
280
     1
281
     1
  3
ACAD_LAYOUTSELFREF
360
253
  0
DICTIONARY
  5
25C
102
{ACAD_REACTORS
330
1B
102
}
330
1B
100
AcDbDictionary
281
     1
  0
DICTIONARY
  5
19
102
{ACAD_REACTORS
330
1B
102
}
330
1B
100
AcDbDictionary
281
     1
  0
DICTIONARY
  5
B6
102
{ACAD_REACTORS
330
1B
102
}
330
1B
100
AcDbDictionary
281
     1
  3
Layout1
350
B9
  3
Model
350
B8
  0
DICTIONARY
  5
25B
102
{ACAD_REACTORS
330
1B
102
}
330
1B
100
AcDbDictionary
281
     1
  0
DICTIONARY
  5
1A
102
{ACAD_REACTORS
330
1B
102
}
330
1B
100
AcDbDictionary
281
     1
  3
STANDARD
350
1C
  0
DICTIONARY
  5
B7
102
{ACAD_REACTORS
330
1B
102
}
330
1B
100
AcDbDictionary
281
     1
  0
ACDBDICTIONARYWDFLT
  5
B4
102
{ACAD_REACTORS
330
1B
102
}
330
1B
100
AcDbDictionary
281
     1
  3
Normal
350
B5
100
AcDbDictionaryWithDefault
340
B5
  0
DICTIONARY
  5
25D
102
{ACAD_REACTORS
330
1B
102
}
330
1B
100
AcDbDictionary
281
     1
  3
Standard
350
25E
  0
DICTIONARY
  5
879
102
{ACAD_REACTORS
330
1B
102
}
330
1B
100
AcDbDictionary
281
     1
  0
DICTIONARY
  5
117
102
{ACAD_REACTORS
330
1B
102
}
330
1B
100
AcDbDictionary
281
     1
  3
CTABLESTYLE
350
263
  3
DIMASSOC
350
118
  3
PROJECTNAME
350
7D9
  0
DICTIONARY
  5
658
102
{ACAD_REACTORS
330
1B
102
}
330
1B
100
AcDbDictionary
281
     1
  3
ASEBlockHierarchyIndexRecord
350
65A
1001
DCO15
1040
1748166763.941
  0
XRECORD
  5
252
102
{ACAD_REACTORS
330
10F
102
}
330
10F
100
AcDbXrecord
280
     1
340
2
  0
SORTENTSTABLE
  5
275
102
{ACAD_REACTORS
330
10F
102
}
330
10F
100
AcDbSortentsTable
330
2
331
6DC
  5
6E2
331
6DA
  5
6E0
331
6C0
  5
6C1
331
6E1
  5
6EA
331
6BE
  5
6BE
331
6DF
  5
6DA
331
6DB
  5
6E1
331
6E2
  5
6EB
331
6C1
  5
6DF
331
6E0
  5
6DD
331
6BF
  5
6BF
  0
XRECORD
  5
253
102
{ACAD_REACTORS
330
111
102
}
330
111
100
AcDbXrecord
280
     1
340
8
  0
LAYOUT
  5
B9
102
{ACAD_XDICTIONARY
360
87C
102
}
102
{ACAD_REACTORS
330
B6
102
}
330
B6
100
AcDbPlotSettings
  1

  2
Fax
  4

  6

 40
0.0
 41
0.0
 42
0.0
 43
0.0
 44
0.0
 45
0.0
 46
0.0
 47
0.0
 48
0.0
 49
0.0
140
0.0
141
0.0
142
1.0
143
1.0
 70
   688
 72
     0
 73
     0
 74
     5
  7
monochrome.ctb
 75
    16
147
1.0
148
0.0
149
0.0
100
AcDbLayout
  1
Layout1
 70
     1
 71
     1
 10
0.0
 20
0.0
 11
12.0
 21
9.0
 12
0.0
 22
0.0
 32
0.0
 14
1.000000000000000E+20
 24
1.000000000000000E+20
 34
1.000000000000000E+20
 15
-1.000000000000000E+20
 25
-1.000000000000000E+20
 35
-1.000000000000000E+20
146
0.0
 13
0.0
 23
0.0
 33
0.0
 16
1.0
 26
0.0
 36
0.0
 17
0.0
 27
1.0
 37
0.0
 76
     0
330
8
  0
LAYOUT
  5
B8
102
{ACAD_XDICTIONARY
360
87A
102
}
102
{ACAD_REACTORS
330
B6
102
}
330
B6
100
AcDbPlotSettings
  1

  2
\\2008SERVER\Lexmark Optra T630 PCL
  4
Letter
  6

 40
7.143749713897705
 41
6.127734661102294
 42
7.14373779296875
 43
7.14373779296875
 44
215.8999938964844
 45
279.3999938964844
 46
0.0
 47
0.0
 48
0.0
 49
0.0
140
0.0
141
0.0
142
1.0
143
0.667530148552579
 70
 11952
 72
     0
 73
     1
 74
     0
  7
monochrome.ctb
 75
     0
147
1.498059678904875
148
-547.21351775351
149
-98.39895641046716
100
AcDbLayout
  1
Model
 70
     1
 71
     0
 10
0.0
 20
0.0
 11
12.0
 21
9.0
 12
0.0
 22
0.0
 32
0.0
 14
0.0
 24
0.0
 34
0.0
 15
0.0
 25
0.0
 35
0.0
146
0.0
 13
0.0
 23
0.0
 33
0.0
 16
1.0
 26
0.0
 36
0.0
 17
0.0
 27
1.0
 37
0.0
 76
     0
330
2
1001
ACAD_PSEXT
1000
\\2008SERVER\Lexmark Optra T630 PCL
1000
Lexmark Optra T610 (MS)
1000
\\2008SERVER
1000

1070
     0
  0
MLINESTYLE
  5
1C
102
{ACAD_REACTORS
330
1A
102
}
330
1A
100
AcDbMlineStyle
  2
STANDARD
 70
     0
  3

 62
     0
 51
90.0
 52
90.0
 71
     2
 49
0.5
 62
   256
  6
BYLAYER
 49
-0.5
 62
   256
  6
BYLAYER
  0
ACDBPLACEHOLDER
  5
B5
102
{ACAD_REACTORS
330
B4
102
}
330
B4
  0
TABLESTYLE
  5
25E
102
{ACAD_REACTORS
330
25D
102
}
330
25D
100
AcDbTableStyle
  3
Standard
 70
     0
 71
     0
 40
0.06
 41
0.06
280
     0
281
     0
  7
STANDARD
140
0.18
170
     2
 62
     0
 63
     7
283
     0
274
    -2
284
     1
 64
     0
275
    -2
285
     1
 65
     0
276
    -2
286
     1
 66
     0
277
    -2
287
     1
 67
     0
278
    -2
288
     1
 68
     0
279
    -2
289
     1
 69
     0
  7
STANDARD
140
0.25
170
     5
 62
     0
 63
     7
283
     0
274
    -2
284
     1
 64
     0
275
    -2
285
     1
 65
     0
276
    -2
286
     1
 66
     0
277
    -2
287
     1
 67
     0
278
    -2
288
     1
 68
     0
279
    -2
289
     1
 69
     0
  7
STANDARD
140
0.18
170
     5
 62
     0
 63
     7
283
     0
274
    -2
284
     1
 64
     0
275
    -2
285
     1
 65
     0
276
    -2
286
     1
 66
     0
277
    -2
287
     1
 67
     0
278
    -2
288
     1
 68
     0
279
    -2
289
     1
 69
     0
  0
DICTIONARYVAR
  5
263
102
{ACAD_REACTORS
330
117
102
}
330
117
100
DictionaryVariables
280
     0
  1
STANDARD
  0
DICTIONARYVAR
  5
118
102
{ACAD_REACTORS
330
117
102
}
330
117
100
DictionaryVariables
280
     0
  1
1
  0
DICTIONARYVAR
  5
7D9
102
{ACAD_REACTORS
330
117
102
}
330
117
100
DictionaryVariables
280
     0
  1

  0
XRECORD
  5
65A
102
{ACAD_REACTORS
330
658
102
}
330
658
100
AcDbXrecord
280
     1
330
76A
330
76B
330
7AE
330
7AF
330
809
330
80A
330
7FF
330
800
330
7F5
330
7F6
330
7C8
330
7C9
  0
DICTIONARY
  5
87C
330
B9
100
AcDbDictionary
280
     1
281
     1
  3
ACAD_XREC_ROUNDTRIP
360
87D
  0
DICTIONARY
  5
87A
330
B8
100
AcDbDictionary
280
     1
281
     1
  3
ACAD_XREC_ROUNDTRIP
360
87B
  0
XRECORD
  5
87D
102
{ACAD_REACTORS
330
87C
102
}
330
87C
100
AcDbXrecord
280
     1
102
SHADEPLOT
 70
     0
102
SHADEPLOTRESLEVEL
 70
     2
102
SHADEPLOTCUSTOMDPI
 70
   300
  0
XRECORD
  5
87B
102
{ACAD_REACTORS
330
87A
102
}
330
87A
100
AcDbXrecord
280
     1
102
SHADEPLOT
 70
     0
102
SHADEPLOTRESLEVEL
 70
     2
102
SHADEPLOTCUSTOMDPI
 70
   300
  0
ENDSEC
  0
EOF
