  0
SECTION
  2
HEADER
  9
$ACADVER
  1
AC1014
  9
$ACADMAINTVER
 70
     9
  9
$DWGCODEPAGE
  3
ANSI_1252
  9
$INSBASE
 10
35.60419764453776
 20
3.835876145644903
 30
0.0
  9
$EXTMIN
 10
30.08986342422929
 20
2.473965250495334
 30
0.0
  9
$EXTMAX
 10
39.74192473050488
 20
6.899118692441913
 30
0.0
  9
$LIMMIN
 10
0.0
 20
0.0
  9
$LIMMAX
 10
36.0
 20
36.0
  9
$ORTHOMODE
 70
     1
  9
$REGENMODE
 70
     1
  9
$FILLMODE
 70
     1
  9
$QTEXTMODE
 70
     0
  9
$MIRRTEXT
 70
     1
  9
$DRAGMODE
 70
     0
  9
$LTSCALE
 40
1.0
  9
$OSMODE
 70
    37
  9
$ATTMODE
 70
     1
  9
$TEXTSIZE
 40
0.2
  9
$TRACEWID
 40
0.05
  9
$TEXTSTYLE
  7
STANDARD
  9
$CLAYER
  8
ADP1DETAIL
  9
$CELTYPE
  6
BYLAYER
  9
$CECOLOR
 62
   256
  9
$CELTSCALE
 40
1.0
  9
$DELOBJ
 70
     1
  9
$DISPSILH
 70
     0
  9
$DIMSCALE
 40
1.0
  9
$DIMASZ
 40
0.125
  9
$DIMEXO
 40
0.0625
  9
$DIMDLI
 40
0.38
  9
$DIMRND
 40
0.0
  9
$DIMDLE
 40
0.0
  9
$DIMEXE
 40
0.18
  9
$DIMTP
 40
0.0
  9
$DIMTM
 40
0.0
  9
$DIMTXT
 40
0.125
  9
$DIMCEN
 40
0.1875
  9
$DIMTSZ
 40
0.125
  9
$DIMTOL
 70
     0
  9
$DIMLIM
 70
     0
  9
$DIMTIH
 70
     0
  9
$DIMTOH
 70
     0
  9
$DIMSE1
 70
     0
  9
$DIMSE2
 70
     0
  9
$DIMTAD
 70
     0
  9
$DIMZIN
 70
     3
  9
$DIMBLK
  1

  9
$DIMASO
 70
     1
  9
$DIMSHO
 70
     1
  9
$DIMPOST
  1

  9
$DIMAPOST
  1

  9
$DIMALT
 70
     0
  9
$DIMALTD
 70
     1
  9
$DIMALTF
 40
25.4
  9
$DIMLFAC
 40
1.0
  9
$DIMTOFL
 70
     0
  9
$DIMTVP
 40
0.0
  9
$DIMTIX
 70
     0
  9
$DIMSOXD
 70
     0
  9
$DIMSAH
 70
     0
  9
$DIMBLK1
  1

  9
$DIMBLK2
  1

  9
$DIMSTYLE
  2
STANDARD
  9
$DIMCLRD
 70
     0
  9
$DIMCLRE
 70
     0
  9
$DIMCLRT
 70
     0
  9
$DIMTFAC
 40
1.0
  9
$DIMGAP
 40
0.125
  9
$DIMJUST
 70
     0
  9
$DIMSD1
 70
     0
  9
$DIMSD2
 70
     0
  9
$DIMTOLJ
 70
     1
  9
$DIMTZIN
 70
     0
  9
$DIMALTZ
 70
     0
  9
$DIMALTTZ
 70
     0
  9
$DIMFIT
 70
     3
  9
$DIMUPT
 70
     0
  9
$DIMUNIT
 70
     2
  9
$DIMDEC
 70
     4
  9
$DIMTDEC
 70
     4
  9
$DIMALTU
 70
     2
  9
$DIMALTTD
 70
     2
  9
$DIMTXSTY
  7
STANDARD
  9
$DIMAUNIT
 70
     0
  9
$LUNITS
 70
     5
  9
$LUPREC
 70
     4
  9
$SKETCHINC
 40
0.1
  9
$FILLETRAD
 40
0.0
  9
$AUNITS
 70
     0
  9
$AUPREC
 70
     0
  9
$MENU
  1
acad
  9
$ELEVATION
 40
0.0
  9
$PELEVATION
 40
0.0
  9
$THICKNESS
 40
0.0
  9
$LIMCHECK
 70
     0
  9
$BLIPMODE
 70
     0
  9
$CHAMFERA
 40
0.0
  9
$CHAMFERB
 40
0.0
  9
$CHAMFERC
 40
0.0
  9
$CHAMFERD
 40
0.0
  9
$SKPOLY
 70
     0
  9
$TDCREATE
 40
2450374.603422257
  9
$TDUPDATE
 40
2452297.068690682
  9
$TDINDWG
 40
0.0620269213
  9
$TDUSRTIMER
 40
0.0620269213
  9
$USRTIMER
 70
     1
  9
$ANGBASE
 50
0.0
  9
$ANGDIR
 70
     0
  9
$PDMODE
 70
     0
  9
$PDSIZE
 40
0.0
  9
$PLINEWID
 40
0.0
  9
$COORDS
 70
     2
  9
$SPLFRAME
 70
     0
  9
$SPLINETYPE
 70
     6
  9
$SPLINESEGS
 70
     8
  9
$ATTDIA
 70
     0
  9
$ATTREQ
 70
     1
  9
$HANDLING
 70
 22529
  9
$HANDSEED
  5
3AF
  9
$SURFTAB1
 70
     6
  9
$SURFTAB2
 70
     6
  9
$SURFTYPE
 70
     6
  9
$SURFU
 70
     6
  9
$SURFV
 70
     6
  9
$UCSNAME
  2

  9
$UCSORG
 10
0.0
 20
0.0
 30
0.0
  9
$UCSXDIR
 10
1.0
 20
0.0
 30
0.0
  9
$UCSYDIR
 10
0.0
 20
1.0
 30
0.0
  9
$PUCSNAME
  2

  9
$PUCSORG
 10
0.0
 20
0.0
 30
0.0
  9
$PUCSXDIR
 10
1.0
 20
0.0
 30
0.0
  9
$PUCSYDIR
 10
0.0
 20
1.0
 30
0.0
  9
$USERI1
 70
     0
  9
$USERI2
 70
     0
  9
$USERI3
 70
     0
  9
$USERI4
 70
     0
  9
$USERI5
 70
     0
  9
$USERR1
 40
0.0
  9
$USERR2
 40
0.0
  9
$USERR3
 40
0.0
  9
$USERR4
 40
0.0
  9
$USERR5
 40
0.0
  9
$WORLDVIEW
 70
     1
  9
$SHADEDGE
 70
     3
  9
$SHADEDIF
 70
    70
  9
$TILEMODE
 70
     1
  9
$MAXACTVP
 70
    15
  9
$PINSBASE
 10
0.0
 20
0.0
 30
0.0
  9
$PLIMCHECK
 70
     0
  9
$PEXTMIN
 10
1.000000000000000E+20
 20
1.000000000000000E+20
 30
1.000000000000000E+20
  9
$PEXTMAX
 10
-1.000000000000000E+20
 20
-1.000000000000000E+20
 30
-1.000000000000000E+20
  9
$PLIMMIN
 10
0.0
 20
0.0
  9
$PLIMMAX
 10
12.0
 20
9.0
  9
$UNITMODE
 70
     0
  9
$VISRETAIN
 70
     0
  9
$PLINEGEN
 70
     0
  9
$PSLTSCALE
 70
     1
  9
$TREEDEPTH
 70
  3020
  9
$PICKSTYLE
 70
     1
  9
$CMLSTYLE
  2
STANDARD
  9
$CMLJUST
 70
     0
  9
$CMLSCALE
 40
1.0
  9
$PROXYGRAPHICS
 70
     1
  9
$MEASUREMENT
 70
     0
  0
ENDSEC
  0
SECTION
  2
CLASSES
  0
CLASS
  1
ACDBDICTIONARYWDFLT
  2
AcDbDictionaryWithDefault
  3
AutoCAD 2000
 90
        0
280
     0
281
     0
  0
CLASS
  1
ACDBPLACEHOLDER
  2
AcDbPlaceHolder
  3
AutoCAD 2000
 90
        0
280
     0
281
     0
  0
CLASS
  1
LAYOUT
  2
AcDbLayout
  3
AutoCAD 2000
 90
        0
280
     0
281
     0
  0
CLASS
  1
DICTIONARYVAR
  2
AcDbDictionaryVar
  3
AutoCAD 2000
 90
        0
280
     0
281
     0
  0
CLASS
  1
LONG_TRANSACTION
  2
AcDbLongTransaction
  3
AutoCAD 2000
 90
        0
280
     0
281
     0
  0
CLASS
  1
LWPOLYLINE
  2
AcDbPolyline
  3
AutoCAD 2000
 90
        0
280
     0
281
     1
  0
CLASS
  1
HATCH
  2
AcDbHatch
  3
AutoCAD 2000
 90
        0
280
     0
281
     1
  0
CLASS
  1
XRECORD
  2
AcDbXrecord
  3
AutoCAD 2000
 90
        0
280
     0
281
     0
  0
CLASS
  1
LONG_TRANSACTION
  2
AcDbLongTransaction
  3
AutoCAD 2000
 90
        0
280
     0
281
     0
  0
CLASS
  1
LWPOLYLINE
  2
AcDbPolyline
  3
AutoCAD 2000
 90
        0
280
     0
281
     1
  0
CLASS
  1
HATCH
  2
AcDbHatch
  3
AutoCAD 2000
 90
        0
280
     0
281
     1
  0
CLASS
  1
XRECORD
  2
AcDbXrecord
  3
AutoCAD 2000
 90
        0
280
     0
281
     0
  0
CLASS
  1
LONG_TRANSACTION
  2
AcDbLongTransaction
  3
AutoCAD 2000
 90
        0
280
     0
281
     0
  0
CLASS
  1
LWPOLYLINE
  2
AcDbPolyline
  3
AutoCAD 2000
 90
        0
280
     0
281
     1
  0
CLASS
  1
HATCH
  2
AcDbHatch
  3
AutoCAD 2000
 90
        0
280
     0
281
     1
  0
CLASS
  1
XRECORD
  2
AcDbXrecord
  3
AutoCAD 2000
 90
        0
280
     0
281
     0
  0
CLASS
  1
LONG_TRANSACTION
  2
AcDbLongTransaction
  3
AutoCAD 2000
 90
        0
280
     0
281
     0
  0
CLASS
  1
LWPOLYLINE
  2
AcDbPolyline
  3
AutoCAD 2000
 90
        0
280
     0
281
     1
  0
CLASS
  1
HATCH
  2
AcDbHatch
  3
AutoCAD 2000
 90
        0
280
     0
281
     1
  0
CLASS
  1
XRECORD
  2
AcDbXrecord
  3
AutoCAD 2000
 90
        0
280
     0
281
     0
  0
CLASS
  1
LONG_TRANSACTION
  2
AcDbLongTransaction
  3
AutoCAD 2000
 90
        0
280
     0
281
     0
  0
CLASS
  1
LWPOLYLINE
  2
AcDbPolyline
  3
AutoCAD 2000
 90
        0
280
     0
281
     1
  0
CLASS
  1
HATCH
  2
AcDbHatch
  3
AutoCAD 2000
 90
        0
280
     0
281
     1
  0
CLASS
  1
XRECORD
  2
AcDbXrecord
  3
AutoCAD 2000
 90
        0
280
     0
281
     0
  0
CLASS
  1
LONG_TRANSACTION
  2
AcDbLongTransaction
  3
AutoCAD 2000
 90
        0
280
     0
281
     0
  0
CLASS
  1
LWPOLYLINE
  2
AcDbPolyline
  3
AutoCAD 2000
 90
        0
280
     0
281
     1
  0
CLASS
  1
HATCH
  2
AcDbHatch
  3
AutoCAD 2000
 90
        0
280
     0
281
     1
  0
CLASS
  1
XRECORD
  2
AcDbXrecord
  3
AutoCAD 2000
 90
        0
280
     0
281
     0
  0
ENDSEC
  0
SECTION
  2
TABLES
  0
TABLE
  2
VPORT
  5
8
330
0
100
AcDbSymbolTable
 70
     2
  0
VPORT
  5
38C
330
8
100
AcDbSymbolTableRecord
100
AcDbViewportTableRecord
  2
*ACTIVE
 70
     0
 10
0.0
 20
0.0
 11
1.0
 21
1.0
 12
34.91493692759401
 22
4.687316962852282
 13
0.0
 23
0.0
 14
0.5740882589684922
 24
0.5740882589684922
 15
0.5
 25
0.5
 16
0.0
 26
0.0
 36
1.0
 17
0.0
 27
0.0
 37
0.0
 40
6.176913401807768
 41
1.570528967254408
 42
50.0
 43
0.0
 44
0.0
 50
0.0
 51
0.0
 71
     0
 72
   100
 73
     1
 74
     0
 75
     0
 76
     0
 77
     0
 78
     0
  0
ENDTAB
  0
TABLE
  2
LTYPE
  5
5
330
0
100
AcDbSymbolTable
 70
     2
  0
LTYPE
  5
12
330
5
100
AcDbSymbolTableRecord
100
AcDbLinetypeTableRecord
  2
BYBLOCK
 70
     0
  3

 72
    65
 73
     0
 40
0.0
  0
LTYPE
  5
13
330
5
100
AcDbSymbolTableRecord
100
AcDbLinetypeTableRecord
  2
BYLAYER
 70
     0
  3

 72
    65
 73
     0
 40
0.0
  0
LTYPE
  5
14
330
5
100
AcDbSymbolTableRecord
100
AcDbLinetypeTableRecord
  2
CONTINUOUS
 70
     0
  3
Solid line
 72
    65
 73
     0
 40
0.0
  0
LTYPE
  5
1B1
330
5
100
AcDbSymbolTableRecord
100
AcDbLinetypeTableRecord
  2
HIDDEN2
 70
     0
  3
_ _ _ _ _ _ _ _ _ _ _ _ _ _ _ _ _ _ _ _ _ _ _ _
 72
    65
 73
     2
 40
0.1875
 49
0.125
 74
     0
 49
-0.0625
 74
     0
  0
ENDTAB
  0
TABLE
  2
LAYER
  5
2
330
0
100
AcDbSymbolTable
 70
     5
  0
LAYER
  5
F
330
2
100
AcDbSymbolTableRecord
100
AcDbLayerTableRecord
  2
0
 70
     0
 62
     7
  6
CONTINUOUS
  0
LAYER
  5
1B5
330
2
100
AcDbSymbolTableRecord
100
AcDbLayerTableRecord
  2
ADP1DETAIL
 70
     0
 62
     7
  6
CONTINUOUS
  0
LAYER
  5
1B7
330
2
100
AcDbSymbolTableRecord
100
AcDbLayerTableRecord
  2
DEFPOINTS
 70
     0
 62
     7
  6
CONTINUOUS
  0
LAYER
  5
1B8
330
2
100
AcDbSymbolTableRecord
100
AcDbLayerTableRecord
  2
ADPDIM
 70
     0
 62
     3
  6
CONTINUOUS
  0
LAYER
  5
1B9
330
2
100
AcDbSymbolTableRecord
100
AcDbLayerTableRecord
  2
ADP2DETAIL
 70
     0
 62
     5
  6
CONTINUOUS
  0
ENDTAB
  0
TABLE
  2
STYLE
  5
3
330
0
100
AcDbSymbolTable
 70
     2
  0
STYLE
  5
10
330
3
100
AcDbSymbolTableRecord
100
AcDbTextStyleTableRecord
  2
STANDARD
 70
     0
 40
0.0
 41
1.0
 50
0.0
 71
     0
 42
0.2
  3
txt
  4

  0
STYLE
  5
219
330
3
100
AcDbSymbolTableRecord
100
AcDbTextStyleTableRecord
  2
ARIAL_WIDE
 70
     0
 40
0.0
 41
1.25
 50
0.0
 71
     0
 42
0.2
  3
ARIAL.TTF
  4

1001
ACAD
1000
Arial
1071
       34
  0
ENDTAB
  0
TABLE
  2
VIEW
  5
6
330
0
100
AcDbSymbolTable
 70
     0
  0
ENDTAB
  0
TABLE
  2
UCS
  5
7
330
0
100
AcDbSymbolTable
 70
     0
  0
ENDTAB
  0
TABLE
  2
APPID
  5
9
330
0
100
AcDbSymbolTable
 70
     1
  0
APPID
  5
11
330
9
100
AcDbSymbolTableRecord
100
AcDbRegAppTableRecord
  2
ACAD
 70
     0
  0
ENDTAB
  0
TABLE
  2
DIMSTYLE
  5
A
330
0
100
AcDbSymbolTable
 70
     1
  0
DIMSTYLE
105
20D
330
A
100
AcDbSymbolTableRecord
100
AcDbDimStyleTableRecord
  2
STANDARD
 70
     0
  3

  4

  5

  6

  7

 40
1.0
 41
0.18
 42
0.0625
 43
0.38
 44
0.18
 45
0.0
 46
0.0
 47
0.0
 48
0.0
140
0.18
141
0.09
142
0.0
143
25.4
144
1.0
145
0.0
146
1.0
147
0.09
 71
     0
 72
     0
 73
     1
 74
     1
 75
     0
 76
     0
 77
     0
 78
     0
170
     0
171
     2
172
     0
173
     0
174
     0
175
     0
176
     0
177
     0
178
     0
270
     2
271
     4
272
     4
273
     2
274
     2
340
10
275
     0
280
     0
281
     0
282
     0
283
     1
284
     0
285
     0
286
     0
287
     3
288
     0
  0
ENDTAB
  0
TABLE
  2
BLOCK_RECORD
  5
1
330
0
100
AcDbSymbolTable
 70
     3
  0
BLOCK_RECORD
  5
18
102
{ACAD_XDICTIONARY
360
26E
102
}
330
1
100
AcDbSymbolTableRecord
100
AcDbBlockTableRecord
  2
*MODEL_SPACE
  0
BLOCK_RECORD
  5
15
102
{ACAD_XDICTIONARY
360
26C
102
}
330
1
100
AcDbSymbolTableRecord
100
AcDbBlockTableRecord
  2
*PAPER_SPACE
  0
BLOCK_RECORD
  5
1AD
330
1
100
AcDbSymbolTableRecord
100
AcDbBlockTableRecord
  2
*D0
  0
BLOCK_RECORD
  5
1AE
330
1
100
AcDbSymbolTableRecord
100
AcDbBlockTableRecord
  2
*D1
  0
BLOCK_RECORD
  5
1AF
330
1
100
AcDbSymbolTableRecord
100
AcDbBlockTableRecord
  2
*D2
  0
ENDTAB
  0
ENDSEC
  0
SECTION
  2
BLOCKS
  0
BLOCK
  5
1BC
330
18
100
AcDbEntity
  8
0
100
AcDbBlockBegin
  2
*MODEL_SPACE
 70
     0
 10
0.0
 20
0.0
 30
0.0
  3
*MODEL_SPACE
  1

  0
ENDBLK
  5
1BD
330
18
100
AcDbEntity
  8
0
100
AcDbBlockEnd
  0
BLOCK
  5
1BA
330
15
100
AcDbEntity
 67
     1
  8
0
100
AcDbBlockBegin
  2
*PAPER_SPACE
 70
     0
 10
0.0
 20
0.0
 30
0.0
  3
*PAPER_SPACE
  1

  0
ENDBLK
  5
1BB
330
15
100
AcDbEntity
 67
     1
  8
0
100
AcDbBlockEnd
  0
BLOCK
  5
1BF
330
1AD
100
AcDbEntity
  8
0
100
AcDbBlockBegin
  2
*D0
 70
     1
 10
0.0
 20
0.0
 30
0.0
  3
*D0
  1

  0
LINE
  5
1C0
330
1AD
100
AcDbEntity
  8
0
  6
BYBLOCK
 62
     0
100
AcDbLine
 10
34.42306535281933
 20
4.901134331993064
 30
0.0
 11
33.69383281728109
 21
4.901134331993064
 31
0.0
  0
LINE
  5
1C1
330
1AD
100
AcDbEntity
  8
0
  6
BYBLOCK
 62
     0
100
AcDbLine
 10
34.1650905101964
 20
3.835876145644903
 30
0.0
 11
33.69383281728109
 21
3.835876145644903
 31
0.0
  0
LINE
  5
1C2
330
1AD
100
AcDbEntity
  8
0
  6
BYBLOCK
 62
     0
100
AcDbLine
 10
33.87383281728109
 20
4.901134331993064
 30
0.0
 11
33.87383281728109
 21
5.151134331993064
 31
0.0
  0
LINE
  5
1C3
330
1AD
100
AcDbEntity
  8
0
  6
BYBLOCK
 62
     0
100
AcDbLine
 10
33.87383281728109
 20
3.835876145644903
 30
0.0
 11
33.87383281728109
 21
3.585876145644903
 31
0.0
  0
LINE
  5
1C4
330
1AD
100
AcDbEntity
  8
0
  6
BYBLOCK
 62
     0
100
AcDbLine
 10
33.99883281728109
 20
4.776134331993064
 30
0.0
 11
33.74883281728109
 21
5.026134331993064
 31
0.0
  0
LINE
  5
1C5
330
1AD
100
AcDbEntity
  8
0
  6
BYBLOCK
 62
     0
100
AcDbLine
 10
33.99883281728109
 20
3.710876145644903
 30
0.0
 11
33.74883281728109
 21
3.960876145644903
 31
0.0
  0
TEXT
  5
1C6
330
1AD
100
AcDbEntity
  8
0
  6
BYBLOCK
 62
     0
100
AcDbText
 10
33.93633281728109
 20
2.87754281231157
 30
0.0
 40
0.125
  1
1 1/16
 50
90.0
 72
     1
 11
33.87383281728109
 21
3.169209478978237
 31
0.0
100
AcDbText
 73
     2
  0
POINT
  5
1C7
330
1AD
100
AcDbEntity
  8
DEFPOINTS
  6
BYBLOCK
 62
     0
100
AcDbPoint
 10
34.48556535281933
 20
4.901134331993064
 30
0.0
  0
POINT
  5
1C8
330
1AD
100
AcDbEntity
  8
DEFPOINTS
  6
BYBLOCK
 62
     0
100
AcDbPoint
 10
34.2275905101964
 20
3.835876145644903
 30
0.0
  0
POINT
  5
1C9
330
1AD
100
AcDbEntity
  8
DEFPOINTS
  6
BYBLOCK
 62
     0
100
AcDbPoint
 10
33.87383281728109
 20
3.835876145644903
 30
0.0
  0
ENDBLK
  5
1CA
330
1AD
100
AcDbEntity
  8
0
100
AcDbBlockEnd
  0
BLOCK
  5
1CB
330
1AE
100
AcDbEntity
  8
0
100
AcDbBlockBegin
  2
*D1
 70
     1
 10
0.0
 20
0.0
 30
0.0
  3
*D1
  1

  0
LINE
  5
1CC
330
1AE
100
AcDbEntity
  8
0
  6
BYBLOCK
 62
     0
100
AcDbLine
 10
34.2275905101964
 20
3.773376145644903
 30
0.0
 11
34.2275905101964
 21
3.450630495204982
 31
0.0
  0
LINE
  5
1CD
330
1AE
100
AcDbEntity
  8
0
  6
BYBLOCK
 62
     0
100
AcDbLine
 10
35.60419764453776
 20
3.773376145644903
 30
0.0
 11
35.60419764453776
 21
3.450630495204982
 31
0.0
  0
LINE
  5
1CE
330
1AE
100
AcDbEntity
  8
0
  6
BYBLOCK
 62
     0
100
AcDbLine
 10
34.2275905101964
 20
3.630630495204982
 30
0.0
 11
34.52006074403374
 21
3.630630495204982
 31
0.0
  0
LINE
  5
1CF
330
1AE
100
AcDbEntity
  8
0
  6
BYBLOCK
 62
     0
100
AcDbLine
 10
35.60419764453776
 20
3.630630495204982
 30
0.0
 11
35.31172741070042
 21
3.630630495204982
 31
0.0
  0
LINE
  5
1D0
330
1AE
100
AcDbEntity
  8
0
  6
BYBLOCK
 62
     0
100
AcDbLine
 10
34.10259051019639
 20
3.505630495204982
 30
0.0
 11
34.3525905101964
 21
3.755630495204982
 31
0.0
  0
LINE
  5
1D1
330
1AE
100
AcDbEntity
  8
0
  6
BYBLOCK
 62
     0
100
AcDbLine
 10
35.47919764453776
 20
3.505630495204982
 30
0.0
 11
35.72919764453776
 21
3.755630495204982
 31
0.0
  0
TEXT
  5
1D2
330
1AE
100
AcDbEntity
  8
0
  6
BYBLOCK
 62
     0
100
AcDbText
 10
34.64506074403375
 20
3.568130495204982
 30
0.0
 40
0.125
  1
1 3/8
 72
     1
 11
34.91589407736708
 21
3.630630495204982
 31
0.0
100
AcDbText
 73
     2
  0
POINT
  5
1D3
330
1AE
100
AcDbEntity
  8
DEFPOINTS
  6
BYBLOCK
 62
     0
100
AcDbPoint
 10
34.2275905101964
 20
3.835876145644903
 30
0.0
  0
POINT
  5
1D4
330
1AE
100
AcDbEntity
  8
DEFPOINTS
  6
BYBLOCK
 62
     0
100
AcDbPoint
 10
35.60419764453776
 20
3.835876145644903
 30
0.0
  0
POINT
  5
1D5
330
1AE
100
AcDbEntity
  8
DEFPOINTS
  6
BYBLOCK
 62
     0
100
AcDbPoint
 10
35.60419764453776
 20
3.630630495204982
 30
0.0
  0
ENDBLK
  5
1D6
330
1AE
100
AcDbEntity
  8
0
100
AcDbBlockEnd
  0
BLOCK
  5
1D7
330
1AF
100
AcDbEntity
  8
0
100
AcDbBlockBegin
  2
*D2
 70
     1
 10
0.0
 20
0.0
 30
0.0
  3
*D2
  1

  0
LINE
  5
1D8
330
1AF
100
AcDbEntity
  8
0
  6
BYBLOCK
 62
     0
100
AcDbLine
 10
34.54950290001562
 20
4.96587351930379
 30
0.0
 11
34.54950290001562
 21
5.243581899977734
 31
0.0
  0
LINE
  5
1D9
330
1AF
100
AcDbEntity
  8
0
  6
BYBLOCK
 62
     0
100
AcDbLine
 10
35.28374927910706
 20
4.96587351930379
 30
0.0
 11
35.28374927910706
 21
5.243581899977734
 31
0.0
  0
LINE
  5
1DA
330
1AF
100
AcDbEntity
  8
0
  6
BYBLOCK
 62
     0
100
AcDbLine
 10
34.54950290001562
 20
5.063581899977735
 30
0.0
 11
34.29950290001562
 21
5.063581899977735
 31
0.0
  0
LINE
  5
1DB
330
1AF
100
AcDbEntity
  8
0
  6
BYBLOCK
 62
     0
100
AcDbLine
 10
35.28374927910706
 20
5.063581899977735
 30
0.0
 11
35.53374927910706
 21
5.063581899977735
 31
0.0
  0
LINE
  5
1DC
330
1AF
100
AcDbEntity
  8
0
  6
BYBLOCK
 62
     0
100
AcDbLine
 10
34.42450290001562
 20
4.938581899977735
 30
0.0
 11
34.67450290001562
 21
5.188581899977735
 31
0.0
  0
LINE
  5
1DD
330
1AF
100
AcDbEntity
  8
0
  6
BYBLOCK
 62
     0
100
AcDbLine
 10
35.15874927910706
 20
4.938581899977735
 30
0.0
 11
35.40874927910706
 21
5.188581899977735
 31
0.0
  0
TEXT
  5
1DE
330
1AF
100
AcDbEntity
  8
0
  6
BYBLOCK
 62
     0
100
AcDbText
 10
35.65874927910706
 20
5.001081899977735
 30
0.0
 40
0.125
  1
3/4
 72
     1
 11
35.82541594577373
 21
5.063581899977735
 31
0.0
100
AcDbText
 73
     2
  0
POINT
  5
1DF
330
1AF
100
AcDbEntity
  8
DEFPOINTS
  6
BYBLOCK
 62
     0
100
AcDbPoint
 10
34.54950290001562
 20
4.90337351930379
 30
0.0
  0
POINT
  5
1E0
330
1AF
100
AcDbEntity
  8
DEFPOINTS
  6
BYBLOCK
 62
     0
100
AcDbPoint
 10
35.28374927910706
 20
4.90337351930379
 30
0.0
  0
POINT
  5
1E1
330
1AF
100
AcDbEntity
  8
DEFPOINTS
  6
BYBLOCK
 62
     0
100
AcDbPoint
 10
35.28374927910706
 20
5.063581899977735
 30
0.0
  0
ENDBLK
  5
1E2
330
1AF
100
AcDbEntity
  8
0
100
AcDbBlockEnd
  0
ENDSEC
  0
SECTION
  2
ENTITIES
  0
DIMENSION
  5
1E3
330
18
100
AcDbEntity
  8
ADPDIM
100
AcDbDimension
  2
*D1
 10
35.60419764453776
 20
3.630630495204982
 30
0.0
 11
34.91589407736708
 21
3.630630495204982
 31
0.0
100
AcDbAlignedDimension
 13
34.2275905101964
 23
3.835876145644903
 33
0.0
 14
35.60419764453776
 24
3.835876145644903
 34
0.0
100
AcDbRotatedDimension
  0
DIMENSION
  5
1E4
330
18
100
AcDbEntity
  8
ADPDIM
100
AcDbDimension
  2
*D0
 10
33.87383281728109
 20
3.835876145644903
 30
0.0
 11
33.87383281728109
 21
3.169209478978237
 31
0.0
100
AcDbAlignedDimension
 13
34.48556535281933
 23
4.901134331993064
 33
0.0
 14
34.2275905101964
 24
3.835876145644903
 34
0.0
 50
90.0
100
AcDbRotatedDimension
  0
LINE
  5
1E5
330
18
100
AcDbEntity
  8
ADP1DETAIL
 62
     7
100
AcDbLine
 10
35.60419764453776
 20
3.835876145644903
 30
0.0
 11
34.2275905101964
 21
3.835876145644903
 31
0.0
  0
LINE
  5
1E6
330
18
100
AcDbEntity
  8
ADP1DETAIL
 62
     7
100
AcDbLine
 10
34.2275905101964
 20
4.149449014695195
 30
0.0
 11
35.60419764453776
 21
4.149449014695195
 31
0.0
  0
LINE
  5
1E7
330
18
100
AcDbEntity
  8
ADP1DETAIL
100
AcDbLine
 10
34.53899705758981
 20
6.586618692441913
 30
0.0
 11
35.28899705758981
 21
6.586618692441913
 31
0.0
  0
LINE
  5
1E8
330
18
100
AcDbEntity
  8
ADP1DETAIL
100
AcDbLine
 10
34.47649705758982
 20
6.649118692441913
 30
0.0
 11
35.35149705758982
 21
6.649118692441913
 31
0.0
  0
LINE
  5
1E9
330
18
100
AcDbEntity
  8
ADP1DETAIL
100
AcDbLine
 10
34.22649705758981
 20
6.899118692441913
 30
0.0
 11
35.60149705758981
 21
6.899118692441913
 31
0.0
  0
LINE
  5
1EA
330
18
100
AcDbEntity
  8
ADP1DETAIL
100
AcDbLine
 10
34.28899705758981
 20
6.836618692441913
 30
0.0
 11
35.53899705758981
 21
6.836618692441913
 31
0.0
  0
LINE
  5
1EB
330
18
100
AcDbEntity
  8
ADP1DETAIL
 62
     7
100
AcDbLine
 10
34.29653206296632
 20
4.712101042140049
 30
0.0
 11
35.53525609176783
 21
4.712101042140049
 31
0.0
  0
LINE
  5
1EC
330
18
100
AcDbEntity
  8
ADP1DETAIL
 62
     7
100
AcDbLine
 10
34.48556535281933
 20
4.901134331993064
 30
0.0
 11
35.34622280191482
 21
4.901134331993064
 31
0.0
  0
LINE
  5
1ED
330
18
100
AcDbEntity
  8
ADP1DETAIL
 62
     7
100
AcDbLine
 10
35.34622280191482
 20
4.83664062133733
 30
0.0
 11
34.48556535281933
 21
4.83664062133733
 31
0.0
  0
LINE
  5
1EE
330
18
100
AcDbEntity
  8
ADP1DETAIL
100
AcDbLine
 10
35.53899705758981
 20
5.586618692441913
 30
0.0
 11
34.28899705758981
 21
5.586618692441913
 31
0.0
  0
LINE
  5
1EF
330
18
100
AcDbEntity
  8
ADP1DETAIL
100
AcDbLine
 10
35.60149705758981
 20
5.524118692441913
 30
0.0
 11
34.22649705758981
 21
5.524118692441913
 31
0.0
  0
LINE
  5
1F0
330
18
100
AcDbEntity
  8
ADP1DETAIL
100
AcDbLine
 10
35.35149705758982
 20
5.774118692441913
 30
0.0
 11
34.47649705758982
 21
5.774118692441913
 31
0.0
  0
LINE
  5
1F1
330
18
100
AcDbEntity
  8
ADP1DETAIL
100
AcDbLine
 10
35.28899705758981
 20
5.836618692441913
 30
0.0
 11
34.53899705758981
 21
5.836618692441913
 31
0.0
  0
DIMENSION
  5
1F2
330
18
100
AcDbEntity
  8
ADPDIM
100
AcDbDimension
  2
*D2
 10
35.28374927910706
 20
5.063581899977735
 30
0.0
 11
35.82541594577373
 21
5.063581899977735
 31
0.0
100
AcDbAlignedDimension
 13
34.54950290001562
 23
4.90337351930379
 33
0.0
 14
35.28374927910706
 24
4.90337351930379
 34
0.0
100
AcDbRotatedDimension
  0
LINE
  5
1F3
330
18
100
AcDbEntity
  8
ADP1DETAIL
100
AcDbLine
 10
34.28899705758981
 20
5.586618692441913
 30
0.0
 11
34.28899705758981
 21
6.836618692441913
 31
0.0
  0
LINE
  5
1F4
330
18
100
AcDbEntity
  8
ADP1DETAIL
100
AcDbLine
 10
34.22649705758981
 20
5.524118692441913
 30
0.0
 11
34.22649705758981
 21
6.899118692441913
 31
0.0
  0
LINE
  5
1F5
330
18
100
AcDbEntity
  8
ADP2DETAIL
  6
HIDDEN2
100
AcDbLine
 10
34.54950290001562
 20
4.90337351930379
 30
0.0
 11
34.54950290001562
 21
3.834664802336299
 31
0.0
  0
LWPOLYLINE
  5
1F6
330
18
100
AcDbEntity
  8
ADP1DETAIL
 62
     7
100
AcDbPolyline
 90
        4
 70
     0
 43
0.0
 10
34.48556535281933
 20
4.83664062133733
 42
0.0824265497472858
 10
34.35657793150787
 20
4.794386121252538
 42
0.256313341581794
 10
34.29653206296632
 20
4.712101042140049
 42
-0.787370384239194
 10
34.2275905101964
 20
4.149449014695195
 42
17.38885297602661
  0
LINE
  5
1FC
330
18
100
AcDbEntity
  8
ADP1DETAIL
 62
     7
100
AcDbLine
 10
34.2275905101964
 20
3.835876145644903
 30
0.0
 11
34.2275905101964
 21
4.149449014695195
 31
0.0
  0
LINE
  5
1FD
330
18
100
AcDbEntity
  8
ADP1DETAIL
 62
     7
100
AcDbLine
 10
34.48556535281933
 20
4.83664062133733
 30
0.0
 11
34.48556535281933
 21
4.901134331993064
 31
0.0
  0
LINE
  5
1FE
330
18
100
AcDbEntity
  8
ADP1DETAIL
100
AcDbLine
 10
34.47649705758982
 20
5.774118692441913
 30
0.0
 11
34.47649705758982
 21
6.649118692441913
 31
0.0
  0
LINE
  5
1FF
330
18
100
AcDbEntity
  8
ADP1DETAIL
100
AcDbLine
 10
34.53899705758981
 20
5.836618692441913
 30
0.0
 11
34.53899705758981
 21
6.586618692441913
 31
0.0
  0
LINE
  5
200
330
18
100
AcDbEntity
  8
ADP1DETAIL
100
AcDbLine
 10
35.60149705758981
 20
6.899118692441913
 30
0.0
 11
35.60149705758981
 21
5.524118692441913
 31
0.0
  0
LINE
  5
201
330
18
100
AcDbEntity
  8
ADP1DETAIL
100
AcDbLine
 10
35.53899705758981
 20
6.836618692441913
 30
0.0
 11
35.53899705758981
 21
5.586618692441913
 31
0.0
  0
LWPOLYLINE
  5
202
330
18
100
AcDbEntity
  8
ADP1DETAIL
 62
     7
100
AcDbPolyline
 90
        4
 70
     0
 43
0.0
 10
35.34622280191482
 20
4.83664062133733
 42
-0.0824265497472858
 10
35.47521022322629
 20
4.794386121252538
 42
-0.256313341581794
 10
35.53525609176783
 20
4.712101042140049
 42
0.787370384239194
 10
35.60419764453776
 20
4.149449014695195
 42
-17.38885297602661
  0
LINE
  5
208
330
18
100
AcDbEntity
  8
ADP2DETAIL
  6
HIDDEN2
100
AcDbLine
 10
35.28374927910706
 20
4.90337351930379
 30
0.0
 11
35.28374927910706
 21
3.834664802336299
 31
0.0
  0
LINE
  5
209
330
18
100
AcDbEntity
  8
ADP1DETAIL
 62
     7
100
AcDbLine
 10
35.34622280191482
 20
4.901134331993064
 30
0.0
 11
35.34622280191482
 21
4.83664062133733
 31
0.0
  0
LINE
  5
20A
330
18
100
AcDbEntity
  8
ADP1DETAIL
 62
     7
100
AcDbLine
 10
35.60419764453776
 20
4.149449014695195
 30
0.0
 11
35.60419764453776
 21
3.835876145644903
 31
0.0
  0
LINE
  5
20B
330
18
100
AcDbEntity
  8
ADP1DETAIL
100
AcDbLine
 10
35.35149705758982
 20
6.649118692441913
 30
0.0
 11
35.35149705758982
 21
5.774118692441913
 31
0.0
  0
LINE
  5
20C
330
18
100
AcDbEntity
  8
ADP1DETAIL
100
AcDbLine
 10
35.28899705758981
 20
6.586618692441913
 30
0.0
 11
35.28899705758981
 21
5.836618692441913
 31
0.0
  0
TEXT
  5
21A
330
18
100
AcDbEntity
  8
ADPDIM
100
AcDbText
 10
30.08986342422929
 20
2.501719343264775
 30
0.0
 40
0.09375
  1
J U L I U S  B L U M  &  C O . ,  I N C .      ( 8 0 0 )  5 2 6 - 6 2 9 3        W W W . J U L I U S B L U M . C O M        P A R T  N o .  3 5 4
 41
1.25
  7
ARIAL_WIDE
 72
     1
 11
34.91589407736708
 21
2.595469343264775
 31
0.0
100
AcDbText
 73
     3
  0
ENDSEC
  0
SECTION
  2
OBJECTS
  0
DICTIONARY
  5
C
330
0
100
AcDbDictionary
  3
ACAD_GROUP
350
D
  3
ACAD_LAYOUT
350
213
  3
ACAD_MLINESTYLE
350
E
  3
ACAD_PLOTSETTINGS
350
214
  3
ACAD_PLOTSTYLENAME
350
211
  3
ACDBHEADERROUNDTRIPXREC
350
38D
  3
ACDBVARIABLEDICTIONARY
350
274
  0
DICTIONARY
  5
26E
330
18
100
AcDbDictionary
280
     1
  3
ACAD_LAYOUTSELFREF
360
3AE
  0
DICTIONARY
  5
26C
330
15
100
AcDbDictionary
280
     1
  3
ACAD_LAYOUTSELFREF
360
3AD
  0
DICTIONARY
  5
D
102
{ACAD_REACTORS
330
C
102
}
330
C
100
AcDbDictionary
  0
DICTIONARY
  5
213
102
{ACAD_REACTORS
330
C
102
}
330
C
100
AcDbDictionary
  0
DICTIONARY
  5
E
102
{ACAD_REACTORS
330
C
102
}
330
C
100
AcDbDictionary
  3
STANDARD
350
1B
  0
DICTIONARY
  5
214
102
{ACAD_REACTORS
330
C
102
}
330
C
100
AcDbDictionary
  0
ACDBDICTIONARYWDFLT
  5
211
102
{ACAD_REACTORS
330
C
102
}
330
C
100
AcDbDictionary
281
     1
  3
Normal
350
212
100
AcDbDictionaryWithDefault
340
212
  0
DICTIONARY
  5
38D
102
{ACAD_REACTORS
330
C
102
}
330
C
100
AcDbDictionary
  3
CEPSNTYPE
350
397
  3
FINGERPRINTGUID
350
398
  3
HYPERLINKBASE
350
390
  3
INSUNITS
350
396
  3
LAYOUTDICT
350
392
  3
LWETCUNION
350
395
  3
PLOTSETDICT
350
393
  3
PLOTSTYLNAMDICT
350
394
  3
PSVPSCALE
350
39A
  3
PUCSBASE
350
39D
  3
PUCSORGBACK
350
3A3
  3
PUCSORGBOTTOM
350
39F
  3
PUCSORGFRONT
350
3A2
  3
PUCSORGLEFT
350
3A0
  3
PUCSORGRIGHT
350
3A1
  3
PUCSORGTOP
350
39E
  3
PUCSORTHOREF
350
39B
  3
PUCSORTHOVIEW
350
39C
  3
STYLESHEET
350
391
  3
TSTACKALIGN
350
38E
  3
TSTACKSIZE
350
38F
  3
UCSBASE
350
3A6
  3
UCSORGBACK
350
3AC
  3
UCSORGBOTTOM
350
3A8
  3
UCSORGFRONT
350
3AB
  3
UCSORGLEFT
350
3A9
  3
UCSORGRIGHT
350
3AA
  3
UCSORGTOP
350
3A7
  3
UCSORTHOREF
350
3A4
  3
UCSORTHOVIEW
350
3A5
  3
VERSIONGUID
350
399
  0
DICTIONARY
  5
274
102
{ACAD_REACTORS
330
C
102
}
330
C
100
AcDbDictionary
  3
DIMASSOC
350
275
  0
XRECORD
  5
3AE
102
{ACAD_REACTORS
330
26E
102
}
330
26E
100
AcDbXrecord
340
18
  0
XRECORD
  5
3AD
102
{ACAD_REACTORS
330
26C
102
}
330
26C
100
AcDbXrecord
340
15
  0
MLINESTYLE
  5
1B
102
{ACAD_REACTORS
330
E
102
}
330
E
100
AcDbMlineStyle
  2
STANDARD
 70
     0
  3

 62
     0
 51
90.0
 52
90.0
 71
     2
 49
0.5
 62
   256
  6
BYLAYER
 49
-0.5
 62
   256
  6
BYLAYER
  0
ACDBPLACEHOLDER
  5
212
102
{ACAD_REACTORS
330
211
102
}
330
211
100
AcDbPlaceHolder
280
     0
  0
XRECORD
  5
397
102
{ACAD_REACTORS
330
38D
102
}
330
38D
100
AcDbXrecord
 90
        0
  0
XRECORD
  5
398
102
{ACAD_REACTORS
330
38D
102
}
330
38D
100
AcDbXrecord
  1
{2330F8C2-F33F-4211-8334-7FC5B0D813B8}
  0
XRECORD
  5
390
102
{ACAD_REACTORS
330
38D
102
}
330
38D
100
AcDbXrecord
  1

  0
XRECORD
  5
396
102
{ACAD_REACTORS
330
38D
102
}
330
38D
100
AcDbXrecord
 90
        0
  0
XRECORD
  5
392
102
{ACAD_REACTORS
330
38D
102
}
330
38D
100
AcDbXrecord
340
213
  0
XRECORD
  5
395
102
{ACAD_REACTORS
330
38D
102
}
330
38D
100
AcDbXrecord
 90
    14877
  0
XRECORD
  5
393
102
{ACAD_REACTORS
330
38D
102
}
330
38D
100
AcDbXrecord
340
214
  0
XRECORD
  5
394
102
{ACAD_REACTORS
330
38D
102
}
330
38D
100
AcDbXrecord
340
211
  0
XRECORD
  5
39A
102
{ACAD_REACTORS
330
38D
102
}
330
38D
100
AcDbXrecord
 40
0.0
  0
XRECORD
  5
39D
102
{ACAD_REACTORS
330
38D
102
}
330
38D
100
AcDbXrecord
340
0
  0
XRECORD
  5
3A3
102
{ACAD_REACTORS
330
38D
102
}
330
38D
100
AcDbXrecord
 10
0.0
 20
0.0
 30
0.0
  0
XRECORD
  5
39F
102
{ACAD_REACTORS
330
38D
102
}
330
38D
100
AcDbXrecord
 10
0.0
 20
0.0
 30
0.0
  0
XRECORD
  5
3A2
102
{ACAD_REACTORS
330
38D
102
}
330
38D
100
AcDbXrecord
 10
0.0
 20
0.0
 30
0.0
  0
XRECORD
  5
3A0
102
{ACAD_REACTORS
330
38D
102
}
330
38D
100
AcDbXrecord
 10
0.0
 20
0.0
 30
0.0
  0
XRECORD
  5
3A1
102
{ACAD_REACTORS
330
38D
102
}
330
38D
100
AcDbXrecord
 10
0.0
 20
0.0
 30
0.0
  0
XRECORD
  5
39E
102
{ACAD_REACTORS
330
38D
102
}
330
38D
100
AcDbXrecord
 10
0.0
 20
0.0
 30
0.0
  0
XRECORD
  5
39B
102
{ACAD_REACTORS
330
38D
102
}
330
38D
100
AcDbXrecord
340
0
  0
XRECORD
  5
39C
102
{ACAD_REACTORS
330
38D
102
}
330
38D
100
AcDbXrecord
 70
     0
  0
XRECORD
  5
391
102
{ACAD_REACTORS
330
38D
102
}
330
38D
100
AcDbXrecord
  1

  0
XRECORD
  5
38E
102
{ACAD_REACTORS
330
38D
102
}
330
38D
100
AcDbXrecord
 90
        1
  0
XRECORD
  5
38F
102
{ACAD_REACTORS
330
38D
102
}
330
38D
100
AcDbXrecord
 90
       70
  0
XRECORD
  5
3A6
102
{ACAD_REACTORS
330
38D
102
}
330
38D
100
AcDbXrecord
340
0
  0
XRECORD
  5
3AC
102
{ACAD_REACTORS
330
38D
102
}
330
38D
100
AcDbXrecord
 10
0.0
 20
0.0
 30
0.0
  0
XRECORD
  5
3A8
102
{ACAD_REACTORS
330
38D
102
}
330
38D
100
AcDbXrecord
 10
0.0
 20
0.0
 30
0.0
  0
XRECORD
  5
3AB
102
{ACAD_REACTORS
330
38D
102
}
330
38D
100
AcDbXrecord
 10
0.0
 20
0.0
 30
0.0
  0
XRECORD
  5
3A9
102
{ACAD_REACTORS
330
38D
102
}
330
38D
100
AcDbXrecord
 10
0.0
 20
0.0
 30
0.0
  0
XRECORD
  5
3AA
102
{ACAD_REACTORS
330
38D
102
}
330
38D
100
AcDbXrecord
 10
0.0
 20
0.0
 30
0.0
  0
XRECORD
  5
3A7
102
{ACAD_REACTORS
330
38D
102
}
330
38D
100
AcDbXrecord
 10
0.0
 20
0.0
 30
0.0
  0
XRECORD
  5
3A4
102
{ACAD_REACTORS
330
38D
102
}
330
38D
100
AcDbXrecord
340
0
  0
XRECORD
  5
3A5
102
{ACAD_REACTORS
330
38D
102
}
330
38D
100
AcDbXrecord
 70
     0
  0
XRECORD
  5
399
102
{ACAD_REACTORS
330
38D
102
}
330
38D
100
AcDbXrecord
  1
{6E376248-26FA-4F31-9AB8-285C8D29E7DE}
  0
DICTIONARYVAR
  5
275
102
{ACAD_REACTORS
330
274
102
}
330
274
100
DictionaryVariables
280
     0
  1
1
  0
ENDSEC
  0
EOF
