  0
SECTION
  2
HEADER
  9
$ACADVER
  1
AC1014
  9
$ACADMAINTVER
 70
     9
  9
$DWGCODEPAGE
  3
ANSI_1252
  9
$INSBASE
 10
4.72867158801644
 20
2.480458437409966
 30
0.0
  9
$EXTMIN
 10
-1.297057436540176
 20
1.784865026400169
 30
0.0
  9
$EXTMAX
 10
11.75440061257305
 20
6.924024832721239
 30
0.0
  9
$LIMMIN
 10
0.0
 20
0.0
  9
$LIMMAX
 10
36.0
 20
36.0
  9
$ORTHOMODE
 70
     1
  9
$REGENMODE
 70
     1
  9
$FILLMODE
 70
     1
  9
$QTEXTMODE
 70
     0
  9
$MIRRTEXT
 70
     1
  9
$DRAGMODE
 70
     0
  9
$LTSCALE
 40
1.0
  9
$OSMODE
 70
    37
  9
$ATTMODE
 70
     1
  9
$TEXTSIZE
 40
0.2
  9
$TRACEWID
 40
0.05
  9
$TEXTSTYLE
  7
STANDARD
  9
$CLAYER
  8
ADPDIM
  9
$CELTYPE
  6
BYLAYER
  9
$CECOLOR
 62
   256
  9
$CELTSCALE
 40
1.0
  9
$DELOBJ
 70
     1
  9
$DISPSILH
 70
     0
  9
$DIMSCALE
 40
1.0
  9
$DIMASZ
 40
0.125
  9
$DIMEXO
 40
0.0625
  9
$DIMDLI
 40
0.38
  9
$DIMRND
 40
0.0
  9
$DIMDLE
 40
0.0
  9
$DIMEXE
 40
0.18
  9
$DIMTP
 40
0.0
  9
$DIMTM
 40
0.0
  9
$DIMTXT
 40
0.125
  9
$DIMCEN
 40
0.1875
  9
$DIMTSZ
 40
0.125
  9
$DIMTOL
 70
     0
  9
$DIMLIM
 70
     0
  9
$DIMTIH
 70
     0
  9
$DIMTOH
 70
     0
  9
$DIMSE1
 70
     0
  9
$DIMSE2
 70
     0
  9
$DIMTAD
 70
     0
  9
$DIMZIN
 70
     3
  9
$DIMBLK
  1

  9
$DIMASO
 70
     1
  9
$DIMSHO
 70
     1
  9
$DIMPOST
  1

  9
$DIMAPOST
  1

  9
$DIMALT
 70
     0
  9
$DIMALTD
 70
     1
  9
$DIMALTF
 40
25.4
  9
$DIMLFAC
 40
1.0
  9
$DIMTOFL
 70
     0
  9
$DIMTVP
 40
0.0
  9
$DIMTIX
 70
     0
  9
$DIMSOXD
 70
     0
  9
$DIMSAH
 70
     0
  9
$DIMBLK1
  1

  9
$DIMBLK2
  1

  9
$DIMSTYLE
  2
STANDARD
  9
$DIMCLRD
 70
     0
  9
$DIMCLRE
 70
     0
  9
$DIMCLRT
 70
     0
  9
$DIMTFAC
 40
1.0
  9
$DIMGAP
 40
0.125
  9
$DIMJUST
 70
     0
  9
$DIMSD1
 70
     0
  9
$DIMSD2
 70
     0
  9
$DIMTOLJ
 70
     1
  9
$DIMTZIN
 70
     0
  9
$DIMALTZ
 70
     0
  9
$DIMALTTZ
 70
     0
  9
$DIMFIT
 70
     3
  9
$DIMUPT
 70
     0
  9
$DIMUNIT
 70
     2
  9
$DIMDEC
 70
     4
  9
$DIMTDEC
 70
     4
  9
$DIMALTU
 70
     2
  9
$DIMALTTD
 70
     2
  9
$DIMTXSTY
  7
STANDARD
  9
$DIMAUNIT
 70
     0
  9
$LUNITS
 70
     5
  9
$LUPREC
 70
     4
  9
$SKETCHINC
 40
0.1
  9
$FILLETRAD
 40
0.03
  9
$AUNITS
 70
     0
  9
$AUPREC
 70
     0
  9
$MENU
  1
acad
  9
$ELEVATION
 40
0.0
  9
$PELEVATION
 40
0.0
  9
$THICKNESS
 40
0.0
  9
$LIMCHECK
 70
     0
  9
$BLIPMODE
 70
     0
  9
$CHAMFERA
 40
0.0
  9
$CHAMFERB
 40
0.0
  9
$CHAMFERC
 40
0.0
  9
$CHAMFERD
 40
0.0
  9
$SKPOLY
 70
     0
  9
$TDCREATE
 40
2450281.534618055
  9
$TDUPDATE
 40
2452297.084603402
  9
$TDINDWG
 40
0.1002537500
  9
$TDUSRTIMER
 40
0.1002537500
  9
$USRTIMER
 70
     1
  9
$ANGBASE
 50
0.0
  9
$ANGDIR
 70
     0
  9
$PDMODE
 70
     0
  9
$PDSIZE
 40
0.0
  9
$PLINEWID
 40
0.0
  9
$COORDS
 70
     2
  9
$SPLFRAME
 70
     0
  9
$SPLINETYPE
 70
     6
  9
$SPLINESEGS
 70
     8
  9
$ATTDIA
 70
     0
  9
$ATTREQ
 70
     1
  9
$HANDLING
 70
 22529
  9
$HANDSEED
  5
212
  9
$SURFTAB1
 70
     6
  9
$SURFTAB2
 70
     6
  9
$SURFTYPE
 70
     6
  9
$SURFU
 70
     6
  9
$SURFV
 70
     6
  9
$UCSNAME
  2

  9
$UCSORG
 10
0.0
 20
0.0
 30
0.0
  9
$UCSXDIR
 10
1.0
 20
0.0
 30
0.0
  9
$UCSYDIR
 10
0.0
 20
1.0
 30
0.0
  9
$PUCSNAME
  2

  9
$PUCSORG
 10
0.0
 20
0.0
 30
0.0
  9
$PUCSXDIR
 10
1.0
 20
0.0
 30
0.0
  9
$PUCSYDIR
 10
0.0
 20
1.0
 30
0.0
  9
$USERI1
 70
     0
  9
$USERI2
 70
     0
  9
$USERI3
 70
     0
  9
$USERI4
 70
     0
  9
$USERI5
 70
     0
  9
$USERR1
 40
0.0
  9
$USERR2
 40
0.0
  9
$USERR3
 40
0.0
  9
$USERR4
 40
0.0
  9
$USERR5
 40
0.0
  9
$WORLDVIEW
 70
     1
  9
$SHADEDGE
 70
     3
  9
$SHADEDIF
 70
    70
  9
$TILEMODE
 70
     1
  9
$MAXACTVP
 70
    15
  9
$PINSBASE
 10
0.1250029802322391
 20
0.0
 30
0.0
  9
$PLIMCHECK
 70
     0
  9
$PEXTMIN
 10
1.000000000000000E+20
 20
1.000000000000000E+20
 30
1.000000000000000E+20
  9
$PEXTMAX
 10
-1.000000000000000E+20
 20
-1.000000000000000E+20
 30
-1.000000000000000E+20
  9
$PLIMMIN
 10
0.0
 20
0.0
  9
$PLIMMAX
 10
12.0
 20
9.0
  9
$UNITMODE
 70
     0
  9
$VISRETAIN
 70
     0
  9
$PLINEGEN
 70
     0
  9
$PSLTSCALE
 70
     1
  9
$TREEDEPTH
 70
  3020
  9
$PICKSTYLE
 70
     1
  9
$CMLSTYLE
  2
STANDARD
  9
$CMLJUST
 70
     0
  9
$CMLSCALE
 40
1.0
  9
$PROXYGRAPHICS
 70
     1
  9
$MEASUREMENT
 70
     0
  0
ENDSEC
  0
SECTION
  2
CLASSES
  0
CLASS
  1
ACDBDICTIONARYWDFLT
  2
AcDbDictionaryWithDefault
  3
AutoCAD 2000
 90
        0
280
     0
281
     0
  0
CLASS
  1
ACDBPLACEHOLDER
  2
AcDbPlaceHolder
  3
AutoCAD 2000
 90
        0
280
     0
281
     0
  0
CLASS
  1
LAYOUT
  2
AcDbLayout
  3
AutoCAD 2000
 90
        0
280
     0
281
     0
  0
CLASS
  1
DICTIONARYVAR
  2
AcDbDictionaryVar
  3
AutoCAD 2000
 90
        0
280
     0
281
     0
  0
CLASS
  1
LONG_TRANSACTION
  2
AcDbLongTransaction
  3
AutoCAD 2000
 90
        0
280
     0
281
     0
  0
CLASS
  1
LWPOLYLINE
  2
AcDbPolyline
  3
AutoCAD 2000
 90
        0
280
     0
281
     1
  0
CLASS
  1
HATCH
  2
AcDbHatch
  3
AutoCAD 2000
 90
        0
280
     0
281
     1
  0
CLASS
  1
XRECORD
  2
AcDbXrecord
  3
AutoCAD 2000
 90
        0
280
     0
281
     0
  0
CLASS
  1
LONG_TRANSACTION
  2
AcDbLongTransaction
  3
AutoCAD 2000
 90
        0
280
     0
281
     0
  0
CLASS
  1
LWPOLYLINE
  2
AcDbPolyline
  3
AutoCAD 2000
 90
        0
280
     0
281
     1
  0
CLASS
  1
HATCH
  2
AcDbHatch
  3
AutoCAD 2000
 90
        0
280
     0
281
     1
  0
CLASS
  1
XRECORD
  2
AcDbXrecord
  3
AutoCAD 2000
 90
        0
280
     0
281
     0
  0
CLASS
  1
LONG_TRANSACTION
  2
AcDbLongTransaction
  3
AutoCAD 2000
 90
        0
280
     0
281
     0
  0
CLASS
  1
LWPOLYLINE
  2
AcDbPolyline
  3
AutoCAD 2000
 90
        0
280
     0
281
     1
  0
CLASS
  1
HATCH
  2
AcDbHatch
  3
AutoCAD 2000
 90
        0
280
     0
281
     1
  0
CLASS
  1
XRECORD
  2
AcDbXrecord
  3
AutoCAD 2000
 90
        0
280
     0
281
     0
  0
CLASS
  1
LONG_TRANSACTION
  2
AcDbLongTransaction
  3
AutoCAD 2000
 90
        0
280
     0
281
     0
  0
CLASS
  1
LWPOLYLINE
  2
AcDbPolyline
  3
AutoCAD 2000
 90
        0
280
     0
281
     1
  0
CLASS
  1
HATCH
  2
AcDbHatch
  3
AutoCAD 2000
 90
        0
280
     0
281
     1
  0
CLASS
  1
XRECORD
  2
AcDbXrecord
  3
AutoCAD 2000
 90
        0
280
     0
281
     0
  0
CLASS
  1
LONG_TRANSACTION
  2
AcDbLongTransaction
  3
AutoCAD 2000
 90
        0
280
     0
281
     0
  0
CLASS
  1
LWPOLYLINE
  2
AcDbPolyline
  3
AutoCAD 2000
 90
        0
280
     0
281
     1
  0
CLASS
  1
HATCH
  2
AcDbHatch
  3
AutoCAD 2000
 90
        0
280
     0
281
     1
  0
CLASS
  1
XRECORD
  2
AcDbXrecord
  3
AutoCAD 2000
 90
        0
280
     0
281
     0
  0
ENDSEC
  0
SECTION
  2
TABLES
  0
TABLE
  2
VPORT
  5
8
330
0
100
AcDbSymbolTable
 70
     2
  0
VPORT
  5
1EF
330
8
100
AcDbSymbolTableRecord
100
AcDbViewportTableRecord
  2
*ACTIVE
 70
     0
 10
0.0
 20
0.0
 11
1.0
 21
1.0
 12
5.240302929519658
 22
4.354980536684141
 13
0.0
 23
0.0
 14
0.5740882589684922
 24
0.5740882589684922
 15
0.5
 25
0.5
 16
0.0
 26
0.0
 36
1.0
 17
0.0
 27
0.0
 37
0.0
 40
8.365595802020571
 41
1.570528967254408
 42
50.0
 43
0.0
 44
0.0
 50
0.0
 51
0.0
 71
     0
 72
   100
 73
     1
 74
     0
 75
     0
 76
     0
 77
     0
 78
     0
  0
ENDTAB
  0
TABLE
  2
LTYPE
  5
5
330
0
100
AcDbSymbolTable
 70
     2
  0
LTYPE
  5
12
330
5
100
AcDbSymbolTableRecord
100
AcDbLinetypeTableRecord
  2
BYBLOCK
 70
     0
  3

 72
    65
 73
     0
 40
0.0
  0
LTYPE
  5
13
330
5
100
AcDbSymbolTableRecord
100
AcDbLinetypeTableRecord
  2
BYLAYER
 70
     0
  3

 72
    65
 73
     0
 40
0.0
  0
LTYPE
  5
14
330
5
100
AcDbSymbolTableRecord
100
AcDbLinetypeTableRecord
  2
CONTINUOUS
 70
     0
  3
Solid line
 72
    65
 73
     0
 40
0.0
  0
LTYPE
  5
33
330
5
100
AcDbSymbolTableRecord
100
AcDbLinetypeTableRecord
  2
HIDDEN2
 70
     0
  3
_ _ _ _ _ _ _ _ _ _ _ _ _ _ _ _ _ _ _ _ _ _ _ _
 72
    65
 73
     2
 40
0.1875
 49
0.125
 74
     0
 49
-0.0625
 74
     0
  0
ENDTAB
  0
TABLE
  2
LAYER
  5
2
330
0
100
AcDbSymbolTable
 70
     5
  0
LAYER
  5
F
330
2
100
AcDbSymbolTableRecord
100
AcDbLayerTableRecord
  2
0
 70
     0
 62
     7
  6
CONTINUOUS
  0
LAYER
  5
34
330
2
100
AcDbSymbolTableRecord
100
AcDbLayerTableRecord
  2
ADP2DETAIL
 70
     0
 62
     5
  6
CONTINUOUS
  0
LAYER
  5
35
330
2
100
AcDbSymbolTableRecord
100
AcDbLayerTableRecord
  2
ADPDIM
 70
     0
 62
     3
  6
CONTINUOUS
  0
LAYER
  5
36
330
2
100
AcDbSymbolTableRecord
100
AcDbLayerTableRecord
  2
ADP1DETAIL
 70
     0
 62
     7
  6
CONTINUOUS
  0
LAYER
  5
37
330
2
100
AcDbSymbolTableRecord
100
AcDbLayerTableRecord
  2
DEFPOINTS
 70
     0
 62
     7
  6
CONTINUOUS
  0
ENDTAB
  0
TABLE
  2
STYLE
  5
3
330
0
100
AcDbSymbolTable
 70
     2
  0
STYLE
  5
10
330
3
100
AcDbSymbolTableRecord
100
AcDbTextStyleTableRecord
  2
STANDARD
 70
     0
 40
0.0
 41
1.0
 50
0.0
 71
     0
 42
0.2
  3
txt
  4

  0
STYLE
  5
AB
330
3
100
AcDbSymbolTableRecord
100
AcDbTextStyleTableRecord
  2
ARIAL_WIDE
 70
     0
 40
0.0
 41
1.25
 50
0.0
 71
     0
 42
0.2
  3
ARIAL.TTF
  4

1001
ACAD
1000
Arial
1071
       34
  0
ENDTAB
  0
TABLE
  2
VIEW
  5
6
330
0
100
AcDbSymbolTable
 70
     0
  0
ENDTAB
  0
TABLE
  2
UCS
  5
7
330
0
100
AcDbSymbolTable
 70
     0
  0
ENDTAB
  0
TABLE
  2
APPID
  5
9
330
0
100
AcDbSymbolTable
 70
     1
  0
APPID
  5
11
330
9
100
AcDbSymbolTableRecord
100
AcDbRegAppTableRecord
  2
ACAD
 70
     0
  0
ENDTAB
  0
TABLE
  2
DIMSTYLE
  5
A
330
0
100
AcDbSymbolTable
 70
     1
  0
DIMSTYLE
105
9F
330
A
100
AcDbSymbolTableRecord
100
AcDbDimStyleTableRecord
  2
STANDARD
 70
     0
  3

  4

  5

  6

  7

 40
1.0
 41
0.18
 42
0.0625
 43
0.38
 44
0.18
 45
0.0
 46
0.0
 47
0.0
 48
0.0
140
0.18
141
0.09
142
0.0
143
25.4
144
1.0
145
0.0
146
1.0
147
0.09
 71
     0
 72
     0
 73
     1
 74
     1
 75
     0
 76
     0
 77
     0
 78
     0
170
     0
171
     2
172
     0
173
     0
174
     0
175
     0
176
     0
177
     0
178
     0
270
     2
271
     4
272
     4
273
     2
274
     2
340
10
275
     0
280
     0
281
     0
282
     0
283
     1
284
     0
285
     0
286
     0
287
     3
288
     0
  0
ENDTAB
  0
TABLE
  2
BLOCK_RECORD
  5
1
330
0
100
AcDbSymbolTable
 70
     2
  0
BLOCK_RECORD
  5
18
102
{ACAD_XDICTIONARY
360
100
102
}
330
1
100
AcDbSymbolTableRecord
100
AcDbBlockTableRecord
  2
*MODEL_SPACE
  0
BLOCK_RECORD
  5
15
102
{ACAD_XDICTIONARY
360
FE
102
}
330
1
100
AcDbSymbolTableRecord
100
AcDbBlockTableRecord
  2
*PAPER_SPACE
  0
BLOCK_RECORD
  5
31
330
1
100
AcDbSymbolTableRecord
100
AcDbBlockTableRecord
  2
*D0
  0
BLOCK_RECORD
  5
32
330
1
100
AcDbSymbolTableRecord
100
AcDbBlockTableRecord
  2
*D1
  0
ENDTAB
  0
ENDSEC
  0
SECTION
  2
BLOCKS
  0
BLOCK
  5
3A
330
18
100
AcDbEntity
  8
0
100
AcDbBlockBegin
  2
*MODEL_SPACE
 70
     0
 10
0.0
 20
0.0
 30
0.0
  3
*MODEL_SPACE
  1

  0
ENDBLK
  5
3B
330
18
100
AcDbEntity
  8
0
100
AcDbBlockEnd
  0
BLOCK
  5
38
330
15
100
AcDbEntity
 67
     1
  8
0
100
AcDbBlockBegin
  2
*PAPER_SPACE
 70
     0
 10
0.0
 20
0.0
 30
0.0
  3
*PAPER_SPACE
  1

  0
ENDBLK
  5
39
330
15
100
AcDbEntity
 67
     1
  8
0
100
AcDbBlockEnd
  0
BLOCK
  5
3D
330
31
100
AcDbEntity
  8
0
100
AcDbBlockBegin
  2
*D0
 70
     1
 10
0.0
 20
0.0
 30
0.0
  3
*D0
  1

  0
LINE
  5
3E
330
31
100
AcDbEntity
  8
0
  6
BYBLOCK
 62
     0
100
AcDbLine
 10
4.66617158801644
 20
2.480458437409966
 30
0.0
 11
4.292507778340423
 21
2.480458437409966
 31
0.0
  0
LINE
  5
3F
330
31
100
AcDbEntity
  8
0
  6
BYBLOCK
 62
     0
100
AcDbLine
 10
5.151053113156327
 20
5.481989558922497
 30
0.0
 11
4.292507778340423
 21
5.481989558922497
 31
0.0
  0
LINE
  5
40
330
31
100
AcDbEntity
  8
0
  6
BYBLOCK
 62
     0
100
AcDbLine
 10
4.472507778340423
 20
2.480458437409966
 30
0.0
 11
4.472507778340423
 21
3.814557331499564
 31
0.0
  0
LINE
  5
41
330
31
100
AcDbEntity
  8
0
  6
BYBLOCK
 62
     0
100
AcDbLine
 10
4.472507778340423
 20
5.481989558922497
 30
0.0
 11
4.472507778340423
 21
4.147890664832898
 31
0.0
  0
LINE
  5
42
330
31
100
AcDbEntity
  8
0
  6
BYBLOCK
 62
     0
100
AcDbLine
 10
4.597507778340423
 20
2.355458437409966
 30
0.0
 11
4.347507778340423
 21
2.605458437409966
 31
0.0
  0
LINE
  5
43
330
31
100
AcDbEntity
  8
0
  6
BYBLOCK
 62
     0
100
AcDbLine
 10
4.597507778340423
 20
5.356989558922497
 30
0.0
 11
4.347507778340423
 21
5.606989558922497
 31
0.0
  0
TEXT
  5
44
330
31
100
AcDbEntity
  8
0
  6
BYBLOCK
 62
     0
100
AcDbText
 10
4.535007778340423
 20
3.939557331499564
 30
0.0
 40
0.125
  1
3
 50
90.0
 72
     1
 11
4.472507778340423
 21
3.981223998166231
 31
0.0
100
AcDbText
 73
     2
  0
POINT
  5
45
330
31
100
AcDbEntity
  8
DEFPOINTS
  6
BYBLOCK
 62
     0
100
AcDbPoint
 10
4.72867158801644
 20
2.480458437409966
 30
0.0
  0
POINT
  5
46
330
31
100
AcDbEntity
  8
DEFPOINTS
  6
BYBLOCK
 62
     0
100
AcDbPoint
 10
5.213553113156327
 20
5.481989558922497
 30
0.0
  0
POINT
  5
47
330
31
100
AcDbEntity
  8
DEFPOINTS
  6
BYBLOCK
 62
     0
100
AcDbPoint
 10
4.472507778340423
 20
5.481989558922497
 30
0.0
  0
ENDBLK
  5
48
330
31
100
AcDbEntity
  8
0
100
AcDbBlockEnd
  0
BLOCK
  5
49
330
32
100
AcDbEntity
  8
0
100
AcDbBlockBegin
  2
*D1
 70
     1
 10
0.0
 20
0.0
 30
0.0
  3
*D1
  1

  0
LINE
  5
4A
330
32
100
AcDbEntity
  8
0
  6
BYBLOCK
 62
     0
100
AcDbLine
 10
4.72867158801644
 20
2.417958437409966
 30
0.0
 11
4.72867158801644
 21
2.082797125329853
 31
0.0
  0
LINE
  5
4B
330
32
100
AcDbEntity
  8
0
  6
BYBLOCK
 62
     0
100
AcDbLine
 10
5.72867158801644
 20
2.417958437409966
 30
0.0
 11
5.72867158801644
 21
2.082797125329853
 31
0.0
  0
LINE
  5
4C
330
32
100
AcDbEntity
  8
0
  6
BYBLOCK
 62
     0
100
AcDbLine
 10
4.72867158801644
 20
2.262797125329853
 30
0.0
 11
5.082838254683107
 21
2.262797125329853
 31
0.0
  0
LINE
  5
4D
330
32
100
AcDbEntity
  8
0
  6
BYBLOCK
 62
     0
100
AcDbLine
 10
5.72867158801644
 20
2.262797125329853
 30
0.0
 11
5.374504921349773
 21
2.262797125329853
 31
0.0
  0
LINE
  5
4E
330
32
100
AcDbEntity
  8
0
  6
BYBLOCK
 62
     0
100
AcDbLine
 10
4.60367158801644
 20
2.137797125329853
 30
0.0
 11
4.85367158801644
 21
2.387797125329853
 31
0.0
  0
LINE
  5
4F
330
32
100
AcDbEntity
  8
0
  6
BYBLOCK
 62
     0
100
AcDbLine
 10
5.60367158801644
 20
2.137797125329853
 30
0.0
 11
5.85367158801644
 21
2.387797125329853
 31
0.0
  0
TEXT
  5
50
330
32
100
AcDbEntity
  8
0
  6
BYBLOCK
 62
     0
100
AcDbText
 10
5.207838254683107
 20
2.200297125329853
 30
0.0
 40
0.125
  1
1
 72
     1
 11
5.22867158801644
 21
2.262797125329853
 31
0.0
100
AcDbText
 73
     2
  0
POINT
  5
51
330
32
100
AcDbEntity
  8
DEFPOINTS
  6
BYBLOCK
 62
     0
100
AcDbPoint
 10
4.72867158801644
 20
2.480458437409966
 30
0.0
  0
POINT
  5
52
330
32
100
AcDbEntity
  8
DEFPOINTS
  6
BYBLOCK
 62
     0
100
AcDbPoint
 10
5.72867158801644
 20
2.480458437409966
 30
0.0
  0
POINT
  5
53
330
32
100
AcDbEntity
  8
DEFPOINTS
  6
BYBLOCK
 62
     0
100
AcDbPoint
 10
5.72867158801644
 20
2.262797125329853
 30
0.0
  0
ENDBLK
  5
54
330
32
100
AcDbEntity
  8
0
100
AcDbBlockEnd
  0
ENDSEC
  0
SECTION
  2
ENTITIES
  0
LINE
  5
55
330
18
100
AcDbEntity
  8
ADP2DETAIL
  6
HIDDEN2
100
AcDbLine
 10
4.728671588016441
 20
5.844566427629774
 30
0.0
 11
4.728671588016441
 21
6.69242721041284
 31
0.0
  0
CIRCLE
  5
56
330
18
100
AcDbEntity
  8
ADP2DETAIL
  6
HIDDEN2
100
AcDbCircle
 10
5.228671588016441
 20
6.268496819021307
 30
0.0
 40
0.3444719570005157
  0
CIRCLE
  5
57
330
18
100
AcDbEntity
  8
ADP2DETAIL
  6
HIDDEN2
100
AcDbCircle
 10
5.228671588016441
 20
6.268496819021307
 30
0.0
 40
0.4725538764883011
  0
LINE
  5
58
330
18
100
AcDbEntity
  8
ADP2DETAIL
  6
HIDDEN2
100
AcDbLine
 10
5.728671588016441
 20
6.69242721041284
 30
0.0
 11
5.728671588016441
 21
5.805032213761656
 31
0.0
  0
CIRCLE
  5
59
330
18
100
AcDbEntity
  8
ADP1DETAIL
100
AcDbCircle
 10
5.228671588016441
 20
6.268496819021307
 30
0.0
 40
0.6555280136999322
  0
CIRCLE
  5
5A
330
18
100
AcDbEntity
  8
ADP1DETAIL
100
AcDbCircle
 10
5.228671588016441
 20
6.268496819021307
 30
0.0
 40
0.5914870686058169
  0
DIMENSION
  5
5B
330
18
100
AcDbEntity
  8
ADPDIM
100
AcDbDimension
  2
*D0
 10
4.472507778340423
 20
5.481989558922497
 30
0.0
 11
4.472507778340423
 21
3.981223998166231
 31
0.0
100
AcDbAlignedDimension
 13
4.72867158801644
 23
2.480458437409966
 33
0.0
 14
5.213553113156327
 24
5.481989558922497
 34
0.0
 50
90.0
100
AcDbRotatedDimension
  0
LWPOLYLINE
  5
5C
330
18
100
AcDbEntity
  8
ADP1DETAIL
100
AcDbPolyline
 90
        3
 70
     0
 43
0.0
 10
5.511421588016439
 20
3.230458437409966
 42
0.3001756354407344
 10
5.481656447111583
 20
2.956020956510304
 42
0.1681627213804059
 10
5.697421588016439
 20
2.855458437409966
 42
-0.9020234908402114
  0
LWPOLYLINE
  5
61
330
18
100
AcDbEntity
  8
ADP1DETAIL
100
AcDbPolyline
 90
        3
 70
     0
 43
0.0
 10
4.94592158801644
 20
3.230458437409966
 42
-0.3001756354407344
 10
4.975686728921296
 20
2.956020956510304
 42
-0.1681627213804059
 10
4.75992158801644
 20
2.855458437409966
 42
0.9020234908402114
  0
DIMENSION
  5
66
330
18
100
AcDbEntity
  8
ADPDIM
100
AcDbDimension
  2
*D1
 10
5.72867158801644
 20
2.262797125329853
 30
0.0
 11
5.22867158801644
 21
2.262797125329853
 31
0.0
100
AcDbAlignedDimension
 13
4.72867158801644
 23
2.480458437409966
 33
0.0
 14
5.72867158801644
 24
2.480458437409966
 34
0.0
100
AcDbRotatedDimension
  0
LINE
  5
67
330
18
100
AcDbEntity
  8
ADP1DETAIL
100
AcDbLine
 10
4.75992158801644
 20
2.855458437409966
 30
0.0
 11
5.69742158801644
 21
2.855458437409966
 31
0.0
  0
LINE
  5
68
330
18
100
AcDbEntity
  8
ADP1DETAIL
100
AcDbLine
 10
5.72867158801644
 20
2.480458437409966
 30
0.0
 11
4.72867158801644
 21
2.480458437409966
 31
0.0
  0
LINE
  5
69
330
18
100
AcDbEntity
  8
ADP1DETAIL
100
AcDbLine
 10
4.72867158801644
 20
2.792958437409966
 30
0.0
 11
5.72867158801644
 21
2.792958437409966
 31
0.0
  0
LINE
  5
6A
330
18
100
AcDbEntity
  8
ADP1DETAIL
100
AcDbLine
 10
4.75992158801644
 20
2.792958437409966
 30
0.0
 11
4.75992158801644
 21
2.855458437409966
 31
0.0
  0
LINE
  5
6B
330
18
100
AcDbEntity
  8
ADP1DETAIL
100
AcDbLine
 10
4.72867158801644
 20
2.480458437409966
 30
0.0
 11
4.72867158801644
 21
2.792958437409966
 31
0.0
  0
LINE
  5
6C
330
18
100
AcDbEntity
  8
ADP1DETAIL
100
AcDbLine
 10
5.69742158801644
 20
2.855458437409966
 30
0.0
 11
5.69742158801644
 21
2.792958437409966
 31
0.0
  0
LINE
  5
6D
330
18
100
AcDbEntity
  8
ADP1DETAIL
100
AcDbLine
 10
5.72867158801644
 20
2.792958437409966
 30
0.0
 11
5.72867158801644
 21
2.480458437409966
 31
0.0
  0
LWPOLYLINE
  5
6E
330
18
100
AcDbEntity
  8
ADP1DETAIL
100
AcDbPolyline
 90
        4
 70
     0
 43
0.0
 10
5.00692158801644
 20
3.355458437409966
 42
-0.1784682666839837
 10
4.887928360161761
 20
3.591469488957581
 42
0.040402784807477
 10
4.878063685344532
 20
4.000441452774398
 42
0.2546487375923589
 10
4.69442158801644
 20
4.480458437409966
 42
0.3704857658644626
  0
LINE
  5
74
330
18
100
AcDbEntity
  8
ADP2DETAIL
  6
HIDDEN2
100
AcDbLine
 10
5.649039480107935
 20
5.765497999893536
 30
0.0
 11
4.808303695924946
 21
5.765497999893536
 31
0.0
  0
LINE
  5
75
330
18
100
AcDbEntity
  8
ADP1DETAIL
100
AcDbLine
 10
4.69442158801644
 20
4.480458437409966
 30
0.0
 11
5.75992158801644
 21
4.480458437409966
 31
0.0
  0
ARC
  5
76
330
18
100
AcDbEntity
  8
ADP1DETAIL
100
AcDbCircle
 10
4.682928068363309
 20
5.13263403318598
 30
0.0
 40
0.4050306556213816
100
AcDbArc
 50
263.1929846056247
 51
356.0408346023615
  0
LINE
  5
77
330
18
100
AcDbEntity
  8
ADP1DETAIL
100
AcDbLine
 10
5.82392158801644
 20
4.542958437409966
 30
0.0
 11
4.63342158801644
 21
4.542958437409966
 31
0.0
  0
LINE
  5
78
330
18
100
AcDbEntity
  8
ADP1DETAIL
100
AcDbLine
 10
4.63492158801644
 20
4.730458437409966
 30
0.0
 11
5.82242158801644
 21
4.730458437409966
 31
0.0
  0
LINE
  5
79
330
18
100
AcDbEntity
  8
ADP1DETAIL
100
AcDbLine
 10
5.82242158801644
 20
4.667958437409966
 30
0.0
 11
4.63492158801644
 21
4.667958437409966
 31
0.0
  0
ARC
  5
7A
330
18
100
AcDbEntity
  8
ADP1DETAIL
100
AcDbCircle
 10
5.00692158801644
 20
3.230458437409966
 30
0.0
 40
0.125
100
AcDbArc
 50
90.0
 51
161.5915198294179
  0
LINE
  5
7B
330
18
100
AcDbEntity
  8
ADP1DETAIL
100
AcDbLine
 10
5.537560369903059
 20
3.230458437409966
 30
0.0
 11
4.916782806129821
 21
3.230458437409966
 31
0.0
  0
ARC
  5
7C
330
18
100
AcDbEntity
  8
ADP1DETAIL
100
AcDbCircle
 10
4.69442158801644
 20
4.541458437409966
 30
0.0
 40
0.061
100
AcDbArc
 50
180.0
 51
270.0
  0
ARC
  5
7D
330
18
100
AcDbEntity
  8
ADP1DETAIL
100
AcDbCircle
 10
4.916782806129821
 20
3.260458437409966
 30
0.0
 40
0.03
100
AcDbArc
 50
161.5915198294179
 51
270.0
  0
ARC
  5
7E
330
18
100
AcDbEntity
  8
ADP1DETAIL
100
AcDbCircle
 10
4.63342158801644
 20
4.606958437409966
 30
0.0
 40
0.061
100
AcDbArc
 50
90.0
 51
180.0
  0
ARC
  5
7F
330
18
100
AcDbEntity
  8
ADP1DETAIL
100
AcDbCircle
 10
4.63342158801644
 20
4.603958437409966
 30
0.0
 40
0.061
100
AcDbArc
 50
180.0
 51
270.0
  0
LINE
  5
80
330
18
100
AcDbEntity
  8
ADP1DETAIL
100
AcDbLine
 10
4.57242158801644
 20
4.603958437409966
 30
0.0
 11
4.57242158801644
 21
4.606958437409966
 31
0.0
  0
LINE
  5
81
330
18
100
AcDbEntity
  8
ADP1DETAIL
100
AcDbLine
 10
4.63342158801644
 20
4.541458437409966
 30
0.0
 11
4.63342158801644
 21
4.542958437409966
 31
0.0
  0
LINE
  5
82
330
18
100
AcDbEntity
  8
ADP1DETAIL
100
AcDbLine
 10
4.63492158801644
 20
4.667958437409966
 30
0.0
 11
4.63492158801644
 21
4.730458437409966
 31
0.0
  0
LINE
  5
83
330
18
100
AcDbEntity
  8
ADP1DETAIL
100
AcDbLine
 10
4.728671588016441
 20
5.765497999893536
 30
0.0
 11
4.728671588016441
 21
5.844566427629774
 31
0.0
  0
LINE
  5
84
330
18
100
AcDbEntity
  8
ADP1DETAIL
100
AcDbLine
 10
4.808303695924946
 20
5.765497999893536
 30
0.0
 11
4.728671588016441
 21
5.765497999893536
 31
0.0
  0
LWPOLYLINE
  5
85
330
18
100
AcDbEntity
  8
ADP1DETAIL
100
AcDbPolyline
 90
        4
 70
     0
 43
0.0
 10
5.44742158801644
 20
3.355458437409966
 42
0.1784682666839837
 10
5.566414815871119
 20
3.591469488957581
 42
-0.040402784807477
 10
5.576279490688348
 20
4.000441452774398
 42
-0.2546487375923589
 10
5.75992158801644
 20
4.480458437409966
 42
-0.3704857658644626
  0
ARC
  5
8B
330
18
100
AcDbEntity
  8
ADP1DETAIL
100
AcDbCircle
 10
5.75992158801644
 20
4.541458437409966
 30
0.0
 40
0.061
100
AcDbArc
 50
270.0
 51
0.0
  0
LINE
  5
8C
330
18
100
AcDbEntity
  8
ADP1DETAIL
100
AcDbLine
 10
5.00692158801644
 20
3.355458437409966
 30
0.0
 11
5.44742158801644
 21
3.355458437409966
 31
0.0
  0
ARC
  5
8D
330
18
100
AcDbEntity
  8
ADP1DETAIL
100
AcDbCircle
 10
5.44742158801644
 20
3.230458437409966
 30
0.0
 40
0.125
100
AcDbArc
 50
18.40848017058203
 51
90.0
  0
ARC
  5
8E
330
18
100
AcDbEntity
  8
ADP1DETAIL
100
AcDbCircle
 10
5.537560369903059
 20
3.260458437409966
 30
0.0
 40
0.03
100
AcDbArc
 50
270.0
 51
18.40848017058198
  0
LINE
  5
8F
330
18
100
AcDbEntity
  8
ADP1DETAIL
100
AcDbLine
 10
5.728671588016441
 20
5.765497999893536
 30
0.0
 11
5.649039480107935
 21
5.765497999893536
 31
0.0
  0
ARC
  5
90
330
18
100
AcDbEntity
  8
ADP1DETAIL
100
AcDbCircle
 10
5.77441510766957
 20
5.13263403318598
 30
0.0
 40
0.4050306556213816
100
AcDbArc
 50
183.9591653976384
 51
276.8070153943752
  0
ARC
  5
91
330
18
100
AcDbEntity
  8
ADP1DETAIL
100
AcDbCircle
 10
5.22867158801644
 20
5.261708437409966
 30
0.0
 40
0.21875
100
AcDbArc
 50
314.4153085971929
 51
225.5846914028071
  0
LINE
  5
92
330
18
100
AcDbEntity
  8
ADP1DETAIL
100
AcDbLine
 10
5.381764696940389
 20
5.105458437409966
 30
0.0
 11
5.075578479092492
 21
5.105458437409966
 31
0.0
  0
LINE
  5
93
330
18
100
AcDbEntity
  8
ADP1DETAIL
100
AcDbLine
 10
5.82092158801644
 20
4.542958437409966
 30
0.0
 11
5.82092158801644
 21
4.541458437409966
 31
0.0
  0
ARC
  5
94
330
18
100
AcDbEntity
  8
ADP1DETAIL
100
AcDbCircle
 10
5.82392158801644
 20
4.606958437409966
 30
0.0
 40
0.061
100
AcDbArc
 50
0.0
 51
90.0
  0
LINE
  5
95
330
18
100
AcDbEntity
  8
ADP1DETAIL
100
AcDbLine
 10
5.88492158801644
 20
4.606958437409966
 30
0.0
 11
5.88492158801644
 21
4.603958437409966
 31
0.0
  0
ARC
  5
96
330
18
100
AcDbEntity
  8
ADP1DETAIL
100
AcDbCircle
 10
5.82392158801644
 20
4.603958437409966
 30
0.0
 40
0.061
100
AcDbArc
 50
270.0
 51
0.0
  0
LINE
  5
97
330
18
100
AcDbEntity
  8
ADP1DETAIL
100
AcDbLine
 10
5.82242158801644
 20
4.730458437409966
 30
0.0
 11
5.82242158801644
 21
4.667958437409966
 31
0.0
  0
LINE
  5
98
330
18
100
AcDbEntity
  8
ADP1DETAIL
100
AcDbLine
 10
5.728671588016441
 20
5.844566427629774
 30
0.0
 11
5.728671588016441
 21
5.765497999893536
 31
0.0
  0
LINE
  5
99
330
18
100
AcDbEntity
  8
ADP2DETAIL
  6
HIDDEN2
100
AcDbLine
 10
4.764950506372053
 20
6.765497999893536
 30
0.0
 11
5.656113751305216
 21
6.765497999893536
 31
0.0
  0
LINE
  5
9A
330
18
100
AcDbEntity
  8
ADP1DETAIL
100
AcDbLine
 10
4.728671588016441
 20
6.69242721041284
 30
0.0
 11
4.728671588016441
 21
6.765497999893536
 31
0.0
  0
LINE
  5
9B
330
18
100
AcDbEntity
  8
ADP1DETAIL
100
AcDbLine
 10
4.728671588016441
 20
6.765497999893536
 30
0.0
 11
4.801229424727665
 21
6.765497999893536
 31
0.0
  0
LINE
  5
9C
330
18
100
AcDbEntity
  8
ADP1DETAIL
100
AcDbLine
 10
5.656113751305216
 20
6.765497999893536
 30
0.0
 11
5.728671588016441
 21
6.765497999893536
 31
0.0
  0
CIRCLE
  5
9D
330
18
100
AcDbEntity
  8
ADP1DETAIL
100
AcDbCircle
 10
5.228671588016441
 20
6.268496819021307
 30
0.0
 40
0.2163900375127294
  0
LINE
  5
9E
330
18
100
AcDbEntity
  8
ADP1DETAIL
100
AcDbLine
 10
5.728671588016441
 20
6.765497999893536
 30
0.0
 11
5.728671588016441
 21
6.69242721041284
 31
0.0
  0
TEXT
  5
AC
330
18
100
AcDbEntity
  8
ADPDIM
100
AcDbText
 10
-1.297057436540176
 20
1.82187048342609
 30
0.0
 40
0.125
  1
J U L I U S  B L U M  &  C O . ,  I N C .      ( 8 0 0 )  5 2 6 - 6 2 9 3        W W W . J U L I U S B L U M . C O M        P A R T  N o .  3 3 2 3
 41
1.25
  7
ARIAL_WIDE
 72
     1
 11
5.22867158801644
 21
1.94687048342609
 31
0.0
100
AcDbText
 73
     3
  0
ENDSEC
  0
SECTION
  2
OBJECTS
  0
DICTIONARY
  5
C
330
0
100
AcDbDictionary
  3
ACAD_GROUP
350
D
  3
ACAD_LAYOUT
350
A5
  3
ACAD_MLINESTYLE
350
E
  3
ACAD_PLOTSETTINGS
350
A6
  3
ACAD_PLOTSTYLENAME
350
A3
  3
ACDBHEADERROUNDTRIPXREC
350
1F0
  3
ACDBVARIABLEDICTIONARY
350
106
  0
DICTIONARY
  5
100
330
18
100
AcDbDictionary
280
     1
  3
ACAD_LAYOUTSELFREF
360
211
  0
DICTIONARY
  5
FE
330
15
100
AcDbDictionary
280
     1
  3
ACAD_LAYOUTSELFREF
360
210
  0
DICTIONARY
  5
D
102
{ACAD_REACTORS
330
C
102
}
330
C
100
AcDbDictionary
  0
DICTIONARY
  5
A5
102
{ACAD_REACTORS
330
C
102
}
330
C
100
AcDbDictionary
  0
DICTIONARY
  5
E
102
{ACAD_REACTORS
330
C
102
}
330
C
100
AcDbDictionary
  3
STANDARD
350
1B
  0
DICTIONARY
  5
A6
102
{ACAD_REACTORS
330
C
102
}
330
C
100
AcDbDictionary
  0
ACDBDICTIONARYWDFLT
  5
A3
102
{ACAD_REACTORS
330
C
102
}
330
C
100
AcDbDictionary
281
     1
  3
Normal
350
A4
100
AcDbDictionaryWithDefault
340
A4
  0
DICTIONARY
  5
1F0
102
{ACAD_REACTORS
330
C
102
}
330
C
100
AcDbDictionary
  3
CEPSNTYPE
350
1FA
  3
FINGERPRINTGUID
350
1FB
  3
HYPERLINKBASE
350
1F3
  3
INSUNITS
350
1F9
  3
LAYOUTDICT
350
1F5
  3
LWETCUNION
350
1F8
  3
PLOTSETDICT
350
1F6
  3
PLOTSTYLNAMDICT
350
1F7
  3
PSVPSCALE
350
1FD
  3
PUCSBASE
350
200
  3
PUCSORGBACK
350
206
  3
PUCSORGBOTTOM
350
202
  3
PUCSORGFRONT
350
205
  3
PUCSORGLEFT
350
203
  3
PUCSORGRIGHT
350
204
  3
PUCSORGTOP
350
201
  3
PUCSORTHOREF
350
1FE
  3
PUCSORTHOVIEW
350
1FF
  3
STYLESHEET
350
1F4
  3
TSTACKALIGN
350
1F1
  3
TSTACKSIZE
350
1F2
  3
UCSBASE
350
209
  3
UCSORGBACK
350
20F
  3
UCSORGBOTTOM
350
20B
  3
UCSORGFRONT
350
20E
  3
UCSORGLEFT
350
20C
  3
UCSORGRIGHT
350
20D
  3
UCSORGTOP
350
20A
  3
UCSORTHOREF
350
207
  3
UCSORTHOVIEW
350
208
  3
VERSIONGUID
350
1FC
  0
DICTIONARY
  5
106
102
{ACAD_REACTORS
330
C
102
}
330
C
100
AcDbDictionary
  3
DIMASSOC
350
107
  0
XRECORD
  5
211
102
{ACAD_REACTORS
330
100
102
}
330
100
100
AcDbXrecord
340
18
  0
XRECORD
  5
210
102
{ACAD_REACTORS
330
FE
102
}
330
FE
100
AcDbXrecord
340
15
  0
MLINESTYLE
  5
1B
102
{ACAD_REACTORS
330
E
102
}
330
E
100
AcDbMlineStyle
  2
STANDARD
 70
     0
  3

 62
     0
 51
90.0
 52
90.0
 71
     2
 49
0.5
 62
   256
  6
BYLAYER
 49
-0.5
 62
   256
  6
BYLAYER
  0
ACDBPLACEHOLDER
  5
A4
102
{ACAD_REACTORS
330
A3
102
}
330
A3
100
AcDbPlaceHolder
280
     0
  0
XRECORD
  5
1FA
102
{ACAD_REACTORS
330
1F0
102
}
330
1F0
100
AcDbXrecord
 90
        0
  0
XRECORD
  5
1FB
102
{ACAD_REACTORS
330
1F0
102
}
330
1F0
100
AcDbXrecord
  1
{AD2EE0B6-62D4-449F-BB13-53A89AA03C69}
  0
XRECORD
  5
1F3
102
{ACAD_REACTORS
330
1F0
102
}
330
1F0
100
AcDbXrecord
  1

  0
XRECORD
  5
1F9
102
{ACAD_REACTORS
330
1F0
102
}
330
1F0
100
AcDbXrecord
 90
        0
  0
XRECORD
  5
1F5
102
{ACAD_REACTORS
330
1F0
102
}
330
1F0
100
AcDbXrecord
340
A5
  0
XRECORD
  5
1F8
102
{ACAD_REACTORS
330
1F0
102
}
330
1F0
100
AcDbXrecord
 90
    14877
  0
XRECORD
  5
1F6
102
{ACAD_REACTORS
330
1F0
102
}
330
1F0
100
AcDbXrecord
340
A6
  0
XRECORD
  5
1F7
102
{ACAD_REACTORS
330
1F0
102
}
330
1F0
100
AcDbXrecord
340
A3
  0
XRECORD
  5
1FD
102
{ACAD_REACTORS
330
1F0
102
}
330
1F0
100
AcDbXrecord
 40
0.0
  0
XRECORD
  5
200
102
{ACAD_REACTORS
330
1F0
102
}
330
1F0
100
AcDbXrecord
340
0
  0
XRECORD
  5
206
102
{ACAD_REACTORS
330
1F0
102
}
330
1F0
100
AcDbXrecord
 10
0.0
 20
0.0
 30
0.0
  0
XRECORD
  5
202
102
{ACAD_REACTORS
330
1F0
102
}
330
1F0
100
AcDbXrecord
 10
0.0
 20
0.0
 30
0.0
  0
XRECORD
  5
205
102
{ACAD_REACTORS
330
1F0
102
}
330
1F0
100
AcDbXrecord
 10
0.0
 20
0.0
 30
0.0
  0
XRECORD
  5
203
102
{ACAD_REACTORS
330
1F0
102
}
330
1F0
100
AcDbXrecord
 10
0.0
 20
0.0
 30
0.0
  0
XRECORD
  5
204
102
{ACAD_REACTORS
330
1F0
102
}
330
1F0
100
AcDbXrecord
 10
0.0
 20
0.0
 30
0.0
  0
XRECORD
  5
201
102
{ACAD_REACTORS
330
1F0
102
}
330
1F0
100
AcDbXrecord
 10
0.0
 20
0.0
 30
0.0
  0
XRECORD
  5
1FE
102
{ACAD_REACTORS
330
1F0
102
}
330
1F0
100
AcDbXrecord
340
0
  0
XRECORD
  5
1FF
102
{ACAD_REACTORS
330
1F0
102
}
330
1F0
100
AcDbXrecord
 70
     0
  0
XRECORD
  5
1F4
102
{ACAD_REACTORS
330
1F0
102
}
330
1F0
100
AcDbXrecord
  1

  0
XRECORD
  5
1F1
102
{ACAD_REACTORS
330
1F0
102
}
330
1F0
100
AcDbXrecord
 90
        1
  0
XRECORD
  5
1F2
102
{ACAD_REACTORS
330
1F0
102
}
330
1F0
100
AcDbXrecord
 90
       70
  0
XRECORD
  5
209
102
{ACAD_REACTORS
330
1F0
102
}
330
1F0
100
AcDbXrecord
340
0
  0
XRECORD
  5
20F
102
{ACAD_REACTORS
330
1F0
102
}
330
1F0
100
AcDbXrecord
 10
0.0
 20
0.0
 30
0.0
  0
XRECORD
  5
20B
102
{ACAD_REACTORS
330
1F0
102
}
330
1F0
100
AcDbXrecord
 10
0.0
 20
0.0
 30
0.0
  0
XRECORD
  5
20E
102
{ACAD_REACTORS
330
1F0
102
}
330
1F0
100
AcDbXrecord
 10
0.0
 20
0.0
 30
0.0
  0
XRECORD
  5
20C
102
{ACAD_REACTORS
330
1F0
102
}
330
1F0
100
AcDbXrecord
 10
0.0
 20
0.0
 30
0.0
  0
XRECORD
  5
20D
102
{ACAD_REACTORS
330
1F0
102
}
330
1F0
100
AcDbXrecord
 10
0.0
 20
0.0
 30
0.0
  0
XRECORD
  5
20A
102
{ACAD_REACTORS
330
1F0
102
}
330
1F0
100
AcDbXrecord
 10
0.0
 20
0.0
 30
0.0
  0
XRECORD
  5
207
102
{ACAD_REACTORS
330
1F0
102
}
330
1F0
100
AcDbXrecord
340
0
  0
XRECORD
  5
208
102
{ACAD_REACTORS
330
1F0
102
}
330
1F0
100
AcDbXrecord
 70
     0
  0
XRECORD
  5
1FC
102
{ACAD_REACTORS
330
1F0
102
}
330
1F0
100
AcDbXrecord
  1
{9401A510-104E-44E6-947C-2D1AF0DCD9AA}
  0
DICTIONARYVAR
  5
107
102
{ACAD_REACTORS
330
106
102
}
330
106
100
DictionaryVariables
280
     0
  1
1
  0
ENDSEC
  0
EOF
