  0
SECTION
  2
HEADER
  9
$ACADVER
  1
AC1015
  9
$ACADMAINTVER
 70
    20
  9
$DWGCODEPAGE
  3
ANSI_1252
  9
$INSBASE
 10
50.75480374257774
 20
3.126131888444135
 30
0.0
  9
$EXTMIN
 10
17.95604541877394
 20
-1.112081570224581
 30
0.0
  9
$EXTMAX
 10
82.30312079394447
 20
39.25113188844414
 30
0.0
  9
$LIMMIN
 10
0.0
 20
0.0
  9
$LIMMAX
 10
36.0
 20
36.0
  9
$ORTHOMODE
 70
     0
  9
$REGENMODE
 70
     1
  9
$FILLMODE
 70
     1
  9
$QTEXTMODE
 70
     0
  9
$MIRRTEXT
 70
     1
  9
$LTSCALE
 40
1.0
  9
$ATTMODE
 70
     1
  9
$TEXTSIZE
 40
0.2
  9
$TRACEWID
 40
0.05
  9
$TEXTSTYLE
  7
STANDARD
  9
$CLAYER
  8
ADPDIM
  9
$CELTYPE
  6
BYLAYER
  9
$CECOLOR
 62
   256
  9
$CELTSCALE
 40
1.0
  9
$DISPSILH
 70
     0
  9
$DIMSCALE
 40
1.0
  9
$DIMASZ
 40
0.125
  9
$DIMEXO
 40
0.0625
  9
$DIMDLI
 40
0.38
  9
$DIMRND
 40
0.0
  9
$DIMDLE
 40
0.0
  9
$DIMEXE
 40
0.18
  9
$DIMTP
 40
0.0
  9
$DIMTM
 40
0.0
  9
$DIMTXT
 40
0.125
  9
$DIMCEN
 40
0.1875
  9
$DIMTSZ
 40
0.125
  9
$DIMTOL
 70
     0
  9
$DIMLIM
 70
     0
  9
$DIMTIH
 70
     0
  9
$DIMTOH
 70
     0
  9
$DIMSE1
 70
     0
  9
$DIMSE2
 70
     0
  9
$DIMTAD
 70
     0
  9
$DIMZIN
 70
     3
  9
$DIMBLK
  1

  9
$DIMASO
 70
     1
  9
$DIMSHO
 70
     1
  9
$DIMPOST
  1

  9
$DIMAPOST
  1

  9
$DIMALT
 70
     0
  9
$DIMALTD
 70
     1
  9
$DIMALTF
 40
25.4
  9
$DIMLFAC
 40
1.0
  9
$DIMTOFL
 70
     0
  9
$DIMTVP
 40
0.0
  9
$DIMTIX
 70
     0
  9
$DIMSOXD
 70
     0
  9
$DIMSAH
 70
     0
  9
$DIMBLK1
  1

  9
$DIMBLK2
  1

  9
$DIMSTYLE
  2
STANDARD
  9
$DIMCLRD
 70
     0
  9
$DIMCLRE
 70
     0
  9
$DIMCLRT
 70
     0
  9
$DIMTFAC
 40
1.0
  9
$DIMGAP
 40
0.125
  9
$DIMJUST
 70
     0
  9
$DIMSD1
 70
     0
  9
$DIMSD2
 70
     0
  9
$DIMTOLJ
 70
     1
  9
$DIMTZIN
 70
     0
  9
$DIMALTZ
 70
     0
  9
$DIMALTTZ
 70
     0
  9
$DIMUPT
 70
     0
  9
$DIMDEC
 70
     4
  9
$DIMTDEC
 70
     4
  9
$DIMALTU
 70
     2
  9
$DIMALTTD
 70
     2
  9
$DIMTXSTY
  7
STANDARD
  9
$DIMAUNIT
 70
     0
  9
$DIMADEC
 70
     0
  9
$DIMALTRND
 40
0.0
  9
$DIMAZIN
 70
     0
  9
$DIMDSEP
 70
    46
  9
$DIMATFIT
 70
     3
  9
$DIMFRAC
 70
     0
  9
$DIMLDRBLK
  1

  9
$DIMLUNIT
 70
     2
  9
$DIMLWD
 70
    -2
  9
$DIMLWE
 70
    -2
  9
$DIMTMOVE
 70
     0
  9
$LUNITS
 70
     5
  9
$LUPREC
 70
     4
  9
$SKETCHINC
 40
0.1
  9
$FILLETRAD
 40
0.062
  9
$AUNITS
 70
     0
  9
$AUPREC
 70
     0
  9
$MENU
  1
acad
  9
$ELEVATION
 40
0.0
  9
$PELEVATION
 40
0.0
  9
$THICKNESS
 40
0.0
  9
$LIMCHECK
 70
     0
  9
$CHAMFERA
 40
0.0
  9
$CHAMFERB
 40
0.0
  9
$CHAMFERC
 40
0.0
  9
$CHAMFERD
 40
0.0
  9
$SKPOLY
 70
     0
  9
$TDCREATE
 40
2450374.477668010
  9
$TDUCREATE
 40
2450374.644334676
  9
$TDUPDATE
 40
2453950.943711910
  9
$TDUUPDATE
 40
2453951.110378576
  9
$TDINDWG
 40
0.0737155208
  9
$TDUSRTIMER
 40
0.0737155208
  9
$USRTIMER
 70
     1
  9
$ANGBASE
 50
0.0
  9
$ANGDIR
 70
     0
  9
$PDMODE
 70
     0
  9
$PDSIZE
 40
0.0
  9
$PLINEWID
 40
0.0
  9
$SPLFRAME
 70
     0
  9
$SPLINETYPE
 70
     6
  9
$SPLINESEGS
 70
     8
  9
$HANDSEED
  5
33F
  9
$SURFTAB1
 70
     6
  9
$SURFTAB2
 70
     6
  9
$SURFTYPE
 70
     6
  9
$SURFU
 70
     6
  9
$SURFV
 70
     6
  9
$UCSBASE
  2

  9
$UCSNAME
  2

  9
$UCSORG
 10
0.0
 20
0.0
 30
0.0
  9
$UCSXDIR
 10
1.0
 20
0.0
 30
0.0
  9
$UCSYDIR
 10
0.0
 20
1.0
 30
0.0
  9
$UCSORTHOREF
  2

  9
$UCSORTHOVIEW
 70
     0
  9
$UCSORGTOP
 10
0.0
 20
0.0
 30
0.0
  9
$UCSORGBOTTOM
 10
0.0
 20
0.0
 30
0.0
  9
$UCSORGLEFT
 10
0.0
 20
0.0
 30
0.0
  9
$UCSORGRIGHT
 10
0.0
 20
0.0
 30
0.0
  9
$UCSORGFRONT
 10
0.0
 20
0.0
 30
0.0
  9
$UCSORGBACK
 10
0.0
 20
0.0
 30
0.0
  9
$PUCSBASE
  2

  9
$PUCSNAME
  2

  9
$PUCSORG
 10
0.0
 20
0.0
 30
0.0
  9
$PUCSXDIR
 10
1.0
 20
0.0
 30
0.0
  9
$PUCSYDIR
 10
0.0
 20
1.0
 30
0.0
  9
$PUCSORTHOREF
  2

  9
$PUCSORTHOVIEW
 70
     0
  9
$PUCSORGTOP
 10
0.0
 20
0.0
 30
0.0
  9
$PUCSORGBOTTOM
 10
0.0
 20
0.0
 30
0.0
  9
$PUCSORGLEFT
 10
0.0
 20
0.0
 30
0.0
  9
$PUCSORGRIGHT
 10
0.0
 20
0.0
 30
0.0
  9
$PUCSORGFRONT
 10
0.0
 20
0.0
 30
0.0
  9
$PUCSORGBACK
 10
0.0
 20
0.0
 30
0.0
  9
$USERI1
 70
     0
  9
$USERI2
 70
     0
  9
$USERI3
 70
     0
  9
$USERI4
 70
     0
  9
$USERI5
 70
     0
  9
$USERR1
 40
0.0
  9
$USERR2
 40
0.0
  9
$USERR3
 40
0.0
  9
$USERR4
 40
0.0
  9
$USERR5
 40
0.0
  9
$WORLDVIEW
 70
     1
  9
$SHADEDGE
 70
     3
  9
$SHADEDIF
 70
    70
  9
$TILEMODE
 70
     1
  9
$MAXACTVP
 70
    15
  9
$PINSBASE
 10
0.0
 20
0.0
 30
0.0
  9
$PLIMCHECK
 70
     0
  9
$PEXTMIN
 10
1.000000000000000E+20
 20
1.000000000000000E+20
 30
1.000000000000000E+20
  9
$PEXTMAX
 10
-1.000000000000000E+20
 20
-1.000000000000000E+20
 30
-1.000000000000000E+20
  9
$PLIMMIN
 10
0.0
 20
0.0
  9
$PLIMMAX
 10
12.0
 20
9.0
  9
$UNITMODE
 70
     0
  9
$VISRETAIN
 70
     0
  9
$PLINEGEN
 70
     0
  9
$PSLTSCALE
 70
     1
  9
$TREEDEPTH
 70
  3020
  9
$CMLSTYLE
  2
STANDARD
  9
$CMLJUST
 70
     0
  9
$CMLSCALE
 40
1.0
  9
$PROXYGRAPHICS
 70
     1
  9
$MEASUREMENT
 70
     0
  9
$CELWEIGHT
370
    -1
  9
$ENDCAPS
280
     0
  9
$JOINSTYLE
280
     0
  9
$LWDISPLAY
290
     0
  9
$INSUNITS
 70
     0
  9
$HYPERLINKBASE
  1

  9
$STYLESHEET
  1

  9
$XEDIT
290
     1
  9
$CEPSNTYPE
380
     0
  9
$PSTYLEMODE
290
     1
  9
$FINGERPRINTGUID
  2
{93BC690B-5840-499E-BDC3-9EB5037C7A3D}
  9
$VERSIONGUID
  2
{616C0C2D-CEC4-497E-8797-5108D7CFB35C}
  9
$EXTNAMES
290
     1
  9
$PSVPSCALE
 40
0.0
  9
$OLESTARTUP
290
     0
  0
ENDSEC
  0
SECTION
  2
CLASSES
  0
CLASS
  1
ACDBDICTIONARYWDFLT
  2
AcDbDictionaryWithDefault
  3
ObjectDBX Classes
 90
        0
280
     0
281
     0
  0
CLASS
  1
ACDBPLACEHOLDER
  2
AcDbPlaceHolder
  3
ObjectDBX Classes
 90
        0
280
     0
281
     0
  0
CLASS
  1
LAYOUT
  2
AcDbLayout
  3
ObjectDBX Classes
 90
        0
280
     0
281
     0
  0
CLASS
  1
DICTIONARYVAR
  2
AcDbDictionaryVar
  3
ObjectDBX Classes
 90
        0
280
     0
281
     0
  0
CLASS
  1
MATERIAL
  2
AcDbMaterial
  3
ObjectDBX Classes
 90
     1024
280
     0
281
     0
  0
CLASS
  1
VISUALSTYLE
  2
AcDbVisualStyle
  3
ObjectDBX Classes
 90
     4095
280
     0
281
     0
  0
CLASS
  1
TABLESTYLE
  2
AcDbTableStyle
  3
ObjectDBX Classes
 90
     4095
280
     0
281
     0
  0
ENDSEC
  0
SECTION
  2
TABLES
  0
TABLE
  2
VPORT
  5
8
330
0
100
AcDbSymbolTable
 70
     1
  0
VPORT
  5
233
330
8
100
AcDbSymbolTableRecord
100
AcDbViewportTableRecord
  2
*Active
 70
     0
 10
0.0
 20
0.0
 11
1.0
 21
1.0
 12
52.34354566040893
 22
17.41171466327761
 13
0.0
 23
0.0
 14
0.5740882589684922
 24
0.5740882589684922
 15
0.5
 25
0.5
 16
0.0
 26
0.0
 36
1.0
 17
0.0
 27
0.0
 37
0.0
 40
36.49713613695246
 41
1.774011299435028
 42
50.0
 43
0.0
 44
0.0
 50
0.0
 51
0.0
 71
     0
 72
   100
 73
     1
 74
     0
 75
     0
 76
     0
 77
     0
 78
     0
281
     0
 65
     1
110
0.0
120
0.0
130
0.0
111
1.0
121
0.0
131
0.0
112
0.0
122
1.0
132
0.0
 79
     0
146
0.0
  0
ENDTAB
  0
TABLE
  2
LTYPE
  5
5
330
0
100
AcDbSymbolTable
 70
     1
  0
LTYPE
  5
12
330
5
100
AcDbSymbolTableRecord
100
AcDbLinetypeTableRecord
  2
BYBLOCK
 70
     0
  3

 72
    65
 73
     0
 40
0.0
  0
LTYPE
  5
13
330
5
100
AcDbSymbolTableRecord
100
AcDbLinetypeTableRecord
  2
BYLAYER
 70
     0
  3

 72
    65
 73
     0
 40
0.0
  0
LTYPE
  5
14
330
5
100
AcDbSymbolTableRecord
100
AcDbLinetypeTableRecord
  2
CONTINUOUS
 70
     0
  3
Solid line
 72
    65
 73
     0
 40
0.0
  0
ENDTAB
  0
TABLE
  2
LAYER
  5
2
330
0
100
AcDbSymbolTable
 70
     4
  0
LAYER
  5
F
330
2
100
AcDbSymbolTableRecord
100
AcDbLayerTableRecord
  2
0
 70
     0
 62
     7
  6
CONTINUOUS
370
    -3
390
B9
  0
LAYER
  5
77
330
2
100
AcDbSymbolTableRecord
100
AcDbLayerTableRecord
  2
ADPDIM
 70
     0
 62
     3
  6
CONTINUOUS
370
    -3
390
B9
  0
LAYER
  5
79
330
2
100
AcDbSymbolTableRecord
100
AcDbLayerTableRecord
  2
ADP1DETAIL
 70
     0
 62
     7
  6
CONTINUOUS
370
    -3
390
B9
  0
LAYER
  5
7B
330
2
100
AcDbSymbolTableRecord
100
AcDbLayerTableRecord
  2
DEFPOINTS
 70
     0
 62
     7
  6
CONTINUOUS
290
     0
370
    -3
390
B9
  0
ENDTAB
  0
TABLE
  2
STYLE
  5
3
330
0
100
AcDbSymbolTable
 70
     2
  0
STYLE
  5
10
330
3
100
AcDbSymbolTableRecord
100
AcDbTextStyleTableRecord
  2
STANDARD
 70
     0
 40
0.0
 41
1.0
 50
0.0
 71
     0
 42
0.2
  3
txt
  4

  0
STYLE
  5
C0
330
3
100
AcDbSymbolTableRecord
100
AcDbTextStyleTableRecord
  2
ARIAL_WIDE
 70
     0
 40
0.0
 41
1.25
 50
0.0
 71
     0
 42
0.2
  3
ARIAL.TTF
  4

1001
ACAD
1000
Arial
1071
       34
  0
ENDTAB
  0
TABLE
  2
VIEW
  5
6
330
0
100
AcDbSymbolTable
 70
     0
  0
ENDTAB
  0
TABLE
  2
UCS
  5
7
330
0
100
AcDbSymbolTable
 70
     0
  0
ENDTAB
  0
TABLE
  2
APPID
  5
9
330
0
100
AcDbSymbolTable
 70
     2
  0
APPID
  5
11
330
9
100
AcDbSymbolTableRecord
100
AcDbRegAppTableRecord
  2
ACAD
 70
     0
  0
APPID
  5
313
330
9
100
AcDbSymbolTableRecord
100
AcDbRegAppTableRecord
  2
DCO15
 70
     0
  0
ENDTAB
  0
TABLE
  2
DIMSTYLE
  5
A
330
0
100
AcDbSymbolTable
 70
     1
100
AcDbDimStyleTable
 71
     1
340
B4
  0
DIMSTYLE
105
B4
102
{ACAD_REACTORS
330
27A
330
288
330
99
102
}
330
A
100
AcDbSymbolTableRecord
100
AcDbDimStyleTableRecord
  2
STANDARD
 70
     0
340
10
  0
ENDTAB
  0
TABLE
  2
BLOCK_RECORD
  5
1
330
0
100
AcDbSymbolTable
 70
     5
  0
BLOCK_RECORD
  5
18
102
{ACAD_XDICTIONARY
360
115
102
}
330
1
100
AcDbSymbolTableRecord
100
AcDbBlockTableRecord
  2
*MODEL_SPACE
340
BC
  0
BLOCK_RECORD
  5
15
102
{ACAD_XDICTIONARY
360
113
102
}
330
1
100
AcDbSymbolTableRecord
100
AcDbBlockTableRecord
  2
*PAPER_SPACE
340
BD
  0
BLOCK_RECORD
  5
71
330
1
100
AcDbSymbolTableRecord
100
AcDbBlockTableRecord
  2
*D0
340
0
  0
BLOCK_RECORD
  5
75
330
1
100
AcDbSymbolTableRecord
100
AcDbBlockTableRecord
  2
*D1
340
0
  0
BLOCK_RECORD
  5
27B
330
1
100
AcDbSymbolTableRecord
100
AcDbBlockTableRecord
  2
*D2
340
0
  0
BLOCK_RECORD
  5
289
330
1
100
AcDbSymbolTableRecord
100
AcDbBlockTableRecord
  2
*D3
340
0
  0
BLOCK_RECORD
  5
2A0
330
1
100
AcDbSymbolTableRecord
100
AcDbBlockTableRecord
  2
*D4
340
0
  0
ENDTAB
  0
ENDSEC
  0
SECTION
  2
BLOCKS
  0
BLOCK
  5
7E
330
18
100
AcDbEntity
  8
0
100
AcDbBlockBegin
  2
*MODEL_SPACE
 70
     0
 10
0.0
 20
0.0
 30
0.0
  3
*MODEL_SPACE
  1

  0
ENDBLK
  5
7F
330
18
100
AcDbEntity
  8
0
100
AcDbBlockEnd
  0
BLOCK
  5
7C
330
15
100
AcDbEntity
 67
     1
  8
0
100
AcDbBlockBegin
  2
*PAPER_SPACE
 70
     0
 10
0.0
 20
0.0
 30
0.0
  3
*PAPER_SPACE
  1

  0
ENDBLK
  5
7D
330
15
100
AcDbEntity
 67
     1
  8
0
100
AcDbBlockEnd
  0
BLOCK
  5
81
330
71
100
AcDbEntity
  8
0
100
AcDbBlockBegin
  2
*D0
 70
     1
 10
0.0
 20
0.0
 30
0.0
  3
*D0
  1

  0
LINE
  5
82
330
71
100
AcDbEntity
  8
0
  6
ByBlock
 62
     0
100
AcDbLine
 10
49.43989811711513
 20
39.12613188844414
 30
0.0
 11
48.14688360793755
 21
39.12613188844414
 31
0.0
  0
LINE
  5
83
330
71
100
AcDbEntity
  8
0
  6
ByBlock
 62
     0
100
AcDbLine
 10
49.43989811711513
 20
3.126131888444135
 30
0.0
 11
48.14688360793755
 21
3.126131888444135
 31
0.0
  0
LINE
  5
84
330
71
100
AcDbEntity
  8
0
  6
ByBlock
 62
     0
100
AcDbLine
 10
48.32688360793754
 20
39.12613188844414
 30
0.0
 11
48.32688360793754
 21
21.35529855511081
 31
0.0
  0
LINE
  5
85
330
71
100
AcDbEntity
  8
0
  6
ByBlock
 62
     0
100
AcDbLine
 10
48.32688360793754
 20
3.126131888444135
 30
0.0
 11
48.32688360793754
 21
20.89696522177747
 31
0.0
  0
LINE
  5
86
330
71
100
AcDbEntity
  8
0
  6
ByBlock
 62
     0
100
AcDbLine
 10
48.45188360793755
 20
39.00113188844414
 30
0.0
 11
48.20188360793754
 21
39.25113188844414
 31
0.0
  0
LINE
  5
87
330
71
100
AcDbEntity
  8
0
  6
ByBlock
 62
     0
100
AcDbLine
 10
48.45188360793755
 20
3.001131888444135
 30
0.0
 11
48.20188360793754
 21
3.251131888444135
 31
0.0
  0
TEXT
  5
88
330
71
100
AcDbEntity
  8
0
  6
ByBlock
 62
     0
100
AcDbText
 10
48.38938360793754
 20
21.02196522177747
 30
0.0
 40
0.125
  1
36
 50
90.0
 72
     1
 11
48.32688360793754
 21
21.12613188844414
 31
0.0
100
AcDbText
 73
     2
  0
POINT
  5
89
330
71
100
AcDbEntity
  8
DEFPOINTS
  6
ByBlock
 62
     0
100
AcDbPoint
 10
49.50239811711512
 20
39.12613188844414
 30
0.0
  0
POINT
  5
8A
330
71
100
AcDbEntity
  8
DEFPOINTS
  6
ByBlock
 62
     0
100
AcDbPoint
 10
49.50239811711512
 20
3.126131888444135
 30
0.0
  0
POINT
  5
8B
330
71
100
AcDbEntity
  8
DEFPOINTS
  6
ByBlock
 62
     0
100
AcDbPoint
 10
48.32688360793754
 20
3.126131888444135
 30
0.0
  0
ENDBLK
  5
8C
330
71
100
AcDbEntity
  8
0
100
AcDbBlockEnd
  0
BLOCK
  5
8D
330
75
100
AcDbEntity
  8
0
100
AcDbBlockBegin
  2
*D1
 70
     1
 10
0.0
 20
0.0
 30
0.0
  3
*D1
  1

  0
LINE
  5
8E
330
75
100
AcDbEntity
  8
0
  6
ByBlock
 62
     0
100
AcDbLine
 10
49.50239811711512
 20
3.063631888444135
 30
0.0
 11
49.50239811711512
 21
2.52376821968954
 31
0.0
  0
LINE
  5
8F
330
75
100
AcDbEntity
  8
0
  6
ByBlock
 62
     0
100
AcDbLine
 10
50.75480374257774
 20
3.063631888444135
 30
0.0
 11
50.75480374257774
 21
2.52376821968954
 31
0.0
  0
LINE
  5
90
330
75
100
AcDbEntity
  8
0
  6
ByBlock
 62
     0
100
AcDbLine
 10
49.50239811711512
 20
2.70376821968954
 30
0.0
 11
49.75360092984644
 21
2.70376821968954
 31
0.0
  0
LINE
  5
91
330
75
100
AcDbEntity
  8
0
  6
ByBlock
 62
     0
100
AcDbLine
 10
50.75480374257774
 20
2.70376821968954
 30
0.0
 11
50.50360092984643
 21
2.70376821968954
 31
0.0
  0
LINE
  5
92
330
75
100
AcDbEntity
  8
0
  6
ByBlock
 62
     0
100
AcDbLine
 10
49.37739811711512
 20
2.57876821968954
 30
0.0
 11
49.62739811711513
 21
2.82876821968954
 31
0.0
  0
LINE
  5
93
330
75
100
AcDbEntity
  8
0
  6
ByBlock
 62
     0
100
AcDbLine
 10
50.62980374257774
 20
2.57876821968954
 30
0.0
 11
50.87980374257774
 21
2.82876821968954
 31
0.0
  0
TEXT
  5
94
330
75
100
AcDbEntity
  8
0
  6
ByBlock
 62
     0
100
AcDbText
 10
49.87860092984643
 20
2.64126821968954
 30
0.0
 40
0.125
  1
1 1/4
 72
     1
 11
50.12860092984643
 21
2.70376821968954
 31
0.0
100
AcDbText
 73
     2
  0
POINT
  5
95
330
75
100
AcDbEntity
  8
DEFPOINTS
  6
ByBlock
 62
     0
100
AcDbPoint
 10
49.50239811711512
 20
3.126131888444135
 30
0.0
  0
POINT
  5
96
330
75
100
AcDbEntity
  8
DEFPOINTS
  6
ByBlock
 62
     0
100
AcDbPoint
 10
50.75480374257774
 20
3.126131888444135
 30
0.0
  0
POINT
  5
97
330
75
100
AcDbEntity
  8
DEFPOINTS
  6
ByBlock
 62
     0
100
AcDbPoint
 10
50.75480374257774
 20
2.70376821968954
 30
0.0
  0
ENDBLK
  5
98
330
75
100
AcDbEntity
  8
0
100
AcDbBlockEnd
  0
BLOCK
  5
286
330
27B
100
AcDbEntity
  8
0
 62
     3
100
AcDbBlockBegin
  2
*D2
 70
     1
 10
0.0
 20
0.0
 30
0.0
  3
*D2
  1

  0
LINE
  5
307
330
27B
100
AcDbEntity
  8
ADPDIM
 62
     0
370
    -2
100
AcDbLine
 10
50.81730374257774
 20
3.063631888444135
 30
0.0
 11
52.33386441138236
 21
3.063631888444135
 31
0.0
  0
LINE
  5
308
330
27B
100
AcDbEntity
  8
ADPDIM
 62
     0
370
    -2
100
AcDbLine
 10
50.81730374257774
 20
15.06363188844413
 30
0.0
 11
52.33386441138236
 21
15.06363188844413
 31
0.0
  0
LINE
  5
309
330
27B
100
AcDbEntity
  8
ADPDIM
 62
     0
370
    -2
100
AcDbLine
 10
52.15386441138235
 20
3.063631888444135
 30
0.0
 11
52.15386441138235
 21
8.605298555110799
 31
0.0
  0
LINE
  5
30A
330
27B
100
AcDbEntity
  8
ADPDIM
 62
     0
370
    -2
100
AcDbLine
 10
52.15386441138235
 20
15.06363188844413
 30
0.0
 11
52.15386441138235
 21
9.521965221777467
 31
0.0
  0
LINE
  5
30B
330
27B
100
AcDbEntity
  8
ADPDIM
 62
     0
370
    -2
100
AcDbLine
 10
52.27886441138235
 20
14.93863188844413
 30
0.0
 11
52.02886441138236
 21
15.18863188844413
 31
0.0
  0
LINE
  5
30C
330
27B
100
AcDbEntity
  8
ADPDIM
 62
     0
370
    -2
100
AcDbLine
 10
52.27886441138235
 20
2.938631888444135
 30
0.0
 11
52.02886441138236
 21
3.188631888444135
 31
0.0
  0
MTEXT
  5
30D
330
27B
100
AcDbEntity
  8
ADPDIM
 62
     0
100
AcDbMText
 10
52.15386441138235
 20
9.063631888444142
 30
0.0
 40
0.5
 41
0.0
 71
     5
 72
     1
  1
\A1;12
 11
0.0000000000000001
 21
1.0
 31
0.0
 73
     1
 44
1.0
1001
ACAD
1000
MTEXTBEGIN
1070
    73
1070
     1
1070
    44
1040
1.0
1070
    74
1070
     0
1000
MTEXTEND
  0
POINT
  5
30E
330
27B
100
AcDbEntity
  8
DEFPOINTS
 62
     0
100
AcDbPoint
 10
50.75480374257774
 20
3.063631888444135
 30
0.0
  0
POINT
  5
30F
330
27B
100
AcDbEntity
  8
DEFPOINTS
 62
     0
100
AcDbPoint
 10
50.75480374257774
 20
15.06363188844413
 30
0.0
  0
POINT
  5
310
330
27B
100
AcDbEntity
  8
DEFPOINTS
 62
     0
100
AcDbPoint
 10
52.15386441138235
 20
15.06363188844413
 30
0.0
  0
ENDBLK
  5
287
330
27B
100
AcDbEntity
  8
0
 62
     3
100
AcDbBlockEnd
  0
BLOCK
  5
294
330
289
100
AcDbEntity
  8
0
 62
     3
100
AcDbBlockBegin
  2
*D3
 70
     1
 10
0.0
 20
0.0
 30
0.0
  3
*D3
  1

  0
LINE
  5
2F3
330
289
100
AcDbEntity
  8
ADPDIM
 62
     0
370
    -2
100
AcDbLine
 10
50.81730374257774
 20
39.12613188844414
 30
0.0
 11
52.35832766535121
 21
39.12613188844414
 31
0.0
  0
LINE
  5
2F4
330
289
100
AcDbEntity
  8
ADPDIM
 62
     0
370
    -2
100
AcDbLine
 10
50.81730374257774
 20
27.37613188844414
 30
0.0
 11
52.35832766535121
 21
27.37613188844414
 31
0.0
  0
LINE
  5
2F5
330
289
100
AcDbEntity
  8
ADPDIM
 62
     0
370
    -2
100
AcDbLine
 10
52.17832766535122
 20
39.12613188844414
 30
0.0
 11
52.17832766535122
 21
34.62613188844414
 31
0.0
  0
LINE
  5
2F6
330
289
100
AcDbEntity
  8
ADPDIM
 62
     0
370
    -2
100
AcDbLine
 10
52.17832766535122
 20
27.37613188844414
 30
0.0
 11
52.17832766535122
 21
31.87613188844415
 31
0.0
  0
LINE
  5
2F7
330
289
100
AcDbEntity
  8
ADPDIM
 62
     0
370
    -2
100
AcDbLine
 10
52.30332766535122
 20
27.25113188844414
 30
0.0
 11
52.05332766535121
 21
27.50113188844415
 31
0.0
  0
LINE
  5
2F8
330
289
100
AcDbEntity
  8
ADPDIM
 62
     0
370
    -2
100
AcDbLine
 10
52.30332766535122
 20
39.00113188844414
 30
0.0
 11
52.05332766535121
 21
39.25113188844414
 31
0.0
  0
MTEXT
  5
2F9
330
289
100
AcDbEntity
  8
ADPDIM
 62
     0
100
AcDbMText
 10
52.17832766535121
 20
33.25113188844416
 30
0.0
 40
0.5
 41
0.0
 71
     5
 72
     1
  1
\A1;11 3/4
 11
0.0000000000000001
 21
1.0
 31
0.0
 73
     1
 44
1.0
1001
ACAD
1000
MTEXTBEGIN
1070
    73
1070
     1
1070
    44
1040
1.0
1070
    74
1070
     0
1000
MTEXTEND
  0
POINT
  5
2FA
330
289
100
AcDbEntity
  8
DEFPOINTS
 62
     0
100
AcDbPoint
 10
50.75480374257774
 20
39.12613188844414
 30
0.0
  0
POINT
  5
2FB
330
289
100
AcDbEntity
  8
DEFPOINTS
 62
     0
100
AcDbPoint
 10
50.75480374257774
 20
27.37613188844414
 30
0.0
  0
POINT
  5
2FC
330
289
100
AcDbEntity
  8
DEFPOINTS
 62
     0
100
AcDbPoint
 10
52.17832766535122
 20
27.37613188844414
 30
0.0
  0
ENDBLK
  5
295
330
289
100
AcDbEntity
  8
0
 62
     3
100
AcDbBlockEnd
  0
BLOCK
  5
2AB
330
2A0
100
AcDbEntity
  8
0
100
AcDbBlockBegin
  2
*D4
 70
     1
 10
0.0
 20
0.0
 30
0.0
  3
*D4
  1

  0
LINE
  5
2FD
330
2A0
100
AcDbEntity
  8
ADPDIM
 62
     0
370
    -2
100
AcDbLine
 10
49.43989811711513
 20
39.12613188844414
 30
0.0
 11
48.14688360793756
 21
39.12613188844414
 31
0.0
  0
LINE
  5
2FE
330
2A0
100
AcDbEntity
  8
ADPDIM
 62
     0
370
    -2
100
AcDbLine
 10
49.43989811711513
 20
3.126131888444135
 30
0.0
 11
48.14688360793755
 21
3.126131888444136
 31
0.0
  0
LINE
  5
2FF
330
2A0
100
AcDbEntity
  8
ADPDIM
 62
     0
370
    -2
100
AcDbLine
 10
48.32688360793755
 20
39.12613188844414
 30
0.0
 11
48.32688360793755
 21
21.66779855511081
 31
0.0
  0
LINE
  5
300
330
2A0
100
AcDbEntity
  8
ADPDIM
 62
     0
370
    -2
100
AcDbLine
 10
48.32688360793754
 20
3.126131888444136
 30
0.0
 11
48.32688360793755
 21
20.58446522177748
 31
0.0
  0
LINE
  5
301
330
2A0
100
AcDbEntity
  8
ADPDIM
 62
     0
370
    -2
100
AcDbLine
 10
48.45188360793755
 20
3.001131888444136
 30
0.0
 11
48.20188360793754
 21
3.251131888444136
 31
0.0
  0
LINE
  5
302
330
2A0
100
AcDbEntity
  8
ADPDIM
 62
     0
370
    -2
100
AcDbLine
 10
48.45188360793756
 20
39.00113188844414
 30
0.0
 11
48.20188360793755
 21
39.25113188844414
 31
0.0
  0
MTEXT
  5
303
330
2A0
100
AcDbEntity
  8
ADPDIM
 62
     0
100
AcDbMText
 10
48.32688360793754
 20
21.12613188844415
 30
0.0
 40
0.5
 41
0.0
 71
     5
 72
     1
  1
\A1;36
 11
0.0000000000000001
 21
1.0
 31
0.0
 73
     1
 44
1.0
1001
ACAD
1000
MTEXTBEGIN
1070
    73
1070
     1
1070
    44
1040
1.0
1070
    74
1070
     0
1000
MTEXTEND
  0
POINT
  5
304
330
2A0
100
AcDbEntity
  8
DEFPOINTS
 62
     0
100
AcDbPoint
 10
49.50239811711512
 20
39.12613188844414
 30
0.0
  0
POINT
  5
305
330
2A0
100
AcDbEntity
  8
DEFPOINTS
 62
     0
100
AcDbPoint
 10
49.50239811711512
 20
3.126131888444135
 30
0.0
  0
POINT
  5
306
330
2A0
100
AcDbEntity
  8
DEFPOINTS
 62
     0
100
AcDbPoint
 10
48.32688360793754
 20
3.126131888444136
 30
0.0
  0
ENDBLK
  5
2AC
330
2A0
100
AcDbEntity
  8
0
100
AcDbBlockEnd
  0
ENDSEC
  0
SECTION
  2
ENTITIES
  0
DIMENSION
  5
99
330
18
100
AcDbEntity
  8
ADPDIM
100
AcDbDimension
  2
*D4
 10
48.32688360793754
 20
3.126131888444136
 30
0.0
 11
48.32688360793754
 21
21.12613188844415
 31
0.0
 70
    32
 71
     5
 42
36.00000000000001
  3
STANDARD
100
AcDbAlignedDimension
 13
49.50239811711512
 23
39.12613188844414
 33
0.0
 14
49.50239811711512
 24
3.126131888444135
 34
0.0
 50
90.0
100
AcDbRotatedDimension
1001
ACAD
1000
DSTYLE
1002
{
1070
   276
1070
     2
1070
   277
1070
     5
1070
    41
1040
0.125
1070
    73
1070
     0
1070
    74
1070
     0
1070
    78
1070
     3
1070
   140
1040
0.5
1070
   141
1040
0.1875
1070
   142
1040
0.125
1070
   147
1040
0.125
1070
   171
1070
     1
1002
}
  0
ARC
  5
9A
330
18
100
AcDbEntity
  8
0
 62
     7
100
AcDbCircle
 10
47.57184368498942
 20
19.58830165706362
 30
0.0
 40
3.56045287649997
100
AcDbArc
 50
334.7914981633704
 51
27.73096636244288
  0
ARC
  5
9B
330
18
100
AcDbEntity
  8
0
 62
     7
100
AcDbCircle
 10
52.59731751706418
 20
19.53964022295051
 30
0.0
 40
3.560452876499978
100
AcDbArc
 50
152.4135615092444
 51
207.5864384907555
  0
LINE
  5
9C
330
18
100
AcDbEntity
  8
0
 62
     7
100
AcDbLine
 10
49.44164108718751
 20
21.18843704357389
 30
0.0
 11
50.66232726084548
 21
18.2872345974879
 31
0.0
  0
LINE
  5
9D
330
18
100
AcDbEntity
  8
0
 62
     7
100
AcDbLine
 10
49.50239811711512
 20
15.05300931532077
 30
0.0
 11
49.50239811711512
 21
3.126131888444135
 31
0.0
  0
LINE
  5
9E
330
18
100
AcDbEntity
  8
0
 62
     7
100
AcDbLine
 10
50.75480374257774
 20
3.126131888444135
 30
0.0
 11
50.75480374257774
 21
15.11522805602937
 31
0.0
  0
DIMENSION
  5
9F
330
18
100
AcDbEntity
  8
ADPDIM
100
AcDbDimension
  2
*D1
 10
50.75480374257774
 20
2.70376821968954
 30
0.0
 11
50.12860092984643
 21
2.70376821968954
 31
0.0
 71
     5
 42
-1.0
100
AcDbAlignedDimension
 13
49.50239811711512
 23
3.126131888444135
 33
0.0
 14
50.75480374257774
 24
3.126131888444135
 34
0.0
100
AcDbRotatedDimension
  0
LINE
  5
A0
330
18
100
AcDbEntity
  8
0
 62
     7
100
AcDbLine
 10
49.50239811711512
 20
3.126131888444135
 30
0.0
 11
50.75480374257774
 21
3.126131888444135
 31
0.0
  0
LINE
  5
A1
330
18
100
AcDbEntity
  8
0
 62
     7
100
AcDbLine
 10
49.50239811711512
 20
3.126131888444135
 30
0.0
 11
50.75480374257774
 21
3.126131888444135
 31
0.0
  0
LWPOLYLINE
  5
A2
330
18
100
AcDbEntity
  8
ADP1DETAIL
100
AcDbPolyline
 90
        4
 70
     1
 43
0.0
 10
49.5045831063592
 20
0.4826654459387752
 10
49.5045831063592
 20
1.732665445938775
 10
50.7545831063592
 20
1.732665445938775
 10
50.7545831063592
 20
0.4826654459387752
  0
LINE
  5
A8
330
18
100
AcDbEntity
  8
0
 62
     7
100
AcDbLine
 10
49.44164108718751
 20
17.89084340232714
 30
0.0
 11
50.76891497365082
 21
14.98301550052269
 31
0.0
  0
ARC
  5
A9
330
18
100
AcDbEntity
  8
0
 62
     7
100
AcDbCircle
 10
52.65061137346684
 20
16.60847812080396
 30
0.0
 40
3.560452876499971
100
AcDbArc
 50
156.7302236437032
 51
207.5864384907556
  0
ARC
  5
AA
330
18
100
AcDbEntity
  8
0
 62
     7
100
AcDbCircle
 10
47.52594380924627
 20
16.65701444738982
 30
0.0
 40
3.560452876499966
100
AcDbArc
 50
332.5580893809317
 51
27.73096636244301
  0
LINE
  5
AB
330
18
100
AcDbEntity
  8
0
 62
     7
100
AcDbLine
 10
50.75480374257774
 20
27.31010296152419
 30
0.0
 11
50.75480374257774
 21
39.12613188844414
 31
0.0
  0
LINE
  5
AC
330
18
100
AcDbEntity
  8
0
 62
     7
100
AcDbLine
 10
49.50239811711512
 20
39.12613188844414
 30
0.0
 11
49.50239811711512
 21
26.96789979170416
 31
0.0
  0
LINE
  5
AD
330
18
100
AcDbEntity
  8
0
 62
     7
100
AcDbLine
 10
49.46321549178552
 20
27.02742704752491
 30
0.0
 11
50.71562111724816
 21
24.30944037098902
 31
0.0
  0
LINE
  5
AE
330
18
100
AcDbEntity
  8
0
 62
     7
100
AcDbLine
 10
49.50904617466324
 20
23.73152545365168
 30
0.0
 11
50.72335101067793
 21
21.24505337711966
 31
0.0
  0
ARC
  5
AF
330
18
100
AcDbEntity
  8
0
 62
     7
100
AcDbCircle
 10
52.06209084746648
 20
22.71158863821399
 30
0.0
 40
3.030964817743813
100
AcDbArc
 50
153.3360410975679
 51
210.1675435612691
  0
ARC
  5
B0
330
18
100
AcDbEntity
  8
0
 62
     7
100
AcDbCircle
 10
52.66472260453991
 20
25.38032227427506
 30
0.0
 40
3.56045287649997
100
AcDbArc
 50
152.4135615092444
 51
207.5864384907557
  0
ARC
  5
B1
330
18
100
AcDbEntity
  8
0
 62
     7
100
AcDbCircle
 10
46.31058071464333
 20
25.71511638951536
 30
0.0
 40
4.74767408759475
100
AcDbArc
 50
340.7764409592414
 51
20.10629152061201
  0
ARC
  5
B2
330
18
100
AcDbEntity
  8
0
 62
     7
100
AcDbCircle
 10
47.84490425553548
 20
22.72237361496707
 30
0.0
 40
3.280212826661005
100
AcDbArc
 50
331.36586375955
 51
28.93587322262093
  0
LINE
  5
B3
330
18
100
AcDbEntity
  8
0
 62
     7
100
AcDbLine
 10
50.75480374257774
 20
39.12613188844414
 30
0.0
 11
49.50239811711512
 21
39.12613188844414
 31
0.0
  0
TEXT
  5
C1
330
18
100
AcDbEntity
  8
ADPDIM
100
AcDbText
 10
17.95604541877394
 20
-0.9270542850949773
 30
0.0
 40
0.625
  1
J U L I U S  B L U M  &  C O . ,  I N C .      ( 8 0 0 )  5 2 6 - 6 2 9 3        W W W . J U L I U S B L U M . C O M        P A R T  N o .  3 3 2
 41
1.25
  7
ARIAL_WIDE
 72
     1
 11
50.1295831063592
 21
-0.3020542850949774
 31
0.0
100
AcDbText
 73
     3
  0
DIMENSION
  5
27A
330
18
100
AcDbEntity
  8
ADPDIM
 62
     3
100
AcDbDimension
  2
*D2
 10
52.15386441138235
 20
15.06363188844413
 30
0.0
 11
52.15386441138235
 21
9.063631888444142
 31
0.0
 70
    32
 71
     5
 42
12.0
  3
STANDARD
100
AcDbAlignedDimension
 13
50.75480374257774
 23
3.063631888444135
 33
0.0
 14
50.75480374257774
 24
15.06363188844413
 34
0.0
 50
90.0
100
AcDbRotatedDimension
1001
ACAD
1000
DSTYLE
1002
{
1070
   276
1070
     2
1070
   277
1070
     5
1070
    41
1040
0.125
1070
    73
1070
     0
1070
    74
1070
     0
1070
    78
1070
     3
1070
   140
1040
0.5
1070
   141
1040
0.1875
1070
   142
1040
0.125
1070
   147
1040
0.125
1070
   171
1070
     1
1002
}
  0
DIMENSION
  5
288
330
18
100
AcDbEntity
  8
ADPDIM
 62
     3
100
AcDbDimension
  2
*D3
 10
52.17832766535122
 20
27.37613188844414
 30
0.0
 11
52.17832766535121
 21
33.25113188844416
 31
0.0
 70
    32
 71
     5
 42
11.75
  3
STANDARD
100
AcDbAlignedDimension
 13
50.75480374257774
 23
39.12613188844414
 33
0.0
 14
50.75480374257774
 24
27.37613188844414
 34
0.0
 50
90.0
100
AcDbRotatedDimension
1001
ACAD
1000
DSTYLE
1002
{
1070
   276
1070
     2
1070
   277
1070
     5
1070
    41
1040
0.125
1070
    73
1070
     0
1070
    74
1070
     0
1070
    78
1070
     3
1070
   140
1040
0.5
1070
   141
1040
0.1875
1070
   142
1040
0.125
1070
   147
1040
0.125
1070
   171
1070
     1
1002
}
  0
ENDSEC
  0
SECTION
  2
OBJECTS
  0
DICTIONARY
  5
C
330
0
100
AcDbDictionary
281
     1
  3
ACAD_COLOR
350
274
  3
ACAD_GROUP
350
D
  3
ACAD_LAYOUT
350
BA
  3
ACAD_MATERIAL
350
25F
  3
ACAD_MLINESTYLE
350
E
  3
ACAD_PLOTSETTINGS
350
BB
  3
ACAD_PLOTSTYLENAME
350
B8
  3
ACAD_TABLESTYLE
350
275
  3
ACAD_VISUALSTYLE
350
263
  3
AcDbVariableDictionary
350
11B
  3
ASE_INDEX_DICTIONARY
350
312
  3
DWGPROPS
350
332
  0
DICTIONARY
  5
115
330
18
100
AcDbDictionary
280
     1
281
     1
  3
ACAD_LAYOUTSELFREF
360
259
  0
DICTIONARY
  5
113
330
15
100
AcDbDictionary
280
     1
281
     1
  3
ACAD_LAYOUTSELFREF
360
258
  0
DICTIONARY
  5
274
102
{ACAD_REACTORS
330
C
102
}
330
C
100
AcDbDictionary
281
     1
  0
DICTIONARY
  5
D
102
{ACAD_REACTORS
330
C
102
}
330
C
100
AcDbDictionary
281
     1
  0
DICTIONARY
  5
BA
102
{ACAD_REACTORS
330
C
102
}
330
C
100
AcDbDictionary
281
     1
  3
Layout1
350
BD
  3
Model
350
BC
  0
DICTIONARY
  5
25F
102
{ACAD_REACTORS
330
C
102
}
330
C
100
AcDbDictionary
281
     1
  3
ByBlock
350
261
  3
ByLayer
350
260
  3
Global
350
262
  0
DICTIONARY
  5
E
102
{ACAD_REACTORS
330
C
102
}
330
C
100
AcDbDictionary
281
     1
  3
STANDARD
350
1B
  0
DICTIONARY
  5
BB
102
{ACAD_REACTORS
330
C
102
}
330
C
100
AcDbDictionary
281
     1
  0
ACDBDICTIONARYWDFLT
  5
B8
102
{ACAD_REACTORS
330
C
102
}
330
C
100
AcDbDictionary
281
     1
  3
Normal
350
B9
100
AcDbDictionaryWithDefault
340
B9
  0
DICTIONARY
  5
275
102
{ACAD_REACTORS
330
C
102
}
330
C
100
AcDbDictionary
281
     1
  3
Standard
350
276
  0
DICTIONARY
  5
263
102
{ACAD_REACTORS
330
C
102
}
330
C
100
AcDbDictionary
281
     1
  3
2dWireframe
350
269
  3
3D Hidden
350
26B
  3
3dWireframe
350
26A
  3
Basic
350
268
  3
Brighten
350
26F
  3
ColorChange
350
273
  3
Conceptual
350
26C
  3
Dim
350
26E
  3
Facepattern
350
272
  3
Flat
350
264
  3
FlatWithEdges
350
265
  3
Gouraud
350
266
  3
GouraudWithEdges
350
267
  3
Linepattern
350
271
  3
Realistic
350
26D
  3
Thicken
350
270
  0
DICTIONARY
  5
11B
102
{ACAD_REACTORS
330
C
102
}
330
C
100
AcDbDictionary
281
     1
  3
CTABLESTYLE
350
32F
  3
DIMASSOC
350
11C
  3
INDEXCTL
350
331
  3
SORTENTS
350
330
  0
DICTIONARY
  5
312
102
{ACAD_REACTORS
330
C
102
}
330
C
100
AcDbDictionary
281
     1
  3
ASEBlockHierarchyIndexRecord
350
314
1001
DCO15
1040
1567964032.709
  0
XRECORD
  5
332
102
{ACAD_REACTORS
330
C
102
}
330
C
100
AcDbXrecord
280
     1
  1
DWGPROPS COOKIE
  2

  3

  4

  6

  7

  8
Yu Hu
  9

300
=
301
=
302
=
303
=
304
=
305
=
306
=
307
=
308
=
309
=
 40
0.0737154050925926
 41
2450374.47766801
 42
2453950.94371191
  1

 90
        0
  0
XRECORD
  5
259
102
{ACAD_REACTORS
330
115
102
}
330
115
100
AcDbXrecord
280
     1
340
18
  0
XRECORD
  5
258
102
{ACAD_REACTORS
330
113
102
}
330
113
100
AcDbXrecord
280
     1
340
15
  0
LAYOUT
  5
BD
102
{ACAD_XDICTIONARY
360
335
102
}
102
{ACAD_REACTORS
330
BA
102
}
330
BA
100
AcDbPlotSettings
  1

  2
Fax
  4

  6

 40
0.0
 41
0.0
 42
0.0
 43
0.0
 44
0.0
 45
0.0
 46
0.0
 47
0.0
 48
0.0
 49
0.0
140
0.0
141
0.0
142
1.0
143
1.0
 70
   688
 72
     0
 73
     0
 74
     5
  7
Default R14 pen assignments.ctb
 75
    16
147
1.0
148
0.0
149
0.0
100
AcDbLayout
  1
Layout1
 70
     1
 71
     1
 10
0.0
 20
0.0
 11
12.0
 21
9.0
 12
0.0
 22
0.0
 32
0.0
 14
1.000000000000000E+20
 24
1.000000000000000E+20
 34
1.000000000000000E+20
 15
-1.000000000000000E+20
 25
-1.000000000000000E+20
 35
-1.000000000000000E+20
146
0.0
 13
0.0
 23
0.0
 33
0.0
 16
1.0
 26
0.0
 36
0.0
 17
0.0
 27
1.0
 37
0.0
 76
     0
330
15
  0
LAYOUT
  5
BC
102
{ACAD_XDICTIONARY
360
333
102
}
102
{ACAD_REACTORS
330
BA
102
}
330
BA
100
AcDbPlotSettings
  1

  2
Fax
  4

  6

 40
0.0
 41
0.0
 42
0.0
 43
0.0
 44
0.0
 45
0.0
 46
0.0
 47
0.0
 48
0.0
 49
0.0
140
0.0
141
0.0
142
1.0
143
1.0
 70
  1712
 72
     0
 73
     0
 74
     0
  7
Default R14 pen assignments.ctb
 75
     0
147
1.0
148
0.0
149
0.0
100
AcDbLayout
  1
Model
 70
     1
 71
     0
 10
0.0
 20
0.0
 11
12.0
 21
9.0
 12
0.0
 22
0.0
 32
0.0
 14
0.0
 24
0.0
 34
0.0
 15
0.0
 25
0.0
 35
0.0
146
0.0
 13
0.0
 23
0.0
 33
0.0
 16
1.0
 26
0.0
 36
0.0
 17
0.0
 27
1.0
 37
0.0
 76
     0
330
18
331
233
  0
MATERIAL
  5
261
102
{ACAD_XDICTIONARY
360
339
102
}
102
{ACAD_REACTORS
330
25F
102
}
330
25F
100
AcDbMaterial
  1
ByBlock
  0
MATERIAL
  5
260
102
{ACAD_XDICTIONARY
360
337
102
}
102
{ACAD_REACTORS
330
25F
102
}
330
25F
100
AcDbMaterial
  1
ByLayer
  0
MATERIAL
  5
262
102
{ACAD_XDICTIONARY
360
33B
102
}
102
{ACAD_REACTORS
330
25F
102
}
330
25F
100
AcDbMaterial
  1
Global
  0
MLINESTYLE
  5
1B
102
{ACAD_REACTORS
330
E
102
}
330
E
100
AcDbMlineStyle
  2
STANDARD
 70
     0
  3

 62
     0
 51
90.0
 52
90.0
 71
     2
 49
0.5
 62
   256
  6
BYLAYER
 49
-0.5
 62
   256
  6
BYLAYER
  0
ACDBPLACEHOLDER
  5
B9
102
{ACAD_REACTORS
330
B8
102
}
330
B8
  0
TABLESTYLE
  5
276
102
{ACAD_XDICTIONARY
360
33D
102
}
102
{ACAD_REACTORS
330
275
102
}
330
275
100
AcDbTableStyle
  3
Standard
 70
     0
 71
     0
 40
0.06
 41
0.06
280
     0
281
     0
  7
STANDARD
140
0.18
170
     2
 62
     0
 63
     7
283
     0
274
    -2
284
     1
 64
     0
275
    -2
285
     1
 65
     0
276
    -2
286
     1
 66
     0
277
    -2
287
     1
 67
     0
278
    -2
288
     1
 68
     0
279
    -2
289
     1
 69
     0
  7
STANDARD
140
0.25
170
     5
 62
     0
 63
     7
283
     0
274
    -2
284
     1
 64
     0
275
    -2
285
     1
 65
     0
276
    -2
286
     1
 66
     0
277
    -2
287
     1
 67
     0
278
    -2
288
     1
 68
     0
279
    -2
289
     1
 69
     0
  7
STANDARD
140
0.18
170
     5
 62
     0
 63
     7
283
     0
274
    -2
284
     1
 64
     0
275
    -2
285
     1
 65
     0
276
    -2
286
     1
 66
     0
277
    -2
287
     1
 67
     0
278
    -2
288
     1
 68
     0
279
    -2
289
     1
 69
     0
  0
VISUALSTYLE
  5
269
102
{ACAD_REACTORS
330
263
102
}
330
263
100
AcDbVisualStyle
  2
2dWireframe
 70
     4
 71
     0
 72
     2
 73
     0
 90
        0
 40
-0.6
 41
-30.0
 62
     5
 63
     7
 74
     1
 91
        4
 64
     7
 65
   257
 75
     1
175
     1
 42
1.0
 92
        0
 66
   257
 43
1.0
 76
     1
 77
     6
 78
     2
 67
     7
 79
     5
170
     0
171
     0
290
     0
174
     0
 93
        1
 44
0.0
173
     0
291
     0
 45
0.0
1001
ACAD
1000
AcDbSavedByObjectVersion
1070
     0
  0
VISUALSTYLE
  5
26B
102
{ACAD_REACTORS
330
263
102
}
330
263
100
AcDbVisualStyle
  2
3D Hidden
 70
     6
 71
     1
 72
     2
 73
     2
 90
        0
 40
-0.6
 41
-30.0
 62
     5
 63
     7
 74
     2
 91
        2
 64
     7
 65
   257
 75
     2
175
     1
 42
40.0
 92
        0
 66
   257
 43
1.0
 76
     1
 77
     6
 78
     2
 67
     7
 79
     3
170
     0
171
     0
290
     0
174
     0
 93
        1
 44
0.0
173
     0
291
     0
 45
0.0
1001
ACAD
1000
AcDbSavedByObjectVersion
1070
     0
  0
VISUALSTYLE
  5
26A
102
{ACAD_REACTORS
330
263
102
}
330
263
100
AcDbVisualStyle
  2
3dWireframe
 70
     5
 71
     0
 72
     2
 73
     0
 90
        0
 40
-0.6
 41
-30.0
 62
     5
 63
     7
 74
     1
 91
        4
 64
     7
 65
   257
 75
     1
175
     1
 42
1.0
 92
        0
 66
   257
 43
1.0
 76
     1
 77
     6
 78
     2
 67
     7
 79
     5
170
     0
171
     0
290
     0
174
     0
 93
        1
 44
0.0
173
     0
291
     0
 45
0.0
1001
ACAD
1000
AcDbSavedByObjectVersion
1070
     0
  0
VISUALSTYLE
  5
268
102
{ACAD_REACTORS
330
263
102
}
330
263
100
AcDbVisualStyle
  2
Basic
 70
     7
 71
     1
 72
     0
 73
     1
 90
        0
 40
-0.6
 41
-30.0
 62
     5
 63
     7
 74
     0
 91
        4
 64
     7
 65
   257
 75
     1
175
     1
 42
1.0
 92
        8
 66
     7
 43
1.0
 76
     1
 77
     6
 78
     2
 67
     7
 79
     5
170
     0
171
     0
290
     0
174
     0
 93
        1
 44
0.0
173
     0
291
     1
 45
0.0
1001
ACAD
1000
AcDbSavedByObjectVersion
1070
     0
  0
VISUALSTYLE
  5
26F
102
{ACAD_REACTORS
330
263
102
}
330
263
100
AcDbVisualStyle
  2
Brighten
 70
    12
 71
     2
 72
     2
 73
     0
 90
        0
 40
-0.6
 41
-30.0
 62
     5
 63
     7
 74
     1
 91
        4
 64
     7
 65
   257
 75
     1
175
     1
 42
1.0
 92
        8
 66
     7
 43
1.0
 76
     1
 77
     6
 78
     2
 67
     7
 79
     5
170
     0
171
     0
290
     0
174
     0
 93
        1
 44
50.0
173
     0
291
     1
 45
0.0
1001
ACAD
1000
AcDbSavedByObjectVersion
1070
     0
  0
VISUALSTYLE
  5
273
102
{ACAD_REACTORS
330
263
102
}
330
263
100
AcDbVisualStyle
  2
ColorChange
 70
    16
 71
     2
 72
     2
 73
     3
 90
        0
 40
-0.6
 41
-30.0
 62
     5
 63
     8
 74
     1
 91
        4
 64
     7
 65
   257
 75
     1
175
     1
 42
1.0
 92
        8
 66
     8
 43
1.0
 76
     1
 77
     6
 78
     2
 67
     7
 79
     5
170
     0
171
     0
290
     0
174
     0
 93
        1
 44
0.0
173
     0
291
     1
 45
0.0
1001
ACAD
1000
AcDbSavedByObjectVersion
1070
     0
  0
VISUALSTYLE
  5
26C
102
{ACAD_REACTORS
330
263
102
}
330
263
100
AcDbVisualStyle
  2
Conceptual
 70
     9
 71
     3
 72
     2
 73
     0
 90
        0
 40
-0.6
 41
-30.0
 62
     5
 63
     7
 74
     2
 91
        2
 64
     7
 65
   257
 75
     1
175
     1
 42
40.0
 92
        8
 66
     7
 43
1.0
 76
     1
 77
     6
 78
     2
 67
     7
 79
     3
170
     0
171
     0
290
     0
174
     0
 93
        1
 44
0.0
173
     0
291
     0
 45
0.0
1001
ACAD
1000
AcDbSavedByObjectVersion
1070
     0
  0
VISUALSTYLE
  5
26E
102
{ACAD_REACTORS
330
263
102
}
330
263
100
AcDbVisualStyle
  2
Dim
 70
    11
 71
     2
 72
     2
 73
     0
 90
        0
 40
-0.6
 41
-30.0
 62
     5
 63
     7
 74
     1
 91
        4
 64
     7
 65
   257
 75
     1
175
     1
 42
1.0
 92
        8
 66
     7
 43
1.0
 76
     1
 77
     6
 78
     2
 67
     7
 79
     5
170
     0
171
     0
290
     0
174
     0
 93
        1
 44
-50.0
173
     0
291
     1
 45
0.0
1001
ACAD
1000
AcDbSavedByObjectVersion
1070
     0
  0
VISUALSTYLE
  5
272
102
{ACAD_REACTORS
330
263
102
}
330
263
100
AcDbVisualStyle
  2
Facepattern
 70
    15
 71
     2
 72
     2
 73
     0
 90
        0
 40
-0.6
 41
-30.0
 62
     5
 63
     7
 74
     1
 91
        4
 64
     7
 65
   257
 75
     1
175
     1
 42
1.0
 92
        8
 66
     7
 43
1.0
 76
     1
 77
     6
 78
     2
 67
     7
 79
     5
170
     0
171
     0
290
     0
174
     0
 93
        1
 44
0.0
173
     0
291
     1
 45
0.0
1001
ACAD
1000
AcDbSavedByObjectVersion
1070
     0
  0
VISUALSTYLE
  5
264
102
{ACAD_REACTORS
330
263
102
}
330
263
100
AcDbVisualStyle
  2
Flat
 70
     0
 71
     2
 72
     1
 73
     1
 90
        2
 40
-0.6
 41
30.0
 62
     5
 63
     7
 74
     0
 91
        4
 64
     7
 65
   257
 75
     1
175
     1
 42
1.0
 92
        8
 66
     7
 43
1.0
 76
     1
 77
     6
 78
     2
 67
     7
 79
     5
170
     0
171
     0
290
     0
174
     0
 93
       13
 44
0.0
173
     0
291
     1
 45
0.0
1001
ACAD
1000
AcDbSavedByObjectVersion
1070
     0
  0
VISUALSTYLE
  5
265
102
{ACAD_REACTORS
330
263
102
}
330
263
100
AcDbVisualStyle
  2
FlatWithEdges
 70
     1
 71
     2
 72
     1
 73
     1
 90
        2
 40
-0.6
 41
30.0
 62
     5
 63
     7
 74
     1
 91
        4
 64
     7
 65
   257
 75
     1
175
     1
 42
1.0
 92
        0
 66
   257
 43
1.0
 76
     1
 77
     6
 78
     2
 67
     7
 79
     5
170
     0
171
     0
290
     0
174
     0
 93
       13
 44
0.0
173
     0
291
     1
 45
0.0
1001
ACAD
1000
AcDbSavedByObjectVersion
1070
     0
  0
VISUALSTYLE
  5
266
102
{ACAD_REACTORS
330
263
102
}
330
263
100
AcDbVisualStyle
  2
Gouraud
 70
     2
 71
     2
 72
     2
 73
     1
 90
        2
 40
-0.6
 41
30.0
 62
     5
 63
     7
 74
     0
 91
        4
 64
     7
 65
   257
 75
     1
175
     1
 42
1.0
 92
        0
 66
     7
 43
1.0
 76
     1
 77
     6
 78
     2
 67
     7
 79
     5
170
     0
171
     0
290
     0
174
     0
 93
       13
 44
0.0
173
     0
291
     1
 45
0.0
1001
ACAD
1000
AcDbSavedByObjectVersion
1070
     0
  0
VISUALSTYLE
  5
267
102
{ACAD_REACTORS
330
263
102
}
330
263
100
AcDbVisualStyle
  2
GouraudWithEdges
 70
     3
 71
     2
 72
     2
 73
     1
 90
        2
 40
-0.6
 41
30.0
 62
     5
 63
     7
 74
     1
 91
        4
 64
     7
 65
   257
 75
     1
175
     1
 42
1.0
 92
        0
 66
   257
 43
1.0
 76
     1
 77
     6
 78
     2
 67
     7
 79
     5
170
     0
171
     0
290
     0
174
     0
 93
       13
 44
0.0
173
     0
291
     1
 45
0.0
1001
ACAD
1000
AcDbSavedByObjectVersion
1070
     0
  0
VISUALSTYLE
  5
271
102
{ACAD_REACTORS
330
263
102
}
330
263
100
AcDbVisualStyle
  2
Linepattern
 70
    14
 71
     2
 72
     2
 73
     0
 90
        0
 40
-0.6
 41
-30.0
 62
     5
 63
     7
 74
     1
 91
        4
 64
     7
 65
   257
 75
     7
175
     7
 42
1.0
 92
        8
 66
     7
 43
1.0
 76
     1
 77
     6
 78
     2
 67
     7
 79
     5
170
     0
171
     0
290
     0
174
     0
 93
        1
 44
0.0
173
     0
291
     1
 45
0.0
1001
ACAD
1000
AcDbSavedByObjectVersion
1070
     0
  0
VISUALSTYLE
  5
26D
102
{ACAD_REACTORS
330
263
102
}
330
263
100
AcDbVisualStyle
  2
Realistic
 70
     8
 71
     2
 72
     2
 73
     0
 90
        0
 40
-0.6
 41
-30.0
 62
     5
 63
     7
 74
     1
 91
        0
 64
     7
 65
   257
 75
     1
175
     1
 42
1.0
 92
        8
 66
     8
 43
1.0
 76
     1
 77
     6
 78
     2
 67
     7
 79
     5
170
     0
171
     0
290
     0
174
     0
 93
       13
 44
0.0
173
     0
291
     0
 45
0.0
1001
ACAD
1000
AcDbSavedByObjectVersion
1070
     0
  0
VISUALSTYLE
  5
270
102
{ACAD_REACTORS
330
263
102
}
330
263
100
AcDbVisualStyle
  2
Thicken
 70
    13
 71
     2
 72
     2
 73
     0
 90
        0
 40
-0.6
 41
-30.0
 62
     5
 63
     7
 74
     1
 91
        4
 64
     7
 65
   257
 75
     1
175
     1
 42
1.0
 92
       12
 66
     7
 43
1.0
 76
     1
 77
     6
 78
     2
 67
     7
 79
     5
170
     0
171
     0
290
     0
174
     0
 93
        1
 44
0.0
173
     0
291
     1
 45
0.0
1001
ACAD
1000
AcDbSavedByObjectVersion
1070
     0
  0
DICTIONARYVAR
  5
32F
102
{ACAD_REACTORS
330
11B
102
}
330
11B
100
DictionaryVariables
280
     0
  1
STANDARD
  0
DICTIONARYVAR
  5
11C
102
{ACAD_REACTORS
330
11B
102
}
330
11B
100
DictionaryVariables
280
     0
  1
1
  0
DICTIONARYVAR
  5
331
102
{ACAD_REACTORS
330
11B
102
}
330
11B
100
DictionaryVariables
280
     0
  1
0
  0
DICTIONARYVAR
  5
330
102
{ACAD_REACTORS
330
11B
102
}
330
11B
100
DictionaryVariables
280
     0
  1
127
  0
XRECORD
  5
314
102
{ACAD_REACTORS
330
312
102
}
330
312
100
AcDbXrecord
280
     1
  0
DICTIONARY
  5
335
330
BD
100
AcDbDictionary
280
     1
281
     1
  3
ACAD_XREC_ROUNDTRIP
360
336
  0
DICTIONARY
  5
333
330
BC
100
AcDbDictionary
280
     1
281
     1
  3
ACAD_XREC_ROUNDTRIP
360
334
  0
DICTIONARY
  5
339
330
261
100
AcDbDictionary
280
     1
281
     1
  3
ACAD_XREC_ROUNDTRIP
360
33A
  0
DICTIONARY
  5
337
330
260
100
AcDbDictionary
280
     1
281
     1
  3
ACAD_XREC_ROUNDTRIP
360
338
  0
DICTIONARY
  5
33B
330
262
100
AcDbDictionary
280
     1
281
     1
  3
ACAD_XREC_ROUNDTRIP
360
33C
  0
DICTIONARY
  5
33D
330
276
100
AcDbDictionary
280
     1
281
     1
  3
ACAD_XREC_ROUNDTRIP
360
33E
  0
XRECORD
  5
336
102
{ACAD_REACTORS
330
335
102
}
330
335
100
AcDbXrecord
280
     1
102
SHADEPLOT
 70
     0
102
SHADEPLOTRESLEVEL
 70
     2
102
SHADEPLOTCUSTOMDPI
 70
   300
  0
XRECORD
  5
334
102
{ACAD_REACTORS
330
333
102
}
330
333
100
AcDbXrecord
280
     1
102
SHADEPLOT
 70
     0
102
SHADEPLOTRESLEVEL
 70
     2
102
SHADEPLOTCUSTOMDPI
 70
   300
  0
XRECORD
  5
33A
102
{ACAD_REACTORS
330
339
102
}
330
339
100
AcDbXrecord
280
     1
102
MATERIAL
148
0.0
149
0.0
149
0.0
 93
        0
 94
       63
282
     0
 72
     1
 77
     1
171
     1
175
     1
179
     1
273
     0
  0
XRECORD
  5
338
102
{ACAD_REACTORS
330
337
102
}
330
337
100
AcDbXrecord
280
     1
102
MATERIAL
148
0.0
149
0.0
149
0.0
 93
        0
 94
       63
282
     0
 72
     1
 77
     1
171
     1
175
     1
179
     1
273
     0
  0
XRECORD
  5
33C
102
{ACAD_REACTORS
330
33B
102
}
330
33B
100
AcDbXrecord
280
     1
102
MATERIAL
148
0.0
149
0.0
149
0.0
 93
        0
 94
       63
282
     0
 72
     1
 77
     1
171
     1
175
     1
179
     1
273
     0
  0
XRECORD
  5
33E
102
{ACAD_REACTORS
330
33D
102
}
330
33D
100
AcDbXrecord
280
     1
102
ACAD_ROUNDTRIP_PRE2007_TABLESTYLE
 90
      512
 91
        0
  1

 92
      512
 93
        0
  2

 94
      512
 95
        0
  3

  0
ENDSEC
  0
EOF
