  0
SECTION
  2
HEADER
  9
$ACADVER
  1
AC1015
  9
$ACADMAINTVER
 70
    20
  9
$DWGCODEPAGE
  3
ANSI_1252
  9
$INSBASE
 10
10.47411736652161
 20
4.141663637124487
 30
0.0
  9
$EXTMIN
 10
-29.05645863592264
 20
-1.525212742090118
 30
-0.0015258207003583
  9
$EXTMAX
 10
48.45509328743137
 20
45.93811369820339
 30
0.0000000349246037
  9
$LIMMIN
 10
0.0
 20
0.0
  9
$LIMMAX
 10
36.0
 20
36.0
  9
$ORTHOMODE
 70
     0
  9
$REGENMODE
 70
     1
  9
$FILLMODE
 70
     1
  9
$QTEXTMODE
 70
     0
  9
$MIRRTEXT
 70
     1
  9
$LTSCALE
 40
1.0
  9
$ATTMODE
 70
     1
  9
$TEXTSIZE
 40
0.2
  9
$TRACEWID
 40
0.05
  9
$TEXTSTYLE
  7
STANDARD
  9
$CLAYER
  8
ADP1DETAIL
  9
$CELTYPE
  6
BYLAYER
  9
$CECOLOR
 62
   256
  9
$CELTSCALE
 40
1.0
  9
$DISPSILH
 70
     0
  9
$DIMSCALE
 40
1.0
  9
$DIMASZ
 40
0.125
  9
$DIMEXO
 40
0.0625
  9
$DIMDLI
 40
0.38
  9
$DIMRND
 40
0.0
  9
$DIMDLE
 40
0.0
  9
$DIMEXE
 40
0.18
  9
$DIMTP
 40
0.0
  9
$DIMTM
 40
0.0
  9
$DIMTXT
 40
0.125
  9
$DIMCEN
 40
0.1875
  9
$DIMTSZ
 40
0.125
  9
$DIMTOL
 70
     0
  9
$DIMLIM
 70
     0
  9
$DIMTIH
 70
     0
  9
$DIMTOH
 70
     0
  9
$DIMSE1
 70
     0
  9
$DIMSE2
 70
     0
  9
$DIMTAD
 70
     0
  9
$DIMZIN
 70
     3
  9
$DIMBLK
  1

  9
$DIMASO
 70
     1
  9
$DIMSHO
 70
     1
  9
$DIMPOST
  1

  9
$DIMAPOST
  1

  9
$DIMALT
 70
     0
  9
$DIMALTD
 70
     1
  9
$DIMALTF
 40
25.4
  9
$DIMLFAC
 40
1.0
  9
$DIMTOFL
 70
     0
  9
$DIMTVP
 40
0.0
  9
$DIMTIX
 70
     0
  9
$DIMSOXD
 70
     0
  9
$DIMSAH
 70
     0
  9
$DIMBLK1
  1

  9
$DIMBLK2
  1

  9
$DIMSTYLE
  2
STANDARD
  9
$DIMCLRD
 70
     0
  9
$DIMCLRE
 70
     0
  9
$DIMCLRT
 70
     0
  9
$DIMTFAC
 40
1.0
  9
$DIMGAP
 40
0.125
  9
$DIMJUST
 70
     0
  9
$DIMSD1
 70
     0
  9
$DIMSD2
 70
     0
  9
$DIMTOLJ
 70
     1
  9
$DIMTZIN
 70
     3
  9
$DIMALTZ
 70
     3
  9
$DIMALTTZ
 70
     3
  9
$DIMUPT
 70
     0
  9
$DIMDEC
 70
     4
  9
$DIMTDEC
 70
     4
  9
$DIMALTU
 70
     5
  9
$DIMALTTD
 70
     1
  9
$DIMTXSTY
  7
STANDARD
  9
$DIMAUNIT
 70
     0
  9
$DIMADEC
 70
     0
  9
$DIMALTRND
 40
0.0
  9
$DIMAZIN
 70
     0
  9
$DIMDSEP
 70
    46
  9
$DIMATFIT
 70
     3
  9
$DIMFRAC
 70
     0
  9
$DIMLDRBLK
  1

  9
$DIMLUNIT
 70
     5
  9
$DIMLWD
 70
    -2
  9
$DIMLWE
 70
    -2
  9
$DIMTMOVE
 70
     2
  9
$LUNITS
 70
     5
  9
$LUPREC
 70
     4
  9
$SKETCHINC
 40
0.1
  9
$FILLETRAD
 40
0.062
  9
$AUNITS
 70
     0
  9
$AUPREC
 70
     0
  9
$MENU
  1
acad
  9
$ELEVATION
 40
0.0
  9
$PELEVATION
 40
0.0
  9
$THICKNESS
 40
0.0
  9
$LIMCHECK
 70
     0
  9
$CHAMFERA
 40
0.0
  9
$CHAMFERB
 40
0.0
  9
$CHAMFERC
 40
0.0
  9
$CHAMFERD
 40
0.0
  9
$SKPOLY
 70
     0
  9
$TDCREATE
 40
2450373.685094908
  9
$TDUCREATE
 40
2450373.851761574
  9
$TDUPDATE
 40
2453943.903979410
  9
$TDUUPDATE
 40
2453944.070646077
  9
$TDINDWG
 40
0.0228360301
  9
$TDUSRTIMER
 40
0.0228360301
  9
$USRTIMER
 70
     1
  9
$ANGBASE
 50
0.0
  9
$ANGDIR
 70
     0
  9
$PDMODE
 70
     0
  9
$PDSIZE
 40
0.0
  9
$PLINEWID
 40
0.0
  9
$SPLFRAME
 70
     0
  9
$SPLINETYPE
 70
     6
  9
$SPLINESEGS
 70
     8
  9
$HANDSEED
  5
318
  9
$SURFTAB1
 70
     6
  9
$SURFTAB2
 70
     6
  9
$SURFTYPE
 70
     6
  9
$SURFU
 70
     6
  9
$SURFV
 70
     6
  9
$UCSBASE
  2

  9
$UCSNAME
  2

  9
$UCSORG
 10
0.0
 20
0.0
 30
0.0
  9
$UCSXDIR
 10
1.0
 20
0.0
 30
0.0
  9
$UCSYDIR
 10
0.0
 20
1.0
 30
0.0
  9
$UCSORTHOREF
  2

  9
$UCSORTHOVIEW
 70
     0
  9
$UCSORGTOP
 10
0.0
 20
0.0
 30
0.0
  9
$UCSORGBOTTOM
 10
0.0
 20
0.0
 30
0.0
  9
$UCSORGLEFT
 10
0.0
 20
0.0
 30
0.0
  9
$UCSORGRIGHT
 10
0.0
 20
0.0
 30
0.0
  9
$UCSORGFRONT
 10
0.0
 20
0.0
 30
0.0
  9
$UCSORGBACK
 10
0.0
 20
0.0
 30
0.0
  9
$PUCSBASE
  2

  9
$PUCSNAME
  2

  9
$PUCSORG
 10
0.0
 20
0.0
 30
0.0
  9
$PUCSXDIR
 10
1.0
 20
0.0
 30
0.0
  9
$PUCSYDIR
 10
0.0
 20
1.0
 30
0.0
  9
$PUCSORTHOREF
  2

  9
$PUCSORTHOVIEW
 70
     0
  9
$PUCSORGTOP
 10
0.0
 20
0.0
 30
0.0
  9
$PUCSORGBOTTOM
 10
0.0
 20
0.0
 30
0.0
  9
$PUCSORGLEFT
 10
0.0
 20
0.0
 30
0.0
  9
$PUCSORGRIGHT
 10
0.0
 20
0.0
 30
0.0
  9
$PUCSORGFRONT
 10
0.0
 20
0.0
 30
0.0
  9
$PUCSORGBACK
 10
0.0
 20
0.0
 30
0.0
  9
$USERI1
 70
     0
  9
$USERI2
 70
     0
  9
$USERI3
 70
     0
  9
$USERI4
 70
     0
  9
$USERI5
 70
     0
  9
$USERR1
 40
0.0
  9
$USERR2
 40
0.0
  9
$USERR3
 40
0.0
  9
$USERR4
 40
0.0
  9
$USERR5
 40
0.0
  9
$WORLDVIEW
 70
     1
  9
$SHADEDGE
 70
     3
  9
$SHADEDIF
 70
    70
  9
$TILEMODE
 70
     1
  9
$MAXACTVP
 70
    15
  9
$PINSBASE
 10
1.667196317885515E+99
 20
2.439420651286265E+99
 30
0.0
  9
$PLIMCHECK
 70
     0
  9
$PEXTMIN
 10
1.000000000000000E+20
 20
1.000000000000000E+20
 30
1.000000000000000E+20
  9
$PEXTMAX
 10
-1.000000000000000E+20
 20
-1.000000000000000E+20
 30
-1.000000000000000E+20
  9
$PLIMMIN
 10
0.0
 20
0.0
  9
$PLIMMAX
 10
12.0
 20
9.0
  9
$UNITMODE
 70
     0
  9
$VISRETAIN
 70
     0
  9
$PLINEGEN
 70
     0
  9
$PSLTSCALE
 70
     1
  9
$TREEDEPTH
 70
  3020
  9
$CMLSTYLE
  2
STANDARD
  9
$CMLJUST
 70
     0
  9
$CMLSCALE
 40
1.0
  9
$PROXYGRAPHICS
 70
     1
  9
$MEASUREMENT
 70
     0
  9
$CELWEIGHT
370
    -1
  9
$ENDCAPS
280
     0
  9
$JOINSTYLE
280
     0
  9
$LWDISPLAY
290
     0
  9
$INSUNITS
 70
     0
  9
$HYPERLINKBASE
  1

  9
$STYLESHEET
  1

  9
$XEDIT
290
     1
  9
$CEPSNTYPE
380
     0
  9
$PSTYLEMODE
290
     1
  9
$FINGERPRINTGUID
  2
{0F24D600-9EEA-4BEF-AB40-A8D70ED75921}
  9
$VERSIONGUID
  2
{59025614-9AF8-4955-944E-19C713E6884D}
  9
$EXTNAMES
290
     1
  9
$PSVPSCALE
 40
0.0
  9
$OLESTARTUP
290
     0
  0
ENDSEC
  0
SECTION
  2
CLASSES
  0
CLASS
  1
DICTIONARYVAR
  2
AcDbDictionaryVar
  3
ObjectDBX Classes
 90
        0
280
     0
281
     0
  0
CLASS
  1
ACDBDICTIONARYWDFLT
  2
AcDbDictionaryWithDefault
  3
ObjectDBX Classes
 90
        0
280
     0
281
     0
  0
CLASS
  1
ACDBPLACEHOLDER
  2
AcDbPlaceHolder
  3
ObjectDBX Classes
 90
        0
280
     0
281
     0
  0
CLASS
  1
LAYOUT
  2
AcDbLayout
  3
ObjectDBX Classes
 90
        0
280
     0
281
     0
  0
CLASS
  1
MATERIAL
  2
AcDbMaterial
  3
ObjectDBX Classes
 90
     1024
280
     0
281
     0
  0
CLASS
  1
VISUALSTYLE
  2
AcDbVisualStyle
  3
ObjectDBX Classes
 90
     4095
280
     0
281
     0
  0
CLASS
  1
TABLESTYLE
  2
AcDbTableStyle
  3
ObjectDBX Classes
 90
     4095
280
     0
281
     0
  0
ENDSEC
  0
SECTION
  2
TABLES
  0
TABLE
  2
VPORT
  5
8
330
0
100
AcDbSymbolTable
 70
     1
  0
VPORT
  5
139
330
8
100
AcDbSymbolTableRecord
100
AcDbViewportTableRecord
  2
*Active
 70
     0
 10
0.0
 20
0.0
 11
1.0
 21
1.0
 12
37.26669745146236
 22
1.507547056216466
 13
0.0
 23
0.0
 14
0.5740882589684922
 24
0.5740882589684922
 15
0.5
 25
0.5
 16
0.0
 26
0.0
 36
1.0
 17
0.0
 27
0.0
 37
0.0
 40
16.65408262090017
 41
2.023012552301255
 42
50.0
 43
0.0
 44
0.0
 50
0.0
 51
0.0
 71
     0
 72
   100
 73
     1
 74
     0
 75
     0
 76
     0
 77
     0
 78
     0
281
     0
 65
     1
110
0.0
120
0.0
130
0.0
111
1.0
121
0.0
131
0.0
112
0.0
122
1.0
132
0.0
 79
     0
146
0.0
  0
ENDTAB
  0
TABLE
  2
LTYPE
  5
5
330
0
100
AcDbSymbolTable
 70
     2
  0
LTYPE
  5
11
330
5
100
AcDbSymbolTableRecord
100
AcDbLinetypeTableRecord
  2
BYBLOCK
 70
     0
  3

 72
    65
 73
     0
 40
0.0
  0
LTYPE
  5
12
330
5
100
AcDbSymbolTableRecord
100
AcDbLinetypeTableRecord
  2
BYLAYER
 70
     0
  3

 72
    65
 73
     0
 40
0.0
  0
LTYPE
  5
13
330
5
100
AcDbSymbolTableRecord
100
AcDbLinetypeTableRecord
  2
CONTINUOUS
 70
     0
  3
Solid line
 72
    65
 73
     0
 40
0.0
  0
ENDTAB
  0
TABLE
  2
LAYER
  5
2
330
0
100
AcDbSymbolTable
 70
     4
  0
LAYER
  5
E
330
2
100
AcDbSymbolTableRecord
100
AcDbLayerTableRecord
  2
0
 70
     0
 62
     7
  6
CONTINUOUS
370
    -3
390
7A
  0
LAYER
  5
20
330
2
100
AcDbSymbolTableRecord
100
AcDbLayerTableRecord
  2
ADPDIM
 70
     0
 62
     3
  6
CONTINUOUS
370
    -3
390
7A
  0
LAYER
  5
21
330
2
100
AcDbSymbolTableRecord
100
AcDbLayerTableRecord
  2
ADP1DETAIL
 70
     0
 62
     7
  6
CONTINUOUS
370
    -3
390
7A
  0
LAYER
  5
22
330
2
100
AcDbSymbolTableRecord
100
AcDbLayerTableRecord
  2
DEFPOINTS
 70
     0
 62
     7
  6
CONTINUOUS
290
     0
370
    -3
390
7A
  0
ENDTAB
  0
TABLE
  2
STYLE
  5
3
330
0
100
AcDbSymbolTable
 70
     2
  0
STYLE
  5
F
330
3
100
AcDbSymbolTableRecord
100
AcDbTextStyleTableRecord
  2
STANDARD
 70
     0
 40
0.0
 41
1.0
 50
0.0
 71
     0
 42
0.2
  3
txt
  4

  0
STYLE
  5
6E
330
3
100
AcDbSymbolTableRecord
100
AcDbTextStyleTableRecord
  2
ARIAL_WIDE
 70
     0
 40
0.0
 41
1.25
 50
0.0
 71
     0
 42
0.2
  3
ARIAL.TTF
  4

1001
ACAD
1000
Arial
1071
       34
  0
ENDTAB
  0
TABLE
  2
VIEW
  5
6
330
0
100
AcDbSymbolTable
 70
     0
  0
ENDTAB
  0
TABLE
  2
UCS
  5
7
330
0
100
AcDbSymbolTable
 70
     0
  0
ENDTAB
  0
TABLE
  2
APPID
  5
9
330
0
100
AcDbSymbolTable
 70
     1
  0
APPID
  5
10
330
9
100
AcDbSymbolTableRecord
100
AcDbRegAppTableRecord
  2
ACAD
 70
     0
  0
ENDTAB
  0
TABLE
  2
DIMSTYLE
  5
A
330
0
100
AcDbSymbolTable
 70
     2
100
AcDbDimStyleTable
 71
     1
340
6C
  0
DIMSTYLE
105
6C
102
{ACAD_REACTORS
330
17F
330
5A
330
5D
330
50
330
250
102
}
330
A
100
AcDbSymbolTableRecord
100
AcDbDimStyleTableRecord
  2
STANDARD
 70
     0
340
F
  0
ENDTAB
  0
TABLE
  2
BLOCK_RECORD
  5
1
330
0
100
AcDbSymbolTable
 70
     9
  0
BLOCK_RECORD
  5
17
102
{ACAD_XDICTIONARY
360
A8
102
}
330
1
100
AcDbSymbolTableRecord
100
AcDbBlockTableRecord
  2
*MODEL_SPACE
340
7D
  0
BLOCK_RECORD
  5
14
102
{ACAD_XDICTIONARY
360
A6
102
}
330
1
100
AcDbSymbolTableRecord
100
AcDbBlockTableRecord
  2
*PAPER_SPACE
340
7E
  0
BLOCK_RECORD
  5
1C
330
1
100
AcDbSymbolTableRecord
100
AcDbBlockTableRecord
  2
*D0
340
0
  0
BLOCK_RECORD
  5
1D
330
1
100
AcDbSymbolTableRecord
100
AcDbBlockTableRecord
  2
*D1
340
0
  0
BLOCK_RECORD
  5
1E
330
1
100
AcDbSymbolTableRecord
100
AcDbBlockTableRecord
  2
*D2
340
0
  0
BLOCK_RECORD
  5
180
330
1
100
AcDbSymbolTableRecord
100
AcDbBlockTableRecord
  2
*D3
340
0
  0
BLOCK_RECORD
  5
1DC
330
1
100
AcDbSymbolTableRecord
100
AcDbBlockTableRecord
  2
*D4
340
0
  0
BLOCK_RECORD
  5
203
330
1
100
AcDbSymbolTableRecord
100
AcDbBlockTableRecord
  2
*D6
340
0
  0
BLOCK_RECORD
  5
239
330
1
100
AcDbSymbolTableRecord
100
AcDbBlockTableRecord
  2
*D7
340
0
  0
BLOCK_RECORD
  5
251
330
1
100
AcDbSymbolTableRecord
100
AcDbBlockTableRecord
  2
*D8
340
0
  0
ENDTAB
  0
ENDSEC
  0
SECTION
  2
BLOCKS
  0
BLOCK
  5
25
330
17
100
AcDbEntity
  8
0
100
AcDbBlockBegin
  2
*MODEL_SPACE
 70
     0
 10
0.0
 20
0.0
 30
0.0
  3
*MODEL_SPACE
  1

  0
ENDBLK
  5
26
330
17
100
AcDbEntity
  8
0
100
AcDbBlockEnd
  0
BLOCK
  5
23
330
14
100
AcDbEntity
 67
     1
  8
0
100
AcDbBlockBegin
  2
*PAPER_SPACE
 70
     0
 10
0.0
 20
0.0
 30
0.0
  3
*PAPER_SPACE
  1

  0
ENDBLK
  5
24
330
14
100
AcDbEntity
 67
     1
  8
0
100
AcDbBlockEnd
  0
BLOCK
  5
29
330
1C
100
AcDbEntity
  8
0
100
AcDbBlockBegin
  2
*D0
 70
     1
 10
0.0
 20
0.0
 30
0.0
  3
*D0
  1

  0
LINE
  5
2A
330
1C
100
AcDbEntity
  8
0
  6
ByBlock
 62
     0
100
AcDbLine
 10
9.142618729188646
 20
44.14076125576074
 30
0.0
 11
7.390664685117488
 21
44.14076125576074
 31
0.0
  0
LINE
  5
2B
330
1C
100
AcDbEntity
  8
0
  6
ByBlock
 62
     0
100
AcDbLine
 10
8.91114151080392
 20
4.141663637124487
 30
0.0
 11
7.390664685117485
 21
4.141663637124487
 31
0.0
  0
LINE
  5
2C
330
1C
100
AcDbEntity
  8
0
  6
ByBlock
 62
     0
100
AcDbLine
 10
7.570664685117487
 20
44.14076125576074
 30
0.0
 11
7.570664685117487
 21
24.48496244644262
 31
0.0
  0
LINE
  5
2D
330
1C
100
AcDbEntity
  8
0
  6
ByBlock
 62
     0
100
AcDbLine
 10
7.570664685117485
 20
4.141663637124487
 30
0.0
 11
7.570664685117487
 21
23.79746244644262
 31
0.0
  0
LINE
  5
2E
330
1C
100
AcDbEntity
  8
0
  6
ByBlock
 62
     0
100
AcDbLine
 10
7.695664685117487
 20
44.01576125576074
 30
0.0
 11
7.445664685117487
 21
44.26576125576074
 31
0.0
  0
LINE
  5
2F
330
1C
100
AcDbEntity
  8
0
  6
ByBlock
 62
     0
100
AcDbLine
 10
7.695664685117485
 20
4.016663637124487
 30
0.0
 11
7.445664685117485
 21
4.266663637124487
 31
0.0
  0
TEXT
  5
30
330
1C
100
AcDbEntity
  8
0
  6
ByBlock
 62
     0
100
AcDbText
 10
7.633164685117487
 20
23.92246244644262
 30
0.0
 40
0.125
  1
40.00
 50
90.0
 72
     1
 11
7.570664685117487
 21
24.14121244644262
 31
0.0
100
AcDbText
 73
     2
  0
POINT
  5
32
330
1C
100
AcDbEntity
  8
DEFPOINTS
  6
ByBlock
 62
     0
100
AcDbPoint
 10
9.205118729188646
 20
44.14076125576074
 30
0.0
  0
POINT
  5
33
330
1C
100
AcDbEntity
  8
DEFPOINTS
  6
ByBlock
 62
     0
100
AcDbPoint
 10
8.97364151080392
 20
4.141663637124487
 30
0.0
  0
POINT
  5
34
330
1C
100
AcDbEntity
  8
DEFPOINTS
  6
ByBlock
 62
     0
100
AcDbPoint
 10
7.570664685117485
 20
4.141663637124487
 30
0.0
  0
ENDBLK
  5
35
330
1C
100
AcDbEntity
  8
0
100
AcDbBlockEnd
  0
BLOCK
  5
36
330
1D
100
AcDbEntity
  8
0
100
AcDbBlockBegin
  2
*D1
 70
     1
 10
0.0
 20
0.0
 30
0.0
  3
*D1
  1

  0
LINE
  5
37
330
1D
100
AcDbEntity
  8
0
  6
ByBlock
 62
     0
100
AcDbLine
 10
8.955039419902362
 20
4.065571769955694
 30
0.0
 11
8.955039419902362
 21
3.142607333994123
 31
0.0
  0
LINE
  5
38
330
1D
100
AcDbEntity
  8
0
  6
ByBlock
 62
     0
100
AcDbLine
 10
10.45556398634799
 20
4.065571769955694
 30
0.0
 11
10.45556398634799
 21
3.142607333994123
 31
0.0
  0
LINE
  5
39
330
1D
100
AcDbEntity
  8
0
  6
ByBlock
 62
     0
100
AcDbLine
 10
8.955039419902362
 20
3.322607333994124
 30
0.0
 11
9.371968369791842
 21
3.322607333994124
 31
0.0
  0
LINE
  5
3A
330
1D
100
AcDbEntity
  8
0
  6
ByBlock
 62
     0
100
AcDbLine
 10
10.45556398634799
 20
3.322607333994124
 30
0.0
 11
10.03863503645851
 21
3.322607333994124
 31
0.0
  0
LINE
  5
3B
330
1D
100
AcDbEntity
  8
0
  6
ByBlock
 62
     0
100
AcDbLine
 10
8.830039419902362
 20
3.197607333994124
 30
0.0
 11
9.080039419902362
 21
3.447607333994124
 31
0.0
  0
LINE
  5
3C
330
1D
100
AcDbEntity
  8
0
  6
ByBlock
 62
     0
100
AcDbLine
 10
10.33056398634799
 20
3.197607333994124
 30
0.0
 11
10.58056398634799
 21
3.447607333994124
 31
0.0
  0
TEXT
  5
3D
330
1D
100
AcDbEntity
  8
0
  6
ByBlock
 62
     0
100
AcDbText
 10
9.496968369791842
 20
3.260107333994124
 30
0.0
 40
0.125
  1
1.500
 72
     1
 11
9.705301703125176
 21
3.322607333994124
 31
0.0
100
AcDbText
 73
     2
  0
POINT
  5
3E
330
1D
100
AcDbEntity
  8
DEFPOINTS
  6
ByBlock
 62
     0
100
AcDbPoint
 10
8.955039419902362
 20
4.128071769955694
 30
0.0
  0
POINT
  5
3F
330
1D
100
AcDbEntity
  8
DEFPOINTS
  6
ByBlock
 62
     0
100
AcDbPoint
 10
10.45556398634799
 20
4.128071769955694
 30
0.0
  0
POINT
  5
40
330
1D
100
AcDbEntity
  8
DEFPOINTS
  6
ByBlock
 62
     0
100
AcDbPoint
 10
10.45556398634799
 20
3.322607333994124
 30
0.0
  0
ENDBLK
  5
41
330
1D
100
AcDbEntity
  8
0
100
AcDbBlockEnd
  0
BLOCK
  5
42
330
1E
100
AcDbEntity
  8
0
100
AcDbBlockBegin
  2
*D2
 70
     1
 10
0.0
 20
0.0
 30
0.0
  3
*D2
  1

  0
LINE
  5
43
330
1E
100
AcDbEntity
  8
0
  6
ByBlock
 62
     0
100
AcDbLine
 10
9.142618729188647
 20
44.20326125576074
 30
0.0
 11
9.142618729188647
 21
45.0365339822665
 31
0.0
  0
LINE
  5
44
330
1E
100
AcDbEntity
  8
0
  6
ByBlock
 62
     0
100
AcDbLine
 10
10.20546844015239
 20
44.20326125576074
 30
0.0
 11
10.20546844015239
 21
45.0365339822665
 31
0.0
  0
LINE
  5
45
330
1E
100
AcDbEntity
  8
0
  6
ByBlock
 62
     0
100
AcDbLine
 10
9.142618729188647
 20
44.8565339822665
 30
0.0
 11
9.403210251337187
 21
44.8565339822665
 31
0.0
  0
LINE
  5
46
330
1E
100
AcDbEntity
  8
0
  6
ByBlock
 62
     0
100
AcDbLine
 10
10.20546844015239
 20
44.8565339822665
 30
0.0
 11
9.944876918003854
 21
44.8565339822665
 31
0.0
  0
LINE
  5
47
330
1E
100
AcDbEntity
  8
0
  6
ByBlock
 62
     0
100
AcDbLine
 10
9.017618729188647
 20
44.7315339822665
 30
0.0
 11
9.267618729188647
 21
44.98153398226651
 31
0.0
  0
LINE
  5
48
330
1E
100
AcDbEntity
  8
0
  6
ByBlock
 62
     0
100
AcDbLine
 10
10.08046844015239
 20
44.7315339822665
 30
0.0
 11
10.33046844015239
 21
44.98153398226651
 31
0.0
  0
TEXT
  5
49
330
1E
100
AcDbEntity
  8
0
  6
ByBlock
 62
     0
100
AcDbText
 10
9.528210251337187
 20
44.7940339822665
 30
0.0
 40
0.125
  1
1.00
 72
     1
 11
9.674043584670521
 21
44.8565339822665
 31
0.0
100
AcDbText
 73
     2
  0
POINT
  5
4A
330
1E
100
AcDbEntity
  8
DEFPOINTS
  6
ByBlock
 62
     0
100
AcDbPoint
 10
9.142618729188647
 20
44.14076125576074
 30
0.0
  0
POINT
  5
4B
330
1E
100
AcDbEntity
  8
DEFPOINTS
  6
ByBlock
 62
     0
100
AcDbPoint
 10
10.20546844015239
 20
44.14076125576074
 30
0.0
  0
POINT
  5
4C
330
1E
100
AcDbEntity
  8
DEFPOINTS
  6
ByBlock
 62
     0
100
AcDbPoint
 10
10.20546844015239
 20
44.8565339822665
 30
0.0
  0
ENDBLK
  5
4D
330
1E
100
AcDbEntity
  8
0
100
AcDbBlockEnd
  0
BLOCK
  5
18B
330
180
100
AcDbEntity
  8
0
100
AcDbBlockBegin
  2
*D3
 70
     1
 10
0.0
 20
0.0
 30
0.0
  3
*D3
  1

  0
LINE
  5
22F
330
180
100
AcDbEntity
  8
ADPDIM
 62
     0
370
    -2
100
AcDbLine
 10
10.7831583993609
 20
16.10519762282158
 30
0.0
 11
12.07816322793269
 21
16.10519762282158
 31
0.0
  0
LINE
  5
230
330
180
100
AcDbEntity
  8
ADPDIM
 62
     0
370
    -2
100
AcDbLine
 10
10.56856881297966
 20
4.134323203810069
 30
0.0
 11
12.07816322793269
 21
4.134323203810069
 31
0.0
  0
LINE
  5
231
330
180
100
AcDbEntity
  8
ADPDIM
 62
     0
370
    -2
100
AcDbLine
 10
11.89816322793268
 20
16.10519762282158
 30
0.0
 11
11.89816322793268
 21
10.32809374664916
 31
0.0
  0
LINE
  5
232
330
180
100
AcDbEntity
  8
ADPDIM
 62
     0
370
    -2
100
AcDbLine
 10
11.89816322793268
 20
4.134323203810069
 30
0.0
 11
11.89816322793268
 21
9.911427079982491
 31
0.0
  0
LINE
  5
233
330
180
100
AcDbEntity
  8
ADPDIM
 62
     0
370
    -2
100
AcDbLine
 10
12.02316322793268
 20
4.009323203810069
 30
0.0
 11
11.77316322793268
 21
4.259323203810069
 31
0.0
  0
LINE
  5
234
330
180
100
AcDbEntity
  8
ADPDIM
 62
     0
370
    -2
100
AcDbLine
 10
12.02316322793269
 20
15.98019762282158
 30
0.0
 11
11.77316322793269
 21
16.23019762282158
 31
0.0
  0
MTEXT
  5
235
330
180
100
AcDbEntity
  8
ADPDIM
 62
     0
100
AcDbMText
 10
11.89816322793268
 20
10.11976041331583
 30
0.0
 40
0.125
 41
0.0
 71
     5
 72
     1
  1
\A1;12
 11
0.0000000000000001
 21
1.0
 31
0.0
 73
     1
 44
1.0
1001
ACAD
1000
MTEXTBEGIN
1070
    73
1070
     1
1070
    44
1040
1.0
1070
    74
1070
     0
1000
MTEXTEND
  0
POINT
  5
236
330
180
100
AcDbEntity
  8
DEFPOINTS
 62
     0
100
AcDbPoint
 10
10.7206583993609
 20
16.10519762282158
 30
0.0
  0
POINT
  5
237
330
180
100
AcDbEntity
  8
DEFPOINTS
 62
     0
100
AcDbPoint
 10
10.50606881297966
 20
4.134323203810069
 30
0.0
  0
POINT
  5
238
330
180
100
AcDbEntity
  8
DEFPOINTS
 62
     0
100
AcDbPoint
 10
11.89816322793268
 20
4.134323203810069
 30
0.0
  0
ENDBLK
  5
18C
330
180
100
AcDbEntity
  8
0
100
AcDbBlockEnd
  0
BLOCK
  5
1E7
330
1DC
100
AcDbEntity
  8
0
100
AcDbBlockBegin
  2
*D4
 70
     1
 10
0.0
 20
0.0
 30
0.0
  3
*D4
  1

  0
LINE
  5
225
330
1DC
100
AcDbEntity
  8
ADPDIM
 62
     0
370
    -2
100
AcDbLine
 10
8.955039419902362
 20
4.065571769955694
 30
0.0
 11
8.955039419902362
 21
3.142607333994123
 31
0.0
  0
LINE
  5
226
330
1DC
100
AcDbEntity
  8
ADPDIM
 62
     0
370
    -2
100
AcDbLine
 10
10.45556398634799
 20
4.065571769955694
 30
0.0
 11
10.45556398634799
 21
3.142607333994123
 31
0.0
  0
LINE
  5
227
330
1DC
100
AcDbEntity
  8
ADPDIM
 62
     0
370
    -2
100
AcDbLine
 10
8.955039419902362
 20
3.322607333994124
 30
0.0
 11
9.371968369791842
 21
3.322607333994124
 31
0.0
  0
LINE
  5
228
330
1DC
100
AcDbEntity
  8
ADPDIM
 62
     0
370
    -2
100
AcDbLine
 10
10.45556398634799
 20
3.322607333994124
 30
0.0
 11
10.03863503645851
 21
3.322607333994124
 31
0.0
  0
LINE
  5
229
330
1DC
100
AcDbEntity
  8
ADPDIM
 62
     0
370
    -2
100
AcDbLine
 10
10.33056398634799
 20
3.197607333994124
 30
0.0
 11
10.58056398634799
 21
3.447607333994124
 31
0.0
  0
LINE
  5
22A
330
1DC
100
AcDbEntity
  8
ADPDIM
 62
     0
370
    -2
100
AcDbLine
 10
8.830039419902362
 20
3.197607333994124
 30
0.0
 11
9.080039419902362
 21
3.447607333994124
 31
0.0
  0
MTEXT
  5
22B
330
1DC
100
AcDbEntity
  8
ADPDIM
 62
     0
100
AcDbMText
 10
9.705301703125176
 20
3.322607333994124
 30
0.0
 40
0.125
 41
0.0
 71
     5
 72
     1
  1
\A1;1.500
 73
     1
 44
1.0
1001
ACAD
1000
MTEXTBEGIN
1070
    73
1070
     1
1070
    44
1040
1.0
1070
    74
1070
     0
1000
MTEXTEND
  0
POINT
  5
22C
330
1DC
100
AcDbEntity
  8
DEFPOINTS
 62
     0
100
AcDbPoint
 10
8.955039419902362
 20
4.128071769955694
 30
0.0
  0
POINT
  5
22D
330
1DC
100
AcDbEntity
  8
DEFPOINTS
 62
     0
100
AcDbPoint
 10
10.45556398634799
 20
4.128071769955694
 30
0.0
  0
POINT
  5
22E
330
1DC
100
AcDbEntity
  8
DEFPOINTS
 62
     0
100
AcDbPoint
 10
10.45556398634799
 20
3.322607333994124
 30
0.0
  0
ENDBLK
  5
1E8
330
1DC
100
AcDbEntity
  8
0
100
AcDbBlockEnd
  0
BLOCK
  5
20E
330
203
100
AcDbEntity
  8
0
100
AcDbBlockBegin
  2
*D6
 70
     1
 10
0.0
 20
0.0
 30
0.0
  3
*D6
  1

  0
LINE
  5
204
330
203
100
AcDbEntity
  8
ADPDIM
 62
     0
370
    -2
100
AcDbLine
 10
9.205118729188646
 20
44.20326125576074
 30
0.0
 11
9.205118729188646
 21
45.0365339822665
 31
0.0
  0
LINE
  5
205
330
203
100
AcDbEntity
  8
ADPDIM
 62
     0
370
    -2
100
AcDbLine
 10
10.20546844015239
 20
44.20326125576074
 30
0.0
 11
10.20546844015239
 21
45.0365339822665
 31
0.0
  0
LINE
  5
206
330
203
100
AcDbEntity
  8
ADPDIM
 62
     0
370
    -2
100
AcDbLine
 10
9.205118729188646
 20
44.8565339822665
 30
0.0
 11
9.434460251337187
 21
44.8565339822665
 31
0.0
  0
LINE
  5
207
330
203
100
AcDbEntity
  8
ADPDIM
 62
     0
370
    -2
100
AcDbLine
 10
10.20546844015239
 20
44.8565339822665
 30
0.0
 11
9.976126918003854
 21
44.8565339822665
 31
0.0
  0
LINE
  5
208
330
203
100
AcDbEntity
  8
ADPDIM
 62
     0
370
    -2
100
AcDbLine
 10
10.08046844015239
 20
44.7315339822665
 30
0.0
 11
10.33046844015239
 21
44.98153398226651
 31
0.0
  0
LINE
  5
209
330
203
100
AcDbEntity
  8
ADPDIM
 62
     0
370
    -2
100
AcDbLine
 10
9.080118729188646
 20
44.7315339822665
 30
0.0
 11
9.330118729188646
 21
44.98153398226651
 31
0.0
  0
MTEXT
  5
20A
330
203
100
AcDbEntity
  8
ADPDIM
 62
     0
100
AcDbMText
 10
9.705293584670521
 20
44.8565339822665
 30
0.0
 40
0.125
 41
0.0
 71
     5
 72
     1
  1
\A1;1.00
 73
     1
 44
1.0
1001
ACAD
1000
MTEXTBEGIN
1070
    73
1070
     1
1070
    44
1040
1.0
1070
    74
1070
     0
1000
MTEXTEND
  0
POINT
  5
20B
330
203
100
AcDbEntity
  8
DEFPOINTS
 62
     0
100
AcDbPoint
 10
9.205118729188646
 20
44.14076125576074
 30
0.0
  0
POINT
  5
20C
330
203
100
AcDbEntity
  8
DEFPOINTS
 62
     0
100
AcDbPoint
 10
10.20546844015239
 20
44.14076125576074
 30
0.0
  0
POINT
  5
20D
330
203
100
AcDbEntity
  8
DEFPOINTS
 62
     0
100
AcDbPoint
 10
10.20546844015239
 20
44.8565339822665
 30
0.0
  0
ENDBLK
  5
20F
330
203
100
AcDbEntity
  8
0
100
AcDbBlockEnd
  0
BLOCK
  5
244
330
239
100
AcDbEntity
  8
0
100
AcDbBlockBegin
  2
*D7
 70
     1
 10
0.0
 20
0.0
 30
0.0
  3
*D7
  1

  0
LINE
  5
246
330
239
100
AcDbEntity
  8
ADPDIM
 62
     0
370
    -2
100
AcDbLine
 10
9.142618729188646
 20
44.14076125576074
 30
0.0
 11
7.390664685117494
 21
44.14076125576074
 31
0.0
  0
LINE
  5
247
330
239
100
AcDbEntity
  8
ADPDIM
 62
     0
370
    -2
100
AcDbLine
 10
8.91114151080392
 20
4.141663637124487
 30
0.0
 11
7.390664685117485
 21
4.141663637124487
 31
0.0
  0
LINE
  5
248
330
239
100
AcDbEntity
  8
ADPDIM
 62
     0
370
    -2
100
AcDbLine
 10
7.570664685117494
 20
44.14076125576074
 30
0.0
 11
7.570664685117489
 21
24.48496244644262
 31
0.0
  0
LINE
  5
249
330
239
100
AcDbEntity
  8
ADPDIM
 62
     0
370
    -2
100
AcDbLine
 10
7.570664685117485
 20
4.141663637124487
 30
0.0
 11
7.570664685117489
 21
23.79746244644262
 31
0.0
  0
LINE
  5
24A
330
239
100
AcDbEntity
  8
ADPDIM
 62
     0
370
    -2
100
AcDbLine
 10
7.695664685117485
 20
4.016663637124487
 30
0.0
 11
7.445664685117485
 21
4.266663637124487
 31
0.0
  0
LINE
  5
24B
330
239
100
AcDbEntity
  8
ADPDIM
 62
     0
370
    -2
100
AcDbLine
 10
7.695664685117494
 20
44.01576125576074
 30
0.0
 11
7.445664685117494
 21
44.26576125576074
 31
0.0
  0
MTEXT
  5
24C
330
239
100
AcDbEntity
  8
ADPDIM
 62
     0
100
AcDbMText
 10
7.570664685117486
 20
24.14121244644262
 30
0.0
 40
0.125
 41
0.0
 71
     5
 72
     1
  1
\A1;40.00
 11
0.0000000000000001
 21
1.0
 31
0.0
 73
     1
 44
1.0
1001
ACAD
1000
MTEXTBEGIN
1070
    73
1070
     1
1070
    44
1040
1.0
1070
    74
1070
     0
1000
MTEXTEND
  0
POINT
  5
24D
330
239
100
AcDbEntity
  8
DEFPOINTS
 62
     0
100
AcDbPoint
 10
9.205118729188646
 20
44.14076125576074
 30
0.0
  0
POINT
  5
24E
330
239
100
AcDbEntity
  8
DEFPOINTS
 62
     0
100
AcDbPoint
 10
8.97364151080392
 20
4.141663637124487
 30
0.0
  0
POINT
  5
24F
330
239
100
AcDbEntity
  8
DEFPOINTS
 62
     0
100
AcDbPoint
 10
7.570664685117485
 20
4.141663637124487
 30
0.0
  0
ENDBLK
  5
245
330
239
100
AcDbEntity
  8
0
100
AcDbBlockEnd
  0
BLOCK
  5
25C
330
251
100
AcDbEntity
  8
0
100
AcDbBlockBegin
  2
*D8
 70
     1
 10
0.0
 20
0.0
 30
0.0
  3
*D8
  1

  0
LINE
  5
2AE
330
251
100
AcDbEntity
  8
ADPDIM
 62
     0
370
    -2
100
AcDbLine
 10
10.26793596633377
 20
44.14076125576074
 30
0.0
 11
11.68684154268674
 21
44.14076125576074
 31
0.0
  0
LINE
  5
2AF
330
251
100
AcDbEntity
  8
ADPDIM
 62
     0
370
    -2
100
AcDbLine
 10
10.27671352597627
 20
39.64056967590759
 30
0.0
 11
11.68684154268674
 21
39.64056967590759
 31
0.0
  0
LINE
  5
2B0
330
251
100
AcDbEntity
  8
ADPDIM
 62
     0
370
    -2
100
AcDbLine
 10
11.50684154268674
 20
44.14076125576074
 30
0.0
 11
11.50684154268674
 21
42.11983213250083
 31
0.0
  0
LINE
  5
2B1
330
251
100
AcDbEntity
  8
ADPDIM
 62
     0
370
    -2
100
AcDbLine
 10
11.50684154268674
 20
39.64056967590759
 30
0.0
 11
11.50684154268674
 21
41.6614987991675
 31
0.0
  0
LINE
  5
2B2
330
251
100
AcDbEntity
  8
ADPDIM
 62
     0
370
    -2
100
AcDbLine
 10
11.63184154268674
 20
39.51556967590759
 30
0.0
 11
11.38184154268674
 21
39.76556967590759
 31
0.0
  0
LINE
  5
2B3
330
251
100
AcDbEntity
  8
ADPDIM
 62
     0
370
    -2
100
AcDbLine
 10
11.63184154268674
 20
44.01576125576074
 30
0.0
 11
11.38184154268674
 21
44.26576125576074
 31
0.0
  0
MTEXT
  5
2B4
330
251
100
AcDbEntity
  8
ADPDIM
 62
     0
100
AcDbMText
 10
11.50684154268673
 20
41.89066546583417
 30
0.0
 40
0.125
 41
0.0
 71
     5
 72
     1
  1
\A1;4{\H1.000000x;\S1/2;}
 11
0.0000000000000001
 21
1.0
 31
0.0
 73
     1
 44
1.0
1001
ACAD
1000
MTEXTBEGIN
1070
    73
1070
     1
1070
    44
1040
1.0
1070
    74
1070
     0
1000
MTEXTEND
  0
POINT
  5
2B5
330
251
100
AcDbEntity
  8
DEFPOINTS
 62
     0
100
AcDbPoint
 10
10.20543596633377
 20
44.14076125576074
 30
0.0
  0
POINT
  5
2B6
330
251
100
AcDbEntity
  8
DEFPOINTS
 62
     0
100
AcDbPoint
 10
10.21421352597627
 20
39.64056967590759
 30
0.0
  0
POINT
  5
2B7
330
251
100
AcDbEntity
  8
DEFPOINTS
 62
     0
100
AcDbPoint
 10
11.50684154268674
 20
39.64056967590759
 30
0.0
  0
ENDBLK
  5
25D
330
251
100
AcDbEntity
  8
0
100
AcDbBlockEnd
  0
ENDSEC
  0
SECTION
  2
ENTITIES
  0
LINE
  5
4E
330
17
100
AcDbEntity
  8
0
100
AcDbLine
 10
9.213301679108782
 20
16.18194217990892
 30
0.0
 11
9.213530303942819
 21
39.01385579085797
 31
0.0
  0
LINE
  5
4F
330
17
100
AcDbEntity
  8
0
100
AcDbLine
 10
10.21387311713877
 20
39.01385579085797
 30
0.0
 11
10.21490075890807
 21
16.20129408171746
 31
0.0
  0
DIMENSION
  5
50
330
17
100
AcDbEntity
  8
ADPDIM
100
AcDbDimension
  2
*D7
 10
7.570664685117485
 20
4.141663637124487
 30
0.0
 11
7.570664685117486
 21
24.14121244644262
 31
0.0
 70
    32
  1
40.00
 71
     5
 42
39.99909761863626
  3
STANDARD
100
AcDbAlignedDimension
 13
9.205118729188646
 23
44.14076125576074
 33
0.0
 14
8.97364151080392
 24
4.141663637124487
 34
0.0
 50
90.0
100
AcDbRotatedDimension
1001
ACAD
1000
DSTYLE
1002
{
1070
    41
1040
0.125
1070
    73
1070
     0
1070
    74
1070
     0
1070
    78
1070
     3
1070
   140
1040
0.125
1070
   141
1040
0.1875
1070
   142
1040
0.125
1070
   147
1040
0.125
1070
   171
1070
     1
1070
   273
1070
     5
1070
   274
1070
     1
1070
   277
1070
     5
1070
   279
1070
     2
1070
   284
1070
     3
1070
   285
1070
     3
1070
   286
1070
     3
1002
}
  0
LINE
  5
51
330
17
100
AcDbEntity
  8
0
100
AcDbLine
 10
8.959247470981582
 20
4.527422923140788
 30
0.0
 11
8.975120393847944
 21
16.10597141154118
 31
0.0
  0
LINE
  5
52
330
17
100
AcDbEntity
  8
0
100
AcDbLine
 10
10.48540228719192
 20
16.10587486750128
 30
0.0
 11
10.47832541760083
 21
4.541014790309581
 31
0.0
  0
LINE
  5
53
330
17
100
AcDbEntity
  8
0
100
AcDbLine
 10
10.47411736652161
 20
4.141663637124487
 30
0.0
 11
8.97364151080392
 21
4.141663637124487
 31
0.0
  0
LWPOLYLINE
  5
54
330
17
100
AcDbEntity
  8
ADP1DETAIL
100
AcDbPolyline
 90
        4
 70
     1
 43
0.0
 10
8.949317145294715
 20
1.498197194619127
 10
8.949317145294715
 20
2.998197194619127
 10
10.44931714529471
 20
2.998197194619127
 10
10.44931714529471
 20
1.498197194619127
  0
DIMENSION
  5
5A
330
17
100
AcDbEntity
  8
ADPDIM
100
AcDbDimension
  2
*D4
 10
10.45556398634799
 20
3.322607333994124
 30
0.0
 11
9.705301703125176
 21
3.322607333994124
 31
0.0
 70
    32
  1
1.500
 71
     5
 42
1.500524566445626
  3
STANDARD
100
AcDbAlignedDimension
 13
8.955039419902362
 23
4.128071769955694
 33
0.0
 14
10.45556398634799
 24
4.128071769955694
 34
0.0
100
AcDbRotatedDimension
1001
ACAD
1000
DSTYLE
1002
{
1070
    41
1040
0.125
1070
    73
1070
     0
1070
    74
1070
     0
1070
    78
1070
     3
1070
   140
1040
0.125
1070
   141
1040
0.1875
1070
   142
1040
0.125
1070
   147
1040
0.125
1070
   171
1070
     1
1070
   273
1070
     5
1070
   274
1070
     1
1070
   277
1070
     5
1070
   279
1070
     2
1070
   284
1070
     3
1070
   285
1070
     3
1070
   286
1070
     3
1002
}
  0
ARC
  5
5B
330
17
100
AcDbEntity
  8
0
100
AcDbCircle
 10
9.687802081795386
 20
16.61088754909918
 30
0.0
 40
0.4806926346412571
100
AcDbArc
 50
174.7883548630922
 51
276.4177601798865
  0
ARC
  5
5C
330
17
100
AcDbEntity
  8
0
100
AcDbCircle
 10
9.810416393038204
 20
16.55086479498702
 30
0.0
 40
0.4232999089857909
100
AcDbArc
 50
260.63456092386
 51
18.9827159299798
  0
DIMENSION
  5
5D
330
17
100
AcDbEntity
  8
ADPDIM
100
AcDbDimension
  2
*D6
 10
10.20546844015239
 20
44.8565339822665
 30
0.0
 11
9.705293584670521
 21
44.8565339822665
 31
0.0
 70
    32
  1
1.00
 71
     5
 42
1.000349710963748
  3
STANDARD
100
AcDbAlignedDimension
 13
9.205118729188646
 23
44.14076125576074
 33
0.0
 14
10.20546844015239
 24
44.14076125576074
 34
0.0
100
AcDbRotatedDimension
1001
ACAD
1000
DSTYLE
1002
{
1070
    41
1040
0.125
1070
    73
1070
     0
1070
    74
1070
     0
1070
    78
1070
     3
1070
   140
1040
0.125
1070
   141
1040
0.1875
1070
   142
1040
0.125
1070
   147
1040
0.125
1070
   171
1070
     1
1070
   273
1070
     5
1070
   274
1070
     1
1070
   277
1070
     5
1070
   279
1070
     2
1070
   284
1070
     3
1070
   285
1070
     3
1070
   286
1070
     3
1002
}
  0
LINE
  5
5E
330
17
100
AcDbEntity
  8
0
100
AcDbLine
 10
9.205118729188646
 20
44.14076125576074
 30
0.0
 11
10.20543596633377
 21
44.14076125576074
 31
0.0
  0
LINE
  5
5F
330
17
100
AcDbEntity
  8
0
100
AcDbLine
 10
9.147303944369452
 20
39.64005438131081
 30
0.0
 11
10.27266083615772
 21
39.64005438131081
 31
0.0
  0
LINE
  5
60
330
17
100
AcDbEntity
  8
0
100
AcDbLine
 10
10.27266083615772
 20
39.51501472666768
 30
0.0
 11
9.147303944369452
 21
39.51501472666768
 31
0.0
  0
LINE
  5
61
330
17
100
AcDbEntity
  8
0
100
AcDbLine
 10
9.147303944369452
 20
39.13889544550111
 30
0.0
 11
10.27266083615772
 21
39.13889544550111
 31
0.0
  0
LINE
  5
62
330
17
100
AcDbEntity
  8
0
100
AcDbLine
 10
10.27266083615772
 20
39.01385579085797
 30
0.0
 11
9.147303944369452
 21
39.01385579085797
 31
0.0
  0
LINE
  5
63
330
17
100
AcDbEntity
  8
0
100
AcDbLine
 10
9.209323613072447
 20
39.64005438131081
 30
0.0
 11
9.209323613072447
 21
44.14076125576074
 31
0.0
  0
ARC
  5
64
330
17
100
AcDbEntity
  8
0
100
AcDbCircle
 10
9.147303944369452
 20
39.32695508608439
 30
0.0
 40
0.1880596405832837
100
AcDbArc
 50
90.03720799490864
 51
270.3116826755552
  0
LINE
  5
65
330
17
100
AcDbEntity
  8
0
100
AcDbLine
 10
9.147303944369452
 20
39.01385579085797
 30
0.0
 11
9.148326962877042
 21
39.13889822806149
 31
0.0
  0
LINE
  5
66
330
17
100
AcDbEntity
  8
0
100
AcDbLine
 10
9.147181818067707
 20
39.51501468701314
 30
0.0
 11
9.147303944369452
 21
39.64005438131081
 31
0.0
  0
LINE
  5
67
330
17
100
AcDbEntity
  8
0
100
AcDbLine
 10
10.20543596633377
 20
44.14076125576074
 30
0.0
 11
10.20964085021757
 21
39.64005438131081
 31
0.0
  0
ARC
  5
68
330
17
100
AcDbEntity
  8
0
100
AcDbCircle
 10
10.27266083615772
 20
39.32695508608439
 30
0.0
 40
0.1880596405832834
100
AcDbArc
 50
270.0899081420779
 51
89.90348817041521
  0
LINE
  5
69
330
17
100
AcDbEntity
  8
0
100
AcDbLine
 10
10.27295593792768
 20
39.13889567703698
 30
0.0
 11
10.27266083615772
 21
39.01385579085797
 31
0.0
  0
LINE
  5
6A
330
17
100
AcDbEntity
  8
0
100
AcDbLine
 10
10.27266083615772
 20
39.64005438131081
 30
0.0
 11
10.2729776129178
 21
39.51501445987044
 31
0.0
  0
CIRCLE
  5
6B
330
17
100
AcDbEntity
  8
ADP1DETAIL
100
AcDbCircle
 10
9.705435966333773
 20
45.43666521032851
 30
0.0
 40
0.5
  0
TEXT
  5
75
330
17
100
AcDbEntity
  8
ADPDIM
100
AcDbText
 10
-29.05409349590583
 20
-1.301731733064555
 30
0.0
 40
0.75
  1
J U L I U S  B L U M  &  C O . ,  I N C .      ( 8 0 0 )  5 2 6 - 6 2 9 3        W W W . J U L I U S B L U M . C O M        P A R T  N O .  3 3 1
 41
1.25
  7
ARIAL_WIDE
 72
     1
 11
9.699317145294715
 21
-0.5517317330645551
 31
0.0
100
AcDbText
 73
     3
  0
DIMENSION
  5
17F
330
17
100
AcDbEntity
  8
ADPDIM
100
AcDbDimension
  2
*D3
 10
11.89816322793268
 20
4.134323203810069
 30
0.0
 11
11.89816322793268
 21
10.11976041331583
 31
0.0
 70
    32
 71
     5
 42
11.97087441901151
  3
STANDARD
100
AcDbAlignedDimension
 13
10.7206583993609
 23
16.10519762282158
 33
0.0
 14
10.50606881297966
 24
4.134323203810069
 34
0.0
 50
90.0
100
AcDbRotatedDimension
1001
ACAD
1000
DSTYLE
1002
{
1070
    41
1040
0.125
1070
    73
1070
     0
1070
    74
1070
     0
1070
    78
1070
     3
1070
   140
1040
0.125
1070
   141
1040
0.1875
1070
   142
1040
0.125
1070
   147
1040
0.125
1070
   171
1070
     1
1070
   273
1070
     5
1070
   274
1070
     1
1070
   277
1070
     5
1070
   279
1070
     2
1070
   284
1070
     3
1070
   285
1070
     3
1070
   286
1070
     3
1002
}
  0
ARC
  5
221
330
17
100
AcDbEntity
  8
ADP1DETAIL
100
AcDbCircle
 10
11.08843916321373
 20
16.74627400585134
 30
0.0
 40
0.8796388635352862
100
AcDbArc
 50
183.7621315083952
 51
226.7210825640857
  0
ARC
  5
222
330
17
100
AcDbEntity
  8
ADP1DETAIL
100
AcDbCircle
 10
8.431812777114652
 20
16.661885838665
 30
0.0
 40
0.7773184782859671
100
AcDbArc
 50
314.3429122303619
 51
0.539508736904833
  0
LINE
  5
224
330
17
100
AcDbEntity
  8
ADP1DETAIL
100
AcDbLine
 10
10.48540228719192
 20
16.10587486750128
 30
0.0
 11
8.975120393847944
 21
16.10597141154118
 31
0.0
  0
DIMENSION
  5
250
330
17
100
AcDbEntity
  8
ADPDIM
100
AcDbDimension
  2
*D8
 10
11.50684154268674
 20
39.64056967590759
 30
0.0
 11
11.50684154268673
 21
41.89066546583417
 31
0.0
 70
    32
 71
     5
 42
4.500191579853151
  3
STANDARD
100
AcDbAlignedDimension
 13
10.20543596633377
 23
44.14076125576074
 33
0.0
 14
10.21421352597627
 24
39.64056967590759
 34
0.0
 50
90.0
100
AcDbRotatedDimension
1001
ACAD
1000
DSTYLE
1002
{
1070
    41
1040
0.125
1070
    73
1070
     0
1070
    74
1070
     0
1070
    78
1070
     3
1070
   140
1040
0.125
1070
   141
1040
0.1875
1070
   142
1040
0.125
1070
   147
1040
0.125
1070
   171
1070
     1
1070
   273
1070
     5
1070
   274
1070
     1
1070
   277
1070
     5
1070
   279
1070
     2
1070
   284
1070
     3
1070
   285
1070
     3
1070
   286
1070
     3
1002
}
  0
ENDSEC
  0
SECTION
  2
OBJECTS
  0
DICTIONARY
  5
C
330
0
100
AcDbDictionary
281
     1
  3
ACAD_COLOR
350
179
  3
ACAD_GROUP
350
D
  3
ACAD_LAYOUT
350
7B
  3
ACAD_MATERIAL
350
164
  3
ACAD_MLINESTYLE
350
1A
  3
ACAD_PLOTSETTINGS
350
7C
  3
ACAD_PLOTSTYLENAME
350
79
  3
ACAD_TABLESTYLE
350
17A
  3
ACAD_VISUALSTYLE
350
168
  3
ACDBVARIABLEDICTIONARY
350
27
  3
DWGPROPS
350
30B
  0
DICTIONARY
  5
A8
330
17
100
AcDbDictionary
280
     1
281
     1
  3
ACAD_LAYOUTSELFREF
360
15E
  0
DICTIONARY
  5
A6
330
14
100
AcDbDictionary
280
     1
281
     1
  3
ACAD_LAYOUTSELFREF
360
15D
  0
DICTIONARY
  5
179
102
{ACAD_REACTORS
330
C
102
}
330
C
100
AcDbDictionary
281
     1
  0
DICTIONARY
  5
D
102
{ACAD_REACTORS
330
C
102
}
330
C
100
AcDbDictionary
281
     1
  0
DICTIONARY
  5
7B
102
{ACAD_REACTORS
330
C
102
}
330
C
100
AcDbDictionary
281
     1
  3
Layout1
350
7E
  3
Model
350
7D
  0
DICTIONARY
  5
164
102
{ACAD_REACTORS
330
C
102
}
330
C
100
AcDbDictionary
281
     1
  3
ByBlock
350
166
  3
ByLayer
350
165
  3
Global
350
167
  0
DICTIONARY
  5
1A
102
{ACAD_REACTORS
330
C
102
}
330
C
100
AcDbDictionary
281
     1
  3
STANDARD
350
1B
  0
DICTIONARY
  5
7C
102
{ACAD_REACTORS
330
C
102
}
330
C
100
AcDbDictionary
281
     1
  0
ACDBDICTIONARYWDFLT
  5
79
102
{ACAD_REACTORS
330
C
102
}
330
C
100
AcDbDictionary
281
     1
  3
Normal
350
7A
100
AcDbDictionaryWithDefault
340
7A
  0
DICTIONARY
  5
17A
102
{ACAD_REACTORS
330
C
102
}
330
C
100
AcDbDictionary
281
     1
  3
Standard
350
17B
  0
DICTIONARY
  5
168
102
{ACAD_REACTORS
330
C
102
}
330
C
100
AcDbDictionary
281
     1
  3
2dWireframe
350
16E
  3
3D Hidden
350
170
  3
3dWireframe
350
16F
  3
Basic
350
16D
  3
Brighten
350
174
  3
ColorChange
350
178
  3
Conceptual
350
171
  3
Dim
350
173
  3
Facepattern
350
177
  3
Flat
350
169
  3
FlatWithEdges
350
16A
  3
Gouraud
350
16B
  3
GouraudWithEdges
350
16C
  3
Linepattern
350
176
  3
Realistic
350
172
  3
Thicken
350
175
  0
DICTIONARY
  5
27
102
{ACAD_REACTORS
330
C
102
}
330
C
100
AcDbDictionary
281
     1
  3
CTABLESTYLE
350
212
  3
DIMADEC
350
28
  3
DIMASSOC
350
AE
  3
INDEXCTL
350
28C
  3
SORTENTS
350
28B
  0
XRECORD
  5
30B
102
{ACAD_REACTORS
330
C
102
}
330
C
100
AcDbXrecord
280
     1
  1
DWGPROPS COOKIE
  2

  3

  4

  6

  7

  8
Yu Hu
  9

300
=
301
=
302
=
303
=
304
=
305
=
306
=
307
=
308
=
309
=
 40
0.0228360300925926
 41
2450373.685094908
 42
2453943.90397941
  1

 90
        0
  0
XRECORD
  5
15E
102
{ACAD_REACTORS
330
A8
102
}
330
A8
100
AcDbXrecord
280
     1
340
17
  0
XRECORD
  5
15D
102
{ACAD_REACTORS
330
A6
102
}
330
A6
100
AcDbXrecord
280
     1
340
14
  0
LAYOUT
  5
7E
102
{ACAD_XDICTIONARY
360
30E
102
}
102
{ACAD_REACTORS
330
7B
102
}
330
7B
100
AcDbPlotSettings
  1

  2
Fax
  4

  6

 40
0.0
 41
0.0
 42
0.0
 43
0.0
 44
0.0
 45
0.0
 46
0.0
 47
0.0
 48
0.0
 49
0.0
140
0.0
141
0.0
142
1.0
143
1.0
 70
   688
 72
     0
 73
     0
 74
     5
  7
Default R14 pen assignments.ctb
 75
    16
147
1.0
148
0.0
149
0.0
100
AcDbLayout
  1
Layout1
 70
     1
 71
     1
 10
0.0
 20
0.0
 11
12.0
 21
9.0
 12
1.667196317885515E+99
 22
2.439420651286265E+99
 32
0.0
 14
1.000000000000000E+20
 24
1.000000000000000E+20
 34
1.000000000000000E+20
 15
-1.000000000000000E+20
 25
-1.000000000000000E+20
 35
-1.000000000000000E+20
146
0.0
 13
0.0
 23
0.0
 33
0.0
 16
1.0
 26
0.0
 36
0.0
 17
0.0
 27
1.0
 37
0.0
 76
     0
330
14
  0
LAYOUT
  5
7D
102
{ACAD_XDICTIONARY
360
30C
102
}
102
{ACAD_REACTORS
330
7B
102
}
330
7B
100
AcDbPlotSettings
  1

  2
Fax
  4

  6

 40
0.0
 41
0.0
 42
0.0
 43
0.0
 44
0.0
 45
0.0
 46
0.0
 47
0.0
 48
0.0
 49
0.0
140
0.0
141
0.0
142
1.0
143
1.0
 70
  1712
 72
     0
 73
     0
 74
     0
  7
Default R14 pen assignments.ctb
 75
     0
147
1.0
148
0.0
149
0.0
100
AcDbLayout
  1
Model
 70
     1
 71
     0
 10
0.0
 20
0.0
 11
12.0
 21
9.0
 12
0.0
 22
0.0
 32
0.0
 14
0.0
 24
0.0
 34
0.0
 15
0.0
 25
0.0
 35
0.0
146
0.0
 13
0.0
 23
0.0
 33
0.0
 16
1.0
 26
0.0
 36
0.0
 17
0.0
 27
1.0
 37
0.0
 76
     0
330
17
331
139
  0
MATERIAL
  5
166
102
{ACAD_XDICTIONARY
360
312
102
}
102
{ACAD_REACTORS
330
164
102
}
330
164
100
AcDbMaterial
  1
ByBlock
  0
MATERIAL
  5
165
102
{ACAD_XDICTIONARY
360
310
102
}
102
{ACAD_REACTORS
330
164
102
}
330
164
100
AcDbMaterial
  1
ByLayer
  0
MATERIAL
  5
167
102
{ACAD_XDICTIONARY
360
314
102
}
102
{ACAD_REACTORS
330
164
102
}
330
164
100
AcDbMaterial
  1
Global
  0
MLINESTYLE
  5
1B
102
{ACAD_REACTORS
330
1A
102
}
330
1A
100
AcDbMlineStyle
  2
STANDARD
 70
     0
  3

 62
   256
 51
90.0
 52
90.0
 71
     2
 49
0.5
 62
   256
  6
BYLAYER
 49
-0.5
 62
   256
  6
BYLAYER
  0
ACDBPLACEHOLDER
  5
7A
102
{ACAD_REACTORS
330
79
102
}
330
79
  0
TABLESTYLE
  5
17B
102
{ACAD_XDICTIONARY
360
316
102
}
102
{ACAD_REACTORS
330
17A
102
}
330
17A
100
AcDbTableStyle
  3
Standard
 70
     0
 71
     0
 40
0.06
 41
0.06
280
     0
281
     0
  7
STANDARD
140
0.18
170
     2
 62
     0
 63
     7
283
     0
274
    -2
284
     1
 64
     0
275
    -2
285
     1
 65
     0
276
    -2
286
     1
 66
     0
277
    -2
287
     1
 67
     0
278
    -2
288
     1
 68
     0
279
    -2
289
     1
 69
     0
  7
STANDARD
140
0.25
170
     5
 62
     0
 63
     7
283
     0
274
    -2
284
     1
 64
     0
275
    -2
285
     1
 65
     0
276
    -2
286
     1
 66
     0
277
    -2
287
     1
 67
     0
278
    -2
288
     1
 68
     0
279
    -2
289
     1
 69
     0
  7
STANDARD
140
0.18
170
     5
 62
     0
 63
     7
283
     0
274
    -2
284
     1
 64
     0
275
    -2
285
     1
 65
     0
276
    -2
286
     1
 66
     0
277
    -2
287
     1
 67
     0
278
    -2
288
     1
 68
     0
279
    -2
289
     1
 69
     0
  0
VISUALSTYLE
  5
16E
102
{ACAD_REACTORS
330
168
102
}
330
168
100
AcDbVisualStyle
  2
2dWireframe
 70
     4
 71
     0
 72
     2
 73
     0
 90
        0
 40
-0.6
 41
-30.0
 62
     5
 63
     7
 74
     1
 91
        4
 64
     7
 65
   257
 75
     1
175
     1
 42
1.0
 92
        0
 66
   257
 43
1.0
 76
     1
 77
     6
 78
     2
 67
     7
 79
     5
170
     0
171
     0
290
     0
174
     0
 93
        1
 44
0.0
173
     0
291
     0
 45
0.0
1001
ACAD
1000
AcDbSavedByObjectVersion
1070
     0
  0
VISUALSTYLE
  5
170
102
{ACAD_REACTORS
330
168
102
}
330
168
100
AcDbVisualStyle
  2
3D Hidden
 70
     6
 71
     1
 72
     2
 73
     2
 90
        0
 40
-0.6
 41
-30.0
 62
     5
 63
     7
 74
     2
 91
        2
 64
     7
 65
   257
 75
     2
175
     1
 42
40.0
 92
        0
 66
   257
 43
1.0
 76
     1
 77
     6
 78
     2
 67
     7
 79
     3
170
     0
171
     0
290
     0
174
     0
 93
        1
 44
0.0
173
     0
291
     0
 45
0.0
1001
ACAD
1000
AcDbSavedByObjectVersion
1070
     0
  0
VISUALSTYLE
  5
16F
102
{ACAD_REACTORS
330
168
102
}
330
168
100
AcDbVisualStyle
  2
3dWireframe
 70
     5
 71
     0
 72
     2
 73
     0
 90
        0
 40
-0.6
 41
-30.0
 62
     5
 63
     7
 74
     1
 91
        4
 64
     7
 65
   257
 75
     1
175
     1
 42
1.0
 92
        0
 66
   257
 43
1.0
 76
     1
 77
     6
 78
     2
 67
     7
 79
     5
170
     0
171
     0
290
     0
174
     0
 93
        1
 44
0.0
173
     0
291
     0
 45
0.0
1001
ACAD
1000
AcDbSavedByObjectVersion
1070
     0
  0
VISUALSTYLE
  5
16D
102
{ACAD_REACTORS
330
168
102
}
330
168
100
AcDbVisualStyle
  2
Basic
 70
     7
 71
     1
 72
     0
 73
     1
 90
        0
 40
-0.6
 41
-30.0
 62
     5
 63
     7
 74
     0
 91
        4
 64
     7
 65
   257
 75
     1
175
     1
 42
1.0
 92
        8
 66
     7
 43
1.0
 76
     1
 77
     6
 78
     2
 67
     7
 79
     5
170
     0
171
     0
290
     0
174
     0
 93
        1
 44
0.0
173
     0
291
     1
 45
0.0
1001
ACAD
1000
AcDbSavedByObjectVersion
1070
     0
  0
VISUALSTYLE
  5
174
102
{ACAD_REACTORS
330
168
102
}
330
168
100
AcDbVisualStyle
  2
Brighten
 70
    12
 71
     2
 72
     2
 73
     0
 90
        0
 40
-0.6
 41
-30.0
 62
     5
 63
     7
 74
     1
 91
        4
 64
     7
 65
   257
 75
     1
175
     1
 42
1.0
 92
        8
 66
     7
 43
1.0
 76
     1
 77
     6
 78
     2
 67
     7
 79
     5
170
     0
171
     0
290
     0
174
     0
 93
        1
 44
50.0
173
     0
291
     1
 45
0.0
1001
ACAD
1000
AcDbSavedByObjectVersion
1070
     0
  0
VISUALSTYLE
  5
178
102
{ACAD_REACTORS
330
168
102
}
330
168
100
AcDbVisualStyle
  2
ColorChange
 70
    16
 71
     2
 72
     2
 73
     3
 90
        0
 40
-0.6
 41
-30.0
 62
     5
 63
     8
 74
     1
 91
        4
 64
     7
 65
   257
 75
     1
175
     1
 42
1.0
 92
        8
 66
     8
 43
1.0
 76
     1
 77
     6
 78
     2
 67
     7
 79
     5
170
     0
171
     0
290
     0
174
     0
 93
        1
 44
0.0
173
     0
291
     1
 45
0.0
1001
ACAD
1000
AcDbSavedByObjectVersion
1070
     0
  0
VISUALSTYLE
  5
171
102
{ACAD_REACTORS
330
168
102
}
330
168
100
AcDbVisualStyle
  2
Conceptual
 70
     9
 71
     3
 72
     2
 73
     0
 90
        0
 40
-0.6
 41
-30.0
 62
     5
 63
     7
 74
     2
 91
        2
 64
     7
 65
   257
 75
     1
175
     1
 42
40.0
 92
        8
 66
     7
 43
1.0
 76
     1
 77
     6
 78
     2
 67
     7
 79
     3
170
     0
171
     0
290
     0
174
     0
 93
        1
 44
0.0
173
     0
291
     0
 45
0.0
1001
ACAD
1000
AcDbSavedByObjectVersion
1070
     0
  0
VISUALSTYLE
  5
173
102
{ACAD_REACTORS
330
168
102
}
330
168
100
AcDbVisualStyle
  2
Dim
 70
    11
 71
     2
 72
     2
 73
     0
 90
        0
 40
-0.6
 41
-30.0
 62
     5
 63
     7
 74
     1
 91
        4
 64
     7
 65
   257
 75
     1
175
     1
 42
1.0
 92
        8
 66
     7
 43
1.0
 76
     1
 77
     6
 78
     2
 67
     7
 79
     5
170
     0
171
     0
290
     0
174
     0
 93
        1
 44
-50.0
173
     0
291
     1
 45
0.0
1001
ACAD
1000
AcDbSavedByObjectVersion
1070
     0
  0
VISUALSTYLE
  5
177
102
{ACAD_REACTORS
330
168
102
}
330
168
100
AcDbVisualStyle
  2
Facepattern
 70
    15
 71
     2
 72
     2
 73
     0
 90
        0
 40
-0.6
 41
-30.0
 62
     5
 63
     7
 74
     1
 91
        4
 64
     7
 65
   257
 75
     1
175
     1
 42
1.0
 92
        8
 66
     7
 43
1.0
 76
     1
 77
     6
 78
     2
 67
     7
 79
     5
170
     0
171
     0
290
     0
174
     0
 93
        1
 44
0.0
173
     0
291
     1
 45
0.0
1001
ACAD
1000
AcDbSavedByObjectVersion
1070
     0
  0
VISUALSTYLE
  5
169
102
{ACAD_REACTORS
330
168
102
}
330
168
100
AcDbVisualStyle
  2
Flat
 70
     0
 71
     2
 72
     1
 73
     1
 90
        2
 40
-0.6
 41
30.0
 62
     5
 63
     7
 74
     0
 91
        4
 64
     7
 65
   257
 75
     1
175
     1
 42
1.0
 92
        8
 66
     7
 43
1.0
 76
     1
 77
     6
 78
     2
 67
     7
 79
     5
170
     0
171
     0
290
     0
174
     0
 93
       13
 44
0.0
173
     0
291
     1
 45
0.0
1001
ACAD
1000
AcDbSavedByObjectVersion
1070
     0
  0
VISUALSTYLE
  5
16A
102
{ACAD_REACTORS
330
168
102
}
330
168
100
AcDbVisualStyle
  2
FlatWithEdges
 70
     1
 71
     2
 72
     1
 73
     1
 90
        2
 40
-0.6
 41
30.0
 62
     5
 63
     7
 74
     1
 91
        4
 64
     7
 65
   257
 75
     1
175
     1
 42
1.0
 92
        0
 66
   257
 43
1.0
 76
     1
 77
     6
 78
     2
 67
     7
 79
     5
170
     0
171
     0
290
     0
174
     0
 93
       13
 44
0.0
173
     0
291
     1
 45
0.0
1001
ACAD
1000
AcDbSavedByObjectVersion
1070
     0
  0
VISUALSTYLE
  5
16B
102
{ACAD_REACTORS
330
168
102
}
330
168
100
AcDbVisualStyle
  2
Gouraud
 70
     2
 71
     2
 72
     2
 73
     1
 90
        2
 40
-0.6
 41
30.0
 62
     5
 63
     7
 74
     0
 91
        4
 64
     7
 65
   257
 75
     1
175
     1
 42
1.0
 92
        0
 66
     7
 43
1.0
 76
     1
 77
     6
 78
     2
 67
     7
 79
     5
170
     0
171
     0
290
     0
174
     0
 93
       13
 44
0.0
173
     0
291
     1
 45
0.0
1001
ACAD
1000
AcDbSavedByObjectVersion
1070
     0
  0
VISUALSTYLE
  5
16C
102
{ACAD_REACTORS
330
168
102
}
330
168
100
AcDbVisualStyle
  2
GouraudWithEdges
 70
     3
 71
     2
 72
     2
 73
     1
 90
        2
 40
-0.6
 41
30.0
 62
     5
 63
     7
 74
     1
 91
        4
 64
     7
 65
   257
 75
     1
175
     1
 42
1.0
 92
        0
 66
   257
 43
1.0
 76
     1
 77
     6
 78
     2
 67
     7
 79
     5
170
     0
171
     0
290
     0
174
     0
 93
       13
 44
0.0
173
     0
291
     1
 45
0.0
1001
ACAD
1000
AcDbSavedByObjectVersion
1070
     0
  0
VISUALSTYLE
  5
176
102
{ACAD_REACTORS
330
168
102
}
330
168
100
AcDbVisualStyle
  2
Linepattern
 70
    14
 71
     2
 72
     2
 73
     0
 90
        0
 40
-0.6
 41
-30.0
 62
     5
 63
     7
 74
     1
 91
        4
 64
     7
 65
   257
 75
     7
175
     7
 42
1.0
 92
        8
 66
     7
 43
1.0
 76
     1
 77
     6
 78
     2
 67
     7
 79
     5
170
     0
171
     0
290
     0
174
     0
 93
        1
 44
0.0
173
     0
291
     1
 45
0.0
1001
ACAD
1000
AcDbSavedByObjectVersion
1070
     0
  0
VISUALSTYLE
  5
172
102
{ACAD_REACTORS
330
168
102
}
330
168
100
AcDbVisualStyle
  2
Realistic
 70
     8
 71
     2
 72
     2
 73
     0
 90
        0
 40
-0.6
 41
-30.0
 62
     5
 63
     7
 74
     1
 91
        0
 64
     7
 65
   257
 75
     1
175
     1
 42
1.0
 92
        8
 66
     8
 43
1.0
 76
     1
 77
     6
 78
     2
 67
     7
 79
     5
170
     0
171
     0
290
     0
174
     0
 93
       13
 44
0.0
173
     0
291
     0
 45
0.0
1001
ACAD
1000
AcDbSavedByObjectVersion
1070
     0
  0
VISUALSTYLE
  5
175
102
{ACAD_REACTORS
330
168
102
}
330
168
100
AcDbVisualStyle
  2
Thicken
 70
    13
 71
     2
 72
     2
 73
     0
 90
        0
 40
-0.6
 41
-30.0
 62
     5
 63
     7
 74
     1
 91
        4
 64
     7
 65
   257
 75
     1
175
     1
 42
1.0
 92
       12
 66
     7
 43
1.0
 76
     1
 77
     6
 78
     2
 67
     7
 79
     5
170
     0
171
     0
290
     0
174
     0
 93
        1
 44
0.0
173
     0
291
     1
 45
0.0
1001
ACAD
1000
AcDbSavedByObjectVersion
1070
     0
  0
DICTIONARYVAR
  5
212
102
{ACAD_REACTORS
330
27
102
}
330
27
100
DictionaryVariables
280
     0
  1
STANDARD
  0
DICTIONARYVAR
  5
28
102
{ACAD_REACTORS
330
27
102
}
330
27
100
DictionaryVariables
280
     0
  1
0
  0
DICTIONARYVAR
  5
AE
102
{ACAD_REACTORS
330
27
102
}
330
27
100
DictionaryVariables
280
     0
  1
1
  0
DICTIONARYVAR
  5
28C
102
{ACAD_REACTORS
330
27
102
}
330
27
100
DictionaryVariables
280
     0
  1
0
  0
DICTIONARYVAR
  5
28B
102
{ACAD_REACTORS
330
27
102
}
330
27
100
DictionaryVariables
280
     0
  1
127
  0
DICTIONARY
  5
30E
330
7E
100
AcDbDictionary
280
     1
281
     1
  3
ACAD_XREC_ROUNDTRIP
360
30F
  0
DICTIONARY
  5
30C
330
7D
100
AcDbDictionary
280
     1
281
     1
  3
ACAD_XREC_ROUNDTRIP
360
30D
  0
DICTIONARY
  5
312
330
166
100
AcDbDictionary
280
     1
281
     1
  3
ACAD_XREC_ROUNDTRIP
360
313
  0
DICTIONARY
  5
310
330
165
100
AcDbDictionary
280
     1
281
     1
  3
ACAD_XREC_ROUNDTRIP
360
311
  0
DICTIONARY
  5
314
330
167
100
AcDbDictionary
280
     1
281
     1
  3
ACAD_XREC_ROUNDTRIP
360
315
  0
DICTIONARY
  5
316
330
17B
100
AcDbDictionary
280
     1
281
     1
  3
ACAD_XREC_ROUNDTRIP
360
317
  0
XRECORD
  5
30F
102
{ACAD_REACTORS
330
30E
102
}
330
30E
100
AcDbXrecord
280
     1
102
SHADEPLOT
 70
     0
102
SHADEPLOTRESLEVEL
 70
     2
102
SHADEPLOTCUSTOMDPI
 70
   300
  0
XRECORD
  5
30D
102
{ACAD_REACTORS
330
30C
102
}
330
30C
100
AcDbXrecord
280
     1
102
SHADEPLOT
 70
     0
102
SHADEPLOTRESLEVEL
 70
     2
102
SHADEPLOTCUSTOMDPI
 70
   300
  0
XRECORD
  5
313
102
{ACAD_REACTORS
330
312
102
}
330
312
100
AcDbXrecord
280
     1
102
MATERIAL
148
0.0
149
0.0
149
0.0
 93
        0
 94
       63
282
     0
 72
     1
 77
     1
171
     1
175
     1
179
     1
273
     0
  0
XRECORD
  5
311
102
{ACAD_REACTORS
330
310
102
}
330
310
100
AcDbXrecord
280
     1
102
MATERIAL
148
0.0
149
0.0
149
0.0
 93
        0
 94
       63
282
     0
 72
     1
 77
     1
171
     1
175
     1
179
     1
273
     0
  0
XRECORD
  5
315
102
{ACAD_REACTORS
330
314
102
}
330
314
100
AcDbXrecord
280
     1
102
MATERIAL
148
0.0
149
0.0
149
0.0
 93
        0
 94
       63
282
     0
 72
     1
 77
     1
171
     1
175
     1
179
     1
273
     0
  0
XRECORD
  5
317
102
{ACAD_REACTORS
330
316
102
}
330
316
100
AcDbXrecord
280
     1
102
ACAD_ROUNDTRIP_PRE2007_TABLESTYLE
 90
      512
 91
        0
  1

 92
      512
 93
        0
  2

 94
      512
 95
        0
  3

  0
ENDSEC
  0
EOF
