  0
SECTION
  2
HEADER
  9
$ACADVER
  1
AC1015
  9
$ACADMAINTVER
 70
    18
  9
$DWGCODEPAGE
  3
ANSI_1252
  9
$INSBASE
 10
10.03316908994668
 20
4.70008402565048
 30
0.0
  9
$EXTMIN
 10
1.000000000000000E+20
 20
1.000000000000000E+20
 30
1.000000000000000E+20
  9
$EXTMAX
 10
0.0
 20
0.0
 30
0.0
  9
$LIMMIN
 10
0.0
 20
0.0
  9
$LIMMAX
 10
36.0
 20
36.0
  9
$ORTHOMODE
 70
     1
  9
$REGENMODE
 70
     1
  9
$FILLMODE
 70
     1
  9
$QTEXTMODE
 70
     0
  9
$MIRRTEXT
 70
     1
  9
$LTSCALE
 40
1.0
  9
$ATTMODE
 70
     1
  9
$TEXTSIZE
 40
0.2
  9
$TRACEWID
 40
0.05
  9
$TEXTSTYLE
  7
STANDARD
  9
$CLAYER
  8
ADP1DETAIL
  9
$CELTYPE
  6
BYLAYER
  9
$CECOLOR
 62
   256
  9
$CELTSCALE
 40
1.0
  9
$DISPSILH
 70
     0
  9
$DIMSCALE
 40
1.0
  9
$DIMASZ
 40
0.125
  9
$DIMEXO
 40
0.0625
  9
$DIMDLI
 40
0.38
  9
$DIMRND
 40
0.0
  9
$DIMDLE
 40
0.0
  9
$DIMEXE
 40
0.18
  9
$DIMTP
 40
0.0
  9
$DIMTM
 40
0.0
  9
$DIMTXT
 40
0.125
  9
$DIMCEN
 40
0.1875
  9
$DIMTSZ
 40
0.125
  9
$DIMTOL
 70
     0
  9
$DIMLIM
 70
     0
  9
$DIMTIH
 70
     0
  9
$DIMTOH
 70
     0
  9
$DIMSE1
 70
     0
  9
$DIMSE2
 70
     0
  9
$DIMTAD
 70
     0
  9
$DIMZIN
 70
     3
  9
$DIMBLK
  1

  9
$DIMASO
 70
     1
  9
$DIMSHO
 70
     1
  9
$DIMPOST
  1

  9
$DIMAPOST
  1

  9
$DIMALT
 70
     0
  9
$DIMALTD
 70
     1
  9
$DIMALTF
 40
25.4
  9
$DIMLFAC
 40
1.0
  9
$DIMTOFL
 70
     0
  9
$DIMTVP
 40
0.0
  9
$DIMTIX
 70
     0
  9
$DIMSOXD
 70
     0
  9
$DIMSAH
 70
     0
  9
$DIMBLK1
  1

  9
$DIMBLK2
  1

  9
$DIMSTYLE
  2
STANDARD
  9
$DIMCLRD
 70
     0
  9
$DIMCLRE
 70
     0
  9
$DIMCLRT
 70
     0
  9
$DIMTFAC
 40
1.0
  9
$DIMGAP
 40
0.125
  9
$DIMJUST
 70
     0
  9
$DIMSD1
 70
     0
  9
$DIMSD2
 70
     0
  9
$DIMTOLJ
 70
     1
  9
$DIMTZIN
 70
     3
  9
$DIMALTZ
 70
     3
  9
$DIMALTTZ
 70
     3
  9
$DIMUPT
 70
     0
  9
$DIMDEC
 70
     4
  9
$DIMTDEC
 70
     4
  9
$DIMALTU
 70
     5
  9
$DIMALTTD
 70
     1
  9
$DIMTXSTY
  7
STANDARD
  9
$DIMAUNIT
 70
     0
  9
$DIMADEC
 70
     0
  9
$DIMALTRND
 40
0.0
  9
$DIMAZIN
 70
     0
  9
$DIMDSEP
 70
    46
  9
$DIMATFIT
 70
     3
  9
$DIMFRAC
 70
     0
  9
$DIMLDRBLK
  1

  9
$DIMLUNIT
 70
     5
  9
$DIMLWD
 70
    -2
  9
$DIMLWE
 70
    -2
  9
$DIMTMOVE
 70
     2
  9
$LUNITS
 70
     5
  9
$LUPREC
 70
     4
  9
$SKETCHINC
 40
0.1
  9
$FILLETRAD
 40
0.0
  9
$AUNITS
 70
     0
  9
$AUPREC
 70
     0
  9
$MENU
  1
acad
  9
$ELEVATION
 40
0.0
  9
$PELEVATION
 40
0.0
  9
$THICKNESS
 40
0.0
  9
$LIMCHECK
 70
     0
  9
$CHAMFERA
 40
0.0
  9
$CHAMFERB
 40
0.0
  9
$CHAMFERC
 40
0.0
  9
$CHAMFERD
 40
0.0
  9
$SKPOLY
 70
     0
  9
$TDCREATE
 40
2450373.679054004
  9
$TDUCREATE
 40
2450373.845720671
  9
$TDUPDATE
 40
2453937.657692500
  9
$TDUUPDATE
 40
2453937.824359166
  9
$TDINDWG
 40
0.0595831829
  9
$TDUSRTIMER
 40
0.0595831829
  9
$USRTIMER
 70
     1
  9
$ANGBASE
 50
0.0
  9
$ANGDIR
 70
     0
  9
$PDMODE
 70
     0
  9
$PDSIZE
 40
0.0
  9
$PLINEWID
 40
0.0
  9
$SPLFRAME
 70
     0
  9
$SPLINETYPE
 70
     6
  9
$SPLINESEGS
 70
     8
  9
$HANDSEED
  5
79
  9
$SURFTAB1
 70
     6
  9
$SURFTAB2
 70
     6
  9
$SURFTYPE
 70
     6
  9
$SURFU
 70
     6
  9
$SURFV
 70
     6
  9
$UCSBASE
  2

  9
$UCSNAME
  2

  9
$UCSORG
 10
0.0
 20
0.0
 30
0.0
  9
$UCSXDIR
 10
1.0
 20
0.0
 30
0.0
  9
$UCSYDIR
 10
0.0
 20
1.0
 30
0.0
  9
$UCSORTHOREF
  2

  9
$UCSORTHOVIEW
 70
     0
  9
$UCSORGTOP
 10
0.0
 20
0.0
 30
0.0
  9
$UCSORGBOTTOM
 10
0.0
 20
0.0
 30
0.0
  9
$UCSORGLEFT
 10
0.0
 20
0.0
 30
0.0
  9
$UCSORGRIGHT
 10
0.0
 20
0.0
 30
0.0
  9
$UCSORGFRONT
 10
0.0
 20
0.0
 30
0.0
  9
$UCSORGBACK
 10
0.0
 20
0.0
 30
0.0
  9
$PUCSBASE
  2

  9
$PUCSNAME
  2

  9
$PUCSORG
 10
0.0
 20
0.0
 30
0.0
  9
$PUCSXDIR
 10
1.0
 20
0.0
 30
0.0
  9
$PUCSYDIR
 10
0.0
 20
1.0
 30
0.0
  9
$PUCSORTHOREF
  2

  9
$PUCSORTHOVIEW
 70
     0
  9
$PUCSORGTOP
 10
0.0
 20
0.0
 30
0.0
  9
$PUCSORGBOTTOM
 10
0.0
 20
0.0
 30
0.0
  9
$PUCSORGLEFT
 10
0.0
 20
0.0
 30
0.0
  9
$PUCSORGRIGHT
 10
0.0
 20
0.0
 30
0.0
  9
$PUCSORGFRONT
 10
0.0
 20
0.0
 30
0.0
  9
$PUCSORGBACK
 10
0.0
 20
0.0
 30
0.0
  9
$USERI1
 70
     0
  9
$USERI2
 70
     0
  9
$USERI3
 70
     0
  9
$USERI4
 70
     0
  9
$USERI5
 70
     0
  9
$USERR1
 40
0.0
  9
$USERR2
 40
0.0
  9
$USERR3
 40
0.0
  9
$USERR4
 40
0.0
  9
$USERR5
 40
0.0
  9
$WORLDVIEW
 70
     1
  9
$SHADEDGE
 70
     3
  9
$SHADEDIF
 70
    70
  9
$TILEMODE
 70
     1
  9
$MAXACTVP
 70
    15
  9
$PINSBASE
 10
1.667196317885515E+99
 20
2.439420651286265E+99
 30
0.0
  9
$PLIMCHECK
 70
     0
  9
$PEXTMIN
 10
1.000000000000000E+20
 20
1.000000000000000E+20
 30
1.000000000000000E+20
  9
$PEXTMAX
 10
-1.000000000000000E+20
 20
-1.000000000000000E+20
 30
-1.000000000000000E+20
  9
$PLIMMIN
 10
0.0
 20
0.0
  9
$PLIMMAX
 10
12.0
 20
9.0
  9
$UNITMODE
 70
     0
  9
$VISRETAIN
 70
     0
  9
$PLINEGEN
 70
     0
  9
$PSLTSCALE
 70
     1
  9
$TREEDEPTH
 70
  3020
  9
$CMLSTYLE
  2
STANDARD
  9
$CMLJUST
 70
     0
  9
$CMLSCALE
 40
1.0
  9
$PROXYGRAPHICS
 70
     1
  9
$MEASUREMENT
 70
     0
  9
$CELWEIGHT
370
    -1
  9
$ENDCAPS
280
     0
  9
$JOINSTYLE
280
     0
  9
$LWDISPLAY
290
     0
  9
$INSUNITS
 70
     0
  9
$HYPERLINKBASE
  1

  9
$STYLESHEET
  1

  9
$XEDIT
290
     1
  9
$CEPSNTYPE
380
     0
  9
$PSTYLEMODE
290
     1
  9
$FINGERPRINTGUID
  2
{0A1A549B-806F-472C-AB12-577D603985A6}
  9
$VERSIONGUID
  2
{B984351C-AF45-49AC-B30B-9896C0560AD0}
  9
$EXTNAMES
290
     1
  9
$PSVPSCALE
 40
0.0
  9
$OLESTARTUP
290
     0
  0
ENDSEC
  0
SECTION
  2
CLASSES
  0
CLASS
  1
DICTIONARYVAR
  2
AcDbDictionaryVar
  3
ObjectDBX Classes
 90
        0
280
     0
281
     0
  0
CLASS
  1
ACDBDICTIONARYWDFLT
  2
AcDbDictionaryWithDefault
  3
ObjectDBX Classes
 90
        0
280
     0
281
     0
  0
CLASS
  1
ACDBPLACEHOLDER
  2
AcDbPlaceHolder
  3
ObjectDBX Classes
 90
        0
280
     0
281
     0
  0
CLASS
  1
LAYOUT
  2
AcDbLayout
  3
ObjectDBX Classes
 90
        0
280
     0
281
     0
  0
ENDSEC
  0
SECTION
  2
TABLES
  0
TABLE
  2
VPORT
  5
62
330
0
100
AcDbSymbolTable
 70
     1
  0
VPORT
  5
63
330
62
100
AcDbSymbolTableRecord
100
AcDbViewportTableRecord
  2
*Active
 70
     0
 10
0.0
 20
0.0
 11
1.0
 21
1.0
 12
-3.03840605085756
 22
21.95423422508692
 13
0.0
 23
0.0
 14
0.5740882589684922
 24
0.5740882589684922
 15
0.5
 25
0.5
 16
0.0
 26
0.0
 36
1.0
 17
0.0
 27
0.0
 37
0.0
 40
46.828151586365
 41
1.459418070444104
 42
50.0
 43
0.0
 44
0.0
 50
0.0
 51
0.0
 71
     0
 72
   100
 73
     1
 74
     0
 75
     0
 76
     0
 77
     0
 78
     0
281
     0
 65
     1
110
0.0
120
0.0
130
0.0
111
1.0
121
0.0
131
0.0
112
0.0
122
1.0
132
0.0
 79
     0
146
0.0
  0
ENDTAB
  0
TABLE
  2
LTYPE
  5
5D
330
0
100
AcDbSymbolTable
 70
     1
  0
LTYPE
  5
5E
330
5D
100
AcDbSymbolTableRecord
100
AcDbLinetypeTableRecord
  2
BYBLOCK
 70
     0
  3

 72
    65
 73
     0
 40
0.0
  0
LTYPE
  5
5F
330
5D
100
AcDbSymbolTableRecord
100
AcDbLinetypeTableRecord
  2
BYLAYER
 70
     0
  3

 72
    65
 73
     0
 40
0.0
  0
LTYPE
  5
A
330
5D
100
AcDbSymbolTableRecord
100
AcDbLinetypeTableRecord
  2
CONTINUOUS
 70
     0
  3
Solid line
 72
    65
 73
     0
 40
0.0
  0
ENDTAB
  0
TABLE
  2
LAYER
  5
5A
330
0
100
AcDbSymbolTable
 70
     4
  0
LAYER
  5
6
330
5A
100
AcDbSymbolTableRecord
100
AcDbLayerTableRecord
  2
0
 70
     0
 62
     7
  6
CONTINUOUS
370
    -3
390
7
  0
LAYER
  5
12
330
5A
100
AcDbSymbolTableRecord
100
AcDbLayerTableRecord
  2
ADPDIM
 70
     0
 62
     3
  6
CONTINUOUS
370
    -3
390
7
  0
LAYER
  5
C
330
5A
100
AcDbSymbolTableRecord
100
AcDbLayerTableRecord
  2
ADP1DETAIL
 70
     0
 62
     7
  6
CONTINUOUS
370
    -3
390
7
  0
LAYER
  5
3F
330
5A
100
AcDbSymbolTableRecord
100
AcDbLayerTableRecord
  2
DEFPOINTS
 70
     0
 62
     7
  6
CONTINUOUS
290
     0
370
    -3
390
7
  0
ENDTAB
  0
TABLE
  2
STYLE
  5
5B
330
0
100
AcDbSymbolTable
 70
     2
  0
STYLE
  5
1C
330
5B
100
AcDbSymbolTableRecord
100
AcDbTextStyleTableRecord
  2
STANDARD
 70
     0
 40
0.0
 41
1.0
 50
0.0
 71
     0
 42
0.2
  3
txt
  4

  0
STYLE
  5
31
330
5B
100
AcDbSymbolTableRecord
100
AcDbTextStyleTableRecord
  2
ARIAL_WIDE
 70
     0
 40
0.0
 41
1.25
 50
0.0
 71
     0
 42
0.2
  3
ARIAL.TTF
  4

1001
ACAD
1000
Arial
1071
       34
  0
ENDTAB
  0
TABLE
  2
VIEW
  5
60
330
0
100
AcDbSymbolTable
 70
     0
  0
ENDTAB
  0
TABLE
  2
UCS
  5
61
330
0
100
AcDbSymbolTable
 70
     0
  0
ENDTAB
  0
TABLE
  2
APPID
  5
64
330
0
100
AcDbSymbolTable
 70
     1
  0
APPID
  5
32
330
64
100
AcDbSymbolTableRecord
100
AcDbRegAppTableRecord
  2
ACAD
 70
     0
  0
ENDTAB
  0
TABLE
  2
DIMSTYLE
  5
65
330
0
100
AcDbSymbolTable
 70
     1
100
AcDbDimStyleTable
 71
     0
  0
DIMSTYLE
105
34
102
{ACAD_REACTORS
330
33
330
43
102
}
330
65
100
AcDbSymbolTableRecord
100
AcDbDimStyleTableRecord
  2
STANDARD
 70
     0
340
1C
  0
ENDTAB
  0
TABLE
  2
BLOCK_RECORD
  5
1
330
0
100
AcDbSymbolTable
 70
     2
  0
BLOCK_RECORD
  5
2
102
{ACAD_XDICTIONARY
360
3
102
}
330
1
100
AcDbSymbolTableRecord
100
AcDbBlockTableRecord
  2
*MODEL_SPACE
340
52
  0
BLOCK_RECORD
  5
54
102
{ACAD_XDICTIONARY
360
55
102
}
330
1
100
AcDbSymbolTableRecord
100
AcDbBlockTableRecord
  2
*PAPER_SPACE
340
59
  0
BLOCK_RECORD
  5
35
330
1
100
AcDbSymbolTableRecord
100
AcDbBlockTableRecord
  2
*D0
340
0
  0
BLOCK_RECORD
  5
44
330
1
100
AcDbSymbolTableRecord
100
AcDbBlockTableRecord
  2
*D1
340
0
  0
ENDTAB
  0
ENDSEC
  0
SECTION
  2
BLOCKS
  0
BLOCK
  5
5
330
2
100
AcDbEntity
  8
0
100
AcDbBlockBegin
  2
*MODEL_SPACE
 70
     0
 10
0.0
 20
0.0
 30
0.0
  3
*MODEL_SPACE
  1

  0
ENDBLK
  5
51
330
2
100
AcDbEntity
  8
0
100
AcDbBlockEnd
  0
BLOCK
  5
57
330
54
100
AcDbEntity
 67
     1
  8
0
100
AcDbBlockBegin
  2
*PAPER_SPACE
 70
     0
 10
0.0
 20
0.0
 30
0.0
  3
*PAPER_SPACE
  1

  0
ENDBLK
  5
58
330
54
100
AcDbEntity
 67
     1
  8
0
100
AcDbBlockEnd
  0
BLOCK
  5
36
330
35
100
AcDbEntity
  8
0
100
AcDbBlockBegin
  2
*D0
 70
     1
 10
0.0
 20
0.0
 30
0.0
  3
*D0
  1

  0
LINE
  5
37
330
35
100
AcDbEntity
  8
ADPDIM
 62
     0
370
    -2
100
AcDbLine
 10
-8.516552568154168
 20
46.68609480522879
 30
0.0
 11
-11.38641591052298
 21
46.68609480522879
 31
0.0
  0
LINE
  5
38
330
35
100
AcDbEntity
  8
ADPDIM
 62
     0
370
    -2
100
AcDbLine
 10
-8.579052568154168
 20
4.68609480522879
 30
0.0
 11
-11.38641591052299
 21
4.686094805228791
 31
0.0
  0
LINE
  5
39
330
35
100
AcDbEntity
  8
ADPDIM
 62
     0
370
    -2
100
AcDbLine
 10
-11.20641591052298
 20
46.50609480522879
 30
0.0
 11
-11.20641591052299
 21
25.72109480522879
 31
0.0
  0
LINE
  5
3A
330
35
100
AcDbEntity
  8
ADPDIM
 62
     0
370
    -2
100
AcDbLine
 10
-11.20641591052299
 20
4.866094805228791
 30
0.0
 11
-11.20641591052299
 21
25.29109480522879
 31
0.0
  0
SOLID
  5
3B
330
35
100
AcDbEntity
  8
ADPDIM
 62
     0
100
AcDbTrace
 10
-11.23641591052298
 20
46.50609480522879
 30
0.0
 11
-11.17641591052298
 21
46.50609480522879
 31
0.0
 12
-11.20641591052298
 22
46.68609480522879
 32
0.0
 13
-11.20641591052298
 23
46.68609480522879
 33
0.0
  0
SOLID
  5
3C
330
35
100
AcDbEntity
  8
ADPDIM
 62
     0
100
AcDbTrace
 10
-11.23641591052299
 20
4.866094805228791
 30
0.0
 11
-11.17641591052299
 21
4.866094805228791
 31
0.0
 12
-11.20641591052299
 22
4.686094805228791
 32
0.0
 13
-11.20641591052299
 23
4.686094805228791
 33
0.0
  0
MTEXT
  5
3D
330
35
100
AcDbEntity
  8
ADPDIM
 62
     0
100
AcDbMText
 10
-11.20641591052299
 20
25.50609480522879
 30
0.0
 40
0.25
 41
0.0
 71
     5
 72
     1
  1
\A1;42.0000
 73
     1
 44
1.0
1001
ACAD
1000
MTEXTBEGIN
1070
    73
1070
     1
1070
    44
1040
1.0
1070
    74
1070
     0
1000
MTEXTEND
  0
POINT
  5
3E
330
35
100
AcDbEntity
  8
DEFPOINTS
 62
     0
100
AcDbPoint
 10
-8.454052568154168
 20
46.68609480522879
 30
0.0
  0
POINT
  5
40
330
35
100
AcDbEntity
  8
DEFPOINTS
 62
     0
100
AcDbPoint
 10
-8.516552568154168
 20
4.68609480522879
 30
0.0
  0
POINT
  5
41
330
35
100
AcDbEntity
  8
DEFPOINTS
 62
     0
100
AcDbPoint
 10
-11.20641591052299
 20
4.686094805228791
 30
0.0
  0
ENDBLK
  5
42
330
35
100
AcDbEntity
  8
0
100
AcDbBlockEnd
  0
BLOCK
  5
45
330
44
100
AcDbEntity
  8
0
100
AcDbBlockBegin
  2
*D1
 70
     1
 10
0.0
 20
0.0
 30
0.0
  3
*D1
  1

  0
LINE
  5
46
330
44
100
AcDbEntity
  8
ADPDIM
 62
     0
370
    -2
100
AcDbLine
 10
-7.082850577581126
 20
14.18456541100155
 30
0.0
 11
-4.22248873245741
 21
14.18456541100155
 31
0.0
  0
LINE
  5
47
330
44
100
AcDbEntity
  8
ADPDIM
 62
     0
370
    -2
100
AcDbLine
 10
-6.617827294378543
 20
4.684524058497402
 30
0.0
 11
-4.222488732457413
 21
4.684524058497401
 31
0.0
  0
LINE
  5
48
330
44
100
AcDbEntity
  8
ADPDIM
 62
     0
370
    -2
100
AcDbLine
 10
-4.402488732457411
 20
14.00456541100156
 30
0.0
 11
-4.402488732457412
 21
13.84670880524972
 31
0.0
  0
LINE
  5
49
330
44
100
AcDbEntity
  8
ADPDIM
 62
     0
370
    -2
100
AcDbLine
 10
-4.402488732457413
 20
4.8645240584974
 30
0.0
 11
-4.402488732457412
 21
13.41670880524971
 31
0.0
  0
SOLID
  5
4A
330
44
100
AcDbEntity
  8
ADPDIM
 62
     0
100
AcDbTrace
 10
-4.432488732457411
 20
14.00456541100156
 30
0.0
 11
-4.37248873245741
 21
14.00456541100156
 31
0.0
 12
-4.402488732457411
 22
14.18456541100155
 32
0.0
 13
-4.402488732457411
 23
14.18456541100155
 33
0.0
  0
SOLID
  5
4B
330
44
100
AcDbEntity
  8
ADPDIM
 62
     0
100
AcDbTrace
 10
-4.432488732457414
 20
4.8645240584974
 30
0.0
 11
-4.372488732457413
 21
4.8645240584974
 31
0.0
 12
-4.402488732457413
 22
4.684524058497401
 32
0.0
 13
-4.402488732457413
 23
4.684524058497401
 33
0.0
  0
MTEXT
  5
4C
330
44
100
AcDbEntity
  8
ADPDIM
 62
     0
100
AcDbMText
 10
-4.402488732457413
 20
13.63170880524971
 30
0.0
 40
0.25
 41
0.0
 71
     5
 72
     1
  1
\A1;9.50
 73
     1
 44
1.0
1001
ACAD
1000
MTEXTBEGIN
1070
    73
1070
     1
1070
    44
1040
1.0
1070
    74
1070
     0
1000
MTEXTEND
  0
POINT
  5
4D
330
44
100
AcDbEntity
  8
DEFPOINTS
 62
     0
100
AcDbPoint
 10
-7.145350577581126
 20
14.18456541100155
 30
0.0
  0
POINT
  5
4E
330
44
100
AcDbEntity
  8
DEFPOINTS
 62
     0
100
AcDbPoint
 10
-6.680327294378543
 20
4.684524058497402
 30
0.0
  0
POINT
  5
4F
330
44
100
AcDbEntity
  8
DEFPOINTS
 62
     0
100
AcDbPoint
 10
-4.402488732457413
 20
4.684524058497401
 30
0.0
  0
ENDBLK
  5
50
330
44
100
AcDbEntity
  8
0
100
AcDbBlockEnd
  0
ENDSEC
  0
SECTION
  2
ENTITIES
  0
LINE
  5
B
330
2
100
AcDbEntity
  8
ADP1DETAIL
100
AcDbLine
 10
-8.379239862195442
 20
14.03305963730524
 30
0.0
 11
-8.254239862195447
 21
46.63719471882169
 31
0.0
  0
LINE
  5
D
330
2
100
AcDbEntity
  8
ADP1DETAIL
100
AcDbLine
 10
-7.629239862195467
 20
14.03305963730524
 30
0.0
 11
-7.754239862195461
 21
46.63719471882169
 31
0.0
  0
LINE
  5
E
330
2
100
AcDbEntity
  8
ADP1DETAIL
100
AcDbLine
 10
-7.629239862195447
 20
14.03305963730523
 30
0.0
 11
-7.629239862195447
 21
4.681145434563923
 31
0.0
  0
LINE
  5
F
330
2
100
AcDbEntity
  8
ADP1DETAIL
100
AcDbLine
 10
-8.379239862195447
 20
14.03305963730523
 30
0.0
 11
-8.379239862195447
 21
4.681145434563923
 31
0.0
  0
LINE
  5
10
330
2
100
AcDbEntity
  8
ADP1DETAIL
100
AcDbLine
 10
-8.004239862195451
 20
4.796671901427124
 30
0.0
 11
-8.004239862195454
 21
14.14858610416843
 31
0.0
  0
LINE
  5
11
330
2
100
AcDbEntity
  8
ADPDIM
100
AcDbLine
 10
-7.725329008701024
 20
4.378987217388345
 30
0.0
 11
-6.765185032687213
 21
3.418843241374524
 31
0.0
  0
LINE
  5
13
330
2
100
AcDbEntity
  8
ADPDIM
100
AcDbLine
 10
-6.94624156052423
 20
3.731196937914578
 30
0.0
 11
-6.327203362820725
 21
3.897067723073238
 31
0.0
  0
LWPOLYLINE
  5
14
330
2
100
AcDbEntity
  8
ADP1DETAIL
100
AcDbPolyline
 90
        4
 70
     1
 43
0.0
 10
-8.004239862195451
 20
3.057065348674015
 10
-8.534569948085362
 20
3.587395434563926
 10
-8.004239862195451
 20
4.117725520453838
 10
-7.473909776305539
 20
3.587395434563926
  0
LINE
  5
15
330
2
100
AcDbEntity
  8
ADP1DETAIL
100
AcDbLine
 10
-7.629239862195447
 20
4.681145434563923
 30
0.0
 11
-8.379239862195447
 21
4.681145434563923
 31
0.0
  0
LINE
  5
16
330
2
100
AcDbEntity
  8
ADPDIM
  6
ByBlock
100
AcDbLine
 10
-7.933529184076796
 20
4.188436198572492
 30
0.0
 11
-7.434891789879738
 21
4.687073592769547
 31
0.0
  0
LWPOLYLINE
  5
17
330
2
100
AcDbEntity
  8
ADPDIM
100
AcDbPolyline
 90
        2
 70
     1
 43
0.025
 10
-7.743494236632912
 20
4.396148815546041
 42
1.0
 10
-7.725816567103244
 20
4.378471146016373
 42
1.0
  0
LWPOLYLINE
  5
18
330
2
100
AcDbEntity
  8
ADPDIM
100
AcDbPolyline
 90
        2
 70
     1
 43
0.025
 10
-7.220829229087726
 20
3.874487437775048
 42
1.0
 10
-7.203151559558065
 20
3.85680976824538
 42
1.0
  0
LINE
  5
19
330
2
100
AcDbEntity
  8
ADPDIM
  6
ByBlock
100
AcDbLine
 10
-7.410864176531607
 20
3.666774820801499
 30
0.0
 11
-6.912728597221658
 21
4.164910400111462
 31
0.0
  0
POINT
  5
1A
330
2
100
AcDbEntity
  8
ADPDIM
  6
ByBlock
100
AcDbPoint
 10
-7.211990394322896
 20
3.865648603010214
 30
0.0
  0
TEXT
  5
1B
330
2
100
AcDbEntity
  8
ADPDIM
100
AcDbText
 10
-6.790938382274564
 20
3.974859517813903
 30
0.0
 40
0.25
  1
3
 50
315.0
100
AcDbText
  0
TEXT
  5
1D
330
2
100
AcDbEntity
  8
ADPDIM
100
AcDbText
 10
-6.790800051592244
 20
3.577925423611374
 30
0.0
 40
0.25
  1
4
 50
315.0
100
AcDbText
  0
TEXT
  5
1E
330
2
100
AcDbEntity
  8
ADPDIM
100
AcDbText
 10
-6.389787532963362
 20
3.670866063058463
 30
0.0
 40
0.2
  1
"
 50
315.0
100
AcDbText
  0
LINE
  5
1F
330
2
100
AcDbEntity
  8
ADP1DETAIL
100
AcDbLine
 10
-8.191739862195451
 20
14.39858610416843
 30
0.0
 11
-8.379239862195447
 21
14.14858610416843
 31
0.0
  0
LINE
  5
20
330
2
100
AcDbEntity
  8
ADP1DETAIL
100
AcDbLine
 10
-8.004239862195454
 20
14.14858610416843
 30
0.0
 11
-7.816739862195458
 21
14.39858610416843
 31
0.0
  0
LINE
  5
21
330
2
100
AcDbEntity
  8
ADP1DETAIL
100
AcDbLine
 10
-8.004239862195454
 20
14.14858610416843
 30
0.0
 11
-8.191739862195451
 21
14.39858610416843
 31
0.0
  0
LINE
  5
22
330
2
100
AcDbEntity
  8
ADP1DETAIL
100
AcDbLine
 10
-7.816739862195458
 20
14.39858610416843
 30
0.0
 11
-7.629239862195461
 21
14.14858610416843
 31
0.0
  0
LINE
  5
23
330
2
100
AcDbEntity
  8
ADPDIM
100
AcDbLine
 10
-7.754239862195447
 20
46.98601722778096
 30
0.0
 11
-7.122361660029241
 21
46.98601722778096
 31
0.0
  0
LINE
  5
24
330
2
100
AcDbEntity
  8
ADPDIM
  6
ByBlock
100
AcDbLine
 10
-8.254239862195447
 20
46.70476722778096
 30
0.0
 11
-8.254239862195447
 21
47.16601722778096
 31
0.0
  0
LINE
  5
25
330
2
100
AcDbEntity
  8
ADPDIM
  6
ByBlock
100
AcDbLine
 10
-7.754239862195447
 20
46.70476722778096
 30
0.0
 11
-7.754239862195447
 21
47.16601722778096
 31
0.0
  0
LINE
  5
26
330
2
100
AcDbEntity
  8
ADP1DETAIL
100
AcDbLine
 10
-8.254239862195447
 20
46.63719471882169
 30
0.0
 11
-7.754239862195447
 21
46.63719471882169
 31
0.0
  0
LINE
  5
27
330
2
100
AcDbEntity
  8
ADPDIM
  6
ByBlock
100
AcDbLine
 10
-8.254239862195447
 20
46.98601722778096
 30
0.0
 11
-7.754239862195447
 21
46.98601722778096
 31
0.0
  0
LWPOLYLINE
  5
28
330
2
100
AcDbEntity
  8
ADPDIM
100
AcDbPolyline
 90
        2
 70
     1
 43
0.025
 10
-8.26673986219545
 20
46.98601722778096
 42
1.0
 10
-8.241739862195444
 20
46.98601722778096
 42
1.0
  0
LWPOLYLINE
  5
29
330
2
100
AcDbEntity
  8
ADPDIM
100
AcDbPolyline
 90
        2
 70
     1
 43
0.025
 10
-7.76673986219545
 20
46.98601722778096
 42
1.0
 10
-7.741739862195444
 20
46.98601722778096
 42
1.0
  0
POINT
  5
2A
330
2
100
AcDbEntity
  8
ADPDIM
  6
ByBlock
100
AcDbPoint
 10
-7.754239862195447
 20
46.98601722778096
 30
0.0
  0
CIRCLE
  5
2B
330
2
100
AcDbEntity
  8
ADP1DETAIL
100
AcDbCircle
 10
-8.004239862195447
 20
47.35594471882168
 30
0.0
 40
0.25
  0
TEXT
  5
2C
330
2
100
AcDbEntity
  8
ADPDIM
100
AcDbText
 10
-7.291776829508314
 20
47.06536715441867
 30
0.0
 40
0.25
  1
2
100
AcDbText
  0
LINE
  5
2D
330
2
100
AcDbEntity
  8
ADPDIM
100
AcDbLine
 10
-7.510069901678519
 20
47.06383273650152
 30
0.0
 11
-7.189632151255297
 21
47.61884720089759
 31
0.0
  0
TEXT
  5
2E
330
2
100
AcDbEntity
  8
ADPDIM
100
AcDbText
 10
-7.495656940870233
 20
47.40229043871212
 30
0.0
 40
0.25
  1
1
100
AcDbText
  0
TEXT
  5
2F
330
2
100
AcDbEntity
  8
ADPDIM
100
AcDbText
 10
-7.073937114645985
 20
47.4146447820827
 30
0.0
 40
0.2
  1
"
100
AcDbText
  0
TEXT
  5
30
330
2
100
AcDbEntity
  8
ADPDIM
100
AcDbText
 10
-47.30377942563337
 20
0.3336779560048626
 30
0.0
 40
0.75
  1
J U L I U S  B L U M  &  C O . ,  I N C .      ( 8 0 0 )  5 2 6 - 6 2 9 3        W W W . J U L I U S B L U M . C O M        P A R T  N O .  3 3 0 L
 41
1.25
  7
ARIAL_WIDE
 72
     1
 11
-8.004239862195447
 21
1.083677956004862
 31
0.0
100
AcDbText
 73
     3
  0
DIMENSION
  5
33
330
2
100
AcDbEntity
  8
ADPDIM
100
AcDbDimension
  2
*D0
 10
-11.20641591052299
 20
4.686094805228791
 30
0.0
 11
-11.20641591052299
 21
25.50609480522879
 31
0.0
 70
   128
 71
     5
 42
42.0
  3
STANDARD
100
AcDbAlignedDimension
 13
-8.454052568154168
 23
46.68609480522879
 33
0.0
 14
-8.516552568154168
 24
4.68609480522879
 34
0.0
 50
90.0
100
AcDbRotatedDimension
1001
ACAD
1000
DSTYLE
1002
{
1070
   140
1040
0.25
1002
}
  0
DIMENSION
  5
43
330
2
100
AcDbEntity
  8
ADPDIM
100
AcDbDimension
  2
*D1
 10
-4.402488732457413
 20
4.684524058497401
 30
0.0
 11
-4.402488732457413
 21
13.63170880524971
 31
0.0
 70
   128
 71
     5
 42
9.500041352504155
  3
STANDARD
100
AcDbAlignedDimension
 13
-7.145350577581126
 23
14.18456541100155
 33
0.0
 14
-6.680327294378543
 24
4.684524058497402
 34
0.0
 50
90.0
100
AcDbRotatedDimension
1001
ACAD
1000
DSTYLE
1002
{
1070
   140
1040
0.25
1070
   271
1070
     2
1002
}
  0
ENDSEC
  0
SECTION
  2
OBJECTS
  0
DICTIONARY
  5
9
330
0
100
AcDbDictionary
281
     1
  3
ACAD_COLOR
350
6B
  3
ACAD_GROUP
350
67
  3
ACAD_LAYOUT
350
53
  3
ACAD_MATERIAL
350
6A
  3
ACAD_MLINESTYLE
350
68
  3
ACAD_PLOTSETTINGS
350
69
  3
ACAD_PLOTSTYLENAME
350
8
  3
ACDBHEADERROUNDTRIPXREC
350
71
  3
AcDbVariableDictionary
350
6D
  0
DICTIONARY
  5
3
330
2
100
AcDbDictionary
280
     1
281
     1
  3
ACAD_LAYOUTSELFREF
360
4
  0
DICTIONARY
  5
55
330
54
100
AcDbDictionary
280
     1
281
     1
  3
ACAD_LAYOUTSELFREF
360
56
  0
DICTIONARY
  5
6B
102
{ACAD_REACTORS
330
9
102
}
330
9
100
AcDbDictionary
281
     1
  0
DICTIONARY
  5
67
102
{ACAD_REACTORS
330
9
102
}
330
9
100
AcDbDictionary
281
     1
  0
DICTIONARY
  5
53
102
{ACAD_REACTORS
330
9
102
}
330
9
100
AcDbDictionary
281
     1
  3
Layout1
350
59
  3
Model
350
52
  0
DICTIONARY
  5
6A
102
{ACAD_REACTORS
330
9
102
}
330
9
100
AcDbDictionary
281
     1
  0
DICTIONARY
  5
68
102
{ACAD_REACTORS
330
9
102
}
330
9
100
AcDbDictionary
281
     1
  3
STANDARD
350
6C
  0
DICTIONARY
  5
69
102
{ACAD_REACTORS
330
9
102
}
330
9
100
AcDbDictionary
281
     1
  0
ACDBDICTIONARYWDFLT
  5
8
102
{ACAD_REACTORS
330
9
102
}
330
9
100
AcDbDictionary
281
     1
  3
Normal
350
7
100
AcDbDictionaryWithDefault
340
7
  0
DICTIONARY
  5
71
102
{ACAD_REACTORS
330
9
102
}
330
9
100
AcDbDictionary
281
     1
  3
COLORDICT
350
73
  3
MATERIALDICT
350
72
  0
DICTIONARY
  5
6D
102
{ACAD_REACTORS
330
9
102
}
330
9
100
AcDbDictionary
281
     1
  3
DIMASSOC
350
6F
  3
HIDETEXT
350
6E
  3
PROJECTNAME
350
70
  0
XRECORD
  5
4
102
{ACAD_REACTORS
330
3
102
}
330
3
100
AcDbXrecord
280
     1
340
2
  0
XRECORD
  5
56
102
{ACAD_REACTORS
330
55
102
}
330
55
100
AcDbXrecord
280
     1
340
54
  0
LAYOUT
  5
59
102
{ACAD_XDICTIONARY
360
77
102
}
102
{ACAD_REACTORS
330
53
102
}
330
53
100
AcDbPlotSettings
  1

  2
Fax
  4

  6

 40
0.0
 41
0.0
 42
0.0
 43
0.0
 44
0.0
 45
0.0
 46
0.0
 47
0.0
 48
0.0
 49
0.0
140
0.0
141
0.0
142
1.0
143
1.0
 70
   688
 72
     0
 73
     0
 74
     5
  7
Default R14 pen assignments.ctb
 75
    16
147
1.0
148
0.0
149
0.0
100
AcDbLayout
  1
Layout1
 70
     1
 71
     1
 10
0.0
 20
0.0
 11
12.0
 21
9.0
 12
1.667196317885515E+99
 22
2.439420651286265E+99
 32
0.0
 14
1.000000000000000E+20
 24
1.000000000000000E+20
 34
1.000000000000000E+20
 15
-1.000000000000000E+20
 25
-1.000000000000000E+20
 35
-1.000000000000000E+20
146
0.0
 13
0.0
 23
0.0
 33
0.0
 16
1.0
 26
0.0
 36
0.0
 17
0.0
 27
1.0
 37
0.0
 76
     0
330
54
  0
LAYOUT
  5
52
102
{ACAD_XDICTIONARY
360
75
102
}
102
{ACAD_REACTORS
330
53
102
}
330
53
100
AcDbPlotSettings
  1

  2
Fax
  4

  6

 40
0.0
 41
0.0
 42
0.0
 43
0.0
 44
0.0
 45
0.0
 46
0.0
 47
0.0
 48
0.0
 49
0.0
140
0.0
141
0.0
142
1.0
143
1.0
 70
  1712
 72
     0
 73
     0
 74
     0
  7
Default R14 pen assignments.ctb
 75
     0
147
1.0
148
0.0
149
0.0
100
AcDbLayout
  1
Model
 70
     1
 71
     0
 10
0.0
 20
0.0
 11
12.0
 21
9.0
 12
0.0
 22
0.0
 32
0.0
 14
0.0
 24
0.0
 34
0.0
 15
0.0
 25
0.0
 35
0.0
146
0.0
 13
0.0
 23
0.0
 33
0.0
 16
1.0
 26
0.0
 36
0.0
 17
0.0
 27
1.0
 37
0.0
 76
     0
330
2
  0
MLINESTYLE
  5
6C
102
{ACAD_REACTORS
330
68
102
}
330
68
100
AcDbMlineStyle
  2
STANDARD
 70
     0
  3

 62
   256
 51
90.0
 52
90.0
 71
     2
 49
0.5
 62
   256
  6
BYLAYER
 49
-0.5
 62
   256
  6
BYLAYER
  0
ACDBPLACEHOLDER
  5
7
102
{ACAD_REACTORS
330
8
102
}
330
8
  0
XRECORD
  5
73
102
{ACAD_REACTORS
330
71
102
}
330
71
100
AcDbXrecord
280
     1
340
6B
  0
XRECORD
  5
72
102
{ACAD_REACTORS
330
71
102
}
330
71
100
AcDbXrecord
280
     1
340
6A
  0
DICTIONARYVAR
  5
6F
102
{ACAD_REACTORS
330
6D
102
}
330
6D
100
DictionaryVariables
280
     0
  1
1
  0
DICTIONARYVAR
  5
6E
102
{ACAD_REACTORS
330
6D
102
}
330
6D
100
DictionaryVariables
280
     0
  1
1
  0
DICTIONARYVAR
  5
70
102
{ACAD_REACTORS
330
6D
102
}
330
6D
100
DictionaryVariables
280
     0
  1

  0
DICTIONARY
  5
77
330
59
100
AcDbDictionary
280
     1
281
     1
  3
ACAD_XREC_ROUNDTRIP
360
78
  0
DICTIONARY
  5
75
330
52
100
AcDbDictionary
280
     1
281
     1
  3
ACAD_XREC_ROUNDTRIP
360
76
  0
XRECORD
  5
78
102
{ACAD_REACTORS
330
77
102
}
330
77
100
AcDbXrecord
280
     1
102
SHADEPLOT
 70
     0
102
SHADEPLOTRESLEVEL
 70
     2
102
SHADEPLOTCUSTOMDPI
 70
   300
  0
XRECORD
  5
76
102
{ACAD_REACTORS
330
75
102
}
330
75
100
AcDbXrecord
280
     1
102
SHADEPLOT
 70
     0
102
SHADEPLOTRESLEVEL
 70
     2
102
SHADEPLOTCUSTOMDPI
 70
   300
  0
ENDSEC
  0
EOF
