  0
SECTION
  2
HEADER
  9
$ACADVER
  1
AC1015
  9
$ACADMAINTVER
 70
    18
  9
$DWGCODEPAGE
  3
ANSI_1252
  9
$INSBASE
 10
10.03316908994668
 20
4.70008402565048
 30
0.0
  9
$EXTMIN
 10
1.000000000000000E+20
 20
1.000000000000000E+20
 30
1.000000000000000E+20
  9
$EXTMAX
 10
0.0
 20
0.0
 30
0.0
  9
$LIMMIN
 10
0.0
 20
0.0
  9
$LIMMAX
 10
36.0
 20
36.0
  9
$ORTHOMODE
 70
     1
  9
$REGENMODE
 70
     1
  9
$FILLMODE
 70
     1
  9
$QTEXTMODE
 70
     0
  9
$MIRRTEXT
 70
     1
  9
$LTSCALE
 40
1.0
  9
$ATTMODE
 70
     1
  9
$TEXTSIZE
 40
0.2
  9
$TRACEWID
 40
0.05
  9
$TEXTSTYLE
  7
STANDARD
  9
$CLAYER
  8
ADP1DETAIL
  9
$CELTYPE
  6
BYLAYER
  9
$CECOLOR
 62
   256
  9
$CELTSCALE
 40
1.0
  9
$DISPSILH
 70
     0
  9
$DIMSCALE
 40
1.0
  9
$DIMASZ
 40
0.125
  9
$DIMEXO
 40
0.0625
  9
$DIMDLI
 40
0.38
  9
$DIMRND
 40
0.0
  9
$DIMDLE
 40
0.0
  9
$DIMEXE
 40
0.18
  9
$DIMTP
 40
0.0
  9
$DIMTM
 40
0.0
  9
$DIMTXT
 40
0.125
  9
$DIMCEN
 40
0.1875
  9
$DIMTSZ
 40
0.125
  9
$DIMTOL
 70
     0
  9
$DIMLIM
 70
     0
  9
$DIMTIH
 70
     0
  9
$DIMTOH
 70
     0
  9
$DIMSE1
 70
     0
  9
$DIMSE2
 70
     0
  9
$DIMTAD
 70
     0
  9
$DIMZIN
 70
     3
  9
$DIMBLK
  1

  9
$DIMASO
 70
     1
  9
$DIMSHO
 70
     1
  9
$DIMPOST
  1

  9
$DIMAPOST
  1

  9
$DIMALT
 70
     0
  9
$DIMALTD
 70
     1
  9
$DIMALTF
 40
25.4
  9
$DIMLFAC
 40
1.0
  9
$DIMTOFL
 70
     0
  9
$DIMTVP
 40
0.0
  9
$DIMTIX
 70
     0
  9
$DIMSOXD
 70
     0
  9
$DIMSAH
 70
     0
  9
$DIMBLK1
  1

  9
$DIMBLK2
  1

  9
$DIMSTYLE
  2
STANDARD
  9
$DIMCLRD
 70
     0
  9
$DIMCLRE
 70
     0
  9
$DIMCLRT
 70
     0
  9
$DIMTFAC
 40
1.0
  9
$DIMGAP
 40
0.125
  9
$DIMJUST
 70
     0
  9
$DIMSD1
 70
     0
  9
$DIMSD2
 70
     0
  9
$DIMTOLJ
 70
     1
  9
$DIMTZIN
 70
     3
  9
$DIMALTZ
 70
     3
  9
$DIMALTTZ
 70
     3
  9
$DIMUPT
 70
     0
  9
$DIMDEC
 70
     4
  9
$DIMTDEC
 70
     4
  9
$DIMALTU
 70
     5
  9
$DIMALTTD
 70
     1
  9
$DIMTXSTY
  7
STANDARD
  9
$DIMAUNIT
 70
     0
  9
$DIMADEC
 70
     0
  9
$DIMALTRND
 40
0.0
  9
$DIMAZIN
 70
     0
  9
$DIMDSEP
 70
    46
  9
$DIMATFIT
 70
     3
  9
$DIMFRAC
 70
     0
  9
$DIMLDRBLK
  1

  9
$DIMLUNIT
 70
     5
  9
$DIMLWD
 70
    -2
  9
$DIMLWE
 70
    -2
  9
$DIMTMOVE
 70
     2
  9
$LUNITS
 70
     5
  9
$LUPREC
 70
     4
  9
$SKETCHINC
 40
0.1
  9
$FILLETRAD
 40
0.0
  9
$AUNITS
 70
     0
  9
$AUPREC
 70
     0
  9
$MENU
  1
acad
  9
$ELEVATION
 40
0.0
  9
$PELEVATION
 40
0.0
  9
$THICKNESS
 40
0.0
  9
$LIMCHECK
 70
     0
  9
$CHAMFERA
 40
0.0
  9
$CHAMFERB
 40
0.0
  9
$CHAMFERC
 40
0.0
  9
$CHAMFERD
 40
0.0
  9
$SKPOLY
 70
     0
  9
$TDCREATE
 40
2450373.679054004
  9
$TDUCREATE
 40
2450373.845720671
  9
$TDUPDATE
 40
2453937.652724329
  9
$TDUUPDATE
 40
2453937.819390996
  9
$TDINDWG
 40
0.0528143981
  9
$TDUSRTIMER
 40
0.0528143981
  9
$USRTIMER
 70
     1
  9
$ANGBASE
 50
0.0
  9
$ANGDIR
 70
     0
  9
$PDMODE
 70
     0
  9
$PDSIZE
 40
0.0
  9
$PLINEWID
 40
0.0
  9
$SPLFRAME
 70
     0
  9
$SPLINETYPE
 70
     6
  9
$SPLINESEGS
 70
     8
  9
$HANDSEED
  5
66
  9
$SURFTAB1
 70
     6
  9
$SURFTAB2
 70
     6
  9
$SURFTYPE
 70
     6
  9
$SURFU
 70
     6
  9
$SURFV
 70
     6
  9
$UCSBASE
  2

  9
$UCSNAME
  2

  9
$UCSORG
 10
0.0
 20
0.0
 30
0.0
  9
$UCSXDIR
 10
1.0
 20
0.0
 30
0.0
  9
$UCSYDIR
 10
0.0
 20
1.0
 30
0.0
  9
$UCSORTHOREF
  2

  9
$UCSORTHOVIEW
 70
     0
  9
$UCSORGTOP
 10
0.0
 20
0.0
 30
0.0
  9
$UCSORGBOTTOM
 10
0.0
 20
0.0
 30
0.0
  9
$UCSORGLEFT
 10
0.0
 20
0.0
 30
0.0
  9
$UCSORGRIGHT
 10
0.0
 20
0.0
 30
0.0
  9
$UCSORGFRONT
 10
0.0
 20
0.0
 30
0.0
  9
$UCSORGBACK
 10
0.0
 20
0.0
 30
0.0
  9
$PUCSBASE
  2

  9
$PUCSNAME
  2

  9
$PUCSORG
 10
0.0
 20
0.0
 30
0.0
  9
$PUCSXDIR
 10
1.0
 20
0.0
 30
0.0
  9
$PUCSYDIR
 10
0.0
 20
1.0
 30
0.0
  9
$PUCSORTHOREF
  2

  9
$PUCSORTHOVIEW
 70
     0
  9
$PUCSORGTOP
 10
0.0
 20
0.0
 30
0.0
  9
$PUCSORGBOTTOM
 10
0.0
 20
0.0
 30
0.0
  9
$PUCSORGLEFT
 10
0.0
 20
0.0
 30
0.0
  9
$PUCSORGRIGHT
 10
0.0
 20
0.0
 30
0.0
  9
$PUCSORGFRONT
 10
0.0
 20
0.0
 30
0.0
  9
$PUCSORGBACK
 10
0.0
 20
0.0
 30
0.0
  9
$USERI1
 70
     0
  9
$USERI2
 70
     0
  9
$USERI3
 70
     0
  9
$USERI4
 70
     0
  9
$USERI5
 70
     0
  9
$USERR1
 40
0.0
  9
$USERR2
 40
0.0
  9
$USERR3
 40
0.0
  9
$USERR4
 40
0.0
  9
$USERR5
 40
0.0
  9
$WORLDVIEW
 70
     1
  9
$SHADEDGE
 70
     3
  9
$SHADEDIF
 70
    70
  9
$TILEMODE
 70
     1
  9
$MAXACTVP
 70
    15
  9
$PINSBASE
 10
1.667196317885515E+99
 20
2.439420651286265E+99
 30
0.0
  9
$PLIMCHECK
 70
     0
  9
$PEXTMIN
 10
1.000000000000000E+20
 20
1.000000000000000E+20
 30
1.000000000000000E+20
  9
$PEXTMAX
 10
-1.000000000000000E+20
 20
-1.000000000000000E+20
 30
-1.000000000000000E+20
  9
$PLIMMIN
 10
0.0
 20
0.0
  9
$PLIMMAX
 10
12.0
 20
9.0
  9
$UNITMODE
 70
     0
  9
$VISRETAIN
 70
     0
  9
$PLINEGEN
 70
     0
  9
$PSLTSCALE
 70
     1
  9
$TREEDEPTH
 70
  3020
  9
$CMLSTYLE
  2
STANDARD
  9
$CMLJUST
 70
     0
  9
$CMLSCALE
 40
1.0
  9
$PROXYGRAPHICS
 70
     1
  9
$MEASUREMENT
 70
     0
  9
$CELWEIGHT
370
    -1
  9
$ENDCAPS
280
     0
  9
$JOINSTYLE
280
     0
  9
$LWDISPLAY
290
     0
  9
$INSUNITS
 70
     0
  9
$HYPERLINKBASE
  1

  9
$STYLESHEET
  1

  9
$XEDIT
290
     1
  9
$CEPSNTYPE
380
     0
  9
$PSTYLEMODE
290
     1
  9
$FINGERPRINTGUID
  2
{16779487-803A-4C52-91C5-92417C1F991D}
  9
$VERSIONGUID
  2
{4D15B684-B0B1-4CD5-93F2-70846584A2E2}
  9
$EXTNAMES
290
     1
  9
$PSVPSCALE
 40
0.0
  9
$OLESTARTUP
290
     0
  0
ENDSEC
  0
SECTION
  2
CLASSES
  0
CLASS
  1
DICTIONARYVAR
  2
AcDbDictionaryVar
  3
ObjectDBX Classes
 90
        0
280
     0
281
     0
  0
CLASS
  1
ACDBDICTIONARYWDFLT
  2
AcDbDictionaryWithDefault
  3
ObjectDBX Classes
 90
        0
280
     0
281
     0
  0
CLASS
  1
ACDBPLACEHOLDER
  2
AcDbPlaceHolder
  3
ObjectDBX Classes
 90
        0
280
     0
281
     0
  0
CLASS
  1
LAYOUT
  2
AcDbLayout
  3
ObjectDBX Classes
 90
        0
280
     0
281
     0
  0
ENDSEC
  0
SECTION
  2
TABLES
  0
TABLE
  2
VPORT
  5
4F
330
0
100
AcDbSymbolTable
 70
     1
  0
VPORT
  5
50
330
4F
100
AcDbSymbolTableRecord
100
AcDbViewportTableRecord
  2
*Active
 70
     0
 10
0.0
 20
0.0
 11
1.0
 21
1.0
 12
1.762524544710224
 22
21.87007322278269
 13
0.0
 23
0.0
 14
0.5740882589684922
 24
0.5740882589684922
 15
0.5
 25
0.5
 16
0.0
 26
0.0
 36
1.0
 17
0.0
 27
0.0
 37
0.0
 40
52.7937013686552
 41
1.459418070444104
 42
50.0
 43
0.0
 44
0.0
 50
0.0
 51
0.0
 71
     0
 72
   100
 73
     1
 74
     0
 75
     0
 76
     0
 77
     0
 78
     0
281
     0
 65
     1
110
0.0
120
0.0
130
0.0
111
1.0
121
0.0
131
0.0
112
0.0
122
1.0
132
0.0
 79
     0
146
0.0
  0
ENDTAB
  0
TABLE
  2
LTYPE
  5
4A
330
0
100
AcDbSymbolTable
 70
     1
  0
LTYPE
  5
4B
330
4A
100
AcDbSymbolTableRecord
100
AcDbLinetypeTableRecord
  2
BYBLOCK
 70
     0
  3

 72
    65
 73
     0
 40
0.0
  0
LTYPE
  5
4C
330
4A
100
AcDbSymbolTableRecord
100
AcDbLinetypeTableRecord
  2
BYLAYER
 70
     0
  3

 72
    65
 73
     0
 40
0.0
  0
LTYPE
  5
A
330
4A
100
AcDbSymbolTableRecord
100
AcDbLinetypeTableRecord
  2
CONTINUOUS
 70
     0
  3
Solid line
 72
    65
 73
     0
 40
0.0
  0
ENDTAB
  0
TABLE
  2
LAYER
  5
47
330
0
100
AcDbSymbolTable
 70
     4
  0
LAYER
  5
6
330
47
100
AcDbSymbolTableRecord
100
AcDbLayerTableRecord
  2
0
 70
     0
 62
     7
  6
CONTINUOUS
370
    -3
390
7
  0
LAYER
  5
C
330
47
100
AcDbSymbolTableRecord
100
AcDbLayerTableRecord
  2
ADPDIM
 70
     0
 62
     3
  6
CONTINUOUS
370
    -3
390
7
  0
LAYER
  5
10
330
47
100
AcDbSymbolTableRecord
100
AcDbLayerTableRecord
  2
ADP1DETAIL
 70
     0
 62
     7
  6
CONTINUOUS
370
    -3
390
7
  0
LAYER
  5
25
330
47
100
AcDbSymbolTableRecord
100
AcDbLayerTableRecord
  2
DEFPOINTS
 70
     0
 62
     7
  6
CONTINUOUS
290
     0
370
    -3
390
7
  0
ENDTAB
  0
TABLE
  2
STYLE
  5
48
330
0
100
AcDbSymbolTable
 70
     2
  0
STYLE
  5
1C
330
48
100
AcDbSymbolTableRecord
100
AcDbTextStyleTableRecord
  2
STANDARD
 70
     0
 40
0.0
 41
1.0
 50
0.0
 71
     0
 42
0.2
  3
txt
  4

  0
STYLE
  5
D
330
48
100
AcDbSymbolTableRecord
100
AcDbTextStyleTableRecord
  2
ARIAL_WIDE
 70
     0
 40
0.0
 41
1.25
 50
0.0
 71
     0
 42
0.2
  3
ARIAL.TTF
  4

1001
ACAD
1000
Arial
1071
       34
  0
ENDTAB
  0
TABLE
  2
VIEW
  5
4D
330
0
100
AcDbSymbolTable
 70
     0
  0
ENDTAB
  0
TABLE
  2
UCS
  5
4E
330
0
100
AcDbSymbolTable
 70
     0
  0
ENDTAB
  0
TABLE
  2
APPID
  5
51
330
0
100
AcDbSymbolTable
 70
     1
  0
APPID
  5
E
330
51
100
AcDbSymbolTableRecord
100
AcDbRegAppTableRecord
  2
ACAD
 70
     0
  0
ENDTAB
  0
TABLE
  2
DIMSTYLE
  5
52
330
0
100
AcDbSymbolTable
 70
     1
100
AcDbDimStyleTable
 71
     0
  0
DIMSTYLE
105
30
102
{ACAD_REACTORS
330
2F
102
}
330
52
100
AcDbSymbolTableRecord
100
AcDbDimStyleTableRecord
  2
STANDARD
 70
     0
340
1C
  0
ENDTAB
  0
TABLE
  2
BLOCK_RECORD
  5
1
330
0
100
AcDbSymbolTable
 70
     1
  0
BLOCK_RECORD
  5
2
102
{ACAD_XDICTIONARY
360
3
102
}
330
1
100
AcDbSymbolTableRecord
100
AcDbBlockTableRecord
  2
*MODEL_SPACE
340
3F
  0
BLOCK_RECORD
  5
41
102
{ACAD_XDICTIONARY
360
42
102
}
330
1
100
AcDbSymbolTableRecord
100
AcDbBlockTableRecord
  2
*PAPER_SPACE
340
46
  0
BLOCK_RECORD
  5
31
330
1
100
AcDbSymbolTableRecord
100
AcDbBlockTableRecord
  2
*D0
340
0
  0
ENDTAB
  0
ENDSEC
  0
SECTION
  2
BLOCKS
  0
BLOCK
  5
5
330
2
100
AcDbEntity
  8
0
100
AcDbBlockBegin
  2
*MODEL_SPACE
 70
     0
 10
0.0
 20
0.0
 30
0.0
  3
*MODEL_SPACE
  1

  0
ENDBLK
  5
3E
330
2
100
AcDbEntity
  8
0
100
AcDbBlockEnd
  0
BLOCK
  5
44
330
41
100
AcDbEntity
 67
     1
  8
0
100
AcDbBlockBegin
  2
*PAPER_SPACE
 70
     0
 10
0.0
 20
0.0
 30
0.0
  3
*PAPER_SPACE
  1

  0
ENDBLK
  5
45
330
41
100
AcDbEntity
 67
     1
  8
0
100
AcDbBlockEnd
  0
BLOCK
  5
32
330
31
100
AcDbEntity
  8
0
100
AcDbBlockBegin
  2
*D0
 70
     1
 10
0.0
 20
0.0
 30
0.0
  3
*D0
  1

  0
LINE
  5
33
330
31
100
AcDbEntity
  8
ADPDIM
 62
     0
370
    -2
100
AcDbLine
 10
2.175943524462496
 20
45.92590072837746
 30
0.0
 11
-0.6939198179063184
 21
45.92590072837746
 31
0.0
  0
LINE
  5
34
330
31
100
AcDbEntity
  8
ADPDIM
 62
     0
370
    -2
100
AcDbLine
 10
2.113443524462496
 20
3.925900728377456
 30
0.0
 11
-0.6939198179063282
 21
3.925900728377456
 31
0.0
  0
LINE
  5
35
330
31
100
AcDbEntity
  8
ADPDIM
 62
     0
370
    -2
100
AcDbLine
 10
-0.5139198179063186
 20
45.74590072837746
 30
0.0
 11
-0.5139198179063232
 21
24.96090072837745
 31
0.0
  0
LINE
  5
36
330
31
100
AcDbEntity
  8
ADPDIM
 62
     0
370
    -2
100
AcDbLine
 10
-0.5139198179063279
 20
4.105900728377457
 30
0.0
 11
-0.5139198179063233
 21
24.53090072837746
 31
0.0
  0
SOLID
  5
37
330
31
100
AcDbEntity
  8
ADPDIM
 62
     0
100
AcDbTrace
 10
-0.5439198179063186
 20
45.74590072837746
 30
0.0
 11
-0.4839198179063186
 21
45.74590072837746
 31
0.0
 12
-0.5139198179063185
 22
45.92590072837746
 32
0.0
 13
-0.5139198179063185
 23
45.92590072837746
 33
0.0
  0
SOLID
  5
38
330
31
100
AcDbEntity
  8
ADPDIM
 62
     0
100
AcDbTrace
 10
-0.5439198179063279
 20
4.105900728377457
 30
0.0
 11
-0.4839198179063278
 21
4.105900728377457
 31
0.0
 12
-0.5139198179063279
 22
3.925900728377456
 32
0.0
 13
-0.5139198179063279
 23
3.925900728377456
 33
0.0
  0
MTEXT
  5
39
330
31
100
AcDbEntity
  8
ADPDIM
 62
     0
100
AcDbMText
 10
-0.5139198179063272
 20
24.74590072837746
 30
0.0
 40
0.25
 41
0.0
 71
     5
 72
     1
  1
\A1;42.0000
 73
     1
 44
1.0
1001
ACAD
1000
MTEXTBEGIN
1070
    73
1070
     1
1070
    44
1040
1.0
1070
    74
1070
     0
1000
MTEXTEND
  0
POINT
  5
3A
330
31
100
AcDbEntity
  8
DEFPOINTS
 62
     0
100
AcDbPoint
 10
2.238443524462496
 20
45.92590072837746
 30
0.0
  0
POINT
  5
3B
330
31
100
AcDbEntity
  8
DEFPOINTS
 62
     0
100
AcDbPoint
 10
2.175943524462496
 20
3.925900728377456
 30
0.0
  0
POINT
  5
3C
330
31
100
AcDbEntity
  8
DEFPOINTS
 62
     0
100
AcDbPoint
 10
-0.5139198179063279
 20
3.925900728377456
 30
0.0
  0
ENDBLK
  5
3D
330
31
100
AcDbEntity
  8
0
100
AcDbBlockEnd
  0
ENDSEC
  0
SECTION
  2
ENTITIES
  0
TEXT
  5
B
330
2
100
AcDbEntity
  8
ADPDIM
100
AcDbText
 10
-36.6006549483936
 20
-0.2324665115136826
 30
0.0
 40
0.75
  1
J U L I U S  B L U M  &  C O . ,  I N C .      ( 8 0 0 )  5 2 6 - 6 2 9 3        W W W . J U L I U S B L U M . C O M        P A R T  N O .  3 2 9 L
 41
1.25
  7
ARIAL_WIDE
 72
     1
 11
2.698884615044327
 21
0.5175334884863175
 31
0.0
100
AcDbText
 73
     3
  0
LINE
  5
F
330
2
100
AcDbEntity
  8
ADP1DETAIL
100
AcDbLine
 10
2.323884615044327
 20
3.925956633882063
 30
0.0
 11
2.448884615044342
 21
45.92595663388206
 31
0.0
  0
LINE
  5
11
330
2
100
AcDbEntity
  8
ADP1DETAIL
100
AcDbLine
 10
3.073884615044327
 20
3.925956633882063
 30
0.0
 11
2.948884615044313
 21
45.92595663388206
 31
0.0
  0
CIRCLE
  5
12
330
2
100
AcDbEntity
  8
ADP1DETAIL
100
AcDbCircle
 10
2.698884615044327
 20
2.803847051841206
 30
0.0
 40
0.375
  0
LINE
  5
13
330
2
100
AcDbEntity
  8
ADP1DETAIL
100
AcDbLine
 10
3.073884615044327
 20
3.925956633882063
 30
0.0
 11
2.323884615044327
 21
3.925956633882063
 31
0.0
  0
LINE
  5
14
330
2
100
AcDbEntity
  8
ADPDIM
100
AcDbLine
 10
2.348864453330072
 20
3.4266663073012
 30
0.0
 11
3.706713086039641
 21
3.4266663073012
 31
0.0
  0
LINE
  5
15
330
2
100
AcDbEntity
  8
ADPDIM
  6
ByBlock
100
AcDbLine
 10
2.33638461504433
 20
3.144706633882066
 30
0.0
 11
2.33638461504433
 21
3.849886399461922
 31
0.0
  0
LWPOLYLINE
  5
16
330
2
100
AcDbEntity
  8
ADPDIM
100
AcDbPolyline
 90
        2
 70
     1
 43
0.05
 10
2.311384615044325
 20
3.425956633882066
 42
1.0
 10
2.361384615044336
 20
3.425956633882066
 42
1.0
  0
LINE
  5
17
330
2
100
AcDbEntity
  8
ADPDIM
  6
ByBlock
100
AcDbLine
 10
3.074834883873435
 20
3.1454163073012
 30
0.0
 11
3.074834883873428
 21
3.849886399461922
 31
0.0
  0
LINE
  5
18
330
2
100
AcDbEntity
  8
ADPDIM
100
AcDbLine
 10
3.444004844390363
 20
3.527684000492577
 30
0.0
 11
3.792872312510024
 21
4.13194018038375
 31
0.0
  0
LWPOLYLINE
  5
19
330
2
100
AcDbEntity
  8
ADPDIM
100
AcDbPolyline
 90
        2
 70
     1
 43
0.05
 10
3.04983488387343
 20
3.4266663073012
 42
1.0
 10
3.099834883873441
 20
3.4266663073012
 42
1.0
  0
POINT
  5
1A
330
2
100
AcDbEntity
  8
ADPDIM
  6
ByBlock
100
AcDbPoint
 10
3.074834883873435
 20
3.4266663073012
 30
0.0
  0
TEXT
  5
1B
330
2
100
AcDbEntity
  8
ADPDIM
100
AcDbText
 10
3.365366791934064
 20
3.90557287801576
 30
0.0
 40
0.25
  1
3
100
AcDbText
  0
TEXT
  5
1D
330
2
100
AcDbEntity
  8
ADPDIM
100
AcDbText
 10
3.669120705640155
 20
3.506016233938915
 30
0.0
 40
0.25
  1
4
100
AcDbText
  0
TEXT
  5
1E
330
2
100
AcDbEntity
  8
ADPDIM
100
AcDbText
 10
3.891459459578484
 20
3.97102498816929
 30
0.0
 40
0.2
  1
"
100
AcDbText
  0
LWPOLYLINE
  5
1F
330
2
100
AcDbEntity
  8
ADPDIM
100
AcDbPolyline
 90
        2
 70
     1
 43
0.05
 10
2.923884615044322
 20
46.26970663388206
 42
1.0
 10
2.973884615044333
 20
46.26970663388206
 42
1.0
  0
CIRCLE
  5
20
330
2
100
AcDbEntity
  8
ADP1DETAIL
100
AcDbCircle
 10
2.698884615044327
 20
46.63963412492279
 30
0.0
 40
0.25
  0
LINE
  5
21
330
2
100
AcDbEntity
  8
ADP1DETAIL
100
AcDbLine
 10
2.448884615044327
 20
45.92595663388206
 30
0.0
 11
2.948884615044327
 21
45.92595663388206
 31
0.0
  0
LINE
  5
22
330
2
100
AcDbEntity
  8
ADPDIM
  6
ByBlock
100
AcDbLine
 10
2.448884615044327
 20
46.26970663388206
 30
0.0
 11
2.948884615044327
 21
46.26970663388206
 31
0.0
  0
LWPOLYLINE
  5
23
330
2
100
AcDbEntity
  8
ADPDIM
100
AcDbPolyline
 90
        2
 70
     1
 43
0.05
 10
2.423884615044322
 20
46.26970663388206
 42
1.0
 10
2.473884615044333
 20
46.26970663388206
 42
1.0
  0
POINT
  5
24
330
2
100
AcDbEntity
  8
DEFPOINTS
  6
ByBlock
 62
     0
100
AcDbPoint
 10
2.448884615044327
 20
45.92595663388206
 30
0.0
  0
LINE
  5
26
330
2
100
AcDbEntity
  8
ADPDIM
  6
ByBlock
100
AcDbLine
 10
2.448884615044327
 20
45.98845663388206
 30
0.0
 11
2.448884615044327
 21
46.44970663388206
 31
0.0
  0
LINE
  5
27
330
2
100
AcDbEntity
  8
ADPDIM
100
AcDbLine
 10
3.193054575561255
 20
46.37072432707344
 30
0.0
 11
3.541922043680916
 21
46.97498050696461
 31
0.0
  0
TEXT
  5
28
330
2
100
AcDbEntity
  8
ADPDIM
100
AcDbText
 10
3.207467536369541
 20
46.74861320459662
 30
0.0
 40
0.25
  1
1
100
AcDbText
  0
LINE
  5
29
330
2
100
AcDbEntity
  8
ADPDIM
100
AcDbLine
 10
2.948884615044327
 20
46.26970663388206
 30
0.0
 11
3.580762817210533
 21
46.26970663388206
 31
0.0
  0
POINT
  5
2A
330
2
100
AcDbEntity
  8
DEFPOINTS
  6
ByBlock
 62
     0
100
AcDbPoint
 10
2.948884615044327
 20
45.92595663388206
 30
0.0
  0
POINT
  5
2B
330
2
100
AcDbEntity
  8
ADPDIM
  6
ByBlock
100
AcDbPoint
 10
2.948884615044327
 20
46.26970663388206
 30
0.0
  0
LINE
  5
2C
330
2
100
AcDbEntity
  8
ADPDIM
  6
ByBlock
100
AcDbLine
 10
2.948884615044327
 20
45.98845663388206
 30
0.0
 11
2.948884615044327
 21
46.44970663388206
 31
0.0
  0
TEXT
  5
2D
330
2
100
AcDbEntity
  8
ADPDIM
100
AcDbText
 10
3.475403464756354
 20
46.34905656051977
 30
0.0
 40
0.25
  1
2
100
AcDbText
  0
TEXT
  5
2E
330
2
100
AcDbEntity
  8
ADPDIM
100
AcDbText
 10
3.765509190749376
 20
46.81406531475015
 30
0.0
 40
0.2
  1
"
100
AcDbText
  0
DIMENSION
  5
2F
330
2
100
AcDbEntity
  8
ADPDIM
100
AcDbDimension
  2
*D0
 10
-0.5139198179063279
 20
3.925900728377456
 30
0.0
 11
-0.5139198179063272
 21
24.74590072837746
 31
0.0
 70
   128
 71
     5
 42
42.0
  3
STANDARD
100
AcDbAlignedDimension
 13
2.238443524462496
 23
45.92590072837746
 33
0.0
 14
2.175943524462496
 24
3.925900728377456
 34
0.0
 50
90.0
100
AcDbRotatedDimension
1001
ACAD
1000
DSTYLE
1002
{
1070
   140
1040
0.25
1002
}
  0
ENDSEC
  0
SECTION
  2
OBJECTS
  0
DICTIONARY
  5
9
330
0
100
AcDbDictionary
281
     1
  3
ACAD_COLOR
350
58
  3
ACAD_GROUP
350
54
  3
ACAD_LAYOUT
350
40
  3
ACAD_MATERIAL
350
57
  3
ACAD_MLINESTYLE
350
55
  3
ACAD_PLOTSETTINGS
350
56
  3
ACAD_PLOTSTYLENAME
350
8
  3
ACDBHEADERROUNDTRIPXREC
350
5E
  3
AcDbVariableDictionary
350
5A
  0
DICTIONARY
  5
3
330
2
100
AcDbDictionary
280
     1
281
     1
  3
ACAD_LAYOUTSELFREF
360
4
  0
DICTIONARY
  5
42
330
41
100
AcDbDictionary
280
     1
281
     1
  3
ACAD_LAYOUTSELFREF
360
43
  0
DICTIONARY
  5
58
102
{ACAD_REACTORS
330
9
102
}
330
9
100
AcDbDictionary
281
     1
  0
DICTIONARY
  5
54
102
{ACAD_REACTORS
330
9
102
}
330
9
100
AcDbDictionary
281
     1
  0
DICTIONARY
  5
40
102
{ACAD_REACTORS
330
9
102
}
330
9
100
AcDbDictionary
281
     1
  3
Layout1
350
46
  3
Model
350
3F
  0
DICTIONARY
  5
57
102
{ACAD_REACTORS
330
9
102
}
330
9
100
AcDbDictionary
281
     1
  0
DICTIONARY
  5
55
102
{ACAD_REACTORS
330
9
102
}
330
9
100
AcDbDictionary
281
     1
  3
STANDARD
350
59
  0
DICTIONARY
  5
56
102
{ACAD_REACTORS
330
9
102
}
330
9
100
AcDbDictionary
281
     1
  0
ACDBDICTIONARYWDFLT
  5
8
102
{ACAD_REACTORS
330
9
102
}
330
9
100
AcDbDictionary
281
     1
  3
Normal
350
7
100
AcDbDictionaryWithDefault
340
7
  0
DICTIONARY
  5
5E
102
{ACAD_REACTORS
330
9
102
}
330
9
100
AcDbDictionary
281
     1
  3
COLORDICT
350
60
  3
MATERIALDICT
350
5F
  0
DICTIONARY
  5
5A
102
{ACAD_REACTORS
330
9
102
}
330
9
100
AcDbDictionary
281
     1
  3
DIMASSOC
350
5C
  3
HIDETEXT
350
5B
  3
PROJECTNAME
350
5D
  0
XRECORD
  5
4
102
{ACAD_REACTORS
330
3
102
}
330
3
100
AcDbXrecord
280
     1
340
2
  0
XRECORD
  5
43
102
{ACAD_REACTORS
330
42
102
}
330
42
100
AcDbXrecord
280
     1
340
41
  0
LAYOUT
  5
46
102
{ACAD_XDICTIONARY
360
64
102
}
102
{ACAD_REACTORS
330
40
102
}
330
40
100
AcDbPlotSettings
  1

  2
Fax
  4

  6

 40
0.0
 41
0.0
 42
0.0
 43
0.0
 44
0.0
 45
0.0
 46
0.0
 47
0.0
 48
0.0
 49
0.0
140
0.0
141
0.0
142
1.0
143
1.0
 70
   688
 72
     0
 73
     0
 74
     5
  7
Default R14 pen assignments.ctb
 75
    16
147
1.0
148
0.0
149
0.0
100
AcDbLayout
  1
Layout1
 70
     1
 71
     1
 10
0.0
 20
0.0
 11
12.0
 21
9.0
 12
1.667196317885515E+99
 22
2.439420651286265E+99
 32
0.0
 14
1.000000000000000E+20
 24
1.000000000000000E+20
 34
1.000000000000000E+20
 15
-1.000000000000000E+20
 25
-1.000000000000000E+20
 35
-1.000000000000000E+20
146
0.0
 13
0.0
 23
0.0
 33
0.0
 16
1.0
 26
0.0
 36
0.0
 17
0.0
 27
1.0
 37
0.0
 76
     0
330
41
  0
LAYOUT
  5
3F
102
{ACAD_XDICTIONARY
360
62
102
}
102
{ACAD_REACTORS
330
40
102
}
330
40
100
AcDbPlotSettings
  1

  2
Fax
  4

  6

 40
0.0
 41
0.0
 42
0.0
 43
0.0
 44
0.0
 45
0.0
 46
0.0
 47
0.0
 48
0.0
 49
0.0
140
0.0
141
0.0
142
1.0
143
1.0
 70
  1712
 72
     0
 73
     0
 74
     0
  7
Default R14 pen assignments.ctb
 75
     0
147
1.0
148
0.0
149
0.0
100
AcDbLayout
  1
Model
 70
     1
 71
     0
 10
0.0
 20
0.0
 11
12.0
 21
9.0
 12
0.0
 22
0.0
 32
0.0
 14
0.0
 24
0.0
 34
0.0
 15
0.0
 25
0.0
 35
0.0
146
0.0
 13
0.0
 23
0.0
 33
0.0
 16
1.0
 26
0.0
 36
0.0
 17
0.0
 27
1.0
 37
0.0
 76
     0
330
2
  0
MLINESTYLE
  5
59
102
{ACAD_REACTORS
330
55
102
}
330
55
100
AcDbMlineStyle
  2
STANDARD
 70
     0
  3

 62
   256
 51
90.0
 52
90.0
 71
     2
 49
0.5
 62
   256
  6
BYLAYER
 49
-0.5
 62
   256
  6
BYLAYER
  0
ACDBPLACEHOLDER
  5
7
102
{ACAD_REACTORS
330
8
102
}
330
8
  0
XRECORD
  5
60
102
{ACAD_REACTORS
330
5E
102
}
330
5E
100
AcDbXrecord
280
     1
340
58
  0
XRECORD
  5
5F
102
{ACAD_REACTORS
330
5E
102
}
330
5E
100
AcDbXrecord
280
     1
340
57
  0
DICTIONARYVAR
  5
5C
102
{ACAD_REACTORS
330
5A
102
}
330
5A
100
DictionaryVariables
280
     0
  1
1
  0
DICTIONARYVAR
  5
5B
102
{ACAD_REACTORS
330
5A
102
}
330
5A
100
DictionaryVariables
280
     0
  1
1
  0
DICTIONARYVAR
  5
5D
102
{ACAD_REACTORS
330
5A
102
}
330
5A
100
DictionaryVariables
280
     0
  1

  0
DICTIONARY
  5
64
330
46
100
AcDbDictionary
280
     1
281
     1
  3
ACAD_XREC_ROUNDTRIP
360
65
  0
DICTIONARY
  5
62
330
3F
100
AcDbDictionary
280
     1
281
     1
  3
ACAD_XREC_ROUNDTRIP
360
63
  0
XRECORD
  5
65
102
{ACAD_REACTORS
330
64
102
}
330
64
100
AcDbXrecord
280
     1
102
SHADEPLOT
 70
     0
102
SHADEPLOTRESLEVEL
 70
     2
102
SHADEPLOTCUSTOMDPI
 70
   300
  0
XRECORD
  5
63
102
{ACAD_REACTORS
330
62
102
}
330
62
100
AcDbXrecord
280
     1
102
SHADEPLOT
 70
     0
102
SHADEPLOTRESLEVEL
 70
     2
102
SHADEPLOTCUSTOMDPI
 70
   300
  0
ENDSEC
  0
EOF
