  0
SECTION
  2
HEADER
  9
$ACADVER
  1
AC1015
  9
$ACADMAINTVER
 70
    18
  9
$DWGCODEPAGE
  3
ANSI_1252
  9
$INSBASE
 10
0.0
 20
0.0
 30
0.0
  9
$EXTMIN
 10
1.000000000000000E+20
 20
1.000000000000000E+20
 30
1.000000000000000E+20
  9
$EXTMAX
 10
0.0
 20
0.0
 30
0.0
  9
$LIMMIN
 10
82.46938476562499
 20
116.823876953125
  9
$LIMMAX
 10
92.56558159722223
 20
162.2472886827256
  9
$ORTHOMODE
 70
     0
  9
$REGENMODE
 70
     1
  9
$FILLMODE
 70
     1
  9
$QTEXTMODE
 70
     0
  9
$MIRRTEXT
 70
     1
  9
$LTSCALE
 40
1.0
  9
$ATTMODE
 70
     1
  9
$TEXTSIZE
 40
0.0
  9
$TRACEWID
 40
0.05
  9
$TEXTSTYLE
  7
Standard
  9
$CLAYER
  8
0
  9
$CELTYPE
  6
Continuous
  9
$CECOLOR
 62
   256
  9
$CELTSCALE
 40
1.0
  9
$DISPSILH
 70
     0
  9
$DIMSCALE
 40
1.0
  9
$DIMASZ
 40
0.18
  9
$DIMEXO
 40
0.0625
  9
$DIMDLI
 40
0.38
  9
$DIMRND
 40
0.0
  9
$DIMDLE
 40
0.0
  9
$DIMEXE
 40
0.18
  9
$DIMTP
 40
0.0
  9
$DIMTM
 40
0.0
  9
$DIMTXT
 40
0.18
  9
$DIMCEN
 40
0.09
  9
$DIMTSZ
 40
0.0
  9
$DIMTOL
 70
     0
  9
$DIMLIM
 70
     0
  9
$DIMTIH
 70
     1
  9
$DIMTOH
 70
     1
  9
$DIMSE1
 70
     0
  9
$DIMSE2
 70
     0
  9
$DIMTAD
 70
     0
  9
$DIMZIN
 70
     0
  9
$DIMBLK
  1

  9
$DIMASO
 70
     1
  9
$DIMSHO
 70
     1
  9
$DIMPOST
  1

  9
$DIMAPOST
  1

  9
$DIMALT
 70
     0
  9
$DIMALTD
 70
     2
  9
$DIMALTF
 40
25.4
  9
$DIMLFAC
 40
1.0
  9
$DIMTOFL
 70
     0
  9
$DIMTVP
 40
0.0
  9
$DIMTIX
 70
     0
  9
$DIMSOXD
 70
     0
  9
$DIMSAH
 70
     0
  9
$DIMBLK1
  1

  9
$DIMBLK2
  1

  9
$DIMSTYLE
  2
Standard
  9
$DIMCLRD
 70
     0
  9
$DIMCLRE
 70
     0
  9
$DIMCLRT
 70
     0
  9
$DIMTFAC
 40
1.0
  9
$DIMGAP
 40
0.09
  9
$DIMJUST
 70
     0
  9
$DIMSD1
 70
     0
  9
$DIMSD2
 70
     0
  9
$DIMTOLJ
 70
     1
  9
$DIMTZIN
 70
     0
  9
$DIMALTZ
 70
     0
  9
$DIMALTTZ
 70
     0
  9
$DIMUPT
 70
     0
  9
$DIMDEC
 70
     4
  9
$DIMTDEC
 70
     4
  9
$DIMALTU
 70
     2
  9
$DIMALTTD
 70
     2
  9
$DIMTXSTY
  7
Standard
  9
$DIMAUNIT
 70
     0
  9
$DIMADEC
 70
     0
  9
$DIMALTRND
 40
0.0
  9
$DIMAZIN
 70
     0
  9
$DIMDSEP
 70
     0
  9
$DIMATFIT
 70
     3
  9
$DIMFRAC
 70
     0
  9
$DIMLDRBLK
  1

  9
$DIMLUNIT
 70
     2
  9
$DIMLWD
 70
     0
  9
$DIMLWE
 70
     0
  9
$DIMTMOVE
 70
     0
  9
$LUNITS
 70
     2
  9
$LUPREC
 70
     4
  9
$SKETCHINC
 40
0.1
  9
$FILLETRAD
 40
0.0
  9
$AUNITS
 70
     0
  9
$AUPREC
 70
     0
  9
$MENU
  1
acad
  9
$ELEVATION
 40
0.0
  9
$PELEVATION
 40
0.0
  9
$THICKNESS
 40
0.0
  9
$LIMCHECK
 70
     0
  9
$CHAMFERA
 40
0.0
  9
$CHAMFERB
 40
0.0
  9
$CHAMFERC
 40
0.0
  9
$CHAMFERD
 40
0.0
  9
$SKPOLY
 70
     0
  9
$TDCREATE
 40
2454257.554598519
  9
$TDUCREATE
 40
2454257.721265185
  9
$TDUPDATE
 40
2454263.499814815
  9
$TDUUPDATE
 40
2454263.666481482
  9
$TDINDWG
 40
0.0319645255
  9
$TDUSRTIMER
 40
0.0319645255
  9
$USRTIMER
 70
     1
  9
$ANGBASE
 50
0.0
  9
$ANGDIR
 70
     0
  9
$PDMODE
 70
     0
  9
$PDSIZE
 40
0.0
  9
$PLINEWID
 40
0.0
  9
$SPLFRAME
 70
     0
  9
$SPLINETYPE
 70
     6
  9
$SPLINESEGS
 70
     8
  9
$HANDSEED
  5
71
  9
$SURFTAB1
 70
     6
  9
$SURFTAB2
 70
     6
  9
$SURFTYPE
 70
     6
  9
$SURFU
 70
     6
  9
$SURFV
 70
     6
  9
$UCSBASE
  2

  9
$UCSNAME
  2

  9
$UCSORG
 10
0.0
 20
0.0
 30
0.0
  9
$UCSXDIR
 10
1.0
 20
0.0
 30
0.0
  9
$UCSYDIR
 10
0.0
 20
1.0
 30
0.0
  9
$UCSORTHOREF
  2

  9
$UCSORTHOVIEW
 70
     0
  9
$UCSORGTOP
 10
0.0
 20
0.0
 30
0.0
  9
$UCSORGBOTTOM
 10
0.0
 20
0.0
 30
0.0
  9
$UCSORGLEFT
 10
0.0
 20
0.0
 30
0.0
  9
$UCSORGRIGHT
 10
0.0
 20
0.0
 30
0.0
  9
$UCSORGFRONT
 10
0.0
 20
0.0
 30
0.0
  9
$UCSORGBACK
 10
0.0
 20
0.0
 30
0.0
  9
$PUCSBASE
  2

  9
$PUCSNAME
  2

  9
$PUCSORG
 10
0.0
 20
0.0
 30
0.0
  9
$PUCSXDIR
 10
1.0
 20
0.0
 30
0.0
  9
$PUCSYDIR
 10
0.0
 20
1.0
 30
0.0
  9
$PUCSORTHOREF
  2

  9
$PUCSORTHOVIEW
 70
     0
  9
$PUCSORGTOP
 10
0.0
 20
0.0
 30
0.0
  9
$PUCSORGBOTTOM
 10
0.0
 20
0.0
 30
0.0
  9
$PUCSORGLEFT
 10
0.0
 20
0.0
 30
0.0
  9
$PUCSORGRIGHT
 10
0.0
 20
0.0
 30
0.0
  9
$PUCSORGFRONT
 10
0.0
 20
0.0
 30
0.0
  9
$PUCSORGBACK
 10
0.0
 20
0.0
 30
0.0
  9
$USERI1
 70
     0
  9
$USERI2
 70
     0
  9
$USERI3
 70
     0
  9
$USERI4
 70
     0
  9
$USERI5
 70
     0
  9
$USERR1
 40
0.0
  9
$USERR2
 40
0.0
  9
$USERR3
 40
0.0
  9
$USERR4
 40
0.0
  9
$USERR5
 40
0.0
  9
$WORLDVIEW
 70
     1
  9
$SHADEDGE
 70
     3
  9
$SHADEDIF
 70
    70
  9
$TILEMODE
 70
     1
  9
$MAXACTVP
 70
    16
  9
$PINSBASE
 10
0.0
 20
0.0
 30
0.0
  9
$PLIMCHECK
 70
     0
  9
$PEXTMIN
 10
1.000000000000000E+20
 20
1.000000000000000E+20
 30
1.000000000000000E+20
  9
$PEXTMAX
 10
-1.000000000000000E+20
 20
-1.000000000000000E+20
 30
-1.000000000000000E+20
  9
$PLIMMIN
 10
0.0
 20
0.0
  9
$PLIMMAX
 10
12.0
 20
9.0
  9
$UNITMODE
 70
     0
  9
$VISRETAIN
 70
     0
  9
$PLINEGEN
 70
     1
  9
$PSLTSCALE
 70
     0
  9
$TREEDEPTH
 70
  3020
  9
$CMLSTYLE
  2
Standard
  9
$CMLJUST
 70
     0
  9
$CMLSCALE
 40
1.0
  9
$PROXYGRAPHICS
 70
     0
  9
$MEASUREMENT
 70
     1
  9
$CELWEIGHT
370
    -1
  9
$ENDCAPS
280
     0
  9
$JOINSTYLE
280
     0
  9
$LWDISPLAY
290
     0
  9
$INSUNITS
 70
     0
  9
$HYPERLINKBASE
  1

  9
$STYLESHEET
  1

  9
$XEDIT
290
     1
  9
$CEPSNTYPE
380
     0
  9
$PSTYLEMODE
290
     1
  9
$FINGERPRINTGUID
  2

  9
$VERSIONGUID
  2
{DAEDEF9E-993A-4688-85F4-0185C0D710AE}
  9
$EXTNAMES
290
     1
  9
$PSVPSCALE
 40
0.0
  9
$OLESTARTUP
290
     0
  0
ENDSEC
  0
SECTION
  2
CLASSES
  0
CLASS
  1
IMAGE
  2
AcDbRasterImage
  3
ISM
 90
    32895
280
     0
281
     1
  0
CLASS
  1
DICTIONARYVAR
  2
AcDbDictionaryVar
  3
ObjectDBX Classes
 90
        0
280
     0
281
     0
  0
CLASS
  1
RASTERVARIABLES
  2
AcDbRasterVariables
  3
ISM
 90
    32768
280
     0
281
     0
  0
CLASS
  1
IMAGEDEF
  2
AcDbRasterImageDef
  3
ISM
 90
    32768
280
     0
281
     0
  0
CLASS
  1
IMAGEDEF_REACTOR
  2
AcDbRasterImageDefReactor
  3
ISM
 90
    32769
280
     0
281
     0
  0
CLASS
  1
IDBUFFER
  2
AcDbIdBuffer
  3
ObjectDBX Classes
 90
    32768
280
     0
281
     0
  0
CLASS
  1
SPATIAL_FILTER
  2
AcDbSpatialFilter
  3
ObjectDBX Classes
 90
    32768
280
     0
281
     0
  0
CLASS
  1
SORTENTSTABLE
  2
AcDbSortentsTable
  3
ObjectDBX Classes
 90
    32768
280
     0
281
     0
  0
CLASS
  1
LAYER_INDEX
  2
AcDbLayerIndex
  3
ObjectDBX Classes
 90
    32768
280
     0
281
     0
  0
CLASS
  1
SPATIAL_INDEX
  2
AcDbSpatialIndex
  3
ObjectDBX Classes
 90
    32768
280
     0
281
     0
  0
CLASS
  1
OBJECT_PTR
  2
CAseDLPNTableRecord
  3
ASE-LPNTableRecord
 90
    32769
280
     0
281
     0
  0
CLASS
  1
LAYOUT
  2
AcDbLayout
  3
ObjectDBX Classes
 90
        0
280
     0
281
     0
  0
CLASS
  1
PLOTSETTINGS
  2
AcDbPlotSettings
  3
ObjectDBX Classes
 90
    32768
280
     0
281
     0
  0
CLASS
  1
ACDBDICTIONARYWDFLT
  2
AcDbDictionaryWithDefault
  3
ObjectDBX Classes
 90
        0
280
     0
281
     0
  0
CLASS
  1
ACDBPLACEHOLDER
  2
AcDbPlaceHolder
  3
ObjectDBX Classes
 90
        0
280
     0
281
     0
  0
CLASS
  1
VBA_PROJECT
  2
AcDbVbaProject
  3
acad
 90
    32768
280
     0
281
     0
  0
CLASS
  1
WIPEOUT
  2
AcDbWipeout
  3
"WipeOut|Product Desc: Object Enabler for WipeOut entity^I^I^I^I^I^I|Company: Autodesk, Inc.^I^I^I^I^I^I|WEB Address: www.autodesk.com"
 90
    32895
280
     0
281
     1
  0
CLASS
  1
WIPEOUTVARIABLES
  2
AcDbWipeoutVariables
  3
"WipeOut|Product Desc:     WipeOut Dbx Application|Company:          Autodesk, Inc.|WEB Address:      www.autodesk.com"
 90
    32768
280
     0
281
     0
  0
CLASS
  1
RTEXT
  2
RText
  3
RText|AutoCAD Express Tool|expresstools@autodesk.com
 90
    32768
280
     1
281
     1
  0
CLASS
  1
ARCALIGNEDTEXT
  2
AcDbArcAlignedText
  3
ATEXT|AutoCAD Express Tool|expresstools@autodesk.com
 90
    32768
280
     1
281
     1
  0
ENDSEC
  0
SECTION
  2
TABLES
  0
TABLE
  2
VPORT
  5
5A
330
0
100
AcDbSymbolTable
 70
     1
  0
VPORT
  5
5B
330
5A
100
AcDbSymbolTableRecord
100
AcDbViewportTableRecord
  2
*Active
 70
     0
 10
0.0
 20
0.0
 11
1.0
 21
1.0
 12
86.61741061802462
 22
136.8048320302186
 13
0.0
 23
0.0
 14
1.0
 24
1.0
 15
0.0
 25
0.0
 16
0.0
 26
0.0
 36
1.0
 17
0.0
 27
0.0
 37
0.0
 40
54.84376730789453
 41
1.974155069582504
 42
50.0
 43
0.0
 44
0.0
 50
0.0
 51
0.0
 71
     0
 72
   100
 73
     1
 74
     1
 75
     0
 76
     0
 77
     0
 78
     0
281
     0
 65
     0
110
0.0
120
0.0
130
0.0
111
1.0
121
0.0
131
0.0
112
0.0
122
1.0
132
0.0
 79
     0
146
0.0
  0
ENDTAB
  0
TABLE
  2
LTYPE
  5
55
330
0
100
AcDbSymbolTable
 70
     1
  0
LTYPE
  5
56
330
55
100
AcDbSymbolTableRecord
100
AcDbLinetypeTableRecord
  2
ByBlock
 70
     0
  3

 72
    65
 73
     0
 40
0.0
  0
LTYPE
  5
57
330
55
100
AcDbSymbolTableRecord
100
AcDbLinetypeTableRecord
  2
ByLayer
 70
     0
  3

 72
    65
 73
     0
 40
0.0
  0
LTYPE
  5
8
330
55
100
AcDbSymbolTableRecord
100
AcDbLinetypeTableRecord
  2
Continuous
 70
     0
  3
Solid line
 72
    65
 73
     0
 40
0.0
  0
ENDTAB
  0
TABLE
  2
LAYER
  5
52
330
0
100
AcDbSymbolTable
 70
     4
  0
LAYER
  5
4
330
52
100
AcDbSymbolTableRecord
100
AcDbLayerTableRecord
  2
0
 70
     0
 62
     7
  6
Continuous
370
    -3
390
5
  0
LAYER
  5
A
330
52
100
AcDbSymbolTableRecord
100
AcDbLayerTableRecord
  2
ADP1DETAIL
 70
     0
 62
     1
  6
Continuous
370
    -3
390
5
  0
LAYER
  5
29
330
52
100
AcDbSymbolTableRecord
100
AcDbLayerTableRecord
  2
ADPDIM
 70
     0
 62
     3
  6
Continuous
370
    -3
390
5
  0
LAYER
  5
36
330
52
100
AcDbSymbolTableRecord
100
AcDbLayerTableRecord
  2
Defpoints
 70
     0
 62
     7
  6
Continuous
290
     0
370
    -3
390
5
  0
ENDTAB
  0
TABLE
  2
STYLE
  5
53
330
0
100
AcDbSymbolTable
 70
     2
  0
STYLE
  5
2A
330
53
100
AcDbSymbolTableRecord
100
AcDbTextStyleTableRecord
  2
Standard
 70
     0
 40
0.0
 41
1.0
 50
0.0
 71
     0
 42
0.0
  3
txt
  4

  0
STYLE
  5
4A
330
53
100
AcDbSymbolTableRecord
100
AcDbTextStyleTableRecord
  2
ARIAL_WIDE
 70
     0
 40
0.0
 41
1.25
 50
0.0
 71
     0
 42
0.2
  3
ARIAL.TTF
  4

1001
ACAD
1000
Arial
1071
       34
  0
ENDTAB
  0
TABLE
  2
VIEW
  5
58
330
0
100
AcDbSymbolTable
 70
     0
  0
ENDTAB
  0
TABLE
  2
UCS
  5
59
330
0
100
AcDbSymbolTable
 70
     0
  0
ENDTAB
  0
TABLE
  2
APPID
  5
5C
330
0
100
AcDbSymbolTable
 70
     1
  0
APPID
  5
3A
330
5C
100
AcDbSymbolTableRecord
100
AcDbRegAppTableRecord
  2
ACAD
 70
     0
  0
ENDTAB
  0
TABLE
  2
DIMSTYLE
  5
5D
330
0
100
AcDbSymbolTable
 70
     1
100
AcDbDimStyleTable
 71
     1
340
2B
  0
DIMSTYLE
105
2B
102
{ACAD_REACTORS
330
28
330
3B
102
}
330
5D
100
AcDbSymbolTableRecord
100
AcDbDimStyleTableRecord
  2
Standard
 70
     0
340
2A
  0
ENDTAB
  0
TABLE
  2
BLOCK_RECORD
  5
1
330
0
100
AcDbSymbolTable
 70
     2
  0
BLOCK_RECORD
  5
2
330
1
100
AcDbSymbolTableRecord
100
AcDbBlockTableRecord
  2
*MODEL_SPACE
340
4C
  0
BLOCK_RECORD
  5
4E
330
1
100
AcDbSymbolTableRecord
100
AcDbBlockTableRecord
  2
*PAPER_SPACE
340
51
  0
BLOCK_RECORD
  5
2C
330
1
100
AcDbSymbolTableRecord
100
AcDbBlockTableRecord
  2
*D0
340
0
  0
BLOCK_RECORD
  5
3C
330
1
100
AcDbSymbolTableRecord
100
AcDbBlockTableRecord
  2
*D1
340
0
  0
ENDTAB
  0
ENDSEC
  0
SECTION
  2
BLOCKS
  0
BLOCK
  5
3
330
2
100
AcDbEntity
  8
0
100
AcDbBlockBegin
  2
*MODEL_SPACE
 70
     0
 10
0.0
 20
0.0
 30
0.0
  3
*MODEL_SPACE
  1

  0
ENDBLK
  5
4B
330
2
100
AcDbEntity
  8
0
100
AcDbBlockEnd
  0
BLOCK
  5
4F
330
4E
100
AcDbEntity
 67
     1
  8
0
100
AcDbBlockBegin
  2
*PAPER_SPACE
 70
     0
 10
0.0
 20
0.0
 30
0.0
  3
*PAPER_SPACE
  1

  0
ENDBLK
  5
50
330
4E
100
AcDbEntity
 67
     1
  8
0
100
AcDbBlockEnd
  0
BLOCK
  5
2D
330
2C
100
AcDbEntity
  8
0
370
     0
100
AcDbBlockBegin
  2
*D0
 70
     1
 10
0.0
 20
0.0
 30
0.0
  3
*D0
  1

  0
LINE
  5
2E
330
2C
100
AcDbEntity
  8
ADPDIM
  6
Continuous
 62
     0
370
     0
100
AcDbLine
 10
93.97759895455147
 20
162.1823605251766
 30
0.0
 11
95.62798170835625
 21
162.1823605251766
 31
0.0
  0
LINE
  5
2F
330
2C
100
AcDbEntity
  8
ADPDIM
  6
Continuous
 62
     0
370
     0
100
AcDbLine
 10
94.00360657480097
 20
120.1839279516857
 30
0.0
 11
95.62798170835625
 21
120.1839279516857
 31
0.0
  0
LINE
  5
30
330
2C
100
AcDbEntity
  8
ADPDIM
  6
Continuous
 62
     0
370
     0
100
AcDbLine
 10
95.44798170835624
 20
162.0023605251766
 30
0.0
 11
95.44798170835624
 21
141.1869224191988
 31
0.0
  0
LINE
  5
31
330
2C
100
AcDbEntity
  8
ADPDIM
  6
Continuous
 62
     0
370
     0
100
AcDbLine
 10
95.44798170835624
 20
120.3639279516857
 30
0.0
 11
95.44798170835624
 21
140.5069224191988
 31
0.0
  0
SOLID
  5
32
330
2C
100
AcDbEntity
  8
ADPDIM
  6
Continuous
 62
     0
370
     0
100
AcDbTrace
 10
95.41798170835624
 20
162.0023605251766
 30
0.0
 11
95.47798170835624
 21
162.0023605251766
 31
0.0
 12
95.44798170835624
 22
162.1823605251766
 32
0.0
 13
95.44798170835624
 23
162.1823605251766
 33
0.0
  0
SOLID
  5
33
330
2C
100
AcDbEntity
  8
ADPDIM
  6
Continuous
 62
     0
370
     0
100
AcDbTrace
 10
95.41798170835624
 20
120.3639279516857
 30
0.0
 11
95.47798170835624
 21
120.3639279516857
 31
0.0
 12
95.44798170835624
 22
120.1839279516857
 32
0.0
 13
95.44798170835624
 23
120.1839279516857
 33
0.0
  0
MTEXT
  5
34
330
2C
100
AcDbEntity
  8
ADPDIM
  6
Continuous
 62
     0
370
     0
100
AcDbMText
 10
95.44798170835623
 20
140.8469224191988
 30
0.0
 40
0.5
 41
0.0
 71
     5
 72
     1
  1
\A1;42"
 73
     1
 44
1.0
1001
ACAD
1000
MTEXTBEGIN
1070
    73
1070
     1
1070
    44
1040
1.0
1070
    74
1070
     0
1000
MTEXTEND
  0
POINT
  5
35
330
2C
100
AcDbEntity
  8
Defpoints
  6
Continuous
 62
     0
370
     0
100
AcDbPoint
 10
93.91509895455147
 20
162.1823605251766
 30
0.0
  0
POINT
  5
37
330
2C
100
AcDbEntity
  8
Defpoints
  6
Continuous
 62
     0
370
     0
100
AcDbPoint
 10
93.94110657480098
 20
120.1839279516857
 30
0.0
  0
POINT
  5
38
330
2C
100
AcDbEntity
  8
Defpoints
  6
Continuous
 62
     0
370
     0
100
AcDbPoint
 10
95.44798170835624
 20
120.1839279516857
 30
0.0
  0
ENDBLK
  5
39
330
2C
100
AcDbEntity
  8
0
370
     0
100
AcDbBlockEnd
  0
BLOCK
  5
3D
330
3C
100
AcDbEntity
  8
0
370
     0
100
AcDbBlockBegin
  2
*D1
 70
     1
 10
0.0
 20
0.0
 30
0.0
  3
*D1
  1

  0
LINE
  5
3E
330
3C
100
AcDbEntity
  8
ADPDIM
  6
Continuous
 62
     0
370
     0
100
AcDbLine
 10
93.27548108214591
 20
119.6369119252219
 30
0.0
 11
93.27548108214591
 21
118.9679274896202
 31
0.0
  0
LINE
  5
3F
330
3C
100
AcDbEntity
  8
ADPDIM
  6
Continuous
 62
     0
370
     0
100
AcDbLine
 10
93.90848332115036
 20
119.6523019249865
 30
0.0
 11
93.90848332115036
 21
118.9679274896202
 31
0.0
  0
LINE
  5
40
330
3C
100
AcDbEntity
  8
ADPDIM
  6
Continuous
 62
     0
370
     0
100
AcDbLine
 10
93.45548108214591
 20
119.1479274896202
 30
0.0
 11
93.72848332115035
 21
119.1479274896202
 31
0.0
  0
LINE
  5
41
330
3C
100
AcDbEntity
  8
ADPDIM
  6
Continuous
 62
     0
370
     0
100
AcDbLine
 10
93.90848332115036
 20
119.1479274896202
 30
0.0
 11
94.08848332115036
 21
119.1479274896202
 31
0.0
  0
SOLID
  5
42
330
3C
100
AcDbEntity
  8
ADPDIM
  6
Continuous
 62
     0
370
     0
100
AcDbTrace
 10
93.45548108214591
 20
119.1779274896202
 30
0.0
 11
93.45548108214591
 21
119.1179274896202
 31
0.0
 12
93.27548108214591
 22
119.1479274896202
 32
0.0
 13
93.27548108214591
 23
119.1479274896202
 33
0.0
  0
SOLID
  5
43
330
3C
100
AcDbEntity
  8
ADPDIM
  6
Continuous
 62
     0
370
     0
100
AcDbTrace
 10
93.72848332115035
 20
119.1779274896202
 30
0.0
 11
93.72848332115035
 21
119.1179274896202
 31
0.0
 12
93.90848332115036
 22
119.1479274896202
 32
0.0
 13
93.90848332115036
 23
119.1479274896202
 33
0.0
  0
MTEXT
  5
44
330
3C
100
AcDbEntity
  8
ADPDIM
  6
Continuous
 62
     0
370
     0
100
AcDbMText
 10
95.01181665448369
 20
119.1479274896202
 30
0.0
 40
0.5
 41
0.0
 71
     5
 72
     1
  1
\A1;5/8"
 73
     1
 44
1.0
1001
ACAD
1000
MTEXTBEGIN
1070
    73
1070
     1
1070
    44
1040
1.0
1070
    74
1070
     0
1000
MTEXTEND
  0
POINT
  5
45
330
3C
100
AcDbEntity
  8
Defpoints
  6
Continuous
 62
     0
370
     0
100
AcDbPoint
 10
93.27548108214591
 20
119.6994119252219
 30
0.0
  0
POINT
  5
46
330
3C
100
AcDbEntity
  8
Defpoints
  6
Continuous
 62
     0
370
     0
100
AcDbPoint
 10
93.90848332115036
 20
119.7148019249865
 30
0.0
  0
POINT
  5
47
330
3C
100
AcDbEntity
  8
Defpoints
  6
Continuous
 62
     0
370
     0
100
AcDbPoint
 10
93.90848332115036
 20
119.1479274896202
 30
0.0
  0
ENDBLK
  5
48
330
3C
100
AcDbEntity
  8
0
370
     0
100
AcDbBlockEnd
  0
ENDSEC
  0
SECTION
  2
ENTITIES
  0
SPLINE
  5
9
330
2
100
AcDbEntity
  8
ADP1DETAIL
 62
     7
100
AcDbSpline
210
0.0
220
0.0
230
1.0
 70
    11
 71
     3
 72
    50
 73
    46
 74
     0
 42
0.0000000001
 43
0.0000000001
 40
0.0
 40
0.0
 40
0.0
 40
0.0
 40
1.0
 40
1.0
 40
1.0
 40
2.0
 40
2.0
 40
2.0
 40
3.0
 40
3.0
 40
3.0
 40
4.0
 40
4.0
 40
4.0
 40
5.0
 40
5.0
 40
5.0
 40
6.0
 40
6.0
 40
6.0
 40
7.0
 40
7.0
 40
7.0
 40
8.0
 40
8.0
 40
8.0
 40
9.0
 40
9.0
 40
9.0
 40
10.0
 40
10.0
 40
10.0
 40
11.0
 40
11.0
 40
11.0
 40
12.0
 40
12.0
 40
12.0
 40
13.0
 40
13.0
 40
13.0
 40
14.0
 40
14.0
 40
14.0
 40
15.0
 40
15.0
 40
15.0
 40
15.0
 10
92.89205333907995
 20
127.0458197699652
 30
0.0
 10
92.89205333907995
 20
127.0458197699652
 30
0.0
 10
93.02434500574662
 20
125.9823187934028
 30
0.0
 10
93.07963878829871
 20
124.8195990668403
 30
0.0
 10
93.07963878829871
 20
124.8195990668403
 30
0.0
 10
93.23949121885425
 20
120.1859456380208
 30
0.0
 10
93.23949121885425
 20
120.1859456380208
 30
0.0
 10
93.23949121885425
 20
120.1859456380208
 30
0.0
 10
93.96692313074662
 20
120.1859456380208
 30
0.0
 10
93.96692313074662
 20
120.1859456380208
 30
0.0
 10
93.96692313074662
 20
120.1859456380208
 30
0.0
 10
94.13917790505218
 20
124.8195990668403
 30
0.0
 10
94.13917790505218
 20
124.8195990668403
 30
0.0
 10
94.19447168760425
 20
125.9823187934028
 30
0.0
 10
94.32659109949662
 20
127.0458197699652
 30
0.0
 10
94.32659109949662
 20
127.0458197699652
 30
0.0
 10
94.35242931564244
 20
127.268372938368
 30
0.0
 10
94.35311833473967
 20
127.4957492404513
 30
0.0
 10
94.36569293326398
 20
127.7258816189236
 30
0.0
 10
94.37465018152787
 20
127.8874565972222
 30
0.0
 10
94.35673568500009
 20
128.1620307074653
 30
0.0
 10
94.35673568500009
 20
128.1620307074653
 30
0.0
 10
94.35673568500009
 20
128.4128336588541
 30
0.0
 10
94.25958399229177
 20
128.6126491970486
 30
0.0
 10
94.0938748994098
 20
128.7432183159722
 30
0.0
 10
94.0938748994098
 20
128.7432183159722
 30
0.0
 10
93.94142942414941
 20
128.8562174479166
 30
0.0
 10
94.0661418807466
 20
129.0498318142361
 30
0.0
 10
94.0661418807466
 20
129.0498318142361
 30
0.0
 10
93.60932221928829
 20
129.0525878906249
 30
0.0
 10
93.60932221928829
 20
129.0525878906249
 30
0.0
 10
93.60932221928829
 20
129.0525878906249
 30
0.0
 10
93.15267481260425
 20
129.0498318142361
 30
0.0
 10
93.15267481260425
 20
129.0498318142361
 30
0.0
 10
93.27704275965286
 20
128.8562174479166
 30
0.0
 10
93.12494179394105
 20
128.7432183159722
 30
0.0
 10
93.12494179394105
 20
128.7432183159722
 30
0.0
 10
92.95923270105912
 20
128.6126491970486
 30
0.0
 10
92.86173649880216
 20
128.4128336588541
 30
0.0
 10
92.86173649880216
 20
128.1620307074653
 30
0.0
 10
92.86173649880216
 20
128.1620307074653
 30
0.0
 10
92.84416651182301
 20
127.8874565972222
 30
0.0
 10
92.8531237600869
 20
127.7258816189236
 30
0.0
 10
92.8656983586112
 20
127.4957492404513
 30
0.0
 10
92.86638737770841
 20
127.268372938368
 30
0.0
 10
92.89205333907995
 20
127.0458197699652
 30
0.0
  0
SPLINE
  5
B
330
2
100
AcDbEntity
  8
ADP1DETAIL
 62
     7
100
AcDbSpline
210
0.0
220
0.0
230
1.0
 70
    11
 71
     3
 72
    38
 73
    34
 74
     0
 42
0.0000000001
 43
0.0000000001
 40
0.0
 40
0.0
 40
0.0
 40
0.0
 40
1.0
 40
1.0
 40
1.0
 40
2.0
 40
2.0
 40
2.0
 40
3.0
 40
3.0
 40
3.0
 40
4.0
 40
4.0
 40
4.0
 40
5.0
 40
5.0
 40
5.0
 40
6.0
 40
6.0
 40
6.0
 40
7.0
 40
7.0
 40
7.0
 40
8.0
 40
8.0
 40
8.0
 40
9.0
 40
9.0
 40
9.0
 40
10.0
 40
10.0
 40
10.0
 40
11.0
 40
11.0
 40
11.0
 40
11.0
 10
94.41220172232648
 20
130.5377685546875
 30
0.0
 10
94.28766152050355
 20
130.5377685546875
 30
0.0
 10
94.02462848013898
 20
130.6831515842013
 30
0.0
 10
94.01067584342023
 20
131.0059570312499
 30
0.0
 10
93.99689546147579
 20
131.3291069878472
 30
0.0
 10
94.26010075661467
 20
131.4097222222222
 30
0.0
 10
94.26010075661467
 20
131.5227213541666
 30
0.0
 10
94.26010075661467
 20
131.6357204861111
 30
0.0
 10
94.02462848013898
 20
131.7325276692708
 30
0.0
 10
94.02462848013898
 20
131.7325276692708
 30
0.0
 10
94.02462848013898
 20
131.7325276692708
 30
0.0
 10
93.60932221928829
 20
131.7325276692708
 30
0.0
 10
93.60932221928829
 20
131.7325276692708
 30
0.0
 10
93.60932221928829
 20
131.7325276692708
 30
0.0
 10
93.60932221928829
 20
131.7325276692708
 30
0.0
 10
93.60932221928829
 20
131.7325276692708
 30
0.0
 10
93.60932221928829
 20
131.7325276692708
 30
0.0
 10
93.19418821321191
 20
131.7325276692708
 30
0.0
 10
93.19418821321191
 20
131.7325276692708
 30
0.0
 10
93.19418821321191
 20
131.7325276692708
 30
0.0
 10
92.9587159367362
 20
131.6357204861111
 30
0.0
 10
92.9587159367362
 20
131.5227213541666
 30
0.0
 10
92.9587159367362
 20
131.4097222222222
 30
0.0
 10
93.22174897710079
 20
131.3291069878472
 30
0.0
 10
93.20796859515635
 20
131.0059570312499
 30
0.0
 10
93.19418821321191
 20
130.6831515842013
 30
0.0
 10
92.9311551728473
 20
130.5377685546875
 30
0.0
 10
92.80661497102441
 20
130.5377685546875
 30
0.0
 10
92.80661497102441
 20
130.5377685546875
 30
0.0
 10
93.60932221928829
 20
130.5377685546875
 30
0.0
 10
93.60932221928829
 20
130.5377685546875
 30
0.0
 10
93.60932221928829
 20
130.5377685546875
 30
0.0
 10
94.41220172232648
 20
130.5377685546875
 30
0.0
 10
94.41220172232648
 20
130.5377685546875
 30
0.0
  0
SPLINE
  5
C
330
2
100
AcDbEntity
  8
ADP1DETAIL
 62
     7
100
AcDbSpline
210
0.0
220
0.0
230
1.0
 70
    11
 71
     3
 72
    38
 73
    34
 74
     0
 42
0.0000000001
 43
0.0000000001
 40
0.0
 40
0.0
 40
0.0
 40
0.0
 40
1.0
 40
1.0
 40
1.0
 40
2.0
 40
2.0
 40
2.0
 40
3.0
 40
3.0
 40
3.0
 40
4.0
 40
4.0
 40
4.0
 40
5.0
 40
5.0
 40
5.0
 40
6.0
 40
6.0
 40
6.0
 40
7.0
 40
7.0
 40
7.0
 40
8.0
 40
8.0
 40
8.0
 40
9.0
 40
9.0
 40
9.0
 40
10.0
 40
10.0
 40
10.0
 40
11.0
 40
11.0
 40
11.0
 40
11.0
 10
94.41220172232648
 20
130.2473470052083
 30
0.0
 10
94.28766152050355
 20
130.2473470052083
 30
0.0
 10
94.02462848013898
 20
130.1019639756944
 30
0.0
 10
94.01067584342023
 20
129.7791585286458
 30
0.0
 10
93.99689546147579
 20
129.4560085720486
 30
0.0
 10
94.26010075661467
 20
129.3753933376736
 30
0.0
 10
94.26010075661467
 20
129.2623942057291
 30
0.0
 10
94.26010075661467
 20
129.1493950737847
 30
0.0
 10
94.02462848013898
 20
129.0525878906249
 30
0.0
 10
94.02462848013898
 20
129.0525878906249
 30
0.0
 10
94.02462848013898
 20
129.0525878906249
 30
0.0
 10
93.60932221928829
 20
129.0525878906249
 30
0.0
 10
93.60932221928829
 20
129.0525878906249
 30
0.0
 10
93.60932221928829
 20
129.0525878906249
 30
0.0
 10
93.60932221928829
 20
129.0525878906249
 30
0.0
 10
93.60932221928829
 20
129.0525878906249
 30
0.0
 10
93.60932221928829
 20
129.0525878906249
 30
0.0
 10
93.19418821321191
 20
129.0525878906249
 30
0.0
 10
93.19418821321191
 20
129.0525878906249
 30
0.0
 10
93.19418821321191
 20
129.0525878906249
 30
0.0
 10
92.9587159367362
 20
129.1493950737847
 30
0.0
 10
92.9587159367362
 20
129.2623942057291
 30
0.0
 10
92.9587159367362
 20
129.3753933376736
 30
0.0
 10
93.22174897710079
 20
129.4560085720486
 30
0.0
 10
93.20796859515635
 20
129.7791585286458
 30
0.0
 10
93.19418821321191
 20
130.1019639756944
 30
0.0
 10
92.9311551728473
 20
130.2473470052083
 30
0.0
 10
92.80661497102441
 20
130.2473470052083
 30
0.0
 10
92.80661497102441
 20
130.2473470052083
 30
0.0
 10
93.60932221928829
 20
130.2473470052083
 30
0.0
 10
93.60932221928829
 20
130.2473470052083
 30
0.0
 10
93.60932221928829
 20
130.2473470052083
 30
0.0
 10
94.41220172232648
 20
130.2473470052083
 30
0.0
 10
94.41220172232648
 20
130.2473470052083
 30
0.0
  0
POLYLINE
  5
D
330
2
100
AcDbEntity
  8
ADP1DETAIL
 62
     7
100
AcDb2dPolyline
 66
     1
 10
0.0
 20
0.0
 30
0.0
 70
     1
  0
VERTEX
  5
E
330
D
100
AcDbEntity
  8
ADP1DETAIL
 62
     7
100
AcDbVertex
100
AcDb2dVertex
 10
94.41220172232648
 20
130.2473470052083
 30
0.0
  0
VERTEX
  5
F
330
D
100
AcDbEntity
  8
ADP1DETAIL
 62
     7
100
AcDbVertex
100
AcDb2dVertex
 10
94.41220172232648
 20
130.5377685546875
 30
0.0
  0
VERTEX
  5
10
330
D
100
AcDbEntity
  8
ADP1DETAIL
 62
     7
100
AcDbVertex
100
AcDb2dVertex
 10
92.80661497102441
 20
130.5377685546875
 30
0.0
  0
VERTEX
  5
11
330
D
100
AcDbEntity
  8
ADP1DETAIL
 62
     7
100
AcDbVertex
100
AcDb2dVertex
 10
92.80661497102441
 20
130.2473470052083
 30
0.0
  0
SEQEND
  5
12
330
D
100
AcDbEntity
  8
ADP1DETAIL
 62
     7
  0
LINE
  5
13
330
2
100
AcDbEntity
  8
ADP1DETAIL
 62
     7
100
AcDbLine
 10
92.9587159367362
 20
131.5227213541666
 30
0.0
 11
94.26010075661467
 21
131.5227213541666
 31
0.0
  0
LINE
  5
14
330
2
100
AcDbEntity
  8
ADP1DETAIL
 62
     7
100
AcDbLine
 10
92.9587159367362
 20
129.2623942057291
 30
0.0
 11
94.26010075661467
 21
129.2623942057291
 31
0.0
  0
LINE
  5
15
330
2
100
AcDbEntity
  8
ADP1DETAIL
 62
     7
100
AcDbLine
 10
94.41220172232648
 20
130.5353569878472
 30
0.0
 11
94.41220172232648
 21
130.2445909288194
 31
0.0
  0
LINE
  5
16
330
2
100
AcDbEntity
  8
ADP1DETAIL
 62
     7
100
AcDbLine
 10
93.01745481477439
 20
130.5377685546875
 30
0.0
 11
94.22892264246536
 21
130.5377685546875
 31
0.0
  0
LINE
  5
17
330
2
100
AcDbEntity
  8
ADP1DETAIL
 62
     7
100
AcDbLine
 10
93.01745481477439
 20
130.2473470052083
 30
0.0
 11
94.22892264246536
 21
130.2473470052083
 31
0.0
  0
SPLINE
  5
18
330
2
100
AcDbEntity
  8
ADP1DETAIL
 62
     7
100
AcDbSpline
210
0.0
220
0.0
230
1.0
 70
    11
 71
     3
 72
    92
 73
    88
 74
     0
 42
0.0000000001
 43
0.0000000001
 40
0.0
 40
0.0
 40
0.0
 40
0.0
 40
1.0
 40
1.0
 40
1.0
 40
2.0
 40
2.0
 40
2.0
 40
3.0
 40
3.0
 40
3.0
 40
4.0
 40
4.0
 40
4.0
 40
5.0
 40
5.0
 40
5.0
 40
6.0
 40
6.0
 40
6.0
 40
7.0
 40
7.0
 40
7.0
 40
8.0
 40
8.0
 40
8.0
 40
9.0
 40
9.0
 40
9.0
 40
10.0
 40
10.0
 40
10.0
 40
11.0
 40
11.0
 40
11.0
 40
12.0
 40
12.0
 40
12.0
 40
13.0
 40
13.0
 40
13.0
 40
14.0
 40
14.0
 40
14.0
 40
15.0
 40
15.0
 40
15.0
 40
16.0
 40
16.0
 40
16.0
 40
17.0
 40
17.0
 40
17.0
 40
18.0
 40
18.0
 40
18.0
 40
19.0
 40
19.0
 40
19.0
 40
20.0
 40
20.0
 40
20.0
 40
21.0
 40
21.0
 40
21.0
 40
22.0
 40
22.0
 40
22.0
 40
23.0
 40
23.0
 40
23.0
 40
24.0
 40
24.0
 40
24.0
 40
25.0
 40
25.0
 40
25.0
 40
26.0
 40
26.0
 40
26.0
 40
27.0
 40
27.0
 40
27.0
 40
28.0
 40
28.0
 40
28.0
 40
29.0
 40
29.0
 40
29.0
 40
29.0
 10
94.36569293326398
 20
133.0568223741319
 30
0.0
 10
94.35311833473967
 20
133.2869547526041
 30
0.0
 10
94.35242931564244
 20
133.5139865451388
 30
0.0
 10
94.32659109949662
 20
133.7368842230902
 30
0.0
 10
94.32659109949662
 20
133.7368842230902
 30
0.0
 10
94.19447168760425
 20
134.8003851996527
 30
0.0
 10
94.13917790505218
 20
135.9627604166666
 30
0.0
 10
94.13917790505218
 20
135.9627604166666
 30
0.0
 10
93.94315197189245
 20
141.1741563585069
 30
0.0
 10
93.94315197189245
 20
141.1741563585069
 30
0.0
 10
93.94315197189245
 20
141.1741563585069
 30
0.0
 10
93.94418550053828
 20
141.1750176323784
 30
0.0
 10
93.94418550053828
 20
141.1750176323784
 30
0.0
 10
93.94418550053828
 20
141.1750176323784
 30
0.0
 10
94.12384723013898
 20
146.3862413194444
 30
0.0
 10
94.12384723013898
 20
146.3862413194444
 30
0.0
 10
94.17931326746538
 20
147.5489610460069
 30
0.0
 10
94.31160493413203
 20
148.6126342773437
 30
0.0
 10
94.31160493413203
 20
148.6126342773437
 30
0.0
 10
94.33744315027785
 20
148.8350151909722
 30
0.0
 10
94.33813216937508
 20
149.0623914930555
 30
0.0
 10
94.35070676789939
 20
149.2925238715278
 30
0.0
 10
94.35949176138898
 20
149.453926595052
 30
0.0
 10
94.34192177440982
 20
149.7285007052951
 30
0.0
 10
94.34192177440982
 20
149.7285007052951
 30
0.0
 10
94.34192177440982
 20
149.9794759114583
 30
0.0
 10
94.24459782692718
 20
150.1792914496527
 30
0.0
 10
94.07871647927093
 20
150.3098605685764
 30
0.0
 10
94.07871647927093
 20
150.3098605685764
 30
0.0
 10
93.92661551355912
 20
150.4226874457465
 30
0.0
 10
94.05098346060773
 20
150.6168185763889
 30
0.0
 10
94.05098346060773
 20
150.6168185763889
 30
0.0
 10
93.5943360539237
 20
150.6168185763889
 30
0.0
 10
93.5943360539237
 20
150.6168185763889
 30
0.0
 10
93.5943360539237
 20
150.6168185763889
 30
0.0
 10
93.13751639246538
 20
150.6168185763889
 30
0.0
 10
93.13751639246538
 20
150.6168185763889
 30
0.0
 10
93.26205659428827
 20
150.4226874457465
 30
0.0
 10
93.10978337380218
 20
150.3098605685764
 30
0.0
 10
93.10978337380218
 20
150.3098605685764
 30
0.0
 10
92.94407428092023
 20
150.1792914496527
 30
0.0
 10
92.84675033343759
 20
149.9794759114583
 30
0.0
 10
92.84675033343759
 20
149.7285007052951
 30
0.0
 10
92.84675033343759
 20
149.7285007052951
 30
0.0
 10
92.82900809168411
 20
149.453926595052
 30
0.0
 10
92.8377930851737
 20
149.2925238715278
 30
0.0
 10
92.85053993847231
 20
149.0623914930555
 30
0.0
 10
92.85122895756954
 20
148.8350151909722
 30
0.0
 10
92.87706717371538
 20
148.6126342773437
 30
0.0
 10
92.87706717371538
 20
148.6126342773437
 30
0.0
 10
93.00918658560773
 20
147.5489610460069
 30
0.0
 10
93.06448036815982
 20
146.3862413194444
 30
0.0
 10
93.06448036815982
 20
146.3862413194444
 30
0.0
 10
93.25947277267371
 20
141.1741563585069
 30
0.0
 10
93.25947277267371
 20
141.1741563585069
 30
0.0
 10
93.25947277267371
 20
141.1741563585069
 30
0.0
 10
93.07963878829871
 20
135.9627604166666
 30
0.0
 10
93.07963878829871
 20
135.9627604166666
 30
0.0
 10
93.02434500574662
 20
134.8003851996527
 30
0.0
 10
92.89205333907995
 20
133.7368842230902
 30
0.0
 10
92.89205333907995
 20
133.7368842230902
 30
0.0
 10
92.86638737770841
 20
133.5139865451388
 30
0.0
 10
92.8656983586112
 20
133.2869547526041
 30
0.0
 10
92.8531237600869
 20
133.0568223741319
 30
0.0
 10
92.84416651182301
 20
132.8952473958333
 30
0.0
 10
92.86173649880216
 20
132.6206732855903
 30
0.0
 10
92.86173649880216
 20
132.6206732855903
 30
0.0
 10
92.86173649880216
 20
132.3698703342014
 30
0.0
 10
92.95923270105912
 20
132.1700547960069
 30
0.0
 10
93.12494179394105
 20
132.0394856770833
 30
0.0
 10
93.12494179394105
 20
132.0394856770833
 30
0.0
 10
93.27704275965286
 20
131.9264865451389
 30
0.0
 10
93.15267481260425
 20
131.7325276692708
 30
0.0
 10
93.15267481260425
 20
131.7325276692708
 30
0.0
 10
93.60932221928829
 20
131.7325276692708
 30
0.0
 10
93.60932221928829
 20
131.7325276692708
 30
0.0
 10
93.60932221928829
 20
131.7325276692708
 30
0.0
 10
94.0661418807466
 20
131.7325276692708
 30
0.0
 10
94.0661418807466
 20
131.7325276692708
 30
0.0
 10
93.94142942414941
 20
131.9264865451389
 30
0.0
 10
94.0938748994098
 20
132.0394856770833
 30
0.0
 10
94.0938748994098
 20
132.0394856770833
 30
0.0
 10
94.25958399229177
 20
132.1700547960069
 30
0.0
 10
94.35673568500009
 20
132.3698703342014
 30
0.0
 10
94.35673568500009
 20
132.6206732855903
 30
0.0
 10
94.35673568500009
 20
132.6206732855903
 30
0.0
 10
94.37465018152787
 20
132.8952473958333
 30
0.0
 10
94.36569293326398
 20
133.0568223741319
 30
0.0
  0
SPLINE
  5
19
330
2
100
AcDbEntity
  8
ADP1DETAIL
 62
     7
100
AcDbSpline
210
0.0
220
0.0
230
1.0
 70
    11
 71
     3
 72
    50
 73
    46
 74
     0
 42
0.0000000001
 43
0.0000000001
 40
0.0
 40
0.0
 40
0.0
 40
0.0
 40
1.0
 40
1.0
 40
1.0
 40
2.0
 40
2.0
 40
2.0
 40
3.0
 40
3.0
 40
3.0
 40
4.0
 40
4.0
 40
4.0
 40
5.0
 40
5.0
 40
5.0
 40
6.0
 40
6.0
 40
6.0
 40
7.0
 40
7.0
 40
7.0
 40
8.0
 40
8.0
 40
8.0
 40
9.0
 40
9.0
 40
9.0
 40
10.0
 40
10.0
 40
10.0
 40
11.0
 40
11.0
 40
11.0
 40
12.0
 40
12.0
 40
12.0
 40
13.0
 40
13.0
 40
13.0
 40
14.0
 40
14.0
 40
14.0
 40
15.0
 40
15.0
 40
15.0
 40
15.0
 10
94.31160493413203
 20
155.3031819661458
 30
0.0
 10
94.31160493413203
 20
155.3031819661458
 30
0.0
 10
94.17931326746538
 20
156.3670274522569
 30
0.0
 10
94.12384723013898
 20
157.5294026692708
 30
0.0
 10
94.12384723013898
 20
157.5294026692708
 30
0.0
 10
93.96399479958343
 20
162.1634006076388
 30
0.0
 10
93.96399479958343
 20
162.1634006076388
 30
0.0
 10
93.96399479958343
 20
162.1634006076388
 30
0.0
 10
93.23673514246536
 20
162.1634006076388
 30
0.0
 10
93.23673514246536
 20
162.1634006076388
 30
0.0
 10
93.23673514246536
 20
162.1634006076388
 30
0.0
 10
93.06448036815982
 20
157.5294026692708
 30
0.0
 10
93.06448036815982
 20
157.5294026692708
 30
0.0
 10
93.00918658560773
 20
156.3670274522569
 30
0.0
 10
92.87706717371538
 20
155.3031819661458
 30
0.0
 10
92.87706717371538
 20
155.3031819661458
 30
0.0
 10
92.85122895756954
 20
155.0808010525173
 30
0.0
 10
92.85053993847231
 20
154.8532524956597
 30
0.0
 10
92.8377930851737
 20
154.6232923719618
 30
0.0
 10
92.82900809168411
 20
154.4618896484375
 30
0.0
 10
92.84675033343759
 20
154.1873155381944
 30
0.0
 10
92.84675033343759
 20
154.1873155381944
 30
0.0
 10
92.84675033343759
 20
153.9366848415798
 30
0.0
 10
92.94407428092023
 20
153.7368693033854
 30
0.0
 10
93.10978337380218
 20
153.6061279296875
 30
0.0
 10
93.10978337380218
 20
153.6061279296875
 30
0.0
 10
93.26205659428827
 20
153.493128797743
 30
0.0
 10
93.13751639246538
 20
153.2993421766493
 30
0.0
 10
93.13751639246538
 20
153.2993421766493
 30
0.0
 10
93.5943360539237
 20
153.296930609809
 30
0.0
 10
93.5943360539237
 20
153.296930609809
 30
0.0
 10
93.5943360539237
 20
153.296930609809
 30
0.0
 10
94.05098346060773
 20
153.2993421766493
 30
0.0
 10
94.05098346060773
 20
153.2993421766493
 30
0.0
 10
93.92661551355912
 20
153.493128797743
 30
0.0
 10
94.07871647927093
 20
153.6061279296875
 30
0.0
 10
94.07871647927093
 20
153.6061279296875
 30
0.0
 10
94.24459782692718
 20
153.7368693033854
 30
0.0
 10
94.34192177440982
 20
153.9366848415798
 30
0.0
 10
94.34192177440982
 20
154.1873155381944
 30
0.0
 10
94.34192177440982
 20
154.1873155381944
 30
0.0
 10
94.35949176138898
 20
154.4618896484375
 30
0.0
 10
94.35070676789939
 20
154.6232923719618
 30
0.0
 10
94.33813216937508
 20
154.8532524956597
 30
0.0
 10
94.33744315027785
 20
155.0808010525173
 30
0.0
 10
94.31160493413203
 20
155.3031819661458
 30
0.0
  0
SPLINE
  5
1A
330
2
100
AcDbEntity
  8
ADP1DETAIL
 62
     7
100
AcDbSpline
210
0.0
220
0.0
230
1.0
 70
    11
 71
     3
 72
    38
 73
    34
 74
     0
 42
0.0000000001
 43
0.0000000001
 40
0.0
 40
0.0
 40
0.0
 40
0.0
 40
1.0
 40
1.0
 40
1.0
 40
2.0
 40
2.0
 40
2.0
 40
3.0
 40
3.0
 40
3.0
 40
4.0
 40
4.0
 40
4.0
 40
5.0
 40
5.0
 40
5.0
 40
6.0
 40
6.0
 40
6.0
 40
7.0
 40
7.0
 40
7.0
 40
8.0
 40
8.0
 40
8.0
 40
9.0
 40
9.0
 40
9.0
 40
10.0
 40
10.0
 40
10.0
 40
11.0
 40
11.0
 40
11.0
 40
11.0
 10
92.79145655088552
 20
151.8114054361979
 30
0.0
 10
92.91599675270843
 20
151.8114054361979
 30
0.0
 10
93.17902979307302
 20
151.666022406684
 30
0.0
 10
93.19281017501745
 20
151.3433892144097
 30
0.0
 10
93.2067628117362
 20
151.0200670030382
 30
0.0
 10
92.94372977137163
 20
150.9392795138888
 30
0.0
 10
92.94372977137163
 20
150.8262803819444
 30
0.0
 10
92.94372977137163
 20
150.7134535047743
 30
0.0
 10
93.17902979307302
 20
150.6168185763889
 30
0.0
 10
93.17902979307302
 20
150.6168185763889
 30
0.0
 10
93.17902979307302
 20
150.6168185763889
 30
0.0
 10
93.5943360539237
 20
150.6168185763889
 30
0.0
 10
93.5943360539237
 20
150.6168185763889
 30
0.0
 10
93.5943360539237
 20
150.6168185763889
 30
0.0
 10
93.5943360539237
 20
150.6168185763889
 30
0.0
 10
93.5943360539237
 20
150.6168185763889
 30
0.0
 10
93.5943360539237
 20
150.6168185763889
 30
0.0
 10
94.00964231477439
 20
150.6168185763889
 30
0.0
 10
94.00964231477439
 20
150.6168185763889
 30
0.0
 10
94.00964231477439
 20
150.6168185763889
 30
0.0
 10
94.24494233647578
 20
150.7134535047743
 30
0.0
 10
94.24494233647578
 20
150.8262803819444
 30
0.0
 10
94.24494233647578
 20
150.9392795138888
 30
0.0
 10
93.9819092961112
 20
151.0200670030382
 30
0.0
 10
93.99586193282996
 20
151.3433892144097
 30
0.0
 10
94.00964231477439
 20
151.666022406684
 30
0.0
 10
94.27250310036468
 20
151.8114054361979
 30
0.0
 10
94.39704330218759
 20
151.8114054361979
 30
0.0
 10
94.39704330218759
 20
151.8114054361979
 30
0.0
 10
93.5943360539237
 20
151.8114054361979
 30
0.0
 10
93.5943360539237
 20
151.8114054361979
 30
0.0
 10
93.5943360539237
 20
151.8114054361979
 30
0.0
 10
92.79145655088552
 20
151.8114054361979
 30
0.0
 10
92.79145655088552
 20
151.8114054361979
 30
0.0
  0
SPLINE
  5
1B
330
2
100
AcDbEntity
  8
ADP1DETAIL
 62
     7
100
AcDbSpline
210
0.0
220
0.0
230
1.0
 70
    11
 71
     3
 72
    38
 73
    34
 74
     0
 42
0.0000000001
 43
0.0000000001
 40
0.0
 40
0.0
 40
0.0
 40
0.0
 40
1.0
 40
1.0
 40
1.0
 40
2.0
 40
2.0
 40
2.0
 40
3.0
 40
3.0
 40
3.0
 40
4.0
 40
4.0
 40
4.0
 40
5.0
 40
5.0
 40
5.0
 40
6.0
 40
6.0
 40
6.0
 40
7.0
 40
7.0
 40
7.0
 40
8.0
 40
8.0
 40
8.0
 40
9.0
 40
9.0
 40
9.0
 40
10.0
 40
10.0
 40
10.0
 40
11.0
 40
11.0
 40
11.0
 40
11.0
 10
92.79145655088552
 20
152.101826985677
 30
0.0
 10
92.91599675270843
 20
152.101826985677
 30
0.0
 10
93.17902979307302
 20
152.2472100151909
 30
0.0
 10
93.19281017501745
 20
152.5700154622396
 30
0.0
 10
93.2067628117362
 20
152.8929931640625
 30
0.0
 10
92.94372977137163
 20
152.9736083984374
 30
0.0
 10
92.94372977137163
 20
153.0867797851562
 30
0.0
 10
92.94372977137163
 20
153.199951171875
 30
0.0
 10
93.17902979307302
 20
153.296930609809
 30
0.0
 10
93.17902979307302
 20
153.296930609809
 30
0.0
 10
93.17902979307302
 20
153.296930609809
 30
0.0
 10
93.5943360539237
 20
153.296930609809
 30
0.0
 10
93.5943360539237
 20
153.296930609809
 30
0.0
 10
93.5943360539237
 20
153.296930609809
 30
0.0
 10
93.5943360539237
 20
153.296930609809
 30
0.0
 10
93.5943360539237
 20
153.296930609809
 30
0.0
 10
93.5943360539237
 20
153.296930609809
 30
0.0
 10
94.00964231477439
 20
153.296930609809
 30
0.0
 10
94.00964231477439
 20
153.296930609809
 30
0.0
 10
94.00964231477439
 20
153.296930609809
 30
0.0
 10
94.24494233647578
 20
153.199951171875
 30
0.0
 10
94.24494233647578
 20
153.0867797851562
 30
0.0
 10
94.24494233647578
 20
152.9736083984374
 30
0.0
 10
93.9819092961112
 20
152.8929931640625
 30
0.0
 10
93.99586193282996
 20
152.5700154622396
 30
0.0
 10
94.00964231477439
 20
152.2472100151909
 30
0.0
 10
94.27250310036468
 20
152.101826985677
 30
0.0
 10
94.39704330218759
 20
152.101826985677
 30
0.0
 10
94.39704330218759
 20
152.101826985677
 30
0.0
 10
93.5943360539237
 20
152.101826985677
 30
0.0
 10
93.5943360539237
 20
152.101826985677
 30
0.0
 10
93.5943360539237
 20
152.101826985677
 30
0.0
 10
92.79145655088552
 20
152.101826985677
 30
0.0
 10
92.79145655088552
 20
152.101826985677
 30
0.0
  0
POLYLINE
  5
1C
330
2
100
AcDbEntity
  8
ADP1DETAIL
 62
     7
100
AcDb2dPolyline
 66
     1
 10
0.0
 20
0.0
 30
0.0
 70
     1
  0
VERTEX
  5
1D
330
1C
100
AcDbEntity
  8
ADP1DETAIL
 62
     7
100
AcDbVertex
100
AcDb2dVertex
 10
92.79145655088552
 20
152.101826985677
 30
0.0
  0
VERTEX
  5
1E
330
1C
100
AcDbEntity
  8
ADP1DETAIL
 62
     7
100
AcDbVertex
100
AcDb2dVertex
 10
92.79145655088552
 20
151.8114054361979
 30
0.0
  0
VERTEX
  5
1F
330
1C
100
AcDbEntity
  8
ADP1DETAIL
 62
     7
100
AcDbVertex
100
AcDb2dVertex
 10
94.39704330218759
 20
151.8114054361979
 30
0.0
  0
VERTEX
  5
20
330
1C
100
AcDbEntity
  8
ADP1DETAIL
 62
     7
100
AcDbVertex
100
AcDb2dVertex
 10
94.39704330218759
 20
152.101826985677
 30
0.0
  0
SEQEND
  5
21
330
1C
100
AcDbEntity
  8
ADP1DETAIL
 62
     7
  0
LINE
  5
22
330
2
100
AcDbEntity
  8
ADP1DETAIL
 62
     7
100
AcDbLine
 10
94.24494233647578
 20
150.8262803819444
 30
0.0
 11
92.94372977137163
 21
150.8262803819444
 31
0.0
  0
LINE
  5
23
330
2
100
AcDbEntity
  8
ADP1DETAIL
 62
     7
100
AcDbLine
 10
94.24494233647578
 20
153.0867797851562
 30
0.0
 11
92.94372977137163
 21
153.0867797851562
 31
0.0
  0
LINE
  5
24
330
2
100
AcDbEntity
  8
ADP1DETAIL
 62
     7
100
AcDbLine
 10
92.79145655088552
 20
151.8139892578125
 30
0.0
 11
92.79145655088552
 21
152.1045830620659
 31
0.0
  0
LINE
  5
25
330
2
100
AcDbEntity
  8
ADP1DETAIL
 62
     7
100
AcDbLine
 10
94.18620345843759
 20
151.8114054361979
 30
0.0
 11
92.9745633759723
 21
151.8114054361979
 31
0.0
  0
LINE
  5
26
330
2
100
AcDbEntity
  8
ADP1DETAIL
 62
     7
100
AcDbLine
 10
94.18620345843759
 20
152.101826985677
 30
0.0
 11
92.9745633759723
 21
152.101826985677
 31
0.0
  0
CIRCLE
  5
27
330
2
100
AcDbEntity
  8
ADP1DETAIL
 62
     7
100
AcDbCircle
 10
93.59864242328134
 20
118.4504787868923
 30
0.0
 40
0.3136759440104166
  0
DIMENSION
  5
28
330
2
100
AcDbEntity
  8
ADPDIM
  6
Continuous
 62
     3
370
     0
100
AcDbDimension
  2
*D0
 10
95.44798170835624
 20
120.1839279516857
 30
0.0
 11
95.44798170835623
 21
140.8469224191988
 31
0.0
 70
   128
 71
     5
 42
41.99843257349091
  3
Standard
100
AcDbAlignedDimension
 13
93.91509895455147
 23
162.1823605251766
 33
0.0
 14
93.94110657480098
 24
120.1839279516857
 34
0.0
 50
90.0
100
AcDbRotatedDimension
1001
ACAD
1000
DSTYLE
1002
{
1070
     3
1000
"
1070
   276
1070
     2
1070
   277
1070
     5
1070
   140
1040
0.5
1070
   278
1070
     0
1070
   371
1070
     0
1070
   372
1070
     0
1002
}
  0
DIMENSION
  5
3B
330
2
100
AcDbEntity
  8
ADPDIM
  6
Continuous
 62
     3
370
     0
100
AcDbDimension
  2
*D1
 10
93.90848332115036
 20
119.1479274896202
 30
0.0
 11
95.01181665448369
 21
119.1479274896202
 31
0.0
 70
   128
 71
     5
 42
0.6330022390044406
  3
Standard
100
AcDbAlignedDimension
 13
93.27548108214591
 23
119.6994119252219
 33
0.0
 14
93.90848332115036
 24
119.7148019249865
 34
0.0
100
AcDbRotatedDimension
1001
ACAD
1000
DSTYLE
1002
{
1070
     3
1000
"
1070
   276
1070
     2
1070
   277
1070
     5
1070
   140
1040
0.5
1070
   278
1070
     0
1070
   371
1070
     0
1070
   372
1070
     0
1002
}
  0
TEXT
  5
49
330
2
100
AcDbEntity
  8
ADPDIM
100
AcDbText
 10
54.18677671321662
 20
111.6714811628976
 30
0.0
 40
0.75
  1
J U L I U S  B L U M  &  C O . ,  I N C .      ( 8 0 0 )  5 2 6 - 6 2 9 3        W W W . J U L I U S B L U M . C O M        P A R T  N o .  3 2 8 D L
 41
1.25
  7
ARIAL_WIDE
 72
     1
 11
93.9959939710611
 21
112.4214811628976
 31
0.0
100
AcDbText
 73
     3
  0
ENDSEC
  0
SECTION
  2
OBJECTS
  0
DICTIONARY
  5
7
330
0
100
AcDbDictionary
281
     1
  3
ACAD_COLOR
350
63
  3
ACAD_GROUP
350
5F
  3
ACAD_LAYOUT
350
4D
  3
ACAD_MATERIAL
350
62
  3
ACAD_MLINESTYLE
350
60
  3
ACAD_PLOTSETTINGS
350
61
  3
ACAD_PLOTSTYLENAME
350
6
  3
ACDBHEADERROUNDTRIPXREC
350
69
  3
AcDbVariableDictionary
350
65
  0
DICTIONARY
  5
63
102
{ACAD_REACTORS
330
7
102
}
330
7
100
AcDbDictionary
281
     1
  0
DICTIONARY
  5
5F
102
{ACAD_REACTORS
330
7
102
}
330
7
100
AcDbDictionary
281
     1
  0
DICTIONARY
  5
4D
102
{ACAD_REACTORS
330
7
102
}
330
7
100
AcDbDictionary
281
     1
  3
Layout1
350
51
  3
Model
350
4C
  0
DICTIONARY
  5
62
102
{ACAD_REACTORS
330
7
102
}
330
7
100
AcDbDictionary
281
     1
  0
DICTIONARY
  5
60
102
{ACAD_REACTORS
330
7
102
}
330
7
100
AcDbDictionary
281
     1
  3
Standard
350
64
  0
DICTIONARY
  5
61
102
{ACAD_REACTORS
330
7
102
}
330
7
100
AcDbDictionary
281
     1
  0
ACDBDICTIONARYWDFLT
  5
6
102
{ACAD_REACTORS
330
7
102
}
330
7
100
AcDbDictionary
281
     1
  3
Normal
350
5
100
AcDbDictionaryWithDefault
340
5
  0
DICTIONARY
  5
69
102
{ACAD_REACTORS
330
7
102
}
330
7
100
AcDbDictionary
281
     1
  3
COLORDICT
350
6B
  3
MATERIALDICT
350
6A
  0
DICTIONARY
  5
65
102
{ACAD_REACTORS
330
7
102
}
330
7
100
AcDbDictionary
281
     1
  3
DIMASSOC
350
67
  3
HIDETEXT
350
66
  3
PROJECTNAME
350
68
  0
LAYOUT
  5
51
102
{ACAD_XDICTIONARY
360
6F
102
}
102
{ACAD_REACTORS
330
4D
102
}
330
4D
100
AcDbPlotSettings
  1

  2

  4

  6

 40
0.0
 41
0.0
 42
0.0
 43
0.0
 44
0.0
 45
0.0
 46
0.0
 47
0.0
 48
0.0
 49
0.0
140
0.0
141
0.0
142
1.0
143
1.0
 70
     0
 72
     0
 73
     0
 74
     0
  7

 75
     0
147
1.0
148
0.0
149
0.0
100
AcDbLayout
  1
Layout1
 70
     0
 71
     1
 10
0.0
 20
0.0
 11
12.0
 21
9.0
 12
0.0
 22
0.0
 32
0.0
 14
1.000000000000000E+20
 24
1.000000000000000E+20
 34
1.000000000000000E+20
 15
-1.000000000000000E+20
 25
-1.000000000000000E+20
 35
-1.000000000000000E+20
146
0.0
 13
0.0
 23
0.0
 33
0.0
 16
1.0
 26
0.0
 36
0.0
 17
0.0
 27
1.0
 37
0.0
 76
     0
330
4E
  0
LAYOUT
  5
4C
102
{ACAD_XDICTIONARY
360
6D
102
}
102
{ACAD_REACTORS
330
4D
102
}
330
4D
100
AcDbPlotSettings
  1

  2

  4

  6

 40
0.0
 41
0.0
 42
0.0
 43
0.0
 44
0.0
 45
0.0
 46
0.0
 47
0.0
 48
0.0
 49
0.0
140
0.0
141
0.0
142
1.0
143
1.0
 70
  1024
 72
     0
 73
     0
 74
     0
  7

 75
     0
147
1.0
148
0.0
149
0.0
100
AcDbLayout
  1
Model
 70
     0
 71
     0
 10
0.0
 20
0.0
 11
0.0
 21
0.0
 12
0.0
 22
0.0
 32
0.0
 14
0.0
 24
0.0
 34
0.0
 15
0.0
 25
0.0
 35
0.0
146
0.0
 13
0.0
 23
0.0
 33
0.0
 16
0.0
 26
0.0
 36
0.0
 17
0.0
 27
0.0
 37
0.0
 76
     0
330
2
  0
MLINESTYLE
  5
64
102
{ACAD_REACTORS
330
60
102
}
330
60
100
AcDbMlineStyle
  2
STANDARD
 70
     0
  3

 62
     0
 51
90.0
 52
90.0
 71
     2
 49
0.5
 62
   256
  6
BYLAYER
 49
-0.5
 62
   256
  6
BYLAYER
  0
ACDBPLACEHOLDER
  5
5
102
{ACAD_REACTORS
330
6
102
}
330
6
  0
XRECORD
  5
6B
102
{ACAD_REACTORS
330
69
102
}
330
69
100
AcDbXrecord
280
     1
340
63
  0
XRECORD
  5
6A
102
{ACAD_REACTORS
330
69
102
}
330
69
100
AcDbXrecord
280
     1
340
62
  0
DICTIONARYVAR
  5
67
102
{ACAD_REACTORS
330
65
102
}
330
65
100
DictionaryVariables
280
     0
  1
1
  0
DICTIONARYVAR
  5
66
102
{ACAD_REACTORS
330
65
102
}
330
65
100
DictionaryVariables
280
     0
  1
1
  0
DICTIONARYVAR
  5
68
102
{ACAD_REACTORS
330
65
102
}
330
65
100
DictionaryVariables
280
     0
  1

  0
DICTIONARY
  5
6F
330
51
100
AcDbDictionary
280
     1
281
     1
  3
ACAD_XREC_ROUNDTRIP
360
70
  0
DICTIONARY
  5
6D
330
4C
100
AcDbDictionary
280
     1
281
     1
  3
ACAD_XREC_ROUNDTRIP
360
6E
  0
XRECORD
  5
70
102
{ACAD_REACTORS
330
6F
102
}
330
6F
100
AcDbXrecord
280
     1
102
SHADEPLOT
 70
     0
102
SHADEPLOTRESLEVEL
 70
     2
102
SHADEPLOTCUSTOMDPI
 70
   300
  0
XRECORD
  5
6E
102
{ACAD_REACTORS
330
6D
102
}
330
6D
100
AcDbXrecord
280
     1
102
SHADEPLOT
 70
     0
102
SHADEPLOTRESLEVEL
 70
     2
102
SHADEPLOTCUSTOMDPI
 70
   300
  0
ENDSEC
  0
EOF
