  0
SECTION
  2
HEADER
  9
$ACADVER
  1
AC1015
  9
$ACADMAINTVER
 70
    20
  9
$DWGCODEPAGE
  3
ANSI_1252
  9
$INSBASE
 10
34.676457595138
 20
3.345808504864187
 30
0.0
  9
$EXTMIN
 10
2.191055485754503
 20
1.077504907680847
 30
0.0
  9
$EXTMAX
 10
66.53813086092504
 20
40.34580850486419
 30
0.0
  9
$LIMMIN
 10
0.0
 20
0.0
  9
$LIMMAX
 10
36.0
 20
36.0
  9
$ORTHOMODE
 70
     0
  9
$REGENMODE
 70
     1
  9
$FILLMODE
 70
     1
  9
$QTEXTMODE
 70
     0
  9
$MIRRTEXT
 70
     1
  9
$LTSCALE
 40
1.0
  9
$ATTMODE
 70
     1
  9
$TEXTSIZE
 40
0.2
  9
$TRACEWID
 40
0.05
  9
$TEXTSTYLE
  7
STANDARD
  9
$CLAYER
  8
ADPDIM
  9
$CELTYPE
  6
BYLAYER
  9
$CECOLOR
 62
   256
  9
$CELTSCALE
 40
1.0
  9
$DISPSILH
 70
     0
  9
$DIMSCALE
 40
1.0
  9
$DIMASZ
 40
0.125
  9
$DIMEXO
 40
0.0625
  9
$DIMDLI
 40
0.38
  9
$DIMRND
 40
0.0
  9
$DIMDLE
 40
0.0
  9
$DIMEXE
 40
0.18
  9
$DIMTP
 40
0.0
  9
$DIMTM
 40
0.0
  9
$DIMTXT
 40
0.125
  9
$DIMCEN
 40
0.1875
  9
$DIMTSZ
 40
0.125
  9
$DIMTOL
 70
     0
  9
$DIMLIM
 70
     0
  9
$DIMTIH
 70
     0
  9
$DIMTOH
 70
     0
  9
$DIMSE1
 70
     0
  9
$DIMSE2
 70
     0
  9
$DIMTAD
 70
     0
  9
$DIMZIN
 70
     3
  9
$DIMBLK
  1

  9
$DIMASO
 70
     1
  9
$DIMSHO
 70
     1
  9
$DIMPOST
  1

  9
$DIMAPOST
  1

  9
$DIMALT
 70
     0
  9
$DIMALTD
 70
     1
  9
$DIMALTF
 40
25.4
  9
$DIMLFAC
 40
1.0
  9
$DIMTOFL
 70
     0
  9
$DIMTVP
 40
0.0
  9
$DIMTIX
 70
     0
  9
$DIMSOXD
 70
     0
  9
$DIMSAH
 70
     0
  9
$DIMBLK1
  1

  9
$DIMBLK2
  1

  9
$DIMSTYLE
  2
STANDARD
  9
$DIMCLRD
 70
     0
  9
$DIMCLRE
 70
     0
  9
$DIMCLRT
 70
     0
  9
$DIMTFAC
 40
1.0
  9
$DIMGAP
 40
0.125
  9
$DIMJUST
 70
     0
  9
$DIMSD1
 70
     0
  9
$DIMSD2
 70
     0
  9
$DIMTOLJ
 70
     1
  9
$DIMTZIN
 70
     0
  9
$DIMALTZ
 70
     0
  9
$DIMALTTZ
 70
     0
  9
$DIMUPT
 70
     0
  9
$DIMDEC
 70
     4
  9
$DIMTDEC
 70
     4
  9
$DIMALTU
 70
     2
  9
$DIMALTTD
 70
     2
  9
$DIMTXSTY
  7
STANDARD
  9
$DIMAUNIT
 70
     0
  9
$DIMADEC
 70
     0
  9
$DIMALTRND
 40
0.0
  9
$DIMAZIN
 70
     0
  9
$DIMDSEP
 70
    46
  9
$DIMATFIT
 70
     3
  9
$DIMFRAC
 70
     0
  9
$DIMLDRBLK
  1

  9
$DIMLUNIT
 70
     2
  9
$DIMLWD
 70
    -2
  9
$DIMLWE
 70
    -2
  9
$DIMTMOVE
 70
     0
  9
$LUNITS
 70
     5
  9
$LUPREC
 70
     4
  9
$SKETCHINC
 40
0.1
  9
$FILLETRAD
 40
0.062
  9
$AUNITS
 70
     0
  9
$AUPREC
 70
     0
  9
$MENU
  1
acad
  9
$ELEVATION
 40
0.0
  9
$PELEVATION
 40
0.0
  9
$THICKNESS
 40
0.0
  9
$LIMCHECK
 70
     0
  9
$CHAMFERA
 40
0.0
  9
$CHAMFERB
 40
0.0
  9
$CHAMFERC
 40
0.0
  9
$CHAMFERD
 40
0.0
  9
$SKPOLY
 70
     0
  9
$TDCREATE
 40
2450374.476740162
  9
$TDUCREATE
 40
2450374.643406829
  9
$TDUPDATE
 40
2453950.928940671
  9
$TDUUPDATE
 40
2453951.095607338
  9
$TDINDWG
 40
0.0775503935
  9
$TDUSRTIMER
 40
0.0775503935
  9
$USRTIMER
 70
     1
  9
$ANGBASE
 50
0.0
  9
$ANGDIR
 70
     0
  9
$PDMODE
 70
     0
  9
$PDSIZE
 40
0.0
  9
$PLINEWID
 40
0.0
  9
$SPLFRAME
 70
     0
  9
$SPLINETYPE
 70
     6
  9
$SPLINESEGS
 70
     8
  9
$HANDSEED
  5
2A6
  9
$SURFTAB1
 70
     6
  9
$SURFTAB2
 70
     6
  9
$SURFTYPE
 70
     6
  9
$SURFU
 70
     6
  9
$SURFV
 70
     6
  9
$UCSBASE
  2

  9
$UCSNAME
  2

  9
$UCSORG
 10
0.0
 20
0.0
 30
0.0
  9
$UCSXDIR
 10
1.0
 20
0.0
 30
0.0
  9
$UCSYDIR
 10
0.0
 20
1.0
 30
0.0
  9
$UCSORTHOREF
  2

  9
$UCSORTHOVIEW
 70
     0
  9
$UCSORGTOP
 10
0.0
 20
0.0
 30
0.0
  9
$UCSORGBOTTOM
 10
0.0
 20
0.0
 30
0.0
  9
$UCSORGLEFT
 10
0.0
 20
0.0
 30
0.0
  9
$UCSORGRIGHT
 10
0.0
 20
0.0
 30
0.0
  9
$UCSORGFRONT
 10
0.0
 20
0.0
 30
0.0
  9
$UCSORGBACK
 10
0.0
 20
0.0
 30
0.0
  9
$PUCSBASE
  2

  9
$PUCSNAME
  2

  9
$PUCSORG
 10
0.0
 20
0.0
 30
0.0
  9
$PUCSXDIR
 10
1.0
 20
0.0
 30
0.0
  9
$PUCSYDIR
 10
0.0
 20
1.0
 30
0.0
  9
$PUCSORTHOREF
  2

  9
$PUCSORTHOVIEW
 70
     0
  9
$PUCSORGTOP
 10
0.0
 20
0.0
 30
0.0
  9
$PUCSORGBOTTOM
 10
0.0
 20
0.0
 30
0.0
  9
$PUCSORGLEFT
 10
0.0
 20
0.0
 30
0.0
  9
$PUCSORGRIGHT
 10
0.0
 20
0.0
 30
0.0
  9
$PUCSORGFRONT
 10
0.0
 20
0.0
 30
0.0
  9
$PUCSORGBACK
 10
0.0
 20
0.0
 30
0.0
  9
$USERI1
 70
     0
  9
$USERI2
 70
     0
  9
$USERI3
 70
     0
  9
$USERI4
 70
     0
  9
$USERI5
 70
     0
  9
$USERR1
 40
0.0
  9
$USERR2
 40
0.0
  9
$USERR3
 40
0.0
  9
$USERR4
 40
0.0
  9
$USERR5
 40
0.0
  9
$WORLDVIEW
 70
     1
  9
$SHADEDGE
 70
     3
  9
$SHADEDIF
 70
    70
  9
$TILEMODE
 70
     1
  9
$MAXACTVP
 70
    15
  9
$PINSBASE
 10
0.0
 20
0.0
 30
0.0
  9
$PLIMCHECK
 70
     0
  9
$PEXTMIN
 10
1.000000000000000E+20
 20
1.000000000000000E+20
 30
1.000000000000000E+20
  9
$PEXTMAX
 10
-1.000000000000000E+20
 20
-1.000000000000000E+20
 30
-1.000000000000000E+20
  9
$PLIMMIN
 10
0.0
 20
0.0
  9
$PLIMMAX
 10
12.0
 20
9.0
  9
$UNITMODE
 70
     0
  9
$VISRETAIN
 70
     0
  9
$PLINEGEN
 70
     0
  9
$PSLTSCALE
 70
     1
  9
$TREEDEPTH
 70
  3020
  9
$CMLSTYLE
  2
STANDARD
  9
$CMLJUST
 70
     0
  9
$CMLSCALE
 40
1.0
  9
$PROXYGRAPHICS
 70
     1
  9
$MEASUREMENT
 70
     0
  9
$CELWEIGHT
370
    -1
  9
$ENDCAPS
280
     0
  9
$JOINSTYLE
280
     0
  9
$LWDISPLAY
290
     0
  9
$INSUNITS
 70
     0
  9
$HYPERLINKBASE
  1

  9
$STYLESHEET
  1

  9
$XEDIT
290
     1
  9
$CEPSNTYPE
380
     0
  9
$PSTYLEMODE
290
     1
  9
$FINGERPRINTGUID
  2
{33D35EB0-73C0-4C8D-8659-096BE0370D59}
  9
$VERSIONGUID
  2
{55FA0287-0C11-4759-A509-C682BDA3C7C4}
  9
$EXTNAMES
290
     1
  9
$PSVPSCALE
 40
0.0
  9
$OLESTARTUP
290
     0
  0
ENDSEC
  0
SECTION
  2
CLASSES
  0
CLASS
  1
ACDBDICTIONARYWDFLT
  2
AcDbDictionaryWithDefault
  3
ObjectDBX Classes
 90
        0
280
     0
281
     0
  0
CLASS
  1
ACDBPLACEHOLDER
  2
AcDbPlaceHolder
  3
ObjectDBX Classes
 90
        0
280
     0
281
     0
  0
CLASS
  1
LAYOUT
  2
AcDbLayout
  3
ObjectDBX Classes
 90
        0
280
     0
281
     0
  0
CLASS
  1
DICTIONARYVAR
  2
AcDbDictionaryVar
  3
ObjectDBX Classes
 90
        0
280
     0
281
     0
  0
CLASS
  1
MATERIAL
  2
AcDbMaterial
  3
ObjectDBX Classes
 90
     1024
280
     0
281
     0
  0
CLASS
  1
VISUALSTYLE
  2
AcDbVisualStyle
  3
ObjectDBX Classes
 90
     4095
280
     0
281
     0
  0
CLASS
  1
TABLESTYLE
  2
AcDbTableStyle
  3
ObjectDBX Classes
 90
     4095
280
     0
281
     0
  0
ENDSEC
  0
SECTION
  2
TABLES
  0
TABLE
  2
VPORT
  5
8
330
0
100
AcDbSymbolTable
 70
     1
  0
VPORT
  5
235
330
8
100
AcDbSymbolTableRecord
100
AcDbViewportTableRecord
  2
*Active
 70
     0
 10
0.0
 20
0.0
 11
1.0
 21
1.0
 12
35.92221186384696
 22
21.52005428913614
 13
0.0
 23
0.0
 14
0.5740882589684922
 24
0.5740882589684922
 15
0.5
 25
0.5
 16
0.0
 26
0.0
 36
1.0
 17
0.0
 27
0.0
 37
0.0
 40
51.9604949513448
 41
1.774011299435028
 42
50.0
 43
0.0
 44
0.0
 50
0.0
 51
0.0
 71
     0
 72
   100
 73
     1
 74
     0
 75
     0
 76
     0
 77
     0
 78
     0
281
     0
 65
     1
110
0.0
120
0.0
130
0.0
111
1.0
121
0.0
131
0.0
112
0.0
122
1.0
132
0.0
 79
     0
146
0.0
  0
ENDTAB
  0
TABLE
  2
LTYPE
  5
5
330
0
100
AcDbSymbolTable
 70
     1
  0
LTYPE
  5
12
330
5
100
AcDbSymbolTableRecord
100
AcDbLinetypeTableRecord
  2
BYBLOCK
 70
     0
  3

 72
    65
 73
     0
 40
0.0
  0
LTYPE
  5
13
330
5
100
AcDbSymbolTableRecord
100
AcDbLinetypeTableRecord
  2
BYLAYER
 70
     0
  3

 72
    65
 73
     0
 40
0.0
  0
LTYPE
  5
14
330
5
100
AcDbSymbolTableRecord
100
AcDbLinetypeTableRecord
  2
CONTINUOUS
 70
     0
  3
Solid line
 72
    65
 73
     0
 40
0.0
  0
ENDTAB
  0
TABLE
  2
LAYER
  5
2
330
0
100
AcDbSymbolTable
 70
     4
  0
LAYER
  5
F
330
2
100
AcDbSymbolTableRecord
100
AcDbLayerTableRecord
  2
0
 70
     0
 62
     7
  6
CONTINUOUS
370
    -3
390
BB
  0
LAYER
  5
62
330
2
100
AcDbSymbolTableRecord
100
AcDbLayerTableRecord
  2
ADPDIM
 70
     0
 62
     3
  6
CONTINUOUS
370
    -3
390
BB
  0
LAYER
  5
64
330
2
100
AcDbSymbolTableRecord
100
AcDbLayerTableRecord
  2
ADP1DETAIL
 70
     0
 62
     7
  6
CONTINUOUS
370
    -3
390
BB
  0
LAYER
  5
66
330
2
100
AcDbSymbolTableRecord
100
AcDbLayerTableRecord
  2
DEFPOINTS
 70
     0
 62
     7
  6
CONTINUOUS
290
     0
370
    -3
390
BB
  0
ENDTAB
  0
TABLE
  2
STYLE
  5
3
330
0
100
AcDbSymbolTable
 70
     2
  0
STYLE
  5
10
330
3
100
AcDbSymbolTableRecord
100
AcDbTextStyleTableRecord
  2
STANDARD
 70
     0
 40
0.0
 41
1.0
 50
0.0
 71
     0
 42
0.2
  3
txt
  4

  0
STYLE
  5
C2
330
3
100
AcDbSymbolTableRecord
100
AcDbTextStyleTableRecord
  2
ARIAL_WIDE
 70
     0
 40
0.0
 41
1.25
 50
0.0
 71
     0
 42
0.2
  3
ARIAL.TTF
  4

1001
ACAD
1000
Arial
1071
       34
  0
ENDTAB
  0
TABLE
  2
VIEW
  5
6
330
0
100
AcDbSymbolTable
 70
     0
  0
ENDTAB
  0
TABLE
  2
UCS
  5
7
330
0
100
AcDbSymbolTable
 70
     0
  0
ENDTAB
  0
TABLE
  2
APPID
  5
9
330
0
100
AcDbSymbolTable
 70
     1
  0
APPID
  5
11
330
9
100
AcDbSymbolTableRecord
100
AcDbRegAppTableRecord
  2
ACAD
 70
     0
  0
ENDTAB
  0
TABLE
  2
DIMSTYLE
  5
A
330
0
100
AcDbSymbolTable
 70
     1
100
AcDbDimStyleTable
 71
     0
  0
DIMSTYLE
105
B6
330
A
100
AcDbSymbolTableRecord
100
AcDbDimStyleTableRecord
  2
STANDARD
 70
     0
340
10
  0
ENDTAB
  0
TABLE
  2
BLOCK_RECORD
  5
1
330
0
100
AcDbSymbolTable
 70
     2
  0
BLOCK_RECORD
  5
18
102
{ACAD_XDICTIONARY
360
117
102
}
330
1
100
AcDbSymbolTableRecord
100
AcDbBlockTableRecord
  2
*MODEL_SPACE
340
BE
  0
BLOCK_RECORD
  5
15
102
{ACAD_XDICTIONARY
360
115
102
}
330
1
100
AcDbSymbolTableRecord
100
AcDbBlockTableRecord
  2
*PAPER_SPACE
340
BF
  0
BLOCK_RECORD
  5
55
330
1
100
AcDbSymbolTableRecord
100
AcDbBlockTableRecord
  2
*D0
340
0
  0
BLOCK_RECORD
  5
60
330
1
100
AcDbSymbolTableRecord
100
AcDbBlockTableRecord
  2
*D1
340
0
  0
ENDTAB
  0
ENDSEC
  0
SECTION
  2
BLOCKS
  0
BLOCK
  5
69
330
18
100
AcDbEntity
  8
0
100
AcDbBlockBegin
  2
*MODEL_SPACE
 70
     0
 10
0.0
 20
0.0
 30
0.0
  3
*MODEL_SPACE
  1

  0
ENDBLK
  5
6A
330
18
100
AcDbEntity
  8
0
100
AcDbBlockEnd
  0
BLOCK
  5
67
330
15
100
AcDbEntity
 67
     1
  8
0
100
AcDbBlockBegin
  2
*PAPER_SPACE
 70
     0
 10
0.0
 20
0.0
 30
0.0
  3
*PAPER_SPACE
  1

  0
ENDBLK
  5
68
330
15
100
AcDbEntity
 67
     1
  8
0
100
AcDbBlockEnd
  0
BLOCK
  5
6C
330
55
100
AcDbEntity
  8
0
100
AcDbBlockBegin
  2
*D0
 70
     1
 10
0.0
 20
0.0
 30
0.0
  3
*D0
  1

  0
LINE
  5
6D
330
55
100
AcDbEntity
  8
0
  6
ByBlock
 62
     0
100
AcDbLine
 10
34.051457595138
 20
39.40830850486419
 30
0.0
 11
34.051457595138
 21
39.80705850486419
 31
0.0
  0
LINE
  5
6E
330
55
100
AcDbEntity
  8
0
  6
ByBlock
 62
     0
100
AcDbLine
 10
34.676457595138
 20
39.40830850486419
 30
0.0
 11
34.676457595138
 21
39.80705850486419
 31
0.0
  0
LINE
  5
6F
330
55
100
AcDbEntity
  8
0
  6
ByBlock
 62
     0
100
AcDbLine
 10
34.051457595138
 20
39.62705850486419
 30
0.0
 11
33.801457595138
 21
39.62705850486419
 31
0.0
  0
LINE
  5
70
330
55
100
AcDbEntity
  8
0
  6
ByBlock
 62
     0
100
AcDbLine
 10
34.676457595138
 20
39.62705850486419
 30
0.0
 11
34.926457595138
 21
39.62705850486419
 31
0.0
  0
LINE
  5
71
330
55
100
AcDbEntity
  8
0
  6
ByBlock
 62
     0
100
AcDbLine
 10
33.926457595138
 20
39.50205850486419
 30
0.0
 11
34.176457595138
 21
39.75205850486419
 31
0.0
  0
LINE
  5
72
330
55
100
AcDbEntity
  8
0
  6
ByBlock
 62
     0
100
AcDbLine
 10
34.551457595138
 20
39.50205850486419
 30
0.0
 11
34.801457595138
 21
39.75205850486419
 31
0.0
  0
TEXT
  5
73
330
55
100
AcDbEntity
  8
0
  6
ByBlock
 62
     0
100
AcDbText
 10
35.051457595138
 20
39.56455850486419
 30
0.0
 40
0.125
  1
5/8
 72
     1
 11
35.21812426180466
 21
39.62705850486419
 31
0.0
100
AcDbText
 73
     2
  0
POINT
  5
74
330
55
100
AcDbEntity
  8
DEFPOINTS
  6
ByBlock
 62
     0
100
AcDbPoint
 10
34.051457595138
 20
39.34580850486419
 30
0.0
  0
POINT
  5
75
330
55
100
AcDbEntity
  8
DEFPOINTS
  6
ByBlock
 62
     0
100
AcDbPoint
 10
34.676457595138
 20
39.34580850486419
 30
0.0
  0
POINT
  5
76
330
55
100
AcDbEntity
  8
DEFPOINTS
  6
ByBlock
 62
     0
100
AcDbPoint
 10
34.676457595138
 20
39.62705850486419
 30
0.0
  0
ENDBLK
  5
77
330
55
100
AcDbEntity
  8
0
100
AcDbBlockEnd
  0
BLOCK
  5
78
330
60
100
AcDbEntity
  8
0
100
AcDbBlockBegin
  2
*D1
 70
     1
 10
0.0
 20
0.0
 30
0.0
  3
*D1
  1

  0
LINE
  5
79
330
60
100
AcDbEntity
  8
0
  6
ByBlock
 62
     0
100
AcDbLine
 10
33.988957595138
 20
39.34580850486419
 30
0.0
 11
32.60151721018726
 21
39.34580850486419
 31
0.0
  0
LINE
  5
7A
330
60
100
AcDbEntity
  8
0
  6
ByBlock
 62
     0
100
AcDbLine
 10
33.988957595138
 20
3.345808504864187
 30
0.0
 11
32.60151721018726
 21
3.345808504864188
 31
0.0
  0
LINE
  5
7B
330
60
100
AcDbEntity
  8
0
  6
ByBlock
 62
     0
100
AcDbLine
 10
32.78151721018725
 20
39.34580850486419
 30
0.0
 11
32.78151721018725
 21
21.57497517153085
 31
0.0
  0
LINE
  5
7C
330
60
100
AcDbEntity
  8
0
  6
ByBlock
 62
     0
100
AcDbLine
 10
32.78151721018725
 20
3.345808504864187
 30
0.0
 11
32.78151721018725
 21
21.11664183819752
 31
0.0
  0
LINE
  5
7D
330
60
100
AcDbEntity
  8
0
  6
ByBlock
 62
     0
100
AcDbLine
 10
32.90651721018726
 20
39.22080850486419
 30
0.0
 11
32.65651721018726
 21
39.47080850486419
 31
0.0
  0
LINE
  5
7E
330
60
100
AcDbEntity
  8
0
  6
ByBlock
 62
     0
100
AcDbLine
 10
32.90651721018726
 20
3.220808504864187
 30
0.0
 11
32.65651721018726
 21
3.470808504864187
 31
0.0
  0
TEXT
  5
7F
330
60
100
AcDbEntity
  8
0
  6
ByBlock
 62
     0
100
AcDbText
 10
32.84401721018725
 20
21.24164183819752
 30
0.0
 40
0.125
  1
36
 50
90.0
 72
     1
 11
32.78151721018725
 21
21.34580850486418
 31
0.0
100
AcDbText
 73
     2
  0
POINT
  5
80
330
60
100
AcDbEntity
  8
DEFPOINTS
  6
ByBlock
 62
     0
100
AcDbPoint
 10
34.051457595138
 20
39.34580850486419
 30
0.0
  0
POINT
  5
81
330
60
100
AcDbEntity
  8
DEFPOINTS
  6
ByBlock
 62
     0
100
AcDbPoint
 10
34.051457595138
 20
3.345808504864187
 30
0.0
  0
POINT
  5
82
330
60
100
AcDbEntity
  8
DEFPOINTS
  6
ByBlock
 62
     0
100
AcDbPoint
 10
32.78151721018725
 20
3.345808504864187
 30
0.0
  0
ENDBLK
  5
83
330
60
100
AcDbEntity
  8
0
100
AcDbBlockEnd
  0
ENDSEC
  0
SECTION
  2
ENTITIES
  0
ARC
  5
84
330
18
100
AcDbEntity
  8
0
100
AcDbCircle
 10
33.41757034679187
 20
20.84569761429951
 30
0.0
 40
0.555826960442987
100
AcDbArc
 50
304.4543330485645
 51
17.71105533498232
  0
ARC
  5
85
330
18
100
AcDbEntity
  8
0
100
AcDbCircle
 10
35.31034484348412
 20
20.84569761429951
 30
0.0
 40
0.555826960442987
100
AcDbArc
 50
162.2889446650177
 51
235.5456669514355
  0
DIMENSION
  5
86
330
18
100
AcDbEntity
  8
ADPDIM
100
AcDbDimension
  2
*D1
 10
32.78151721018725
 20
3.345808504864187
 30
0.0
 11
32.78151721018725
 21
21.34580850486418
 31
0.0
 71
     5
 42
-1.0
100
AcDbAlignedDimension
 13
34.051457595138
 23
39.34580850486419
 33
0.0
 14
34.051457595138
 24
3.345808504864187
 34
0.0
 50
90.0
100
AcDbRotatedDimension
  0
LINE
  5
87
330
18
100
AcDbEntity
  8
0
100
AcDbLine
 10
34.051457595138
 20
3.345808504864187
 30
0.0
 11
34.051457595138
 21
13.78330850486419
 31
0.0
  0
LINE
  5
88
330
18
100
AcDbEntity
  8
0
100
AcDbLine
 10
34.676457595138
 20
3.345808504864187
 30
0.0
 11
34.676457595138
 21
13.78330850486419
 31
0.0
  0
LINE
  5
89
330
18
100
AcDbEntity
  8
0
100
AcDbLine
 10
34.363957595138
 20
3.345808504864187
 30
0.0
 11
34.676457595138
 21
3.345808504864187
 31
0.0
  0
LINE
  5
8A
330
18
100
AcDbEntity
  8
0
100
AcDbLine
 10
34.363957595138
 20
3.345808504864187
 30
0.0
 11
34.051457595138
 21
3.345808504864187
 31
0.0
  0
ARC
  5
8B
330
18
100
AcDbEntity
  8
0
100
AcDbCircle
 10
34.31056961868188
 20
19.34109137859948
 30
0.0
 40
0.6725546453015432
100
AcDbArc
 50
112.0280739683648
 51
190.3052532185947
  0
ARC
  5
8C
330
18
100
AcDbEntity
  8
0
100
AcDbCircle
 10
76.49243526949894
 20
13.61877101792321
 30
0.0
 40
41.81428036840631
100
AcDbArc
 50
172.3007335168052
 51
179.771749896176
  0
ARC
  5
8D
330
18
100
AcDbEntity
  8
0
100
AcDbCircle
 10
-2.824265937927123
 20
13.80041240689454
 30
0.0
 40
36.87369750911289
100
AcDbArc
 50
359.9765904570462
 51
8.453002798974992
  0
LINE
  5
8E
330
18
100
AcDbEntity
  8
0
100
AcDbLine
 10
34.36332201693622
 20
19.96039364913658
 30
0.0
 11
34.67255369837302
 21
19.96077294382098
 31
0.0
  0
LINE
  5
8F
330
18
100
AcDbEntity
  8
0
100
AcDbLine
 10
34.78861430367905
 20
20.18495493788703
 30
0.0
 11
34.36332201693622
 21
20.18495493788703
 31
0.0
  0
LINE
  5
90
330
18
100
AcDbEntity
  8
0
100
AcDbLine
 10
33.74399500658524
 20
20.37856296376293
 30
0.0
 11
35.00220500439367
 21
20.37856296376293
 31
0.0
  0
ARC
  5
91
330
18
100
AcDbEntity
  8
0
100
AcDbCircle
 10
33.94847471278489
 20
20.04757059713442
 30
0.0
 40
0.1376902907650255
100
AcDbArc
 50
320.9215961354198
 51
93.82024890143362
  0
LINE
  5
92
330
18
100
AcDbEntity
  8
0
100
AcDbLine
 10
33.93930088659694
 20
20.18495493788703
 30
0.0
 11
34.36459317333977
 21
20.18495493788703
 31
0.0
  0
ARC
  5
93
330
18
100
AcDbEntity
  8
0
100
AcDbCircle
 10
34.20181528229714
 20
20.66266652742337
 30
0.0
 40
0.5445038289730267
100
AcDbArc
 50
210.3699839505625
 51
242.1323683528303
  0
LINE
  5
94
330
18
100
AcDbEntity
  8
0
100
AcDbLine
 10
34.36459317333977
 20
19.96039364913658
 30
0.0
 11
34.05536149190297
 21
19.96077294382098
 31
0.0
  0
ARC
  5
95
330
18
100
AcDbEntity
  8
0
100
AcDbCircle
 10
34.3346541776382
 20
19.31914041934438
 30
0.0
 40
0.7271438004043974
100
AcDbArc
 50
352.2255102568844
 51
62.57258168395508
  0
ARC
  5
96
330
18
100
AcDbEntity
  8
0
100
AcDbCircle
 10
34.7794404774911
 20
20.04757059713442
 30
0.0
 40
0.1376902907650255
100
AcDbArc
 50
86.17975109856638
 51
219.0784038645802
  0
ARC
  5
97
330
18
100
AcDbEntity
  8
0
100
AcDbCircle
 10
34.52609990797885
 20
20.66266652742337
 30
0.0
 40
0.5445038289730267
100
AcDbArc
 50
297.8676316471697
 51
329.6300160494375
  0
LINE
  5
98
330
18
100
AcDbEntity
  8
0
100
AcDbLine
 10
34.051457595138
 20
39.34580850486419
 30
0.0
 11
34.051457595138
 21
28.87434069045332
 31
0.0
  0
LINE
  5
99
330
18
100
AcDbEntity
  8
0
100
AcDbLine
 10
34.676457595138
 20
39.34580850486419
 30
0.0
 11
34.676457595138
 21
28.87434069045332
 31
0.0
  0
ARC
  5
9A
330
18
100
AcDbEntity
  8
0
100
AcDbCircle
 10
34.524877998373
 20
23.43453727388673
 30
0.0
 40
0.8760169171937006
100
AcDbArc
 50
179.8472485056326
 51
237.8194243074073
  0
ARC
  5
9B
330
18
100
AcDbEntity
  8
0
100
AcDbCircle
 10
76.49243526949902
 20
29.03887817739431
 30
0.0
 40
41.81428036840639
100
AcDbArc
 50
180.2282501038239
 51
187.6992664831947
  0
ARC
  5
9C
330
18
100
AcDbEntity
  8
0
100
AcDbCircle
 10
-2.824265937927101
 20
28.85723678842296
 30
0.0
 40
36.87369750911287
100
AcDbArc
 50
351.546997201025
 51
0.023409542953773
  0
ARC
  5
9D
330
18
100
AcDbEntity
  8
0
100
AcDbCircle
 10
34.52609990797885
 20
21.99498266789414
 30
0.0
 40
0.5445038289730267
100
AcDbArc
 50
30.36998395056251
 51
62.13236835283029
  0
ARC
  5
9E
330
18
100
AcDbEntity
  8
0
100
AcDbCircle
 10
35.31034484348412
 20
21.811951581018
 30
0.0
 40
0.555826960442987
100
AcDbArc
 50
124.4543330485645
 51
197.7110553349823
  0
ARC
  5
9F
330
18
100
AcDbEntity
  8
0
100
AcDbCircle
 10
34.20181528229714
 20
21.99498266789414
 30
0.0
 40
0.5445038289730267
100
AcDbArc
 50
117.8676316471697
 51
149.6300160494375
  0
ARC
  5
A0
330
18
100
AcDbEntity
  8
0
100
AcDbCircle
 10
33.41757034679187
 20
21.811951581018
 30
0.0
 40
0.555826960442987
100
AcDbArc
 50
342.2889446650176
 51
55.54566695143553
  0
LINE
  5
A1
330
18
100
AcDbEntity
  8
0
100
AcDbLine
 10
35.15753723802317
 20
21.22080850486419
 30
0.0
 11
34.363957595138
 21
21.22080850486419
 31
0.0
  0
LINE
  5
A2
330
18
100
AcDbEntity
  8
0
100
AcDbLine
 10
35.15753723802317
 20
21.43684069045332
 30
0.0
 11
34.363957595138
 21
21.43684069045332
 31
0.0
  0
LINE
  5
A3
330
18
100
AcDbEntity
  8
0
100
AcDbLine
 10
33.74399500658524
 20
22.26907842241819
 30
0.0
 11
35.00220500439367
 21
22.26907842241819
 31
0.0
  0
ARC
  5
A4
330
18
100
AcDbEntity
  8
0
100
AcDbCircle
 10
33.60664742742685
 20
21.81788345085301
 30
0.0
 40
0.3827650194080082
100
AcDbArc
 50
264.5626946896078
 51
332.7894448981397
  0
LINE
  5
A5
330
18
100
AcDbEntity
  8
0
100
AcDbLine
 10
33.57037795225283
 20
21.22080850486419
 30
0.0
 11
34.363957595138
 21
21.22080850486419
 31
0.0
  0
LINE
  5
A6
330
18
100
AcDbEntity
  8
0
100
AcDbLine
 10
33.57037795225283
 20
21.43684069045332
 30
0.0
 11
34.363957595138
 21
21.43684069045332
 31
0.0
  0
LINE
  5
A7
330
18
100
AcDbEntity
  8
0
100
AcDbLine
 10
33.57037795225283
 20
21.45382459765876
 30
0.0
 11
33.57037795225283
 21
21.22080850486419
 31
0.0
  0
ARC
  5
A8
330
18
100
AcDbEntity
  8
0
100
AcDbCircle
 10
33.60664742742685
 20
20.8397657444645
 30
0.0
 40
0.3827650194080082
100
AcDbArc
 50
27.21055510186031
 51
95.43730531039223
  0
ARC
  5
A9
330
18
100
AcDbEntity
  8
0
100
AcDbCircle
 10
35.12126776284914
 20
21.81788345085301
 30
0.0
 40
0.3827650194080082
100
AcDbArc
 50
207.2105551018603
 51
275.4373053103922
  0
ARC
  5
AA
330
18
100
AcDbEntity
  8
0
100
AcDbCircle
 10
35.12126776284914
 20
20.8397657444645
 30
0.0
 40
0.3827650194080082
100
AcDbArc
 50
84.56269468960778
 51
152.7894448981397
  0
LINE
  5
AB
330
18
100
AcDbEntity
  8
0
100
AcDbLine
 10
35.15753723802317
 20
21.45382459765876
 30
0.0
 11
35.15753723802317
 21
21.22080850486419
 31
0.0
  0
LINE
  5
AC
330
18
100
AcDbEntity
  8
0
100
AcDbLine
 10
34.36332201693622
 20
22.69725554618093
 30
0.0
 11
34.67255369837302
 21
22.69687625149653
 31
0.0
  0
LINE
  5
AD
330
18
100
AcDbEntity
  8
0
100
AcDbLine
 10
34.78861430367905
 20
22.47269425743047
 30
0.0
 11
34.36332201693622
 21
22.47269425743047
 31
0.0
  0
ARC
  5
AE
330
18
100
AcDbEntity
  8
0
100
AcDbCircle
 10
33.94847471278489
 20
22.61007859818309
 30
0.0
 40
0.1376902907650255
100
AcDbArc
 50
266.1797510985664
 51
39.07840386458019
  0
LINE
  5
AF
330
18
100
AcDbEntity
  8
0
100
AcDbLine
 10
33.93930088659694
 20
22.47269425743047
 30
0.0
 11
34.36459317333977
 21
22.47269425743047
 31
0.0
  0
LINE
  5
B0
330
18
100
AcDbEntity
  8
0
100
AcDbLine
 10
34.36459317333977
 20
22.69725554618093
 30
0.0
 11
34.05536149190297
 21
22.69687625149653
 31
0.0
  0
ARC
  5
B1
330
18
100
AcDbEntity
  8
0
100
AcDbCircle
 10
34.1981777682978
 20
23.40924854424941
 30
0.0
 40
0.8573815573690815
100
AcDbArc
 50
303.3555606964536
 51
1.84634736270718
  0
ARC
  5
B2
330
18
100
AcDbEntity
  8
0
100
AcDbCircle
 10
34.7794404774911
 20
22.61007859818309
 30
0.0
 40
0.1376902907650255
100
AcDbArc
 50
140.9215961354198
 51
273.8202489014336
  0
CIRCLE
  5
B3
330
18
100
AcDbEntity
  8
ADP1DETAIL
100
AcDbCircle
 10
34.363957595138
 20
40.03330850486419
 30
0.0
 40
0.3125
  0
LINE
  5
B4
330
18
100
AcDbEntity
  8
0
100
AcDbLine
 10
34.676457595138
 20
39.34580850486419
 30
0.0
 11
34.051457595138
 21
39.34580850486419
 31
0.0
  0
DIMENSION
  5
B5
330
18
100
AcDbEntity
  8
ADPDIM
100
AcDbDimension
  2
*D0
 10
34.676457595138
 20
39.62705850486419
 30
0.0
 11
35.21812426180466
 21
39.62705850486419
 31
0.0
 71
     5
 42
-1.0
100
AcDbAlignedDimension
 13
34.051457595138
 23
39.34580850486419
 33
0.0
 14
34.676457595138
 24
39.34580850486419
 34
0.0
100
AcDbRotatedDimension
  0
TEXT
  5
C3
330
18
100
AcDbEntity
  8
ADPDIM
100
AcDbText
 10
2.191055485754503
 20
1.262532192810452
 30
0.0
 40
0.625
  1
J U L I U S  B L U M  &  C O . ,  I N C .      ( 8 0 0 )  5 2 6 - 6 2 9 3        W W W . J U L I U S B L U M . C O M        P A R T  N o .  3 2 8
 41
1.25
  7
ARIAL_WIDE
 72
     1
 11
34.36459317333977
 21
1.887532192810452
 31
0.0
100
AcDbText
 73
     3
  0
ENDSEC
  0
SECTION
  2
OBJECTS
  0
DICTIONARY
  5
C
330
0
100
AcDbDictionary
281
     1
  3
ACAD_COLOR
350
276
  3
ACAD_GROUP
350
D
  3
ACAD_LAYOUT
350
BC
  3
ACAD_MATERIAL
350
261
  3
ACAD_MLINESTYLE
350
E
  3
ACAD_PLOTSETTINGS
350
BD
  3
ACAD_PLOTSTYLENAME
350
BA
  3
ACAD_TABLESTYLE
350
277
  3
ACAD_VISUALSTYLE
350
265
  3
AcDbVariableDictionary
350
11D
  3
DWGPROPS
350
299
  0
DICTIONARY
  5
117
330
18
100
AcDbDictionary
280
     1
281
     1
  3
ACAD_LAYOUTSELFREF
360
25B
  0
DICTIONARY
  5
115
330
15
100
AcDbDictionary
280
     1
281
     1
  3
ACAD_LAYOUTSELFREF
360
25A
  0
DICTIONARY
  5
276
102
{ACAD_REACTORS
330
C
102
}
330
C
100
AcDbDictionary
281
     1
  0
DICTIONARY
  5
D
102
{ACAD_REACTORS
330
C
102
}
330
C
100
AcDbDictionary
281
     1
  0
DICTIONARY
  5
BC
102
{ACAD_REACTORS
330
C
102
}
330
C
100
AcDbDictionary
281
     1
  3
Layout1
350
BF
  3
Model
350
BE
  0
DICTIONARY
  5
261
102
{ACAD_REACTORS
330
C
102
}
330
C
100
AcDbDictionary
281
     1
  3
ByBlock
350
263
  3
ByLayer
350
262
  3
Global
350
264
  0
DICTIONARY
  5
E
102
{ACAD_REACTORS
330
C
102
}
330
C
100
AcDbDictionary
281
     1
  3
STANDARD
350
1B
  0
DICTIONARY
  5
BD
102
{ACAD_REACTORS
330
C
102
}
330
C
100
AcDbDictionary
281
     1
  0
ACDBDICTIONARYWDFLT
  5
BA
102
{ACAD_REACTORS
330
C
102
}
330
C
100
AcDbDictionary
281
     1
  3
Normal
350
BB
100
AcDbDictionaryWithDefault
340
BB
  0
DICTIONARY
  5
277
102
{ACAD_REACTORS
330
C
102
}
330
C
100
AcDbDictionary
281
     1
  3
Standard
350
278
  0
DICTIONARY
  5
265
102
{ACAD_REACTORS
330
C
102
}
330
C
100
AcDbDictionary
281
     1
  3
2dWireframe
350
26B
  3
3D Hidden
350
26D
  3
3dWireframe
350
26C
  3
Basic
350
26A
  3
Brighten
350
271
  3
ColorChange
350
275
  3
Conceptual
350
26E
  3
Dim
350
270
  3
Facepattern
350
274
  3
Flat
350
266
  3
FlatWithEdges
350
267
  3
Gouraud
350
268
  3
GouraudWithEdges
350
269
  3
Linepattern
350
273
  3
Realistic
350
26F
  3
Thicken
350
272
  0
DICTIONARY
  5
11D
102
{ACAD_REACTORS
330
C
102
}
330
C
100
AcDbDictionary
281
     1
  3
CTABLESTYLE
350
296
  3
DIMASSOC
350
11E
  3
INDEXCTL
350
298
  3
SORTENTS
350
297
  0
XRECORD
  5
299
102
{ACAD_REACTORS
330
C
102
}
330
C
100
AcDbXrecord
280
     1
  1
DWGPROPS COOKIE
  2

  3

  4

  6

  7

  8
Yu Hu
  9

300
=
301
=
302
=
303
=
304
=
305
=
306
=
307
=
308
=
309
=
 40
0.0775502777777778
 41
2450374.476740162
 42
2453950.928940671
  1

 90
        0
  0
XRECORD
  5
25B
102
{ACAD_REACTORS
330
117
102
}
330
117
100
AcDbXrecord
280
     1
340
18
  0
XRECORD
  5
25A
102
{ACAD_REACTORS
330
115
102
}
330
115
100
AcDbXrecord
280
     1
340
15
  0
LAYOUT
  5
BF
102
{ACAD_XDICTIONARY
360
29C
102
}
102
{ACAD_REACTORS
330
BC
102
}
330
BC
100
AcDbPlotSettings
  1

  2
Fax
  4

  6

 40
0.0
 41
0.0
 42
0.0
 43
0.0
 44
0.0
 45
0.0
 46
0.0
 47
0.0
 48
0.0
 49
0.0
140
0.0
141
0.0
142
1.0
143
1.0
 70
   688
 72
     0
 73
     0
 74
     5
  7
Default R14 pen assignments.ctb
 75
    16
147
1.0
148
0.0
149
0.0
100
AcDbLayout
  1
Layout1
 70
     1
 71
     1
 10
0.0
 20
0.0
 11
12.0
 21
9.0
 12
0.0
 22
0.0
 32
0.0
 14
1.000000000000000E+20
 24
1.000000000000000E+20
 34
1.000000000000000E+20
 15
-1.000000000000000E+20
 25
-1.000000000000000E+20
 35
-1.000000000000000E+20
146
0.0
 13
0.0
 23
0.0
 33
0.0
 16
1.0
 26
0.0
 36
0.0
 17
0.0
 27
1.0
 37
0.0
 76
     0
330
15
  0
LAYOUT
  5
BE
102
{ACAD_XDICTIONARY
360
29A
102
}
102
{ACAD_REACTORS
330
BC
102
}
330
BC
100
AcDbPlotSettings
  1

  2
Fax
  4

  6

 40
0.0
 41
0.0
 42
0.0
 43
0.0
 44
0.0
 45
0.0
 46
0.0
 47
0.0
 48
0.0
 49
0.0
140
0.0
141
0.0
142
1.0
143
1.0
 70
  1712
 72
     0
 73
     0
 74
     0
  7
Default R14 pen assignments.ctb
 75
     0
147
1.0
148
0.0
149
0.0
100
AcDbLayout
  1
Model
 70
     1
 71
     0
 10
0.0
 20
0.0
 11
12.0
 21
9.0
 12
0.0
 22
0.0
 32
0.0
 14
0.0
 24
0.0
 34
0.0
 15
0.0
 25
0.0
 35
0.0
146
0.0
 13
0.0
 23
0.0
 33
0.0
 16
1.0
 26
0.0
 36
0.0
 17
0.0
 27
1.0
 37
0.0
 76
     0
330
18
331
235
  0
MATERIAL
  5
263
102
{ACAD_XDICTIONARY
360
2A0
102
}
102
{ACAD_REACTORS
330
261
102
}
330
261
100
AcDbMaterial
  1
ByBlock
  0
MATERIAL
  5
262
102
{ACAD_XDICTIONARY
360
29E
102
}
102
{ACAD_REACTORS
330
261
102
}
330
261
100
AcDbMaterial
  1
ByLayer
  0
MATERIAL
  5
264
102
{ACAD_XDICTIONARY
360
2A2
102
}
102
{ACAD_REACTORS
330
261
102
}
330
261
100
AcDbMaterial
  1
Global
  0
MLINESTYLE
  5
1B
102
{ACAD_REACTORS
330
E
102
}
330
E
100
AcDbMlineStyle
  2
STANDARD
 70
     0
  3

 62
     0
 51
90.0
 52
90.0
 71
     2
 49
0.5
 62
   256
  6
BYLAYER
 49
-0.5
 62
   256
  6
BYLAYER
  0
ACDBPLACEHOLDER
  5
BB
102
{ACAD_REACTORS
330
BA
102
}
330
BA
  0
TABLESTYLE
  5
278
102
{ACAD_XDICTIONARY
360
2A4
102
}
102
{ACAD_REACTORS
330
277
102
}
330
277
100
AcDbTableStyle
  3
Standard
 70
     0
 71
     0
 40
0.06
 41
0.06
280
     0
281
     0
  7
STANDARD
140
0.18
170
     2
 62
     0
 63
     7
283
     0
274
    -2
284
     1
 64
     0
275
    -2
285
     1
 65
     0
276
    -2
286
     1
 66
     0
277
    -2
287
     1
 67
     0
278
    -2
288
     1
 68
     0
279
    -2
289
     1
 69
     0
  7
STANDARD
140
0.25
170
     5
 62
     0
 63
     7
283
     0
274
    -2
284
     1
 64
     0
275
    -2
285
     1
 65
     0
276
    -2
286
     1
 66
     0
277
    -2
287
     1
 67
     0
278
    -2
288
     1
 68
     0
279
    -2
289
     1
 69
     0
  7
STANDARD
140
0.18
170
     5
 62
     0
 63
     7
283
     0
274
    -2
284
     1
 64
     0
275
    -2
285
     1
 65
     0
276
    -2
286
     1
 66
     0
277
    -2
287
     1
 67
     0
278
    -2
288
     1
 68
     0
279
    -2
289
     1
 69
     0
  0
VISUALSTYLE
  5
26B
102
{ACAD_REACTORS
330
265
102
}
330
265
100
AcDbVisualStyle
  2
2dWireframe
 70
     4
 71
     0
 72
     2
 73
     0
 90
        0
 40
-0.6
 41
-30.0
 62
     5
 63
     7
 74
     1
 91
        4
 64
     7
 65
   257
 75
     1
175
     1
 42
1.0
 92
        0
 66
   257
 43
1.0
 76
     1
 77
     6
 78
     2
 67
     7
 79
     5
170
     0
171
     0
290
     0
174
     0
 93
        1
 44
0.0
173
     0
291
     0
 45
0.0
1001
ACAD
1000
AcDbSavedByObjectVersion
1070
     0
  0
VISUALSTYLE
  5
26D
102
{ACAD_REACTORS
330
265
102
}
330
265
100
AcDbVisualStyle
  2
3D Hidden
 70
     6
 71
     1
 72
     2
 73
     2
 90
        0
 40
-0.6
 41
-30.0
 62
     5
 63
     7
 74
     2
 91
        2
 64
     7
 65
   257
 75
     2
175
     1
 42
40.0
 92
        0
 66
   257
 43
1.0
 76
     1
 77
     6
 78
     2
 67
     7
 79
     3
170
     0
171
     0
290
     0
174
     0
 93
        1
 44
0.0
173
     0
291
     0
 45
0.0
1001
ACAD
1000
AcDbSavedByObjectVersion
1070
     0
  0
VISUALSTYLE
  5
26C
102
{ACAD_REACTORS
330
265
102
}
330
265
100
AcDbVisualStyle
  2
3dWireframe
 70
     5
 71
     0
 72
     2
 73
     0
 90
        0
 40
-0.6
 41
-30.0
 62
     5
 63
     7
 74
     1
 91
        4
 64
     7
 65
   257
 75
     1
175
     1
 42
1.0
 92
        0
 66
   257
 43
1.0
 76
     1
 77
     6
 78
     2
 67
     7
 79
     5
170
     0
171
     0
290
     0
174
     0
 93
        1
 44
0.0
173
     0
291
     0
 45
0.0
1001
ACAD
1000
AcDbSavedByObjectVersion
1070
     0
  0
VISUALSTYLE
  5
26A
102
{ACAD_REACTORS
330
265
102
}
330
265
100
AcDbVisualStyle
  2
Basic
 70
     7
 71
     1
 72
     0
 73
     1
 90
        0
 40
-0.6
 41
-30.0
 62
     5
 63
     7
 74
     0
 91
        4
 64
     7
 65
   257
 75
     1
175
     1
 42
1.0
 92
        8
 66
     7
 43
1.0
 76
     1
 77
     6
 78
     2
 67
     7
 79
     5
170
     0
171
     0
290
     0
174
     0
 93
        1
 44
0.0
173
     0
291
     1
 45
0.0
1001
ACAD
1000
AcDbSavedByObjectVersion
1070
     0
  0
VISUALSTYLE
  5
271
102
{ACAD_REACTORS
330
265
102
}
330
265
100
AcDbVisualStyle
  2
Brighten
 70
    12
 71
     2
 72
     2
 73
     0
 90
        0
 40
-0.6
 41
-30.0
 62
     5
 63
     7
 74
     1
 91
        4
 64
     7
 65
   257
 75
     1
175
     1
 42
1.0
 92
        8
 66
     7
 43
1.0
 76
     1
 77
     6
 78
     2
 67
     7
 79
     5
170
     0
171
     0
290
     0
174
     0
 93
        1
 44
50.0
173
     0
291
     1
 45
0.0
1001
ACAD
1000
AcDbSavedByObjectVersion
1070
     0
  0
VISUALSTYLE
  5
275
102
{ACAD_REACTORS
330
265
102
}
330
265
100
AcDbVisualStyle
  2
ColorChange
 70
    16
 71
     2
 72
     2
 73
     3
 90
        0
 40
-0.6
 41
-30.0
 62
     5
 63
     8
 74
     1
 91
        4
 64
     7
 65
   257
 75
     1
175
     1
 42
1.0
 92
        8
 66
     8
 43
1.0
 76
     1
 77
     6
 78
     2
 67
     7
 79
     5
170
     0
171
     0
290
     0
174
     0
 93
        1
 44
0.0
173
     0
291
     1
 45
0.0
1001
ACAD
1000
AcDbSavedByObjectVersion
1070
     0
  0
VISUALSTYLE
  5
26E
102
{ACAD_REACTORS
330
265
102
}
330
265
100
AcDbVisualStyle
  2
Conceptual
 70
     9
 71
     3
 72
     2
 73
     0
 90
        0
 40
-0.6
 41
-30.0
 62
     5
 63
     7
 74
     2
 91
        2
 64
     7
 65
   257
 75
     1
175
     1
 42
40.0
 92
        8
 66
     7
 43
1.0
 76
     1
 77
     6
 78
     2
 67
     7
 79
     3
170
     0
171
     0
290
     0
174
     0
 93
        1
 44
0.0
173
     0
291
     0
 45
0.0
1001
ACAD
1000
AcDbSavedByObjectVersion
1070
     0
  0
VISUALSTYLE
  5
270
102
{ACAD_REACTORS
330
265
102
}
330
265
100
AcDbVisualStyle
  2
Dim
 70
    11
 71
     2
 72
     2
 73
     0
 90
        0
 40
-0.6
 41
-30.0
 62
     5
 63
     7
 74
     1
 91
        4
 64
     7
 65
   257
 75
     1
175
     1
 42
1.0
 92
        8
 66
     7
 43
1.0
 76
     1
 77
     6
 78
     2
 67
     7
 79
     5
170
     0
171
     0
290
     0
174
     0
 93
        1
 44
-50.0
173
     0
291
     1
 45
0.0
1001
ACAD
1000
AcDbSavedByObjectVersion
1070
     0
  0
VISUALSTYLE
  5
274
102
{ACAD_REACTORS
330
265
102
}
330
265
100
AcDbVisualStyle
  2
Facepattern
 70
    15
 71
     2
 72
     2
 73
     0
 90
        0
 40
-0.6
 41
-30.0
 62
     5
 63
     7
 74
     1
 91
        4
 64
     7
 65
   257
 75
     1
175
     1
 42
1.0
 92
        8
 66
     7
 43
1.0
 76
     1
 77
     6
 78
     2
 67
     7
 79
     5
170
     0
171
     0
290
     0
174
     0
 93
        1
 44
0.0
173
     0
291
     1
 45
0.0
1001
ACAD
1000
AcDbSavedByObjectVersion
1070
     0
  0
VISUALSTYLE
  5
266
102
{ACAD_REACTORS
330
265
102
}
330
265
100
AcDbVisualStyle
  2
Flat
 70
     0
 71
     2
 72
     1
 73
     1
 90
        2
 40
-0.6
 41
30.0
 62
     5
 63
     7
 74
     0
 91
        4
 64
     7
 65
   257
 75
     1
175
     1
 42
1.0
 92
        8
 66
     7
 43
1.0
 76
     1
 77
     6
 78
     2
 67
     7
 79
     5
170
     0
171
     0
290
     0
174
     0
 93
       13
 44
0.0
173
     0
291
     1
 45
0.0
1001
ACAD
1000
AcDbSavedByObjectVersion
1070
     0
  0
VISUALSTYLE
  5
267
102
{ACAD_REACTORS
330
265
102
}
330
265
100
AcDbVisualStyle
  2
FlatWithEdges
 70
     1
 71
     2
 72
     1
 73
     1
 90
        2
 40
-0.6
 41
30.0
 62
     5
 63
     7
 74
     1
 91
        4
 64
     7
 65
   257
 75
     1
175
     1
 42
1.0
 92
        0
 66
   257
 43
1.0
 76
     1
 77
     6
 78
     2
 67
     7
 79
     5
170
     0
171
     0
290
     0
174
     0
 93
       13
 44
0.0
173
     0
291
     1
 45
0.0
1001
ACAD
1000
AcDbSavedByObjectVersion
1070
     0
  0
VISUALSTYLE
  5
268
102
{ACAD_REACTORS
330
265
102
}
330
265
100
AcDbVisualStyle
  2
Gouraud
 70
     2
 71
     2
 72
     2
 73
     1
 90
        2
 40
-0.6
 41
30.0
 62
     5
 63
     7
 74
     0
 91
        4
 64
     7
 65
   257
 75
     1
175
     1
 42
1.0
 92
        0
 66
     7
 43
1.0
 76
     1
 77
     6
 78
     2
 67
     7
 79
     5
170
     0
171
     0
290
     0
174
     0
 93
       13
 44
0.0
173
     0
291
     1
 45
0.0
1001
ACAD
1000
AcDbSavedByObjectVersion
1070
     0
  0
VISUALSTYLE
  5
269
102
{ACAD_REACTORS
330
265
102
}
330
265
100
AcDbVisualStyle
  2
GouraudWithEdges
 70
     3
 71
     2
 72
     2
 73
     1
 90
        2
 40
-0.6
 41
30.0
 62
     5
 63
     7
 74
     1
 91
        4
 64
     7
 65
   257
 75
     1
175
     1
 42
1.0
 92
        0
 66
   257
 43
1.0
 76
     1
 77
     6
 78
     2
 67
     7
 79
     5
170
     0
171
     0
290
     0
174
     0
 93
       13
 44
0.0
173
     0
291
     1
 45
0.0
1001
ACAD
1000
AcDbSavedByObjectVersion
1070
     0
  0
VISUALSTYLE
  5
273
102
{ACAD_REACTORS
330
265
102
}
330
265
100
AcDbVisualStyle
  2
Linepattern
 70
    14
 71
     2
 72
     2
 73
     0
 90
        0
 40
-0.6
 41
-30.0
 62
     5
 63
     7
 74
     1
 91
        4
 64
     7
 65
   257
 75
     7
175
     7
 42
1.0
 92
        8
 66
     7
 43
1.0
 76
     1
 77
     6
 78
     2
 67
     7
 79
     5
170
     0
171
     0
290
     0
174
     0
 93
        1
 44
0.0
173
     0
291
     1
 45
0.0
1001
ACAD
1000
AcDbSavedByObjectVersion
1070
     0
  0
VISUALSTYLE
  5
26F
102
{ACAD_REACTORS
330
265
102
}
330
265
100
AcDbVisualStyle
  2
Realistic
 70
     8
 71
     2
 72
     2
 73
     0
 90
        0
 40
-0.6
 41
-30.0
 62
     5
 63
     7
 74
     1
 91
        0
 64
     7
 65
   257
 75
     1
175
     1
 42
1.0
 92
        8
 66
     8
 43
1.0
 76
     1
 77
     6
 78
     2
 67
     7
 79
     5
170
     0
171
     0
290
     0
174
     0
 93
       13
 44
0.0
173
     0
291
     0
 45
0.0
1001
ACAD
1000
AcDbSavedByObjectVersion
1070
     0
  0
VISUALSTYLE
  5
272
102
{ACAD_REACTORS
330
265
102
}
330
265
100
AcDbVisualStyle
  2
Thicken
 70
    13
 71
     2
 72
     2
 73
     0
 90
        0
 40
-0.6
 41
-30.0
 62
     5
 63
     7
 74
     1
 91
        4
 64
     7
 65
   257
 75
     1
175
     1
 42
1.0
 92
       12
 66
     7
 43
1.0
 76
     1
 77
     6
 78
     2
 67
     7
 79
     5
170
     0
171
     0
290
     0
174
     0
 93
        1
 44
0.0
173
     0
291
     1
 45
0.0
1001
ACAD
1000
AcDbSavedByObjectVersion
1070
     0
  0
DICTIONARYVAR
  5
296
102
{ACAD_REACTORS
330
11D
102
}
330
11D
100
DictionaryVariables
280
     0
  1
STANDARD
  0
DICTIONARYVAR
  5
11E
102
{ACAD_REACTORS
330
11D
102
}
330
11D
100
DictionaryVariables
280
     0
  1
1
  0
DICTIONARYVAR
  5
298
102
{ACAD_REACTORS
330
11D
102
}
330
11D
100
DictionaryVariables
280
     0
  1
0
  0
DICTIONARYVAR
  5
297
102
{ACAD_REACTORS
330
11D
102
}
330
11D
100
DictionaryVariables
280
     0
  1
127
  0
DICTIONARY
  5
29C
330
BF
100
AcDbDictionary
280
     1
281
     1
  3
ACAD_XREC_ROUNDTRIP
360
29D
  0
DICTIONARY
  5
29A
330
BE
100
AcDbDictionary
280
     1
281
     1
  3
ACAD_XREC_ROUNDTRIP
360
29B
  0
DICTIONARY
  5
2A0
330
263
100
AcDbDictionary
280
     1
281
     1
  3
ACAD_XREC_ROUNDTRIP
360
2A1
  0
DICTIONARY
  5
29E
330
262
100
AcDbDictionary
280
     1
281
     1
  3
ACAD_XREC_ROUNDTRIP
360
29F
  0
DICTIONARY
  5
2A2
330
264
100
AcDbDictionary
280
     1
281
     1
  3
ACAD_XREC_ROUNDTRIP
360
2A3
  0
DICTIONARY
  5
2A4
330
278
100
AcDbDictionary
280
     1
281
     1
  3
ACAD_XREC_ROUNDTRIP
360
2A5
  0
XRECORD
  5
29D
102
{ACAD_REACTORS
330
29C
102
}
330
29C
100
AcDbXrecord
280
     1
102
SHADEPLOT
 70
     0
102
SHADEPLOTRESLEVEL
 70
     2
102
SHADEPLOTCUSTOMDPI
 70
   300
  0
XRECORD
  5
29B
102
{ACAD_REACTORS
330
29A
102
}
330
29A
100
AcDbXrecord
280
     1
102
SHADEPLOT
 70
     0
102
SHADEPLOTRESLEVEL
 70
     2
102
SHADEPLOTCUSTOMDPI
 70
   300
  0
XRECORD
  5
2A1
102
{ACAD_REACTORS
330
2A0
102
}
330
2A0
100
AcDbXrecord
280
     1
102
MATERIAL
148
0.0
149
0.0
149
0.0
 93
        0
 94
       63
282
     0
 72
     1
 77
     1
171
     1
175
     1
179
     1
273
     0
  0
XRECORD
  5
29F
102
{ACAD_REACTORS
330
29E
102
}
330
29E
100
AcDbXrecord
280
     1
102
MATERIAL
148
0.0
149
0.0
149
0.0
 93
        0
 94
       63
282
     0
 72
     1
 77
     1
171
     1
175
     1
179
     1
273
     0
  0
XRECORD
  5
2A3
102
{ACAD_REACTORS
330
2A2
102
}
330
2A2
100
AcDbXrecord
280
     1
102
MATERIAL
148
0.0
149
0.0
149
0.0
 93
        0
 94
       63
282
     0
 72
     1
 77
     1
171
     1
175
     1
179
     1
273
     0
  0
XRECORD
  5
2A5
102
{ACAD_REACTORS
330
2A4
102
}
330
2A4
100
AcDbXrecord
280
     1
102
ACAD_ROUNDTRIP_PRE2007_TABLESTYLE
 90
      512
 91
        0
  1

 92
      512
 93
        0
  2

 94
      512
 95
        0
  3

  0
ENDSEC
  0
EOF
