  0
SECTION
  2
HEADER
  9
$ACADVER
  1
AC1015
  9
$ACADMAINTVER
 70
    20
  9
$DWGCODEPAGE
  3
ANSI_1252
  9
$INSBASE
 10
31.0660545118575
 20
3.416352616499355
 30
0.0
  9
$EXTMIN
 10
-1.107483175727772
 20
1.464648905138241
 30
0.0
  9
$EXTMAX
 10
63.23959219944276
 20
40.38510261649935
 30
0.0
  9
$LIMMIN
 10
0.0
 20
0.0
  9
$LIMMAX
 10
36.0
 20
36.0
  9
$ORTHOMODE
 70
     0
  9
$REGENMODE
 70
     1
  9
$FILLMODE
 70
     1
  9
$QTEXTMODE
 70
     0
  9
$MIRRTEXT
 70
     1
  9
$LTSCALE
 40
1.0
  9
$ATTMODE
 70
     1
  9
$TEXTSIZE
 40
0.2
  9
$TRACEWID
 40
0.05
  9
$TEXTSTYLE
  7
STANDARD
  9
$CLAYER
  8
ADPDIM
  9
$CELTYPE
  6
BYLAYER
  9
$CECOLOR
 62
   256
  9
$CELTSCALE
 40
1.0
  9
$DISPSILH
 70
     0
  9
$DIMSCALE
 40
1.0
  9
$DIMASZ
 40
0.125
  9
$DIMEXO
 40
0.0625
  9
$DIMDLI
 40
0.38
  9
$DIMRND
 40
0.0
  9
$DIMDLE
 40
0.0
  9
$DIMEXE
 40
0.18
  9
$DIMTP
 40
0.0
  9
$DIMTM
 40
0.0
  9
$DIMTXT
 40
0.125
  9
$DIMCEN
 40
0.1875
  9
$DIMTSZ
 40
0.125
  9
$DIMTOL
 70
     0
  9
$DIMLIM
 70
     0
  9
$DIMTIH
 70
     0
  9
$DIMTOH
 70
     0
  9
$DIMSE1
 70
     0
  9
$DIMSE2
 70
     0
  9
$DIMTAD
 70
     0
  9
$DIMZIN
 70
     3
  9
$DIMBLK
  1

  9
$DIMASO
 70
     1
  9
$DIMSHO
 70
     1
  9
$DIMPOST
  1

  9
$DIMAPOST
  1

  9
$DIMALT
 70
     0
  9
$DIMALTD
 70
     1
  9
$DIMALTF
 40
25.4
  9
$DIMLFAC
 40
1.0
  9
$DIMTOFL
 70
     0
  9
$DIMTVP
 40
0.0
  9
$DIMTIX
 70
     0
  9
$DIMSOXD
 70
     0
  9
$DIMSAH
 70
     0
  9
$DIMBLK1
  1

  9
$DIMBLK2
  1

  9
$DIMSTYLE
  2
STANDARD
  9
$DIMCLRD
 70
     0
  9
$DIMCLRE
 70
     0
  9
$DIMCLRT
 70
     0
  9
$DIMTFAC
 40
1.0
  9
$DIMGAP
 40
0.125
  9
$DIMJUST
 70
     0
  9
$DIMSD1
 70
     0
  9
$DIMSD2
 70
     0
  9
$DIMTOLJ
 70
     1
  9
$DIMTZIN
 70
     0
  9
$DIMALTZ
 70
     0
  9
$DIMALTTZ
 70
     0
  9
$DIMUPT
 70
     0
  9
$DIMDEC
 70
     4
  9
$DIMTDEC
 70
     4
  9
$DIMALTU
 70
     2
  9
$DIMALTTD
 70
     2
  9
$DIMTXSTY
  7
STANDARD
  9
$DIMAUNIT
 70
     0
  9
$DIMADEC
 70
     0
  9
$DIMALTRND
 40
0.0
  9
$DIMAZIN
 70
     0
  9
$DIMDSEP
 70
    46
  9
$DIMATFIT
 70
     3
  9
$DIMFRAC
 70
     0
  9
$DIMLDRBLK
  1

  9
$DIMLUNIT
 70
     2
  9
$DIMLWD
 70
    -2
  9
$DIMLWE
 70
    -2
  9
$DIMTMOVE
 70
     0
  9
$LUNITS
 70
     5
  9
$LUPREC
 70
     4
  9
$SKETCHINC
 40
0.1
  9
$FILLETRAD
 40
0.062
  9
$AUNITS
 70
     0
  9
$AUPREC
 70
     0
  9
$MENU
  1
acad
  9
$ELEVATION
 40
0.0
  9
$PELEVATION
 40
0.0
  9
$THICKNESS
 40
0.0
  9
$LIMCHECK
 70
     0
  9
$CHAMFERA
 40
0.0
  9
$CHAMFERB
 40
0.0
  9
$CHAMFERC
 40
0.0
  9
$CHAMFERD
 40
0.0
  9
$SKPOLY
 70
     0
  9
$TDCREATE
 40
2450374.476542824
  9
$TDUCREATE
 40
2450374.643209491
  9
$TDUPDATE
 40
2453950.924199248
  9
$TDUUPDATE
 40
2453951.090865914
  9
$TDINDWG
 40
0.0809640856
  9
$TDUSRTIMER
 40
0.0809640856
  9
$USRTIMER
 70
     1
  9
$ANGBASE
 50
0.0
  9
$ANGDIR
 70
     0
  9
$PDMODE
 70
     0
  9
$PDSIZE
 40
0.0
  9
$PLINEWID
 40
0.0
  9
$SPLFRAME
 70
     0
  9
$SPLINETYPE
 70
     6
  9
$SPLINESEGS
 70
     8
  9
$HANDSEED
  5
34E
  9
$SURFTAB1
 70
     6
  9
$SURFTAB2
 70
     6
  9
$SURFTYPE
 70
     6
  9
$SURFU
 70
     6
  9
$SURFV
 70
     6
  9
$UCSBASE
  2

  9
$UCSNAME
  2

  9
$UCSORG
 10
0.0
 20
0.0
 30
0.0
  9
$UCSXDIR
 10
1.0
 20
0.0
 30
0.0
  9
$UCSYDIR
 10
0.0
 20
1.0
 30
0.0
  9
$UCSORTHOREF
  2

  9
$UCSORTHOVIEW
 70
     0
  9
$UCSORGTOP
 10
0.0
 20
0.0
 30
0.0
  9
$UCSORGBOTTOM
 10
0.0
 20
0.0
 30
0.0
  9
$UCSORGLEFT
 10
0.0
 20
0.0
 30
0.0
  9
$UCSORGRIGHT
 10
0.0
 20
0.0
 30
0.0
  9
$UCSORGFRONT
 10
0.0
 20
0.0
 30
0.0
  9
$UCSORGBACK
 10
0.0
 20
0.0
 30
0.0
  9
$PUCSBASE
  2

  9
$PUCSNAME
  2

  9
$PUCSORG
 10
0.0
 20
0.0
 30
0.0
  9
$PUCSXDIR
 10
1.0
 20
0.0
 30
0.0
  9
$PUCSYDIR
 10
0.0
 20
1.0
 30
0.0
  9
$PUCSORTHOREF
  2

  9
$PUCSORTHOVIEW
 70
     0
  9
$PUCSORGTOP
 10
0.0
 20
0.0
 30
0.0
  9
$PUCSORGBOTTOM
 10
0.0
 20
0.0
 30
0.0
  9
$PUCSORGLEFT
 10
0.0
 20
0.0
 30
0.0
  9
$PUCSORGRIGHT
 10
0.0
 20
0.0
 30
0.0
  9
$PUCSORGFRONT
 10
0.0
 20
0.0
 30
0.0
  9
$PUCSORGBACK
 10
0.0
 20
0.0
 30
0.0
  9
$USERI1
 70
     0
  9
$USERI2
 70
     0
  9
$USERI3
 70
     0
  9
$USERI4
 70
     0
  9
$USERI5
 70
     0
  9
$USERR1
 40
0.0
  9
$USERR2
 40
0.0
  9
$USERR3
 40
0.0
  9
$USERR4
 40
0.0
  9
$USERR5
 40
0.0
  9
$WORLDVIEW
 70
     1
  9
$SHADEDGE
 70
     3
  9
$SHADEDIF
 70
    70
  9
$TILEMODE
 70
     1
  9
$MAXACTVP
 70
    15
  9
$PINSBASE
 10
0.0
 20
0.0
 30
0.0
  9
$PLIMCHECK
 70
     0
  9
$PEXTMIN
 10
1.000000000000000E+20
 20
1.000000000000000E+20
 30
1.000000000000000E+20
  9
$PEXTMAX
 10
-1.000000000000000E+20
 20
-1.000000000000000E+20
 30
-1.000000000000000E+20
  9
$PLIMMIN
 10
0.0
 20
0.0
  9
$PLIMMAX
 10
12.0
 20
9.0
  9
$UNITMODE
 70
     0
  9
$VISRETAIN
 70
     0
  9
$PLINEGEN
 70
     0
  9
$PSLTSCALE
 70
     1
  9
$TREEDEPTH
 70
  3020
  9
$CMLSTYLE
  2
STANDARD
  9
$CMLJUST
 70
     0
  9
$CMLSCALE
 40
1.0
  9
$PROXYGRAPHICS
 70
     1
  9
$MEASUREMENT
 70
     0
  9
$CELWEIGHT
370
    -1
  9
$ENDCAPS
280
     0
  9
$JOINSTYLE
280
     0
  9
$LWDISPLAY
290
     0
  9
$INSUNITS
 70
     0
  9
$HYPERLINKBASE
  1

  9
$STYLESHEET
  1

  9
$XEDIT
290
     1
  9
$CEPSNTYPE
380
     0
  9
$PSTYLEMODE
290
     1
  9
$FINGERPRINTGUID
  2
{CE8C9BFE-E759-4801-A07C-C9E7FC7C22AC}
  9
$VERSIONGUID
  2
{AFD1472B-BCB0-4933-80E5-B8A37BA5B2F3}
  9
$EXTNAMES
290
     1
  9
$PSVPSCALE
 40
0.0
  9
$OLESTARTUP
290
     0
  0
ENDSEC
  0
SECTION
  2
CLASSES
  0
CLASS
  1
ACDBDICTIONARYWDFLT
  2
AcDbDictionaryWithDefault
  3
ObjectDBX Classes
 90
        0
280
     0
281
     0
  0
CLASS
  1
ACDBPLACEHOLDER
  2
AcDbPlaceHolder
  3
ObjectDBX Classes
 90
        0
280
     0
281
     0
  0
CLASS
  1
LAYOUT
  2
AcDbLayout
  3
ObjectDBX Classes
 90
        0
280
     0
281
     0
  0
CLASS
  1
DICTIONARYVAR
  2
AcDbDictionaryVar
  3
ObjectDBX Classes
 90
        0
280
     0
281
     0
  0
CLASS
  1
MATERIAL
  2
AcDbMaterial
  3
ObjectDBX Classes
 90
     1024
280
     0
281
     0
  0
CLASS
  1
VISUALSTYLE
  2
AcDbVisualStyle
  3
ObjectDBX Classes
 90
     4095
280
     0
281
     0
  0
CLASS
  1
TABLESTYLE
  2
AcDbTableStyle
  3
ObjectDBX Classes
 90
     4095
280
     0
281
     0
  0
ENDSEC
  0
SECTION
  2
TABLES
  0
TABLE
  2
VPORT
  5
8
330
0
100
AcDbSymbolTable
 70
     1
  0
VPORT
  5
229
330
8
100
AcDbSymbolTableRecord
100
AcDbViewportTableRecord
  2
*Active
 70
     0
 10
0.0
 20
0.0
 11
1.0
 21
1.0
 12
34.90223286428172
 22
18.94578567969473
 13
0.0
 23
0.0
 14
0.5740882589684922
 24
0.5740882589684922
 15
0.5
 25
0.5
 16
0.0
 26
0.0
 36
1.0
 17
0.0
 27
0.0
 37
0.0
 40
22.91559178664225
 41
1.774011299435028
 42
50.0
 43
0.0
 44
0.0
 50
0.0
 51
0.0
 71
     0
 72
   100
 73
     1
 74
     0
 75
     0
 76
     0
 77
     0
 78
     0
281
     0
 65
     1
110
0.0
120
0.0
130
0.0
111
1.0
121
0.0
131
0.0
112
0.0
122
1.0
132
0.0
 79
     0
146
0.0
  0
ENDTAB
  0
TABLE
  2
LTYPE
  5
5
330
0
100
AcDbSymbolTable
 70
     1
  0
LTYPE
  5
12
330
5
100
AcDbSymbolTableRecord
100
AcDbLinetypeTableRecord
  2
BYBLOCK
 70
     0
  3

 72
    65
 73
     0
 40
0.0
  0
LTYPE
  5
13
330
5
100
AcDbSymbolTableRecord
100
AcDbLinetypeTableRecord
  2
BYLAYER
 70
     0
  3

 72
    65
 73
     0
 40
0.0
  0
LTYPE
  5
14
330
5
100
AcDbSymbolTableRecord
100
AcDbLinetypeTableRecord
  2
CONTINUOUS
 70
     0
  3
Solid line
 72
    65
 73
     0
 40
0.0
  0
ENDTAB
  0
TABLE
  2
LAYER
  5
2
330
0
100
AcDbSymbolTable
 70
     4
  0
LAYER
  5
F
330
2
100
AcDbSymbolTableRecord
100
AcDbLayerTableRecord
  2
0
 70
     0
 62
     7
  6
CONTINUOUS
370
    -3
390
AF
  0
LAYER
  5
61
330
2
100
AcDbSymbolTableRecord
100
AcDbLayerTableRecord
  2
ADPDIM
 70
     0
 62
     3
  6
CONTINUOUS
370
    -3
390
AF
  0
LAYER
  5
63
330
2
100
AcDbSymbolTableRecord
100
AcDbLayerTableRecord
  2
ADP1DETAIL
 70
     0
 62
     7
  6
CONTINUOUS
370
    -3
390
AF
  0
LAYER
  5
65
330
2
100
AcDbSymbolTableRecord
100
AcDbLayerTableRecord
  2
DEFPOINTS
 70
     0
 62
     7
  6
CONTINUOUS
290
     0
370
    -3
390
AF
  0
ENDTAB
  0
TABLE
  2
STYLE
  5
3
330
0
100
AcDbSymbolTable
 70
     2
  0
STYLE
  5
10
330
3
100
AcDbSymbolTableRecord
100
AcDbTextStyleTableRecord
  2
STANDARD
 70
     0
 40
0.0
 41
1.0
 50
0.0
 71
     0
 42
0.2
  3
txt
  4

  0
STYLE
  5
B6
330
3
100
AcDbSymbolTableRecord
100
AcDbTextStyleTableRecord
  2
ARIAL_WIDE
 70
     0
 40
0.0
 41
1.25
 50
0.0
 71
     0
 42
0.2
  3
ARIAL.TTF
  4

1001
ACAD
1000
Arial
1071
       34
  0
ENDTAB
  0
TABLE
  2
VIEW
  5
6
330
0
100
AcDbSymbolTable
 70
     0
  0
ENDTAB
  0
TABLE
  2
UCS
  5
7
330
0
100
AcDbSymbolTable
 70
     0
  0
ENDTAB
  0
TABLE
  2
APPID
  5
9
330
0
100
AcDbSymbolTable
 70
     1
  0
APPID
  5
11
330
9
100
AcDbSymbolTableRecord
100
AcDbRegAppTableRecord
  2
ACAD
 70
     0
  0
ENDTAB
  0
TABLE
  2
DIMSTYLE
  5
A
330
0
100
AcDbSymbolTable
 70
     1
100
AcDbDimStyleTable
 71
     1
340
AA
  0
DIMSTYLE
105
AA
102
{ACAD_REACTORS
330
270
330
291
330
85
102
}
330
A
100
AcDbSymbolTableRecord
100
AcDbDimStyleTableRecord
  2
STANDARD
 70
     0
340
10
  0
ENDTAB
  0
TABLE
  2
BLOCK_RECORD
  5
1
330
0
100
AcDbSymbolTable
 70
     7
  0
BLOCK_RECORD
  5
18
102
{ACAD_XDICTIONARY
360
10B
102
}
330
1
100
AcDbSymbolTableRecord
100
AcDbBlockTableRecord
  2
*MODEL_SPACE
340
B2
  0
BLOCK_RECORD
  5
15
102
{ACAD_XDICTIONARY
360
109
102
}
330
1
100
AcDbSymbolTableRecord
100
AcDbBlockTableRecord
  2
*PAPER_SPACE
340
B3
  0
BLOCK_RECORD
  5
56
330
1
100
AcDbSymbolTableRecord
100
AcDbBlockTableRecord
  2
*D0
340
0
  0
BLOCK_RECORD
  5
5F
330
1
100
AcDbSymbolTableRecord
100
AcDbBlockTableRecord
  2
*D1
340
0
  0
BLOCK_RECORD
  5
271
330
1
100
AcDbSymbolTableRecord
100
AcDbBlockTableRecord
  2
*D2
340
0
  0
BLOCK_RECORD
  5
27E
330
1
100
AcDbSymbolTableRecord
100
AcDbBlockTableRecord
  2
*D3
340
0
  0
BLOCK_RECORD
  5
292
330
1
100
AcDbSymbolTableRecord
100
AcDbBlockTableRecord
  2
*D5
340
0
  0
BLOCK_RECORD
  5
2BD
330
1
100
AcDbSymbolTableRecord
100
AcDbBlockTableRecord
  2
*D6
340
0
  0
ENDTAB
  0
ENDSEC
  0
SECTION
  2
BLOCKS
  0
BLOCK
  5
68
330
18
100
AcDbEntity
  8
0
100
AcDbBlockBegin
  2
*MODEL_SPACE
 70
     0
 10
0.0
 20
0.0
 30
0.0
  3
*MODEL_SPACE
  1

  0
ENDBLK
  5
69
330
18
100
AcDbEntity
  8
0
100
AcDbBlockEnd
  0
BLOCK
  5
66
330
15
100
AcDbEntity
 67
     1
  8
0
100
AcDbBlockBegin
  2
*PAPER_SPACE
 70
     0
 10
0.0
 20
0.0
 30
0.0
  3
*PAPER_SPACE
  1

  0
ENDBLK
  5
67
330
15
100
AcDbEntity
 67
     1
  8
0
100
AcDbBlockEnd
  0
BLOCK
  5
6B
330
56
100
AcDbEntity
  8
0
100
AcDbBlockBegin
  2
*D0
 70
     1
 10
0.0
 20
0.0
 30
0.0
  3
*D0
  1

  0
LINE
  5
6C
330
56
100
AcDbEntity
  8
0
  6
ByBlock
 62
     0
100
AcDbLine
 10
30.80605451185749
 20
39.47885261649935
 30
0.0
 11
30.80605451185749
 21
39.94010261649935
 31
0.0
  0
LINE
  5
6D
330
56
100
AcDbEntity
  8
0
  6
ByBlock
 62
     0
100
AcDbLine
 10
31.30605451185749
 20
39.47885261649935
 30
0.0
 11
31.30605451185749
 21
39.94010261649935
 31
0.0
  0
LINE
  5
6E
330
56
100
AcDbEntity
  8
0
  6
ByBlock
 62
     0
100
AcDbLine
 10
30.80605451185749
 20
39.76010261649935
 30
0.0
 11
30.55605451185749
 21
39.76010261649935
 31
0.0
  0
LINE
  5
6F
330
56
100
AcDbEntity
  8
0
  6
ByBlock
 62
     0
100
AcDbLine
 10
31.30605451185749
 20
39.76010261649935
 30
0.0
 11
31.5560545118575
 21
39.76010261649935
 31
0.0
  0
LINE
  5
70
330
56
100
AcDbEntity
  8
0
  6
ByBlock
 62
     0
100
AcDbLine
 10
30.68105451185749
 20
39.63510261649935
 30
0.0
 11
30.9310545118575
 21
39.88510261649935
 31
0.0
  0
LINE
  5
71
330
56
100
AcDbEntity
  8
0
  6
ByBlock
 62
     0
100
AcDbLine
 10
31.18105451185749
 20
39.63510261649935
 30
0.0
 11
31.43105451185749
 21
39.88510261649935
 31
0.0
  0
TEXT
  5
72
330
56
100
AcDbEntity
  8
0
  6
ByBlock
 62
     0
100
AcDbText
 10
31.68105451185749
 20
39.69760261649935
 30
0.0
 40
0.125
  1
1/2
 72
     1
 11
31.82688784519083
 21
39.76010261649935
 31
0.0
100
AcDbText
 73
     2
  0
POINT
  5
73
330
56
100
AcDbEntity
  8
DEFPOINTS
  6
ByBlock
 62
     0
100
AcDbPoint
 10
30.80605451185749
 20
39.41635261649935
 30
0.0
  0
POINT
  5
74
330
56
100
AcDbEntity
  8
DEFPOINTS
  6
ByBlock
 62
     0
100
AcDbPoint
 10
31.30605451185749
 20
39.41635261649935
 30
0.0
  0
POINT
  5
75
330
56
100
AcDbEntity
  8
DEFPOINTS
  6
ByBlock
 62
     0
100
AcDbPoint
 10
31.30605451185749
 20
39.76010261649935
 30
0.0
  0
ENDBLK
  5
76
330
56
100
AcDbEntity
  8
0
100
AcDbBlockEnd
  0
BLOCK
  5
77
330
5F
100
AcDbEntity
  8
0
100
AcDbBlockBegin
  2
*D1
 70
     1
 10
0.0
 20
0.0
 30
0.0
  3
*D1
  1

  0
LINE
  5
78
330
5F
100
AcDbEntity
  8
0
  6
ByBlock
 62
     0
100
AcDbLine
 10
30.74355451185749
 20
3.416352616499355
 30
0.0
 11
29.28556191397455
 21
3.416352616499355
 31
0.0
  0
LINE
  5
79
330
5F
100
AcDbEntity
  8
0
  6
ByBlock
 62
     0
100
AcDbLine
 10
30.74355451185749
 20
39.41635261649935
 30
0.0
 11
29.28556191397456
 21
39.41635261649935
 31
0.0
  0
LINE
  5
7A
330
5F
100
AcDbEntity
  8
0
  6
ByBlock
 62
     0
100
AcDbLine
 10
29.46556191397455
 20
3.416352616499355
 30
0.0
 11
29.46556191397455
 21
21.18718594983269
 31
0.0
  0
LINE
  5
7B
330
5F
100
AcDbEntity
  8
0
  6
ByBlock
 62
     0
100
AcDbLine
 10
29.46556191397455
 20
39.41635261649935
 30
0.0
 11
29.46556191397455
 21
21.64551928316602
 31
0.0
  0
LINE
  5
7C
330
5F
100
AcDbEntity
  8
0
  6
ByBlock
 62
     0
100
AcDbLine
 10
29.59056191397455
 20
3.291352616499355
 30
0.0
 11
29.34056191397455
 21
3.541352616499355
 31
0.0
  0
LINE
  5
7D
330
5F
100
AcDbEntity
  8
0
  6
ByBlock
 62
     0
100
AcDbLine
 10
29.59056191397456
 20
39.29135261649935
 30
0.0
 11
29.34056191397456
 21
39.54135261649935
 31
0.0
  0
TEXT
  5
7E
330
5F
100
AcDbEntity
  8
0
  6
ByBlock
 62
     0
100
AcDbText
 10
29.52806191397455
 20
21.31218594983268
 30
0.0
 40
0.125
  1
36
 50
90.0
 72
     1
 11
29.46556191397455
 21
21.41635261649935
 31
0.0
100
AcDbText
 73
     2
  0
POINT
  5
7F
330
5F
100
AcDbEntity
  8
DEFPOINTS
  6
ByBlock
 62
     0
100
AcDbPoint
 10
30.80605451185749
 20
3.416352616499355
 30
0.0
  0
POINT
  5
80
330
5F
100
AcDbEntity
  8
DEFPOINTS
  6
ByBlock
 62
     0
100
AcDbPoint
 10
30.80605451185749
 20
39.41635261649935
 30
0.0
  0
POINT
  5
81
330
5F
100
AcDbEntity
  8
DEFPOINTS
  6
ByBlock
 62
     0
100
AcDbPoint
 10
29.46556191397455
 20
39.41635261649935
 30
0.0
  0
ENDBLK
  5
82
330
5F
100
AcDbEntity
  8
0
100
AcDbBlockEnd
  0
BLOCK
  5
27C
330
271
100
AcDbEntity
  8
0
 62
     3
100
AcDbBlockBegin
  2
*D2
 70
     1
 10
0.0
 20
0.0
 30
0.0
  3
*D2
  1

  0
LINE
  5
306
330
271
100
AcDbEntity
  8
ADPDIM
 62
     0
370
    -2
100
AcDbLine
 10
31.3885545118575
 20
39.41635261649935
 30
0.0
 11
32.98622684417639
 21
39.41635261649935
 31
0.0
  0
LINE
  5
307
330
271
100
AcDbEntity
  8
ADPDIM
 62
     0
370
    -2
100
AcDbLine
 10
31.3885545118575
 20
22.41635261649935
 30
0.0
 11
32.98622684417639
 21
22.41635261649935
 31
0.0
  0
LINE
  5
308
330
271
100
AcDbEntity
  8
ADPDIM
 62
     0
370
    -2
100
AcDbLine
 10
32.8062268441764
 20
39.41635261649935
 30
0.0
 11
32.8062268441764
 21
31.37468594983269
 31
0.0
  0
LINE
  5
309
330
271
100
AcDbEntity
  8
ADPDIM
 62
     0
370
    -2
100
AcDbLine
 10
32.8062268441764
 20
22.41635261649935
 30
0.0
 11
32.8062268441764
 21
30.45801928316602
 31
0.0
  0
LINE
  5
30A
330
271
100
AcDbEntity
  8
ADPDIM
 62
     0
370
    -2
100
AcDbLine
 10
32.93122684417639
 20
22.29135261649935
 30
0.0
 11
32.68122684417639
 21
22.54135261649935
 31
0.0
  0
LINE
  5
30B
330
271
100
AcDbEntity
  8
ADPDIM
 62
     0
370
    -2
100
AcDbLine
 10
32.93122684417639
 20
39.29135261649935
 30
0.0
 11
32.68122684417639
 21
39.54135261649935
 31
0.0
  0
MTEXT
  5
30C
330
271
100
AcDbEntity
  8
ADPDIM
 62
     0
100
AcDbMText
 10
32.80622684417639
 20
30.91635261649936
 30
0.0
 40
0.5
 41
0.0
 71
     5
 72
     1
  1
\A1;17
 11
0.0000000000000001
 21
1.0
 31
0.0
 73
     1
 44
1.0
1001
ACAD
1000
MTEXTBEGIN
1070
    73
1070
     1
1070
    44
1040
1.0
1070
    74
1070
     0
1000
MTEXTEND
  0
POINT
  5
30D
330
271
100
AcDbEntity
  8
DEFPOINTS
 62
     0
100
AcDbPoint
 10
31.3260545118575
 20
39.41635261649935
 30
0.0
  0
POINT
  5
30E
330
271
100
AcDbEntity
  8
DEFPOINTS
 62
     0
100
AcDbPoint
 10
31.32605451185749
 20
22.41635261649935
 30
0.0
  0
POINT
  5
30F
330
271
100
AcDbEntity
  8
DEFPOINTS
 62
     0
100
AcDbPoint
 10
32.8062268441764
 20
22.41635261649935
 30
0.0
  0
ENDBLK
  5
27D
330
271
100
AcDbEntity
  8
0
 62
     3
100
AcDbBlockEnd
  0
BLOCK
  5
27F
330
27E
100
AcDbEntity
  8
0
 62
     3
100
AcDbBlockBegin
  2
*D3
 70
     1
 10
0.0
 20
0.0
 30
0.0
  3
*D3
  1

  0
LINE
  5
280
330
27E
100
AcDbEntity
  8
ADPDIM
 62
     0
370
    -2
100
AcDbLine
 10
31.3885545118575
 20
39.41635261649935
 30
0.0
 11
32.98622684417639
 21
39.41635261649935
 31
0.0
  0
LINE
  5
281
330
27E
100
AcDbEntity
  8
ADPDIM
 62
     0
370
    -2
100
AcDbLine
 10
31.3885545118575
 20
22.41635261649935
 30
0.0
 11
32.98622684417639
 21
22.41635261649935
 31
0.0
  0
LINE
  5
282
330
27E
100
AcDbEntity
  8
ADPDIM
 62
     0
370
    -2
100
AcDbLine
 10
32.8062268441764
 20
39.41635261649935
 30
0.0
 11
32.8062268441764
 21
31.35385261649935
 31
0.0
  0
LINE
  5
283
330
27E
100
AcDbEntity
  8
ADPDIM
 62
     0
370
    -2
100
AcDbLine
 10
32.8062268441764
 20
22.41635261649935
 30
0.0
 11
32.8062268441764
 21
30.47885261649935
 31
0.0
  0
LINE
  5
284
330
27E
100
AcDbEntity
  8
ADPDIM
 62
     0
370
    -2
100
AcDbLine
 10
32.93122684417639
 20
22.29135261649935
 30
0.0
 11
32.68122684417639
 21
22.54135261649935
 31
0.0
  0
LINE
  5
285
330
27E
100
AcDbEntity
  8
ADPDIM
 62
     0
370
    -2
100
AcDbLine
 10
32.93122684417639
 20
39.29135261649935
 30
0.0
 11
32.68122684417639
 21
39.54135261649935
 31
0.0
  0
MTEXT
  5
286
330
27E
100
AcDbEntity
  8
ADPDIM
 62
     0
100
AcDbMText
 10
32.80622684417639
 20
30.91635261649936
 30
0.0
 40
0.125
 41
0.0
 71
     5
 72
     1
  1
\A1;17.0000
 11
0.0000000000000001
 21
1.0
 31
0.0
 73
     1
 44
1.0
1001
ACAD
1000
MTEXTBEGIN
1070
    73
1070
     1
1070
    44
1040
1.0
1070
    74
1070
     0
1000
MTEXTEND
  0
POINT
  5
287
330
27E
100
AcDbEntity
  8
DEFPOINTS
 62
     0
100
AcDbPoint
 10
31.3260545118575
 20
39.41635261649935
 30
0.0
  0
POINT
  5
288
330
27E
100
AcDbEntity
  8
DEFPOINTS
 62
     0
100
AcDbPoint
 10
31.32605451185749
 20
22.41635261649935
 30
0.0
  0
POINT
  5
289
330
27E
100
AcDbEntity
  8
DEFPOINTS
 62
     0
100
AcDbPoint
 10
32.8062268441764
 20
22.41635261649935
 30
0.0
  0
ENDBLK
  5
28A
330
27E
100
AcDbEntity
  8
0
 62
     3
100
AcDbBlockEnd
  0
BLOCK
  5
29D
330
292
100
AcDbEntity
  8
0
100
AcDbBlockBegin
  2
*D5
 70
     1
 10
0.0
 20
0.0
 30
0.0
  3
*D5
  1

  0
LINE
  5
310
330
292
100
AcDbEntity
  8
ADPDIM
 62
     0
370
    -2
100
AcDbLine
 10
31.37222745030151
 20
20.42188599599383
 30
0.0
 11
32.96989978262042
 21
20.42188599599383
 31
0.0
  0
LINE
  5
311
330
292
100
AcDbEntity
  8
ADPDIM
 62
     0
370
    -2
100
AcDbLine
 10
31.37222745030151
 20
3.421885995993832
 30
0.0
 11
32.96989978262041
 21
3.421885995993832
 31
0.0
  0
LINE
  5
312
330
292
100
AcDbEntity
  8
ADPDIM
 62
     0
370
    -2
100
AcDbLine
 10
32.78989978262042
 20
20.42188599599383
 30
0.0
 11
32.78989978262041
 21
12.38021932932716
 31
0.0
  0
LINE
  5
313
330
292
100
AcDbEntity
  8
ADPDIM
 62
     0
370
    -2
100
AcDbLine
 10
32.78989978262041
 20
3.421885995993832
 30
0.0
 11
32.78989978262041
 21
11.4635526626605
 31
0.0
  0
LINE
  5
314
330
292
100
AcDbEntity
  8
ADPDIM
 62
     0
370
    -2
100
AcDbLine
 10
32.91489978262041
 20
3.296885995993832
 30
0.0
 11
32.66489978262041
 21
3.546885995993832
 31
0.0
  0
LINE
  5
315
330
292
100
AcDbEntity
  8
ADPDIM
 62
     0
370
    -2
100
AcDbLine
 10
32.91489978262042
 20
20.29688599599383
 30
0.0
 11
32.66489978262042
 21
20.54688599599383
 31
0.0
  0
MTEXT
  5
316
330
292
100
AcDbEntity
  8
ADPDIM
 62
     0
100
AcDbMText
 10
32.78989978262041
 20
11.92188599599384
 30
0.0
 40
0.5
 41
0.0
 71
     5
 72
     1
  1
\A1;17
 11
0.0000000000000001
 21
1.0
 31
0.0
 73
     1
 44
1.0
1001
ACAD
1000
MTEXTBEGIN
1070
    73
1070
     1
1070
    44
1040
1.0
1070
    74
1070
     0
1000
MTEXTEND
  0
POINT
  5
317
330
292
100
AcDbEntity
  8
DEFPOINTS
 62
     0
100
AcDbPoint
 10
31.30972745030151
 20
20.42188599599383
 30
0.0
  0
POINT
  5
318
330
292
100
AcDbEntity
  8
DEFPOINTS
 62
     0
100
AcDbPoint
 10
31.30972745030151
 20
3.421885995993832
 30
0.0
  0
POINT
  5
319
330
292
100
AcDbEntity
  8
DEFPOINTS
 62
     0
100
AcDbPoint
 10
32.78989978262041
 20
3.421885995993832
 30
0.0
  0
ENDBLK
  5
29E
330
292
100
AcDbEntity
  8
0
100
AcDbBlockEnd
  0
BLOCK
  5
2C8
330
2BD
100
AcDbEntity
  8
0
100
AcDbBlockBegin
  2
*D6
 70
     1
 10
0.0
 20
0.0
 30
0.0
  3
*D6
  1

  0
LINE
  5
31A
330
2BD
100
AcDbEntity
  8
ADPDIM
 62
     0
370
    -2
100
AcDbLine
 10
30.74355451185749
 20
3.416352616499355
 30
0.0
 11
29.28556191397455
 21
3.416352616499355
 31
0.0
  0
LINE
  5
31B
330
2BD
100
AcDbEntity
  8
ADPDIM
 62
     0
370
    -2
100
AcDbLine
 10
30.74355451185749
 20
39.41635261649935
 30
0.0
 11
29.28556191397456
 21
39.41635261649935
 31
0.0
  0
LINE
  5
31C
330
2BD
100
AcDbEntity
  8
ADPDIM
 62
     0
370
    -2
100
AcDbLine
 10
29.46556191397455
 20
3.416352616499355
 30
0.0
 11
29.46556191397455
 21
20.87468594983269
 31
0.0
  0
LINE
  5
31D
330
2BD
100
AcDbEntity
  8
ADPDIM
 62
     0
370
    -2
100
AcDbLine
 10
29.46556191397455
 20
39.41635261649935
 30
0.0
 11
29.46556191397455
 21
21.95801928316602
 31
0.0
  0
LINE
  5
31E
330
2BD
100
AcDbEntity
  8
ADPDIM
 62
     0
370
    -2
100
AcDbLine
 10
29.59056191397456
 20
39.29135261649935
 30
0.0
 11
29.34056191397456
 21
39.54135261649935
 31
0.0
  0
LINE
  5
31F
330
2BD
100
AcDbEntity
  8
ADPDIM
 62
     0
370
    -2
100
AcDbLine
 10
29.59056191397455
 20
3.291352616499355
 30
0.0
 11
29.34056191397455
 21
3.541352616499355
 31
0.0
  0
MTEXT
  5
320
330
2BD
100
AcDbEntity
  8
ADPDIM
 62
     0
100
AcDbMText
 10
29.46556191397455
 20
21.41635261649936
 30
0.0
 40
0.5
 41
0.0
 71
     5
 72
     1
  1
\A1;36
 11
0.0000000000000001
 21
1.0
 31
0.0
 73
     1
 44
1.0
1001
ACAD
1000
MTEXTBEGIN
1070
    73
1070
     1
1070
    44
1040
1.0
1070
    74
1070
     0
1000
MTEXTEND
  0
POINT
  5
321
330
2BD
100
AcDbEntity
  8
DEFPOINTS
 62
     0
100
AcDbPoint
 10
30.80605451185749
 20
3.416352616499355
 30
0.0
  0
POINT
  5
322
330
2BD
100
AcDbEntity
  8
DEFPOINTS
 62
     0
100
AcDbPoint
 10
30.80605451185749
 20
39.41635261649935
 30
0.0
  0
POINT
  5
323
330
2BD
100
AcDbEntity
  8
DEFPOINTS
 62
     0
100
AcDbPoint
 10
29.46556191397455
 20
39.41635261649935
 30
0.0
  0
ENDBLK
  5
2C9
330
2BD
100
AcDbEntity
  8
0
100
AcDbBlockEnd
  0
ENDSEC
  0
SECTION
  2
ENTITIES
  0
ARC
  5
83
330
18
100
AcDbEntity
  8
0
 62
     7
100
AcDbCircle
 10
31.61716562296861
 20
20.63190817205492
 30
0.0
 40
0.3314763086705835
100
AcDbArc
 50
113.2994632606817
 51
230.440332031006
  0
ARC
  5
84
330
18
100
AcDbEntity
  8
0
 62
     7
100
AcDbCircle
 10
30.51494340074639
 20
20.63190817205492
 30
0.0
 40
0.3314763086705835
100
AcDbArc
 50
309.5596679689941
 51
66.70053673931827
  0
DIMENSION
  5
85
330
18
100
AcDbEntity
  8
ADPDIM
100
AcDbDimension
  2
*D6
 10
29.46556191397455
 20
39.41635261649935
 30
0.0
 11
29.46556191397455
 21
21.41635261649936
 31
0.0
 70
    32
 71
     5
 42
36.0
  3
STANDARD
100
AcDbAlignedDimension
 13
30.80605451185749
 23
3.416352616499355
 33
0.0
 14
30.80605451185749
 24
39.41635261649935
 34
0.0
 50
90.0
100
AcDbRotatedDimension
1001
ACAD
1000
DSTYLE
1002
{
1070
   276
1070
     2
1070
   277
1070
     5
1070
    41
1040
0.125
1070
    73
1070
     0
1070
    74
1070
     0
1070
    78
1070
     3
1070
   140
1040
0.5
1070
   141
1040
0.1875
1070
   142
1040
0.125
1070
   147
1040
0.125
1070
   171
1070
     1
1002
}
  0
LINE
  5
86
330
18
100
AcDbEntity
  8
0
 62
     7
100
AcDbLine
 10
30.80605451185749
 20
11.41635261649935
 30
0.0
 11
30.80605451185749
 21
3.416352616499355
 31
0.0
  0
LINE
  5
87
330
18
100
AcDbEntity
  8
0
 62
     7
100
AcDbLine
 10
31.3260545118575
 20
3.416352616499355
 30
0.0
 11
31.3260545118575
 21
11.41635261649935
 31
0.0
  0
LINE
  5
88
330
18
100
AcDbEntity
  8
0
 62
     7
100
AcDbLine
 10
30.80605451185749
 20
3.416352616499355
 30
0.0
 11
31.3260545118575
 21
3.416352616499355
 31
0.0
  0
LINE
  5
89
330
18
100
AcDbEntity
  8
0
 62
     7
100
AcDbLine
 10
30.56764674781152
 20
20.11823600417748
 30
0.0
 11
30.80605451185749
 21
11.41635261649935
 31
0.0
  0
LINE
  5
8A
330
18
100
AcDbEntity
  8
0
 62
     7
100
AcDbLine
 10
31.3260545118575
 20
11.41635261649935
 30
0.0
 11
31.56446227590347
 21
20.11823600417748
 31
0.0
  0
ARC
  5
8B
330
18
100
AcDbEntity
  8
0
 62
     7
100
AcDbCircle
 10
31.50248553171825
 20
20.11993399716885
 30
0.0
 40
0.062
100
AcDbArc
 50
358.430645195251
 51
33.6900675259796
  0
LINE
  5
8C
330
18
100
AcDbEntity
  8
0
 62
     7
100
AcDbLine
 10
30.72605451185749
 20
20.37635261649936
 30
0.0
 11
31.4060545118575
 21
20.37635261649936
 31
0.0
  0
LINE
  5
8D
330
18
100
AcDbEntity
  8
0
 62
     7
100
AcDbLine
 10
31.44605451185749
 20
20.23091845987917
 30
0.0
 11
30.64605451185749
 21
20.23091845987917
 31
0.0
  0
ARC
  5
8E
330
18
100
AcDbEntity
  8
0
 62
     7
100
AcDbCircle
 10
30.62962349199675
 20
20.11993399716885
 30
0.0
 40
0.062
100
AcDbArc
 50
146.3099324740204
 51
181.5693548047489
  0
LINE
  5
8F
330
18
100
AcDbEntity
  8
0
 62
     7
100
AcDbLine
 10
30.5780363737478
 20
20.15432540933481
 30
0.0
 11
30.72605451185749
 21
20.37635261649936
 31
0.0
  0
LINE
  5
90
330
18
100
AcDbEntity
  8
0
 62
     7
100
AcDbLine
 10
31.55407264996719
 20
20.15432540933481
 30
0.0
 11
31.4060545118575
 21
20.37635261649936
 31
0.0
  0
LINE
  5
91
330
18
100
AcDbEntity
  8
0
 62
     7
100
AcDbLine
 10
30.80605451185749
 20
31.25635261649936
 30
0.0
 11
30.80605451185749
 21
39.41635261649935
 31
0.0
  0
LINE
  5
92
330
18
100
AcDbEntity
  8
0
 62
     7
100
AcDbLine
 10
31.3260545118575
 20
39.41635261649935
 30
0.0
 11
31.3260545118575
 21
31.25635261649936
 31
0.0
  0
LINE
  5
93
330
18
100
AcDbEntity
  8
0
 62
     7
100
AcDbLine
 10
30.56554148465363
 20
22.47762712355808
 30
0.0
 11
30.80605451185749
 21
31.25635261649936
 31
0.0
  0
LINE
  5
94
330
18
100
AcDbEntity
  8
0
 62
     7
100
AcDbLine
 10
31.3260545118575
 20
31.25635261649936
 30
0.0
 11
31.56656753906137
 21
22.47762712355809
 31
0.0
  0
ARC
  5
95
330
18
100
AcDbEntity
  8
0
 62
     7
100
AcDbCircle
 10
31.50459079487614
 20
22.47592913056671
 30
0.0
 40
0.062
100
AcDbArc
 50
326.3099324740204
 51
1.56935480474899
  0
ARC
  5
96
330
18
100
AcDbEntity
  8
0
 62
     7
100
AcDbCircle
 10
32.48285816482564
 20
23.97096448864582
 30
0.0
 40
2.520128100167132
100
AcDbArc
 50
246.7005367393183
 51
259.0940053225767
  0
ARC
  5
97
330
18
100
AcDbEntity
  8
0
 62
     7
100
AcDbCircle
 10
32.48285816482564
 20
18.6217407443529
 30
0.0
 40
2.520128100167132
100
AcDbArc
 50
100.9059946774232
 51
113.2994632606817
  0
LINE
  5
98
330
18
100
AcDbEntity
  8
0
 62
     7
100
AcDbLine
 10
30.1260545118575
 20
21.12120387724994
 30
0.0
 11
32.0060545118575
 21
21.12120387724994
 31
0.0
  0
LINE
  5
99
330
18
100
AcDbEntity
  8
0
 62
     7
100
AcDbLine
 10
32.0060545118575
 20
21.49635261649935
 30
0.0
 11
30.1260545118575
 21
21.49635261649935
 31
0.0
  0
LINE
  5
9A
330
18
100
AcDbEntity
  8
0
 62
     7
100
AcDbLine
 10
31.55617791312509
 20
22.44153771840075
 30
0.0
 11
31.4060545118575
 21
22.21635261649936
 31
0.0
  0
LINE
  5
9B
330
18
100
AcDbEntity
  8
0
 62
     7
100
AcDbLine
 10
30.57593111058991
 20
22.44153771840074
 30
0.0
 11
30.72605451185749
 21
22.21635261649936
 31
0.0
  0
ARC
  5
9C
330
18
100
AcDbEntity
  8
0
 62
     7
100
AcDbCircle
 10
29.64925085888935
 20
23.97096448864582
 30
0.0
 40
2.520128100167132
100
AcDbArc
 50
280.9059946774233
 51
293.2994632606817
  0
ARC
  5
9D
330
18
100
AcDbEntity
  8
0
 62
     7
100
AcDbCircle
 10
29.64925085888935
 20
18.6217407443529
 30
0.0
 40
2.520128100167132
100
AcDbArc
 50
66.70053673931828
 51
79.09400532257674
  0
ARC
  5
9E
330
18
100
AcDbEntity
  8
0
 62
     7
100
AcDbCircle
 10
30.15568412912311
 20
21.34257484613999
 30
0.0
 40
0.1566062478830443
100
AcDbArc
 50
100.9059946774227
 51
197.166492258428
  0
ARC
  5
9F
330
18
100
AcDbEntity
  8
0
 62
     7
100
AcDbCircle
 10
30.15568412912311
 20
21.25013038685873
 30
0.0
 40
0.1566062478830443
100
AcDbArc
 50
162.833507741572
 51
259.0940053225772
  0
LINE
  5
A0
330
18
100
AcDbEntity
  8
0
 62
     7
100
AcDbLine
 10
30.72605451185749
 20
22.21635261649936
 30
0.0
 11
31.4060545118575
 21
22.21635261649936
 31
0.0
  0
ARC
  5
A1
330
18
100
AcDbEntity
  8
0
 62
     7
100
AcDbCircle
 10
30.51494340074639
 20
21.9607970609438
 30
0.0
 40
0.3314763086705835
100
AcDbArc
 50
293.2994632606817
 51
50.44033203100593
  0
ARC
  5
A2
330
18
100
AcDbEntity
  8
0
 62
     7
100
AcDbCircle
 10
31.61716562296861
 20
21.9607970609438
 30
0.0
 40
0.3314763086705835
100
AcDbArc
 50
129.559667968994
 51
246.7005367393183
  0
LINE
  5
A3
330
18
100
AcDbEntity
  8
0
 62
     7
100
AcDbLine
 10
31.44605451185749
 20
22.33635261649935
 30
0.0
 11
30.64605451185749
 21
22.33635261649935
 31
0.0
  0
ARC
  5
A4
330
18
100
AcDbEntity
  8
0
 62
     7
100
AcDbCircle
 10
30.62751822883885
 20
22.47592913056671
 30
0.0
 40
0.062
100
AcDbArc
 50
178.430645195251
 51
213.6900675259796
  0
ARC
  5
A5
330
18
100
AcDbEntity
  8
0
 62
     7
100
AcDbCircle
 10
31.97642489459188
 20
21.34257484613999
 30
0.0
 40
0.1566062478830443
100
AcDbArc
 50
342.833507741572
 51
79.09400532257723
  0
ARC
  5
A6
330
18
100
AcDbEntity
  8
0
 62
     7
100
AcDbCircle
 10
31.97642489459188
 20
21.25013038685873
 30
0.0
 40
0.1566062478830443
100
AcDbArc
 50
280.9059946774228
 51
17.16649225842801
  0
CIRCLE
  5
A7
330
18
100
AcDbEntity
  8
ADP1DETAIL
100
AcDbCircle
 10
31.05605451185749
 20
40.13510261649935
 30
0.0
 40
0.25
  0
DIMENSION
  5
A8
330
18
100
AcDbEntity
  8
ADPDIM
100
AcDbDimension
  2
*D0
 10
31.30605451185749
 20
39.76010261649935
 30
0.0
 11
31.82688784519083
 21
39.76010261649935
 31
0.0
 71
     5
 42
-1.0
100
AcDbAlignedDimension
 13
30.80605451185749
 23
39.41635261649935
 33
0.0
 14
31.30605451185749
 24
39.41635261649935
 34
0.0
100
AcDbRotatedDimension
  0
LINE
  5
A9
330
18
100
AcDbEntity
  8
0
 62
     7
100
AcDbLine
 10
30.80605451185749
 20
39.41635261649935
 30
0.0
 11
31.3260545118575
 21
39.41635261649935
 31
0.0
  0
TEXT
  5
B7
330
18
100
AcDbEntity
  8
ADPDIM
100
AcDbText
 10
-1.107483175727772
 20
1.649676190267845
 30
0.0
 40
0.625
  1
J U L I U S  B L U M  &  C O . ,  I N C .      ( 8 0 0 )  5 2 6 - 6 2 9 3        W W W . J U L I U S B L U M . C O M        P A R T  N o .  3 2 7
 41
1.25
  7
ARIAL_WIDE
 72
     1
 11
31.0660545118575
 21
2.274676190267845
 31
0.0
100
AcDbText
 73
     3
  0
DIMENSION
  5
270
330
18
100
AcDbEntity
  8
ADPDIM
 62
     3
100
AcDbDimension
  2
*D2
 10
32.8062268441764
 20
22.41635261649935
 30
0.0
 11
32.80622684417639
 21
30.91635261649936
 31
0.0
 70
    32
 71
     5
 42
17.0
  3
STANDARD
100
AcDbAlignedDimension
 13
31.3260545118575
 23
39.41635261649935
 33
0.0
 14
31.32605451185749
 24
22.41635261649935
 34
0.0
 50
90.0
100
AcDbRotatedDimension
1001
ACAD
1000
DSTYLE
1002
{
1070
   276
1070
     2
1070
   277
1070
     5
1070
    41
1040
0.125
1070
    73
1070
     0
1070
    74
1070
     0
1070
    78
1070
     3
1070
   140
1040
0.5
1070
   141
1040
0.1875
1070
   142
1040
0.125
1070
   147
1040
0.125
1070
   171
1070
     1
1002
}
  0
DIMENSION
  5
291
330
18
100
AcDbEntity
  8
ADPDIM
 62
     3
100
AcDbDimension
  2
*D5
 10
32.78989978262041
 20
3.421885995993832
 30
0.0
 11
32.78989978262041
 21
11.92188599599384
 31
0.0
 70
    32
 71
     5
 42
17.0
  3
STANDARD
100
AcDbAlignedDimension
 13
31.30972745030151
 23
20.42188599599383
 33
0.0
 14
31.30972745030151
 24
3.421885995993832
 34
0.0
 50
90.0
100
AcDbRotatedDimension
1001
ACAD
1000
DSTYLE
1002
{
1070
   276
1070
     2
1070
   277
1070
     5
1070
    41
1040
0.125
1070
    73
1070
     0
1070
    74
1070
     0
1070
    78
1070
     3
1070
   140
1040
0.5
1070
   141
1040
0.1875
1070
   142
1040
0.125
1070
   147
1040
0.125
1070
   171
1070
     1
1002
}
  0
ENDSEC
  0
SECTION
  2
OBJECTS
  0
DICTIONARY
  5
C
330
0
100
AcDbDictionary
281
     1
  3
ACAD_COLOR
350
26A
  3
ACAD_GROUP
350
D
  3
ACAD_LAYOUT
350
B0
  3
ACAD_MATERIAL
350
255
  3
ACAD_MLINESTYLE
350
E
  3
ACAD_PLOTSETTINGS
350
B1
  3
ACAD_PLOTSTYLENAME
350
AE
  3
ACAD_TABLESTYLE
350
26B
  3
ACAD_VISUALSTYLE
350
259
  3
AcDbVariableDictionary
350
111
  3
DWGPROPS
350
341
  0
DICTIONARY
  5
10B
330
18
100
AcDbDictionary
280
     1
281
     1
  3
ACAD_LAYOUTSELFREF
360
24F
  0
DICTIONARY
  5
109
330
15
100
AcDbDictionary
280
     1
281
     1
  3
ACAD_LAYOUTSELFREF
360
24E
  0
DICTIONARY
  5
26A
102
{ACAD_REACTORS
330
C
102
}
330
C
100
AcDbDictionary
281
     1
  0
DICTIONARY
  5
D
102
{ACAD_REACTORS
330
C
102
}
330
C
100
AcDbDictionary
281
     1
  0
DICTIONARY
  5
B0
102
{ACAD_REACTORS
330
C
102
}
330
C
100
AcDbDictionary
281
     1
  3
Layout1
350
B3
  3
Model
350
B2
  0
DICTIONARY
  5
255
102
{ACAD_REACTORS
330
C
102
}
330
C
100
AcDbDictionary
281
     1
  3
ByBlock
350
257
  3
ByLayer
350
256
  3
Global
350
258
  0
DICTIONARY
  5
E
102
{ACAD_REACTORS
330
C
102
}
330
C
100
AcDbDictionary
281
     1
  3
STANDARD
350
1B
  0
DICTIONARY
  5
B1
102
{ACAD_REACTORS
330
C
102
}
330
C
100
AcDbDictionary
281
     1
  0
ACDBDICTIONARYWDFLT
  5
AE
102
{ACAD_REACTORS
330
C
102
}
330
C
100
AcDbDictionary
281
     1
  3
Normal
350
AF
100
AcDbDictionaryWithDefault
340
AF
  0
DICTIONARY
  5
26B
102
{ACAD_REACTORS
330
C
102
}
330
C
100
AcDbDictionary
281
     1
  3
Standard
350
26C
  0
DICTIONARY
  5
259
102
{ACAD_REACTORS
330
C
102
}
330
C
100
AcDbDictionary
281
     1
  3
2dWireframe
350
25F
  3
3D Hidden
350
261
  3
3dWireframe
350
260
  3
Basic
350
25E
  3
Brighten
350
265
  3
ColorChange
350
269
  3
Conceptual
350
262
  3
Dim
350
264
  3
Facepattern
350
268
  3
Flat
350
25A
  3
FlatWithEdges
350
25B
  3
Gouraud
350
25C
  3
GouraudWithEdges
350
25D
  3
Linepattern
350
267
  3
Realistic
350
263
  3
Thicken
350
266
  0
DICTIONARY
  5
111
102
{ACAD_REACTORS
330
C
102
}
330
C
100
AcDbDictionary
281
     1
  3
CTABLESTYLE
350
33E
  3
DIMASSOC
350
112
  3
INDEXCTL
350
340
  3
SORTENTS
350
33F
  0
XRECORD
  5
341
102
{ACAD_REACTORS
330
C
102
}
330
C
100
AcDbXrecord
280
     1
  1
DWGPROPS COOKIE
  2

  3

  4

  6

  7

  8
Yu Hu
  9

300
=
301
=
302
=
303
=
304
=
305
=
306
=
307
=
308
=
309
=
 40
0.0809639699074074
 41
2450374.476542824
 42
2453950.924199248
  1

 90
        0
  0
XRECORD
  5
24F
102
{ACAD_REACTORS
330
10B
102
}
330
10B
100
AcDbXrecord
280
     1
340
18
  0
XRECORD
  5
24E
102
{ACAD_REACTORS
330
109
102
}
330
109
100
AcDbXrecord
280
     1
340
15
  0
LAYOUT
  5
B3
102
{ACAD_XDICTIONARY
360
344
102
}
102
{ACAD_REACTORS
330
B0
102
}
330
B0
100
AcDbPlotSettings
  1

  2
Fax
  4

  6

 40
0.0
 41
0.0
 42
0.0
 43
0.0
 44
0.0
 45
0.0
 46
0.0
 47
0.0
 48
0.0
 49
0.0
140
0.0
141
0.0
142
1.0
143
1.0
 70
   688
 72
     0
 73
     0
 74
     5
  7
Default R14 pen assignments.ctb
 75
    16
147
1.0
148
0.0
149
0.0
100
AcDbLayout
  1
Layout1
 70
     1
 71
     1
 10
0.0
 20
0.0
 11
12.0
 21
9.0
 12
0.0
 22
0.0
 32
0.0
 14
1.000000000000000E+20
 24
1.000000000000000E+20
 34
1.000000000000000E+20
 15
-1.000000000000000E+20
 25
-1.000000000000000E+20
 35
-1.000000000000000E+20
146
0.0
 13
0.0
 23
0.0
 33
0.0
 16
1.0
 26
0.0
 36
0.0
 17
0.0
 27
1.0
 37
0.0
 76
     0
330
15
  0
LAYOUT
  5
B2
102
{ACAD_XDICTIONARY
360
342
102
}
102
{ACAD_REACTORS
330
B0
102
}
330
B0
100
AcDbPlotSettings
  1

  2
Fax
  4

  6

 40
0.0
 41
0.0
 42
0.0
 43
0.0
 44
0.0
 45
0.0
 46
0.0
 47
0.0
 48
0.0
 49
0.0
140
0.0
141
0.0
142
1.0
143
1.0
 70
  1712
 72
     0
 73
     0
 74
     0
  7
Default R14 pen assignments.ctb
 75
     0
147
1.0
148
0.0
149
0.0
100
AcDbLayout
  1
Model
 70
     1
 71
     0
 10
0.0
 20
0.0
 11
12.0
 21
9.0
 12
0.0
 22
0.0
 32
0.0
 14
0.0
 24
0.0
 34
0.0
 15
0.0
 25
0.0
 35
0.0
146
0.0
 13
0.0
 23
0.0
 33
0.0
 16
1.0
 26
0.0
 36
0.0
 17
0.0
 27
1.0
 37
0.0
 76
     0
330
18
331
229
  0
MATERIAL
  5
257
102
{ACAD_XDICTIONARY
360
348
102
}
102
{ACAD_REACTORS
330
255
102
}
330
255
100
AcDbMaterial
  1
ByBlock
  0
MATERIAL
  5
256
102
{ACAD_XDICTIONARY
360
346
102
}
102
{ACAD_REACTORS
330
255
102
}
330
255
100
AcDbMaterial
  1
ByLayer
  0
MATERIAL
  5
258
102
{ACAD_XDICTIONARY
360
34A
102
}
102
{ACAD_REACTORS
330
255
102
}
330
255
100
AcDbMaterial
  1
Global
  0
MLINESTYLE
  5
1B
102
{ACAD_REACTORS
330
E
102
}
330
E
100
AcDbMlineStyle
  2
STANDARD
 70
     0
  3

 62
     0
 51
90.0
 52
90.0
 71
     2
 49
0.5
 62
   256
  6
BYLAYER
 49
-0.5
 62
   256
  6
BYLAYER
  0
ACDBPLACEHOLDER
  5
AF
102
{ACAD_REACTORS
330
AE
102
}
330
AE
  0
TABLESTYLE
  5
26C
102
{ACAD_XDICTIONARY
360
34C
102
}
102
{ACAD_REACTORS
330
26B
102
}
330
26B
100
AcDbTableStyle
  3
Standard
 70
     0
 71
     0
 40
0.06
 41
0.06
280
     0
281
     0
  7
STANDARD
140
0.18
170
     2
 62
     0
 63
     7
283
     0
274
    -2
284
     1
 64
     0
275
    -2
285
     1
 65
     0
276
    -2
286
     1
 66
     0
277
    -2
287
     1
 67
     0
278
    -2
288
     1
 68
     0
279
    -2
289
     1
 69
     0
  7
STANDARD
140
0.25
170
     5
 62
     0
 63
     7
283
     0
274
    -2
284
     1
 64
     0
275
    -2
285
     1
 65
     0
276
    -2
286
     1
 66
     0
277
    -2
287
     1
 67
     0
278
    -2
288
     1
 68
     0
279
    -2
289
     1
 69
     0
  7
STANDARD
140
0.18
170
     5
 62
     0
 63
     7
283
     0
274
    -2
284
     1
 64
     0
275
    -2
285
     1
 65
     0
276
    -2
286
     1
 66
     0
277
    -2
287
     1
 67
     0
278
    -2
288
     1
 68
     0
279
    -2
289
     1
 69
     0
  0
VISUALSTYLE
  5
25F
102
{ACAD_REACTORS
330
259
102
}
330
259
100
AcDbVisualStyle
  2
2dWireframe
 70
     4
 71
     0
 72
     2
 73
     0
 90
        0
 40
-0.6
 41
-30.0
 62
     5
 63
     7
 74
     1
 91
        4
 64
     7
 65
   257
 75
     1
175
     1
 42
1.0
 92
        0
 66
   257
 43
1.0
 76
     1
 77
     6
 78
     2
 67
     7
 79
     5
170
     0
171
     0
290
     0
174
     0
 93
        1
 44
0.0
173
     0
291
     0
 45
0.0
1001
ACAD
1000
AcDbSavedByObjectVersion
1070
     0
  0
VISUALSTYLE
  5
261
102
{ACAD_REACTORS
330
259
102
}
330
259
100
AcDbVisualStyle
  2
3D Hidden
 70
     6
 71
     1
 72
     2
 73
     2
 90
        0
 40
-0.6
 41
-30.0
 62
     5
 63
     7
 74
     2
 91
        2
 64
     7
 65
   257
 75
     2
175
     1
 42
40.0
 92
        0
 66
   257
 43
1.0
 76
     1
 77
     6
 78
     2
 67
     7
 79
     3
170
     0
171
     0
290
     0
174
     0
 93
        1
 44
0.0
173
     0
291
     0
 45
0.0
1001
ACAD
1000
AcDbSavedByObjectVersion
1070
     0
  0
VISUALSTYLE
  5
260
102
{ACAD_REACTORS
330
259
102
}
330
259
100
AcDbVisualStyle
  2
3dWireframe
 70
     5
 71
     0
 72
     2
 73
     0
 90
        0
 40
-0.6
 41
-30.0
 62
     5
 63
     7
 74
     1
 91
        4
 64
     7
 65
   257
 75
     1
175
     1
 42
1.0
 92
        0
 66
   257
 43
1.0
 76
     1
 77
     6
 78
     2
 67
     7
 79
     5
170
     0
171
     0
290
     0
174
     0
 93
        1
 44
0.0
173
     0
291
     0
 45
0.0
1001
ACAD
1000
AcDbSavedByObjectVersion
1070
     0
  0
VISUALSTYLE
  5
25E
102
{ACAD_REACTORS
330
259
102
}
330
259
100
AcDbVisualStyle
  2
Basic
 70
     7
 71
     1
 72
     0
 73
     1
 90
        0
 40
-0.6
 41
-30.0
 62
     5
 63
     7
 74
     0
 91
        4
 64
     7
 65
   257
 75
     1
175
     1
 42
1.0
 92
        8
 66
     7
 43
1.0
 76
     1
 77
     6
 78
     2
 67
     7
 79
     5
170
     0
171
     0
290
     0
174
     0
 93
        1
 44
0.0
173
     0
291
     1
 45
0.0
1001
ACAD
1000
AcDbSavedByObjectVersion
1070
     0
  0
VISUALSTYLE
  5
265
102
{ACAD_REACTORS
330
259
102
}
330
259
100
AcDbVisualStyle
  2
Brighten
 70
    12
 71
     2
 72
     2
 73
     0
 90
        0
 40
-0.6
 41
-30.0
 62
     5
 63
     7
 74
     1
 91
        4
 64
     7
 65
   257
 75
     1
175
     1
 42
1.0
 92
        8
 66
     7
 43
1.0
 76
     1
 77
     6
 78
     2
 67
     7
 79
     5
170
     0
171
     0
290
     0
174
     0
 93
        1
 44
50.0
173
     0
291
     1
 45
0.0
1001
ACAD
1000
AcDbSavedByObjectVersion
1070
     0
  0
VISUALSTYLE
  5
269
102
{ACAD_REACTORS
330
259
102
}
330
259
100
AcDbVisualStyle
  2
ColorChange
 70
    16
 71
     2
 72
     2
 73
     3
 90
        0
 40
-0.6
 41
-30.0
 62
     5
 63
     8
 74
     1
 91
        4
 64
     7
 65
   257
 75
     1
175
     1
 42
1.0
 92
        8
 66
     8
 43
1.0
 76
     1
 77
     6
 78
     2
 67
     7
 79
     5
170
     0
171
     0
290
     0
174
     0
 93
        1
 44
0.0
173
     0
291
     1
 45
0.0
1001
ACAD
1000
AcDbSavedByObjectVersion
1070
     0
  0
VISUALSTYLE
  5
262
102
{ACAD_REACTORS
330
259
102
}
330
259
100
AcDbVisualStyle
  2
Conceptual
 70
     9
 71
     3
 72
     2
 73
     0
 90
        0
 40
-0.6
 41
-30.0
 62
     5
 63
     7
 74
     2
 91
        2
 64
     7
 65
   257
 75
     1
175
     1
 42
40.0
 92
        8
 66
     7
 43
1.0
 76
     1
 77
     6
 78
     2
 67
     7
 79
     3
170
     0
171
     0
290
     0
174
     0
 93
        1
 44
0.0
173
     0
291
     0
 45
0.0
1001
ACAD
1000
AcDbSavedByObjectVersion
1070
     0
  0
VISUALSTYLE
  5
264
102
{ACAD_REACTORS
330
259
102
}
330
259
100
AcDbVisualStyle
  2
Dim
 70
    11
 71
     2
 72
     2
 73
     0
 90
        0
 40
-0.6
 41
-30.0
 62
     5
 63
     7
 74
     1
 91
        4
 64
     7
 65
   257
 75
     1
175
     1
 42
1.0
 92
        8
 66
     7
 43
1.0
 76
     1
 77
     6
 78
     2
 67
     7
 79
     5
170
     0
171
     0
290
     0
174
     0
 93
        1
 44
-50.0
173
     0
291
     1
 45
0.0
1001
ACAD
1000
AcDbSavedByObjectVersion
1070
     0
  0
VISUALSTYLE
  5
268
102
{ACAD_REACTORS
330
259
102
}
330
259
100
AcDbVisualStyle
  2
Facepattern
 70
    15
 71
     2
 72
     2
 73
     0
 90
        0
 40
-0.6
 41
-30.0
 62
     5
 63
     7
 74
     1
 91
        4
 64
     7
 65
   257
 75
     1
175
     1
 42
1.0
 92
        8
 66
     7
 43
1.0
 76
     1
 77
     6
 78
     2
 67
     7
 79
     5
170
     0
171
     0
290
     0
174
     0
 93
        1
 44
0.0
173
     0
291
     1
 45
0.0
1001
ACAD
1000
AcDbSavedByObjectVersion
1070
     0
  0
VISUALSTYLE
  5
25A
102
{ACAD_REACTORS
330
259
102
}
330
259
100
AcDbVisualStyle
  2
Flat
 70
     0
 71
     2
 72
     1
 73
     1
 90
        2
 40
-0.6
 41
30.0
 62
     5
 63
     7
 74
     0
 91
        4
 64
     7
 65
   257
 75
     1
175
     1
 42
1.0
 92
        8
 66
     7
 43
1.0
 76
     1
 77
     6
 78
     2
 67
     7
 79
     5
170
     0
171
     0
290
     0
174
     0
 93
       13
 44
0.0
173
     0
291
     1
 45
0.0
1001
ACAD
1000
AcDbSavedByObjectVersion
1070
     0
  0
VISUALSTYLE
  5
25B
102
{ACAD_REACTORS
330
259
102
}
330
259
100
AcDbVisualStyle
  2
FlatWithEdges
 70
     1
 71
     2
 72
     1
 73
     1
 90
        2
 40
-0.6
 41
30.0
 62
     5
 63
     7
 74
     1
 91
        4
 64
     7
 65
   257
 75
     1
175
     1
 42
1.0
 92
        0
 66
   257
 43
1.0
 76
     1
 77
     6
 78
     2
 67
     7
 79
     5
170
     0
171
     0
290
     0
174
     0
 93
       13
 44
0.0
173
     0
291
     1
 45
0.0
1001
ACAD
1000
AcDbSavedByObjectVersion
1070
     0
  0
VISUALSTYLE
  5
25C
102
{ACAD_REACTORS
330
259
102
}
330
259
100
AcDbVisualStyle
  2
Gouraud
 70
     2
 71
     2
 72
     2
 73
     1
 90
        2
 40
-0.6
 41
30.0
 62
     5
 63
     7
 74
     0
 91
        4
 64
     7
 65
   257
 75
     1
175
     1
 42
1.0
 92
        0
 66
     7
 43
1.0
 76
     1
 77
     6
 78
     2
 67
     7
 79
     5
170
     0
171
     0
290
     0
174
     0
 93
       13
 44
0.0
173
     0
291
     1
 45
0.0
1001
ACAD
1000
AcDbSavedByObjectVersion
1070
     0
  0
VISUALSTYLE
  5
25D
102
{ACAD_REACTORS
330
259
102
}
330
259
100
AcDbVisualStyle
  2
GouraudWithEdges
 70
     3
 71
     2
 72
     2
 73
     1
 90
        2
 40
-0.6
 41
30.0
 62
     5
 63
     7
 74
     1
 91
        4
 64
     7
 65
   257
 75
     1
175
     1
 42
1.0
 92
        0
 66
   257
 43
1.0
 76
     1
 77
     6
 78
     2
 67
     7
 79
     5
170
     0
171
     0
290
     0
174
     0
 93
       13
 44
0.0
173
     0
291
     1
 45
0.0
1001
ACAD
1000
AcDbSavedByObjectVersion
1070
     0
  0
VISUALSTYLE
  5
267
102
{ACAD_REACTORS
330
259
102
}
330
259
100
AcDbVisualStyle
  2
Linepattern
 70
    14
 71
     2
 72
     2
 73
     0
 90
        0
 40
-0.6
 41
-30.0
 62
     5
 63
     7
 74
     1
 91
        4
 64
     7
 65
   257
 75
     7
175
     7
 42
1.0
 92
        8
 66
     7
 43
1.0
 76
     1
 77
     6
 78
     2
 67
     7
 79
     5
170
     0
171
     0
290
     0
174
     0
 93
        1
 44
0.0
173
     0
291
     1
 45
0.0
1001
ACAD
1000
AcDbSavedByObjectVersion
1070
     0
  0
VISUALSTYLE
  5
263
102
{ACAD_REACTORS
330
259
102
}
330
259
100
AcDbVisualStyle
  2
Realistic
 70
     8
 71
     2
 72
     2
 73
     0
 90
        0
 40
-0.6
 41
-30.0
 62
     5
 63
     7
 74
     1
 91
        0
 64
     7
 65
   257
 75
     1
175
     1
 42
1.0
 92
        8
 66
     8
 43
1.0
 76
     1
 77
     6
 78
     2
 67
     7
 79
     5
170
     0
171
     0
290
     0
174
     0
 93
       13
 44
0.0
173
     0
291
     0
 45
0.0
1001
ACAD
1000
AcDbSavedByObjectVersion
1070
     0
  0
VISUALSTYLE
  5
266
102
{ACAD_REACTORS
330
259
102
}
330
259
100
AcDbVisualStyle
  2
Thicken
 70
    13
 71
     2
 72
     2
 73
     0
 90
        0
 40
-0.6
 41
-30.0
 62
     5
 63
     7
 74
     1
 91
        4
 64
     7
 65
   257
 75
     1
175
     1
 42
1.0
 92
       12
 66
     7
 43
1.0
 76
     1
 77
     6
 78
     2
 67
     7
 79
     5
170
     0
171
     0
290
     0
174
     0
 93
        1
 44
0.0
173
     0
291
     1
 45
0.0
1001
ACAD
1000
AcDbSavedByObjectVersion
1070
     0
  0
DICTIONARYVAR
  5
33E
102
{ACAD_REACTORS
330
111
102
}
330
111
100
DictionaryVariables
280
     0
  1
STANDARD
  0
DICTIONARYVAR
  5
112
102
{ACAD_REACTORS
330
111
102
}
330
111
100
DictionaryVariables
280
     0
  1
1
  0
DICTIONARYVAR
  5
340
102
{ACAD_REACTORS
330
111
102
}
330
111
100
DictionaryVariables
280
     0
  1
0
  0
DICTIONARYVAR
  5
33F
102
{ACAD_REACTORS
330
111
102
}
330
111
100
DictionaryVariables
280
     0
  1
127
  0
DICTIONARY
  5
344
330
B3
100
AcDbDictionary
280
     1
281
     1
  3
ACAD_XREC_ROUNDTRIP
360
345
  0
DICTIONARY
  5
342
330
B2
100
AcDbDictionary
280
     1
281
     1
  3
ACAD_XREC_ROUNDTRIP
360
343
  0
DICTIONARY
  5
348
330
257
100
AcDbDictionary
280
     1
281
     1
  3
ACAD_XREC_ROUNDTRIP
360
349
  0
DICTIONARY
  5
346
330
256
100
AcDbDictionary
280
     1
281
     1
  3
ACAD_XREC_ROUNDTRIP
360
347
  0
DICTIONARY
  5
34A
330
258
100
AcDbDictionary
280
     1
281
     1
  3
ACAD_XREC_ROUNDTRIP
360
34B
  0
DICTIONARY
  5
34C
330
26C
100
AcDbDictionary
280
     1
281
     1
  3
ACAD_XREC_ROUNDTRIP
360
34D
  0
XRECORD
  5
345
102
{ACAD_REACTORS
330
344
102
}
330
344
100
AcDbXrecord
280
     1
102
SHADEPLOT
 70
     0
102
SHADEPLOTRESLEVEL
 70
     2
102
SHADEPLOTCUSTOMDPI
 70
   300
  0
XRECORD
  5
343
102
{ACAD_REACTORS
330
342
102
}
330
342
100
AcDbXrecord
280
     1
102
SHADEPLOT
 70
     0
102
SHADEPLOTRESLEVEL
 70
     2
102
SHADEPLOTCUSTOMDPI
 70
   300
  0
XRECORD
  5
349
102
{ACAD_REACTORS
330
348
102
}
330
348
100
AcDbXrecord
280
     1
102
MATERIAL
148
0.0
149
0.0
149
0.0
 93
        0
 94
       63
282
     0
 72
     1
 77
     1
171
     1
175
     1
179
     1
273
     0
  0
XRECORD
  5
347
102
{ACAD_REACTORS
330
346
102
}
330
346
100
AcDbXrecord
280
     1
102
MATERIAL
148
0.0
149
0.0
149
0.0
 93
        0
 94
       63
282
     0
 72
     1
 77
     1
171
     1
175
     1
179
     1
273
     0
  0
XRECORD
  5
34B
102
{ACAD_REACTORS
330
34A
102
}
330
34A
100
AcDbXrecord
280
     1
102
MATERIAL
148
0.0
149
0.0
149
0.0
 93
        0
 94
       63
282
     0
 72
     1
 77
     1
171
     1
175
     1
179
     1
273
     0
  0
XRECORD
  5
34D
102
{ACAD_REACTORS
330
34C
102
}
330
34C
100
AcDbXrecord
280
     1
102
ACAD_ROUNDTRIP_PRE2007_TABLESTYLE
 90
      512
 91
        0
  1

 92
      512
 93
        0
  2

 94
      512
 95
        0
  3

  0
ENDSEC
  0
EOF
