  0
SECTION
  2
HEADER
  9
$ACADVER
  1
AC1015
  9
$ACADMAINTVER
 70
    20
  9
$DWGCODEPAGE
  3
ANSI_1252
  9
$INSBASE
 10
10.03316908994668
 20
4.70008402565048
 30
0.0
  9
$EXTMIN
 10
-90.74066631675362
 20
-0.1457181808202367
 30
0.0
  9
$EXTMAX
 10
-25.48337607118746
 20
44.56318896006433
 30
0.0
  9
$LIMMIN
 10
0.0
 20
0.0
  9
$LIMMAX
 10
36.0
 20
36.0
  9
$ORTHOMODE
 70
     0
  9
$REGENMODE
 70
     1
  9
$FILLMODE
 70
     1
  9
$QTEXTMODE
 70
     0
  9
$MIRRTEXT
 70
     1
  9
$LTSCALE
 40
1.0
  9
$ATTMODE
 70
     1
  9
$TEXTSIZE
 40
0.2
  9
$TRACEWID
 40
0.05
  9
$TEXTSTYLE
  7
STANDARD
  9
$CLAYER
  8
ADP1DETAIL
  9
$CELTYPE
  6
BYLAYER
  9
$CECOLOR
 62
   256
  9
$CELTSCALE
 40
1.0
  9
$DISPSILH
 70
     0
  9
$DIMSCALE
 40
1.0
  9
$DIMASZ
 40
0.125
  9
$DIMEXO
 40
0.0625
  9
$DIMDLI
 40
0.38
  9
$DIMRND
 40
0.0
  9
$DIMDLE
 40
0.0
  9
$DIMEXE
 40
0.18
  9
$DIMTP
 40
0.0
  9
$DIMTM
 40
0.0
  9
$DIMTXT
 40
0.125
  9
$DIMCEN
 40
0.1875
  9
$DIMTSZ
 40
0.125
  9
$DIMTOL
 70
     0
  9
$DIMLIM
 70
     0
  9
$DIMTIH
 70
     0
  9
$DIMTOH
 70
     0
  9
$DIMSE1
 70
     0
  9
$DIMSE2
 70
     0
  9
$DIMTAD
 70
     0
  9
$DIMZIN
 70
     3
  9
$DIMBLK
  1

  9
$DIMASO
 70
     1
  9
$DIMSHO
 70
     1
  9
$DIMPOST
  1

  9
$DIMAPOST
  1

  9
$DIMALT
 70
     0
  9
$DIMALTD
 70
     1
  9
$DIMALTF
 40
25.4
  9
$DIMLFAC
 40
1.0
  9
$DIMTOFL
 70
     0
  9
$DIMTVP
 40
0.0
  9
$DIMTIX
 70
     0
  9
$DIMSOXD
 70
     0
  9
$DIMSAH
 70
     0
  9
$DIMBLK1
  1

  9
$DIMBLK2
  1

  9
$DIMSTYLE
  2
STANDARD
  9
$DIMCLRD
 70
     0
  9
$DIMCLRE
 70
     0
  9
$DIMCLRT
 70
     0
  9
$DIMTFAC
 40
1.0
  9
$DIMGAP
 40
0.125
  9
$DIMJUST
 70
     0
  9
$DIMSD1
 70
     0
  9
$DIMSD2
 70
     0
  9
$DIMTOLJ
 70
     1
  9
$DIMTZIN
 70
     3
  9
$DIMALTZ
 70
     3
  9
$DIMALTTZ
 70
     3
  9
$DIMUPT
 70
     0
  9
$DIMDEC
 70
     4
  9
$DIMTDEC
 70
     4
  9
$DIMALTU
 70
     5
  9
$DIMALTTD
 70
     1
  9
$DIMTXSTY
  7
STANDARD
  9
$DIMAUNIT
 70
     0
  9
$DIMADEC
 70
     0
  9
$DIMALTRND
 40
0.0
  9
$DIMAZIN
 70
     0
  9
$DIMDSEP
 70
    46
  9
$DIMATFIT
 70
     3
  9
$DIMFRAC
 70
     0
  9
$DIMLDRBLK
  1

  9
$DIMLUNIT
 70
     5
  9
$DIMLWD
 70
    -2
  9
$DIMLWE
 70
    -2
  9
$DIMTMOVE
 70
     2
  9
$LUNITS
 70
     5
  9
$LUPREC
 70
     4
  9
$SKETCHINC
 40
0.1
  9
$FILLETRAD
 40
0.0
  9
$AUNITS
 70
     0
  9
$AUPREC
 70
     0
  9
$MENU
  1
acad
  9
$ELEVATION
 40
0.0
  9
$PELEVATION
 40
0.0
  9
$THICKNESS
 40
0.0
  9
$LIMCHECK
 70
     0
  9
$CHAMFERA
 40
0.0
  9
$CHAMFERB
 40
0.0
  9
$CHAMFERC
 40
0.0
  9
$CHAMFERD
 40
0.0
  9
$SKPOLY
 70
     0
  9
$TDCREATE
 40
2450373.679054004
  9
$TDUCREATE
 40
2450373.845720671
  9
$TDUPDATE
 40
2453950.907621123
  9
$TDUUPDATE
 40
2453951.074287790
  9
$TDINDWG
 40
0.1823092477
  9
$TDUSRTIMER
 40
0.1823092477
  9
$USRTIMER
 70
     1
  9
$ANGBASE
 50
0.0
  9
$ANGDIR
 70
     0
  9
$PDMODE
 70
     0
  9
$PDSIZE
 40
0.0
  9
$PLINEWID
 40
0.0
  9
$SPLFRAME
 70
     0
  9
$SPLINETYPE
 70
     6
  9
$SPLINESEGS
 70
     8
  9
$HANDSEED
  5
BF8
  9
$SURFTAB1
 70
     6
  9
$SURFTAB2
 70
     6
  9
$SURFTYPE
 70
     6
  9
$SURFU
 70
     6
  9
$SURFV
 70
     6
  9
$UCSBASE
  2

  9
$UCSNAME
  2

  9
$UCSORG
 10
0.0
 20
0.0
 30
0.0
  9
$UCSXDIR
 10
1.0
 20
0.0
 30
0.0
  9
$UCSYDIR
 10
0.0
 20
1.0
 30
0.0
  9
$UCSORTHOREF
  2

  9
$UCSORTHOVIEW
 70
     0
  9
$UCSORGTOP
 10
0.0
 20
0.0
 30
0.0
  9
$UCSORGBOTTOM
 10
0.0
 20
0.0
 30
0.0
  9
$UCSORGLEFT
 10
0.0
 20
0.0
 30
0.0
  9
$UCSORGRIGHT
 10
0.0
 20
0.0
 30
0.0
  9
$UCSORGFRONT
 10
0.0
 20
0.0
 30
0.0
  9
$UCSORGBACK
 10
0.0
 20
0.0
 30
0.0
  9
$PUCSBASE
  2

  9
$PUCSNAME
  2

  9
$PUCSORG
 10
0.0
 20
0.0
 30
0.0
  9
$PUCSXDIR
 10
1.0
 20
0.0
 30
0.0
  9
$PUCSYDIR
 10
0.0
 20
1.0
 30
0.0
  9
$PUCSORTHOREF
  2

  9
$PUCSORTHOVIEW
 70
     0
  9
$PUCSORGTOP
 10
0.0
 20
0.0
 30
0.0
  9
$PUCSORGBOTTOM
 10
0.0
 20
0.0
 30
0.0
  9
$PUCSORGLEFT
 10
0.0
 20
0.0
 30
0.0
  9
$PUCSORGRIGHT
 10
0.0
 20
0.0
 30
0.0
  9
$PUCSORGFRONT
 10
0.0
 20
0.0
 30
0.0
  9
$PUCSORGBACK
 10
0.0
 20
0.0
 30
0.0
  9
$USERI1
 70
     0
  9
$USERI2
 70
     0
  9
$USERI3
 70
     0
  9
$USERI4
 70
     0
  9
$USERI5
 70
     0
  9
$USERR1
 40
0.0
  9
$USERR2
 40
0.0
  9
$USERR3
 40
0.0
  9
$USERR4
 40
0.0
  9
$USERR5
 40
0.0
  9
$WORLDVIEW
 70
     1
  9
$SHADEDGE
 70
     3
  9
$SHADEDIF
 70
    70
  9
$TILEMODE
 70
     1
  9
$MAXACTVP
 70
    15
  9
$PINSBASE
 10
1.667196317885515E+99
 20
2.439420651286265E+99
 30
0.0
  9
$PLIMCHECK
 70
     0
  9
$PEXTMIN
 10
1.000000000000000E+20
 20
1.000000000000000E+20
 30
1.000000000000000E+20
  9
$PEXTMAX
 10
-1.000000000000000E+20
 20
-1.000000000000000E+20
 30
-1.000000000000000E+20
  9
$PLIMMIN
 10
0.0
 20
0.0
  9
$PLIMMAX
 10
12.0
 20
9.0
  9
$UNITMODE
 70
     0
  9
$VISRETAIN
 70
     0
  9
$PLINEGEN
 70
     0
  9
$PSLTSCALE
 70
     1
  9
$TREEDEPTH
 70
  3020
  9
$CMLSTYLE
  2
STANDARD
  9
$CMLJUST
 70
     0
  9
$CMLSCALE
 40
1.0
  9
$PROXYGRAPHICS
 70
     1
  9
$MEASUREMENT
 70
     0
  9
$CELWEIGHT
370
    -1
  9
$ENDCAPS
280
     0
  9
$JOINSTYLE
280
     0
  9
$LWDISPLAY
290
     0
  9
$INSUNITS
 70
     0
  9
$HYPERLINKBASE
  1

  9
$STYLESHEET
  1

  9
$XEDIT
290
     1
  9
$CEPSNTYPE
380
     0
  9
$PSTYLEMODE
290
     1
  9
$FINGERPRINTGUID
  2
{07C6AD2D-623D-48AD-BC4D-1D7E5F13231B}
  9
$VERSIONGUID
  2
{4F063E8B-8B13-4229-8CE3-75536C9BB2F9}
  9
$EXTNAMES
290
     1
  9
$PSVPSCALE
 40
0.0
  9
$OLESTARTUP
290
     0
  0
ENDSEC
  0
SECTION
  2
CLASSES
  0
CLASS
  1
DICTIONARYVAR
  2
AcDbDictionaryVar
  3
ObjectDBX Classes
 90
        0
280
     0
281
     0
  0
CLASS
  1
ACDBDICTIONARYWDFLT
  2
AcDbDictionaryWithDefault
  3
ObjectDBX Classes
 90
        0
280
     0
281
     0
  0
CLASS
  1
ACDBPLACEHOLDER
  2
AcDbPlaceHolder
  3
ObjectDBX Classes
 90
        0
280
     0
281
     0
  0
CLASS
  1
LAYOUT
  2
AcDbLayout
  3
ObjectDBX Classes
 90
        0
280
     0
281
     0
  0
CLASS
  1
MATERIAL
  2
AcDbMaterial
  3
ObjectDBX Classes
 90
     1024
280
     0
281
     0
  0
CLASS
  1
VISUALSTYLE
  2
AcDbVisualStyle
  3
ObjectDBX Classes
 90
     4095
280
     0
281
     0
  0
CLASS
  1
TABLESTYLE
  2
AcDbTableStyle
  3
ObjectDBX Classes
 90
     4095
280
     0
281
     0
  0
ENDSEC
  0
SECTION
  2
TABLES
  0
TABLE
  2
VPORT
  5
8
330
0
100
AcDbSymbolTable
 70
     1
  0
VPORT
  5
ABE
330
8
100
AcDbSymbolTableRecord
100
AcDbViewportTableRecord
  2
*Active
 70
     0
 10
0.0
 20
0.0
 11
1.0
 21
1.0
 12
-58.47857865861529
 22
28.74648957330945
 13
0.0
 23
0.0
 14
0.5740882589684922
 24
0.5740882589684922
 15
0.5
 25
0.5
 16
0.0
 26
0.0
 36
1.0
 17
0.0
 27
0.0
 37
0.0
 40
18.53383958192663
 41
1.774011299435028
 42
50.0
 43
0.0
 44
0.0
 50
0.0
 51
0.0
 71
     0
 72
   100
 73
     1
 74
     0
 75
     0
 76
     0
 77
     0
 78
     0
281
     0
 65
     1
110
0.0
120
0.0
130
0.0
111
1.0
121
0.0
131
0.0
112
0.0
122
1.0
132
0.0
 79
     0
146
0.0
  0
ENDTAB
  0
TABLE
  2
LTYPE
  5
5
330
0
100
AcDbSymbolTable
 70
     2
  0
LTYPE
  5
11
330
5
100
AcDbSymbolTableRecord
100
AcDbLinetypeTableRecord
  2
BYBLOCK
 70
     0
  3

 72
    65
 73
     0
 40
0.0
  0
LTYPE
  5
12
330
5
100
AcDbSymbolTableRecord
100
AcDbLinetypeTableRecord
  2
BYLAYER
 70
     0
  3

 72
    65
 73
     0
 40
0.0
  0
LTYPE
  5
13
330
5
100
AcDbSymbolTableRecord
100
AcDbLinetypeTableRecord
  2
CONTINUOUS
 70
     0
  3
Solid line
 72
    65
 73
     0
 40
0.0
  0
ENDTAB
  0
TABLE
  2
LAYER
  5
2
330
0
100
AcDbSymbolTable
 70
     4
  0
LAYER
  5
E
330
2
100
AcDbSymbolTableRecord
100
AcDbLayerTableRecord
  2
0
 70
     0
 62
     7
  6
CONTINUOUS
370
    -3
390
8F9
  0
LAYER
  5
20
330
2
100
AcDbSymbolTableRecord
100
AcDbLayerTableRecord
  2
ADPDIM
 70
     0
 62
     3
  6
CONTINUOUS
370
    -3
390
8F9
  0
LAYER
  5
21
330
2
100
AcDbSymbolTableRecord
100
AcDbLayerTableRecord
  2
ADP1DETAIL
 70
     0
 62
     7
  6
CONTINUOUS
370
    -3
390
8F9
  0
LAYER
  5
22
330
2
100
AcDbSymbolTableRecord
100
AcDbLayerTableRecord
  2
DEFPOINTS
 70
     0
 62
     7
  6
CONTINUOUS
290
     0
370
    -3
390
8F9
  0
ENDTAB
  0
TABLE
  2
STYLE
  5
3
330
0
100
AcDbSymbolTable
 70
     2
  0
STYLE
  5
F
330
3
100
AcDbSymbolTableRecord
100
AcDbTextStyleTableRecord
  2
STANDARD
 70
     0
 40
0.0
 41
1.0
 50
0.0
 71
     0
 42
0.2
  3
txt
  4

  0
STYLE
  5
900
330
3
100
AcDbSymbolTableRecord
100
AcDbTextStyleTableRecord
  2
ARIAL_WIDE
 70
     0
 40
0.0
 41
1.25
 50
0.0
 71
     0
 42
0.2
  3
ARIAL.TTF
  4

1001
ACAD
1000
Arial
1071
       34
  0
ENDTAB
  0
TABLE
  2
VIEW
  5
6
330
0
100
AcDbSymbolTable
 70
     0
  0
ENDTAB
  0
TABLE
  2
UCS
  5
7
330
0
100
AcDbSymbolTable
 70
     0
  0
ENDTAB
  0
TABLE
  2
APPID
  5
9
330
0
100
AcDbSymbolTable
 70
     2
  0
APPID
  5
10
330
9
100
AcDbSymbolTableRecord
100
AcDbRegAppTableRecord
  2
ACAD
 70
     0
  0
APPID
  5
BC8
330
9
100
AcDbSymbolTableRecord
100
AcDbRegAppTableRecord
  2
ACAD_EXEMPT_FROM_CAD_STANDARDS
 70
     0
  0
ENDTAB
  0
TABLE
  2
DIMSTYLE
  5
A
330
0
100
AcDbSymbolTable
 70
     2
100
AcDbDimStyleTable
 71
     1
340
57
  0
DIMSTYLE
105
57
102
{ACAD_REACTORS
330
B12
330
B20
330
B55
102
}
330
A
100
AcDbSymbolTableRecord
100
AcDbDimStyleTableRecord
  2
STANDARD
 70
     0
340
F
  0
ENDTAB
  0
TABLE
  2
BLOCK_RECORD
  5
1
330
0
100
AcDbSymbolTable
 70
     6
  0
BLOCK_RECORD
  5
17
102
{ACAD_XDICTIONARY
360
956
102
}
330
1
100
AcDbSymbolTableRecord
100
AcDbBlockTableRecord
  2
*MODEL_SPACE
340
8FC
  0
BLOCK_RECORD
  5
14
102
{ACAD_XDICTIONARY
360
954
102
}
330
1
100
AcDbSymbolTableRecord
100
AcDbBlockTableRecord
  2
*PAPER_SPACE
340
8FD
  0
BLOCK_RECORD
  5
B13
330
1
100
AcDbSymbolTableRecord
100
AcDbBlockTableRecord
  2
*D0
340
0
  0
BLOCK_RECORD
  5
B21
330
1
100
AcDbSymbolTableRecord
100
AcDbBlockTableRecord
  2
*D1
340
0
  0
BLOCK_RECORD
  5
B42
330
1
100
AcDbSymbolTableRecord
100
AcDbBlockTableRecord
  2
*D2
340
0
  0
BLOCK_RECORD
  5
B56
330
1
100
AcDbSymbolTableRecord
100
AcDbBlockTableRecord
  2
*D4
340
0
  0
ENDTAB
  0
ENDSEC
  0
SECTION
  2
BLOCKS
  0
BLOCK
  5
25
330
17
100
AcDbEntity
  8
0
100
AcDbBlockBegin
  2
*MODEL_SPACE
 70
     0
 10
0.0
 20
0.0
 30
0.0
  3
*MODEL_SPACE
  1

  0
ENDBLK
  5
26
330
17
100
AcDbEntity
  8
0
100
AcDbBlockEnd
  0
BLOCK
  5
23
330
14
100
AcDbEntity
 67
     1
  8
0
100
AcDbBlockBegin
  2
*PAPER_SPACE
 70
     0
 10
0.0
 20
0.0
 30
0.0
  3
*PAPER_SPACE
  1

  0
ENDBLK
  5
24
330
14
100
AcDbEntity
 67
     1
  8
0
100
AcDbBlockEnd
  0
BLOCK
  5
B1E
330
B13
100
AcDbEntity
  8
0
 62
     3
100
AcDbBlockBegin
  2
*D0
 70
     1
 10
0.0
 20
0.0
 30
0.0
  3
*D0
  1

  0
LINE
  5
B9F
330
B13
100
AcDbEntity
  8
ADPDIM
 62
     0
370
    -2
100
AcDbLine
 10
-58.42372610194601
 20
44.43818896006433
 30
0.0
 11
-60.08474026283595
 21
44.43818896006433
 31
0.0
  0
LINE
  5
BA0
330
B13
100
AcDbEntity
  8
ADPDIM
 62
     0
370
    -2
100
AcDbLine
 10
-58.56888397739707
 20
2.438188960064341
 30
0.0
 11
-60.08474026283596
 21
2.438188960064341
 31
0.0
  0
LINE
  5
BA1
330
B13
100
AcDbEntity
  8
ADPDIM
 62
     0
370
    -2
100
AcDbLine
 10
-59.90474026283595
 20
44.43818896006433
 30
0.0
 11
-59.90474026283595
 21
23.66735562673101
 31
0.0
  0
LINE
  5
BA2
330
B13
100
AcDbEntity
  8
ADPDIM
 62
     0
370
    -2
100
AcDbLine
 10
-59.90474026283596
 20
2.438188960064341
 30
0.0
 11
-59.90474026283595
 21
23.20902229339767
 31
0.0
  0
LINE
  5
BA3
330
B13
100
AcDbEntity
  8
ADPDIM
 62
     0
370
    -2
100
AcDbLine
 10
-59.77974026283596
 20
2.313188960064341
 30
0.0
 11
-60.02974026283595
 21
2.563188960064341
 31
0.0
  0
LINE
  5
BA4
330
B13
100
AcDbEntity
  8
ADPDIM
 62
     0
370
    -2
100
AcDbLine
 10
-59.77974026283595
 20
44.31318896006433
 30
0.0
 11
-60.02974026283595
 21
44.56318896006433
 31
0.0
  0
MTEXT
  5
BA5
330
B13
100
AcDbEntity
  8
ADPDIM
 62
     0
100
AcDbMText
 10
-59.90474026283596
 20
23.43818896006433
 30
0.0
 40
0.125
 41
0.0
 71
     5
 72
     1
  1
\A1;42
 11
0.0000000000000001
 21
1.0
 31
0.0
 73
     1
 44
1.0
1001
ACAD
1000
MTEXTBEGIN
1070
    73
1070
     1
1070
    44
1040
1.0
1070
    74
1070
     0
1000
MTEXTEND
  0
POINT
  5
BA6
330
B13
100
AcDbEntity
  8
DEFPOINTS
 62
     0
100
AcDbPoint
 10
-58.36122610194601
 20
44.43818896006433
 30
0.0
  0
POINT
  5
BA7
330
B13
100
AcDbEntity
  8
DEFPOINTS
 62
     0
100
AcDbPoint
 10
-58.50638397739707
 20
2.438188960064341
 30
0.0
  0
POINT
  5
BA8
330
B13
100
AcDbEntity
  8
DEFPOINTS
 62
     0
100
AcDbPoint
 10
-59.90474026283596
 20
2.438188960064341
 30
0.0
  0
ENDBLK
  5
B1F
330
B13
100
AcDbEntity
  8
0
 62
     3
100
AcDbBlockEnd
  0
BLOCK
  5
B2C
330
B21
100
AcDbEntity
  8
0
 62
     3
100
AcDbBlockBegin
  2
*D1
 70
     1
 10
0.0
 20
0.0
 30
0.0
  3
*D1
  1

  0
LINE
  5
BB3
330
B21
100
AcDbEntity
  8
ADPDIM
 62
     0
370
    -2
100
AcDbLine
 10
-57.66115512650975
 20
44.41799315222591
 30
0.0
 11
-56.27500174844517
 21
44.41799315222591
 31
0.0
  0
LINE
  5
BB4
330
B21
100
AcDbEntity
  8
ADPDIM
 62
     0
370
    -2
100
AcDbLine
 10
-57.57088679080095
 20
24.15257756554533
 30
0.0
 11
-56.27500174844517
 21
24.15257756554533
 31
0.0
  0
LINE
  5
BB5
330
B21
100
AcDbEntity
  8
ADPDIM
 62
     0
370
    -2
100
AcDbLine
 10
-56.45500174844517
 20
44.41799315222591
 30
0.0
 11
-56.45500174844517
 21
34.73320202555229
 31
0.0
  0
LINE
  5
BB6
330
B21
100
AcDbEntity
  8
ADPDIM
 62
     0
370
    -2
100
AcDbLine
 10
-56.45500174844517
 20
24.15257756554533
 30
0.0
 11
-56.45500174844517
 21
33.83736869221896
 31
0.0
  0
LINE
  5
BB7
330
B21
100
AcDbEntity
  8
ADPDIM
 62
     0
370
    -2
100
AcDbLine
 10
-56.33000174844517
 20
24.02757756554533
 30
0.0
 11
-56.58000174844517
 21
24.27757756554533
 31
0.0
  0
LINE
  5
BB8
330
B21
100
AcDbEntity
  8
ADPDIM
 62
     0
370
    -2
100
AcDbLine
 10
-56.33000174844517
 20
44.29299315222592
 30
0.0
 11
-56.58000174844517
 21
44.54299315222591
 31
0.0
  0
MTEXT
  5
BB9
330
B21
100
AcDbEntity
  8
ADPDIM
 62
     0
100
AcDbMText
 10
-56.45500174844517
 20
34.28528535888561
 30
0.0
 40
0.125
 41
0.0
 71
     5
 72
     1
  1
\A1;20 1/4
 11
0.0000000000000001
 21
1.0
 31
0.0
 73
     1
 44
1.0
1001
ACAD
1000
MTEXTBEGIN
1070
    73
1070
     1
1070
    44
1040
1.0
1070
    74
1070
     0
1000
MTEXTEND
  0
POINT
  5
BBA
330
B21
100
AcDbEntity
  8
DEFPOINTS
 62
     0
100
AcDbPoint
 10
-57.72365512650975
 20
44.41799315222591
 30
0.0
  0
POINT
  5
BBB
330
B21
100
AcDbEntity
  8
DEFPOINTS
 62
     0
100
AcDbPoint
 10
-57.63338679080096
 20
24.15257756554533
 30
0.0
  0
POINT
  5
BBC
330
B21
100
AcDbEntity
  8
DEFPOINTS
 62
     0
100
AcDbPoint
 10
-56.45500174844517
 20
24.15257756554533
 30
0.0
  0
ENDBLK
  5
B2D
330
B21
100
AcDbEntity
  8
0
 62
     3
100
AcDbBlockEnd
  0
BLOCK
  5
B43
330
B42
100
AcDbEntity
  8
0
 62
     3
100
AcDbBlockBegin
  2
*D2
 70
     1
 10
0.0
 20
0.0
 30
0.0
  3
*D2
  1

  0
LINE
  5
B44
330
B42
100
AcDbEntity
  8
ADPDIM
 62
     0
370
    -2
100
AcDbLine
 10
-57.66115512650975
 20
44.41799315222591
 30
0.0
 11
-56.27500174844517
 21
44.41799315222591
 31
0.0
  0
LINE
  5
B45
330
B42
100
AcDbEntity
  8
ADPDIM
 62
     0
370
    -2
100
AcDbLine
 10
-57.30948006836102
 20
24.15257756554533
 30
0.0
 11
-56.27500174844517
 21
24.15257756554533
 31
0.0
  0
LINE
  5
B46
330
B42
100
AcDbEntity
  8
ADPDIM
 62
     0
370
    -2
100
AcDbLine
 10
-56.45500174844517
 20
44.41799315222591
 30
0.0
 11
-56.45500174844517
 21
34.56653535888563
 31
0.0
  0
LINE
  5
B47
330
B42
100
AcDbEntity
  8
ADPDIM
 62
     0
370
    -2
100
AcDbLine
 10
-56.45500174844517
 20
24.15257756554533
 30
0.0
 11
-56.45500174844517
 21
34.00403535888563
 31
0.0
  0
LINE
  5
B48
330
B42
100
AcDbEntity
  8
ADPDIM
 62
     0
370
    -2
100
AcDbLine
 10
-56.33000174844517
 20
24.02757756554533
 30
0.0
 11
-56.58000174844517
 21
24.27757756554533
 31
0.0
  0
LINE
  5
B49
330
B42
100
AcDbEntity
  8
ADPDIM
 62
     0
370
    -2
100
AcDbLine
 10
-56.33000174844517
 20
44.29299315222592
 30
0.0
 11
-56.58000174844517
 21
44.54299315222591
 31
0.0
  0
MTEXT
  5
B4A
330
B42
100
AcDbEntity
  8
ADPDIM
 62
     0
100
AcDbMText
 10
-56.45500174844517
 20
34.28528535888561
 30
0.0
 40
0.125
 41
0.0
 71
     5
 72
     1
  1
\A1;20{\H1.000000x;\S1/4;}
 11
0.0000000000000001
 21
1.0
 31
0.0
 73
     1
 44
1.0
1001
ACAD
1000
MTEXTBEGIN
1070
    73
1070
     1
1070
    44
1040
1.0
1070
    74
1070
     0
1000
MTEXTEND
  0
POINT
  5
B4B
330
B42
100
AcDbEntity
  8
DEFPOINTS
 62
     0
100
AcDbPoint
 10
-57.72365512650975
 20
44.41799315222591
 30
0.0
  0
POINT
  5
B4C
330
B42
100
AcDbEntity
  8
DEFPOINTS
 62
     0
100
AcDbPoint
 10
-57.37198006836102
 20
24.15257756554533
 30
0.0
  0
POINT
  5
B4D
330
B42
100
AcDbEntity
  8
DEFPOINTS
 62
     0
100
AcDbPoint
 10
-56.45500174844517
 20
24.15257756554533
 30
0.0
  0
ENDBLK
  5
B4E
330
B42
100
AcDbEntity
  8
0
 62
     3
100
AcDbBlockEnd
  0
BLOCK
  5
B61
330
B56
100
AcDbEntity
  8
0
100
AcDbBlockBegin
  2
*D4
 70
     1
 10
0.0
 20
0.0
 30
0.0
  3
*D4
  1

  0
LINE
  5
BBD
330
B56
100
AcDbEntity
  8
ADPDIM
 62
     0
370
    -2
100
AcDbLine
 10
-57.57456682367333
 20
22.71357347548184
 30
0.0
 11
-56.27585322869464
 21
22.71357347548184
 31
0.0
  0
LINE
  5
BBE
330
B56
100
AcDbEntity
  8
ADPDIM
 62
     0
370
    -2
100
AcDbLine
 10
-57.78191628599509
 20
2.43818896006434
 30
0.0
 11
-56.27585322869465
 21
2.438188960064339
 31
0.0
  0
LINE
  5
BBF
330
B56
100
AcDbEntity
  8
ADPDIM
 62
     0
370
    -2
100
AcDbLine
 10
-56.45585322869465
 20
22.71357347548184
 30
0.0
 11
-56.45585322869465
 21
13.02379788443975
 31
0.0
  0
LINE
  5
BC0
330
B56
100
AcDbEntity
  8
ADPDIM
 62
     0
370
    -2
100
AcDbLine
 10
-56.45585322869465
 20
2.438188960064339
 30
0.0
 11
-56.45585322869465
 21
12.12796455110642
 31
0.0
  0
LINE
  5
BC1
330
B56
100
AcDbEntity
  8
ADPDIM
 62
     0
370
    -2
100
AcDbLine
 10
-56.33085322869465
 20
2.313188960064339
 30
0.0
 11
-56.58085322869465
 21
2.563188960064339
 31
0.0
  0
LINE
  5
BC2
330
B56
100
AcDbEntity
  8
ADPDIM
 62
     0
370
    -2
100
AcDbLine
 10
-56.33085322869464
 20
22.58857347548184
 30
0.0
 11
-56.58085322869464
 21
22.83857347548184
 31
0.0
  0
MTEXT
  5
BC3
330
B56
100
AcDbEntity
  8
ADPDIM
 62
     0
100
AcDbMText
 10
-56.45585322869465
 20
12.57588121777308
 30
0.0
 40
0.125
 41
0.0
 71
     5
 72
     1
  1
\A1;20 1/4
 11
0.0000000000000001
 21
1.0
 31
0.0
 73
     1
 44
1.0
1001
ACAD
1000
MTEXTBEGIN
1070
    73
1070
     1
1070
    44
1040
1.0
1070
    74
1070
     0
1000
MTEXTEND
  0
POINT
  5
BC4
330
B56
100
AcDbEntity
  8
DEFPOINTS
 62
     0
100
AcDbPoint
 10
-57.63706682367334
 20
22.71357347548184
 30
0.0
  0
POINT
  5
BC5
330
B56
100
AcDbEntity
  8
DEFPOINTS
 62
     0
100
AcDbPoint
 10
-57.84441628599509
 20
2.43818896006434
 30
0.0
  0
POINT
  5
BC6
330
B56
100
AcDbEntity
  8
DEFPOINTS
 62
     0
100
AcDbPoint
 10
-56.45585322869465
 20
2.438188960064339
 30
0.0
  0
ENDBLK
  5
B62
330
B56
100
AcDbEntity
  8
0
100
AcDbBlockEnd
  0
ENDSEC
  0
SECTION
  2
ENTITIES
  0
TEXT
  5
901
330
17
100
AcDbEntity
  8
ADPDIM
100
AcDbText
 10
-90.74066631675362
 20
0.0393091043093676
 30
0.0
 40
0.625
  1
J U L I U S  B L U M  &  C O . ,  I N C .      ( 8 0 0 )  5 2 6 - 6 2 9 3        W W W . J U L I U S B L U M . C O M        P A R T  N o .  3 2 5 L
 41
1.25
  7
ARIAL_WIDE
 72
     1
 11
-58.11202119397055
 21
0.6643091043093677
 31
0.0
100
AcDbText
 73
     3
  0
ARC
  5
98B
330
17
100
AcDbEntity
  8
0
100
AcDbCircle
 10
-57.67999636697305
 20
23.4325291664198
 30
0.0
 40
0.2857565715927
100
AcDbArc
 50
279.1556263554004
 51
80.8443736445996
  0
ARC
  5
98C
330
17
100
AcDbEntity
  8
0
100
AcDbCircle
 10
-58.52429713484722
 20
23.43252916641979
 30
0.0
 40
0.2859743025081608
100
AcDbArc
 50
99.42243747696243
 51
260.5775625230375
  0
LINE
  5
98D
330
17
100
AcDbEntity
  8
ADP1DETAIL
100
AcDbLine
 10
-57.79354614745184
 20
17.15696196619931
 30
0.0
 11
-57.84441628599509
 21
2.43818896006434
 31
0.0
  0
LINE
  5
98E
330
17
100
AcDbEntity
  8
ADP1DETAIL
100
AcDbLine
 10
-58.41209624048928
 20
17.15696196619931
 30
0.0
 11
-58.36122610194601
 21
2.43818896006434
 31
0.0
  0
CIRCLE
  5
98F
330
17
100
AcDbEntity
  8
ADP1DETAIL
100
AcDbCircle
 10
-58.11202119397055
 20
1.461733250556004
 30
0.0
 40
0.25
  0
TEXT
  5
990
330
17
100
AcDbEntity
  8
ADPDIM
100
AcDbText
 10
-57.18171844642109
 20
2.324300946339799
 30
0.0
 40
0.2
  1
"
100
AcDbText
  0
LINE
  5
991
330
17
100
AcDbEntity
  8
ADPDIM
  6
ByBlock
100
AcDbLine
 10
-58.36202119397055
 20
1.895673392038058
 30
0.0
 11
-57.86202119397055
 21
1.895673392038058
 31
0.0
  0
LINE
  5
992
330
17
100
AcDbEntity
  8
0
 62
     7
100
AcDbLine
 10
-58.36122610194601
 20
2.43818896006434
 30
0.0
 11
-57.84441628599509
 21
2.43818896006434
 31
0.0
  0
LWPOLYLINE
  5
993
330
17
100
AcDbEntity
  8
ADPDIM
100
AcDbPolyline
 90
        2
 70
     1
 43
0.025
 10
-58.37452119397055
 20
1.895673392038058
 42
1.0
 10
-58.34952119397055
 20
1.895673392038058
 42
1.0
  0
LINE
  5
994
330
17
100
AcDbEntity
  8
ADPDIM
  6
ByBlock
100
AcDbLine
 10
-58.36202119397055
 20
1.773023953049555
 30
0.0
 11
-58.36202119397055
 21
2.234273953049554
 31
0.0
  0
POINT
  5
995
330
17
100
AcDbEntity
  8
DEFPOINTS
  6
ByBlock
 62
     0
100
AcDbPoint
 10
-58.36122610194601
 20
2.43818896006434
 30
0.0
  0
TEXT
  5
996
330
17
100
AcDbEntity
  8
ADPDIM
100
AcDbText
 10
-57.60343827264533
 20
2.311946602969224
 30
0.0
 40
0.25
  1
1
100
AcDbText
  0
LINE
  5
997
330
17
100
AcDbEntity
  8
ADPDIM
100
AcDbLine
 10
-57.61785123345362
 20
1.97348890075862
 30
0.0
 11
-57.2974134830304
 21
2.528503365154693
 31
0.0
  0
LINE
  5
998
330
17
100
AcDbEntity
  8
ADPDIM
100
AcDbLine
 10
-57.86202119397055
 20
1.895673392038058
 30
0.0
 11
-57.23014299180434
 21
1.895673392038058
 31
0.0
  0
POINT
  5
999
330
17
100
AcDbEntity
  8
ADPDIM
  6
ByBlock
100
AcDbPoint
 10
-57.86202119397055
 20
1.895673392038058
 30
0.0
  0
LWPOLYLINE
  5
99A
330
17
100
AcDbEntity
  8
ADPDIM
100
AcDbPolyline
 90
        2
 70
     1
 43
0.025
 10
-57.87452119397055
 20
1.895673392038058
 42
1.0
 10
-57.84952119397054
 20
1.895673392038058
 42
1.0
  0
LINE
  5
99B
330
17
100
AcDbEntity
  8
ADPDIM
  6
ByBlock
100
AcDbLine
 10
-57.86202119397055
 20
1.773023953049555
 30
0.0
 11
-57.86202119397055
 21
2.234273953049554
 31
0.0
  0
TEXT
  5
99C
330
17
100
AcDbEntity
  8
ADPDIM
100
AcDbText
 10
-57.39955816128342
 20
1.975023318675769
 30
0.0
 40
0.25
  1
2
100
AcDbText
  0
LINE
  5
99D
330
17
100
AcDbEntity
  8
0
 62
     7
100
AcDbLine
 10
-57.63452774254386
 20
20.57585767172078
 30
0.0
 11
-57.71403694499785
 21
19.30371043245697
 31
0.0
  0
LINE
  5
99E
330
17
100
AcDbEntity
  8
0
 62
     7
100
AcDbLine
 10
-58.57111464539724
 20
20.57585767172078
 30
0.0
 11
-58.49160544294325
 21
19.30371043245697
 31
0.0
  0
LINE
  5
99F
330
17
100
AcDbEntity
  8
0
 62
     7
100
AcDbLine
 10
-57.71403694499785
 20
19.30371043245697
 30
0.0
 11
-57.75379154622484
 21
17.71352638337722
 31
0.0
  0
LINE
  5
9A0
330
17
100
AcDbEntity
  8
0
 62
     7
100
AcDbLine
 10
-58.49160544294325
 20
19.30371043245697
 30
0.0
 11
-58.45185084171626
 21
17.71352638337722
 31
0.0
  0
LINE
  5
9A1
330
17
100
AcDbEntity
  8
0
 62
     7
100
AcDbLine
 10
-58.45185084171626
 20
17.71352638337722
 30
0.0
 11
-58.41209624048928
 21
17.15696196619931
 31
0.0
  0
LINE
  5
9A2
330
17
100
AcDbEntity
  8
0
 62
     7
100
AcDbLine
 10
-57.75379154622484
 20
17.71352638337722
 30
0.0
 11
-57.79354614745184
 21
17.15696196619931
 31
0.0
  0
LINE
  5
9A3
330
17
100
AcDbEntity
  8
0
 62
     7
100
AcDbLine
 10
-57.51526393886289
 20
21.56972270239562
 30
0.0
 11
-57.63452774254386
 21
20.61561227294777
 31
0.0
  0
LINE
  5
9A4
330
17
100
AcDbEntity
  8
0
 62
     7
100
AcDbLine
 10
-58.69037844907822
 20
21.56972270239562
 30
0.0
 11
-58.57111464539724
 21
20.61561227294777
 31
0.0
  0
LINE
  5
9A5
330
17
100
AcDbEntity
  8
0
 62
     7
100
AcDbLine
 10
-58.57111464539724
 20
23.15041319310221
 30
0.0
 11
-58.10282119397055
 21
23.15041319310221
 31
0.0
  0
LINE
  5
9A6
330
17
100
AcDbEntity
  8
0
 62
     7
100
AcDbLine
 10
-58.10282119397055
 20
23.15041319310221
 30
0.0
 11
-58.57111464539724
 21
23.15041319310221
 31
0.0
  0
LINE
  5
9A7
330
17
100
AcDbEntity
  8
0
 62
     7
100
AcDbLine
 10
-58.57111464539724
 20
23.03114938942123
 30
0.0
 11
-58.10282119397055
 21
23.03114938942123
 31
0.0
  0
LINE
  5
9A8
330
17
100
AcDbEntity
  8
0
 62
     7
100
AcDbLine
 10
-58.57111464539724
 20
22.71311257960527
 30
0.0
 11
-58.10282119397055
 21
22.71311257960527
 31
0.0
  0
LINE
  5
9A9
330
17
100
AcDbEntity
  8
0
 62
     7
100
AcDbLine
 10
-58.10282119397055
 20
22.79262178205927
 30
0.0
 11
-58.57111464539724
 21
22.79262178205927
 31
0.0
  0
ARC
  5
9AA
330
17
100
AcDbEntity
  8
0
100
AcDbCircle
 10
-58.54567465771223
 20
22.43958597330807
 30
0.0
 40
0.2747071118953396
100
AcDbArc
 50
95.31364274889792
 51
195.7366636266278
  0
LINE
  5
9AB
330
17
100
AcDbEntity
  8
0
 62
     7
100
AcDbLine
 10
-58.81008530528183
 20
22.36508089443619
 30
0.0
 11
-58.69037844907822
 21
21.56972270239562
 31
0.0
  0
ARC
  5
9AC
330
17
100
AcDbEntity
  8
0
100
AcDbCircle
 10
-58.57111464539724
 20
22.91188558574024
 30
0.0
 40
0.1192638036809797
100
AcDbArc
 50
269.9999999999984
 51
90.00000000000161
  0
LINE
  5
9AD
330
17
100
AcDbEntity
  8
0
 62
     7
100
AcDbLine
 10
-58.57111464539724
 20
22.79262178205927
 30
0.0
 11
-58.57111464539724
 21
22.71311257960527
 31
0.0
  0
LINE
  5
9AE
330
17
100
AcDbEntity
  8
0
 62
     7
100
AcDbLine
 10
-58.57111464539724
 20
23.15041319310221
 30
0.0
 11
-58.57111464539724
 21
23.03114938942123
 31
0.0
  0
LINE
  5
9AF
330
17
100
AcDbEntity
  8
0
 62
     7
100
AcDbLine
 10
-58.57111464539724
 20
23.03114938942123
 30
0.0
 11
-58.57111464539724
 21
23.03114938942123
 31
0.0
  0
ARC
  5
9B0
330
17
100
AcDbEntity
  8
0
100
AcDbCircle
 10
-57.65996773022887
 20
22.43958597330808
 30
0.0
 40
0.2747071118953424
100
AcDbArc
 50
344.2633363733714
 51
84.68635725110202
  0
LINE
  5
9B1
330
17
100
AcDbEntity
  8
0
 62
     7
100
AcDbLine
 10
-57.39555708265928
 20
22.36508089443619
 30
0.0
 11
-57.51526393886289
 21
21.56972270239562
 31
0.0
  0
ARC
  5
9B2
330
17
100
AcDbEntity
  8
0
100
AcDbCircle
 10
-57.63452774254386
 20
22.91188558574024
 30
0.0
 40
0.1192638036809797
100
AcDbArc
 50
89.99999999999836
 51
270.0000000000017
  0
LINE
  5
9B3
330
17
100
AcDbEntity
  8
0
 62
     7
100
AcDbLine
 10
-58.10282119397055
 20
22.79262178205927
 30
0.0
 11
-57.63452774254386
 21
22.79262178205927
 31
0.0
  0
LINE
  5
9B4
330
17
100
AcDbEntity
  8
0
 62
     7
100
AcDbLine
 10
-57.63452774254386
 20
22.71311257960527
 30
0.0
 11
-58.10282119397055
 21
22.71311257960527
 31
0.0
  0
LINE
  5
9B5
330
17
100
AcDbEntity
  8
0
 62
     7
100
AcDbLine
 10
-57.63452774254386
 20
23.03114938942123
 30
0.0
 11
-58.10282119397055
 21
23.03114938942123
 31
0.0
  0
LINE
  5
9B6
330
17
100
AcDbEntity
  8
0
 62
     7
100
AcDbLine
 10
-58.10282119397055
 20
23.15041319310221
 30
0.0
 11
-57.63452774254386
 21
23.15041319310221
 31
0.0
  0
LINE
  5
9B7
330
17
100
AcDbEntity
  8
0
 62
     7
100
AcDbLine
 10
-57.63452774254386
 20
23.15041319310221
 30
0.0
 11
-58.10282119397055
 21
23.15041319310221
 31
0.0
  0
LINE
  5
9B8
330
17
100
AcDbEntity
  8
0
 62
     7
100
AcDbLine
 10
-57.63452774254386
 20
23.03114938942123
 30
0.0
 11
-57.63452774254386
 21
23.03114938942123
 31
0.0
  0
LINE
  5
9B9
330
17
100
AcDbEntity
  8
0
 62
     7
100
AcDbLine
 10
-57.63452774254386
 20
23.15041319310221
 30
0.0
 11
-57.63452774254386
 21
23.03114938942123
 31
0.0
  0
LINE
  5
9BA
330
17
100
AcDbEntity
  8
0
 62
     7
100
AcDbLine
 10
-57.63452774254386
 20
22.79262178205927
 30
0.0
 11
-57.63452774254386
 21
22.71311257960527
 31
0.0
  0
LINE
  5
9BB
330
17
100
AcDbEntity
  8
ADP1DETAIL
100
AcDbLine
 10
-57.79354614745184
 20
29.71941595392938
 30
0.0
 11
-57.84441628599509
 21
44.43818896006433
 31
0.0
  0
LINE
  5
9BC
330
17
100
AcDbEntity
  8
ADP1DETAIL
100
AcDbLine
 10
-58.41209624048928
 20
29.71941595392938
 30
0.0
 11
-58.36122610194601
 21
44.43818896006433
 31
0.0
  0
LINE
  5
9BD
330
17
100
AcDbEntity
  8
0
 62
     7
100
AcDbLine
 10
-57.63452774254386
 20
26.3005202484079
 30
0.0
 11
-57.71403694499785
 21
27.5726674876717
 31
0.0
  0
LINE
  5
9BE
330
17
100
AcDbEntity
  8
0
 62
     7
100
AcDbLine
 10
-58.57111464539724
 20
26.3005202484079
 30
0.0
 11
-58.49160544294325
 21
27.5726674876717
 31
0.0
  0
LINE
  5
9BF
330
17
100
AcDbEntity
  8
0
 62
     7
100
AcDbLine
 10
-57.39600013518191
 20
24.51156319319318
 30
0.0
 11
-57.51526393886289
 21
25.34640981896004
 31
0.0
  0
LINE
  5
9C0
330
17
100
AcDbEntity
  8
0
 62
     7
100
AcDbLine
 10
-58.80964225275921
 20
24.51156319319318
 30
0.0
 11
-58.69037844907822
 21
25.34640981896004
 31
0.0
  0
LINE
  5
9C1
330
17
100
AcDbEntity
  8
0
 62
     7
100
AcDbLine
 10
-58.10282119397055
 20
23.71464513973738
 30
0.0
 11
-58.57111464539724
 21
23.71464513973738
 31
0.0
  0
LINE
  5
9C2
330
17
100
AcDbEntity
  8
0
 62
     7
100
AcDbLine
 10
-58.10282119397055
 20
23.71464513973738
 30
0.0
 11
-58.57111464539724
 21
23.71464513973738
 31
0.0
  0
LINE
  5
9C3
330
17
100
AcDbEntity
  8
0
 62
     7
100
AcDbLine
 10
-58.57111464539724
 20
23.83390894341836
 30
0.0
 11
-58.10282119397055
 21
23.83390894341836
 31
0.0
  0
LINE
  5
9C4
330
17
100
AcDbEntity
  8
0
 62
     7
100
AcDbLine
 10
-58.57111464539724
 20
24.15194575323431
 30
0.0
 11
-58.10282119397055
 21
24.15194575323431
 31
0.0
  0
LINE
  5
9C5
330
17
100
AcDbEntity
  8
0
 62
     7
100
AcDbLine
 10
-58.10282119397055
 20
24.07243655078032
 30
0.0
 11
-58.57111464539724
 21
24.07243655078032
 31
0.0
  0
LINE
  5
9C6
330
17
100
AcDbEntity
  8
0
 62
     7
100
AcDbLine
 10
-58.10282119397055
 20
24.15194575323431
 30
0.0
 11
-58.57111464539724
 21
24.15194575323431
 31
0.0
  0
ARC
  5
9C7
330
17
100
AcDbEntity
  8
0
100
AcDbCircle
 10
-58.52664494922262
 20
24.44035588022566
 30
0.0
 40
0.2918183599930519
100
AcDbArc
 50
165.8765198884163
 51
261.2346440179286
  0
ARC
  5
9C8
330
17
100
AcDbEntity
  8
0
100
AcDbCircle
 10
-58.57111464539724
 20
23.95317274709934
 30
0.0
 40
0.1192638036809797
100
AcDbArc
 50
269.9999999999984
 51
90.00000000000161
  0
LINE
  5
9C9
330
17
100
AcDbEntity
  8
0
 62
     7
100
AcDbLine
 10
-58.57111464539724
 20
23.71464513973738
 30
0.0
 11
-58.57111464539724
 21
23.83390894341836
 31
0.0
  0
LINE
  5
9CA
330
17
100
AcDbEntity
  8
0
 62
     7
100
AcDbLine
 10
-58.57111464539724
 20
24.07243655078032
 30
0.0
 11
-58.57111464539724
 21
24.15194575323431
 31
0.0
  0
ARC
  5
9CB
330
17
100
AcDbEntity
  8
0
100
AcDbCircle
 10
-57.67899743871849
 20
24.44035588022565
 30
0.0
 40
0.2918183599930386
100
AcDbArc
 50
278.7653559820702
 51
14.12348011158542
  0
ARC
  5
9CC
330
17
100
AcDbEntity
  8
0
100
AcDbCircle
 10
-57.63452774254386
 20
23.95317274709934
 30
0.0
 40
0.1192638036809797
100
AcDbArc
 50
89.99999999999836
 51
270.0000000000017
  0
LINE
  5
9CD
330
17
100
AcDbEntity
  8
0
 62
     7
100
AcDbLine
 10
-58.10282119397055
 20
24.15194575323431
 30
0.0
 11
-57.63452774254386
 21
24.15194575323431
 31
0.0
  0
LINE
  5
9CE
330
17
100
AcDbEntity
  8
0
 62
     7
100
AcDbLine
 10
-58.10282119397055
 20
24.07243655078032
 30
0.0
 11
-57.63452774254386
 21
24.07243655078032
 31
0.0
  0
LINE
  5
9CF
330
17
100
AcDbEntity
  8
0
 62
     7
100
AcDbLine
 10
-57.63452774254386
 20
24.15194575323431
 30
0.0
 11
-58.10282119397055
 21
24.15194575323431
 31
0.0
  0
LINE
  5
9D0
330
17
100
AcDbEntity
  8
0
 62
     7
100
AcDbLine
 10
-57.63452774254386
 20
23.83390894341836
 30
0.0
 11
-58.10282119397055
 21
23.83390894341836
 31
0.0
  0
LINE
  5
9D1
330
17
100
AcDbEntity
  8
0
 62
     7
100
AcDbLine
 10
-58.10282119397055
 20
23.71464513973738
 30
0.0
 11
-57.63452774254386
 21
23.71464513973738
 31
0.0
  0
LINE
  5
9D2
330
17
100
AcDbEntity
  8
0
 62
     7
100
AcDbLine
 10
-58.10282119397055
 20
23.71464513973738
 30
0.0
 11
-57.63452774254386
 21
23.71464513973738
 31
0.0
  0
LINE
  5
9D3
330
17
100
AcDbEntity
  8
0
 62
     7
100
AcDbLine
 10
-57.63452774254386
 20
24.07243655078032
 30
0.0
 11
-57.63452774254386
 21
24.15194575323431
 31
0.0
  0
LINE
  5
9D4
330
17
100
AcDbEntity
  8
0
 62
     7
100
AcDbLine
 10
-57.63452774254386
 20
23.71464513973738
 30
0.0
 11
-57.63452774254386
 21
23.83390894341836
 31
0.0
  0
LINE
  5
9D5
330
17
100
AcDbEntity
  8
0
 62
     7
100
AcDbLine
 10
-58.69037844907822
 20
25.34640981896004
 30
0.0
 11
-58.57111464539724
 21
26.3005202484079
 31
0.0
  0
LINE
  5
9D6
330
17
100
AcDbEntity
  8
0
 62
     7
100
AcDbLine
 10
-57.51526393886289
 20
25.34640981896004
 30
0.0
 11
-57.63452774254386
 21
26.3005202484079
 31
0.0
  0
LINE
  5
9D7
330
17
100
AcDbEntity
  8
0
 62
     7
100
AcDbLine
 10
-57.71403694499785
 20
27.5726674876717
 30
0.0
 11
-57.75379154622483
 21
29.16285153675146
 31
0.0
  0
LINE
  5
9D8
330
17
100
AcDbEntity
  8
0
 62
     7
100
AcDbLine
 10
-58.49160544294325
 20
27.5726674876717
 30
0.0
 11
-58.45185084171626
 21
29.16285153675146
 31
0.0
  0
LINE
  5
9D9
330
17
100
AcDbEntity
  8
0
 62
     7
100
AcDbLine
 10
-58.45185084171626
 20
29.16285153675146
 30
0.0
 11
-58.41209624048928
 21
29.71941595392937
 31
0.0
  0
LINE
  5
9DA
330
17
100
AcDbEntity
  8
0
 62
     7
100
AcDbLine
 10
-57.75379154622483
 20
29.16285153675146
 30
0.0
 11
-57.79354614745182
 21
29.71941595392937
 31
0.0
  0
LINE
  5
9DB
330
17
100
AcDbEntity
  8
0
 62
     7
100
AcDbLine
 10
-58.36122610194601
 20
44.43818896006433
 30
0.0
 11
-57.84441628599509
 21
44.43818896006433
 31
0.0
  0
DIMENSION
  5
B12
330
17
100
AcDbEntity
  8
ADPDIM
 62
     3
100
AcDbDimension
  2
*D0
 10
-59.90474026283596
 20
2.438188960064341
 30
0.0
 11
-59.90474026283596
 21
23.43818896006433
 31
0.0
 70
    32
 71
     5
 42
41.99999999999999
  3
STANDARD
100
AcDbAlignedDimension
 13
-58.36122610194601
 23
44.43818896006433
 33
0.0
 14
-58.50638397739707
 24
2.438188960064341
 34
0.0
 50
90.0
100
AcDbRotatedDimension
1001
ACAD
1000
DSTYLE
1002
{
1070
   276
1070
     2
1070
    41
1040
0.125
1070
    73
1070
     0
1070
    74
1070
     0
1070
    78
1070
     3
1070
   140
1040
0.125
1070
   141
1040
0.1875
1070
   142
1040
0.125
1070
   147
1040
0.125
1070
   171
1070
     1
1070
   273
1070
     5
1070
   274
1070
     1
1070
   277
1070
     5
1070
   279
1070
     2
1070
   284
1070
     3
1070
   285
1070
     3
1070
   286
1070
     3
1002
}
  0
DIMENSION
  5
B20
330
17
100
AcDbEntity
  8
ADPDIM
 62
     3
100
AcDbDimension
  2
*D1
 10
-56.45500174844517
 20
24.15257756554533
 30
0.0
 11
-56.45500174844517
 21
34.28528535888561
 31
0.0
 70
    32
 71
     5
 42
20.26541558668059
  3
STANDARD
100
AcDbAlignedDimension
 13
-57.72365512650975
 23
44.41799315222591
 33
0.0
 14
-57.63338679080096
 24
24.15257756554533
 34
0.0
 50
90.0
100
AcDbRotatedDimension
1001
ACAD
1000
DSTYLE
1002
{
1070
   276
1070
     2
1070
    41
1040
0.125
1070
    73
1070
     0
1070
    74
1070
     0
1070
    78
1070
     3
1070
   140
1040
0.125
1070
   141
1040
0.1875
1070
   142
1040
0.125
1070
   147
1040
0.125
1070
   171
1070
     1
1070
   273
1070
     5
1070
   274
1070
     1
1070
   277
1070
     5
1070
   279
1070
     2
1070
   284
1070
     3
1070
   285
1070
     3
1070
   286
1070
     3
1002
}
  0
DIMENSION
  5
B55
330
17
100
AcDbEntity
  8
ADPDIM
 62
     3
100
AcDbDimension
  2
*D4
 10
-56.45585322869465
 20
2.438188960064339
 30
0.0
 11
-56.45585322869465
 21
12.57588121777308
 31
0.0
 70
    32
 71
     5
 42
20.2753845154175
  3
STANDARD
100
AcDbAlignedDimension
 13
-57.63706682367334
 23
22.71357347548184
 33
0.0
 14
-57.84441628599509
 24
2.43818896006434
 34
0.0
 50
90.0
100
AcDbRotatedDimension
1001
ACAD
1000
DSTYLE
1002
{
1070
   276
1070
     2
1070
    41
1040
0.125
1070
    73
1070
     0
1070
    74
1070
     0
1070
    78
1070
     3
1070
   140
1040
0.125
1070
   141
1040
0.1875
1070
   142
1040
0.125
1070
   147
1040
0.125
1070
   171
1070
     1
1070
   273
1070
     5
1070
   274
1070
     1
1070
   277
1070
     5
1070
   279
1070
     2
1070
   284
1070
     3
1070
   285
1070
     3
1070
   286
1070
     3
1002
}
  0
ENDSEC
  0
SECTION
  2
OBJECTS
  0
DICTIONARY
  5
C
330
0
100
AcDbDictionary
281
     1
  3
ACAD_COLOR
350
AFE
  3
ACAD_GROUP
350
D
  3
ACAD_LAYOUT
350
8FA
  3
ACAD_MATERIAL
350
AE9
  3
ACAD_MLINESTYLE
350
1A
  3
ACAD_PLOTSETTINGS
350
8FB
  3
ACAD_PLOTSTYLENAME
350
8F8
  3
ACAD_TABLESTYLE
350
AFF
  3
ACAD_VISUALSTYLE
350
AED
  3
ACDBVARIABLEDICTIONARY
350
27
  3
DWGPROPS
350
BEB
  0
DICTIONARY
  5
956
330
17
100
AcDbDictionary
280
     1
281
     1
  3
ACAD_LAYOUTSELFREF
360
AE3
  0
DICTIONARY
  5
954
330
14
100
AcDbDictionary
280
     1
281
     1
  3
ACAD_LAYOUTSELFREF
360
AE2
  0
DICTIONARY
  5
AFE
102
{ACAD_REACTORS
330
C
102
}
330
C
100
AcDbDictionary
281
     1
  0
DICTIONARY
  5
D
102
{ACAD_REACTORS
330
C
102
}
330
C
100
AcDbDictionary
281
     1
  0
DICTIONARY
  5
8FA
102
{ACAD_REACTORS
330
C
102
}
330
C
100
AcDbDictionary
281
     1
  3
Layout1
350
8FD
  3
Model
350
8FC
  0
DICTIONARY
  5
AE9
102
{ACAD_REACTORS
330
C
102
}
330
C
100
AcDbDictionary
281
     1
  3
ByBlock
350
AEB
  3
ByLayer
350
AEA
  3
Global
350
AEC
  0
DICTIONARY
  5
1A
102
{ACAD_REACTORS
330
C
102
}
330
C
100
AcDbDictionary
281
     1
  3
STANDARD
350
1B
  0
DICTIONARY
  5
8FB
102
{ACAD_REACTORS
330
C
102
}
330
C
100
AcDbDictionary
281
     1
  0
ACDBDICTIONARYWDFLT
  5
8F8
102
{ACAD_REACTORS
330
C
102
}
330
C
100
AcDbDictionary
281
     1
  3
Normal
350
8F9
100
AcDbDictionaryWithDefault
340
8F9
  0
DICTIONARY
  5
AFF
102
{ACAD_REACTORS
330
C
102
}
330
C
100
AcDbDictionary
281
     1
  3
Standard
350
B00
  0
DICTIONARY
  5
AED
102
{ACAD_REACTORS
330
C
102
}
330
C
100
AcDbDictionary
281
     1
  3
2dWireframe
350
AF3
  3
3D Hidden
350
AF5
  3
3dWireframe
350
AF4
  3
Basic
350
AF2
  3
Brighten
350
AF9
  3
ColorChange
350
AFD
  3
Conceptual
350
AF6
  3
Dim
350
AF8
  3
Facepattern
350
AFC
  3
Flat
350
AEE
  3
FlatWithEdges
350
AEF
  3
Gouraud
350
AF0
  3
GouraudWithEdges
350
AF1
  3
Linepattern
350
AFB
  3
Realistic
350
AF7
  3
Thicken
350
AFA
  0
DICTIONARY
  5
27
102
{ACAD_REACTORS
330
C
102
}
330
C
100
AcDbDictionary
281
     1
  3
CTABLESTYLE
350
BE8
  3
DIMADEC
350
28
  3
DIMASSOC
350
95C
  3
INDEXCTL
350
BEA
  3
SORTENTS
350
BE9
  0
XRECORD
  5
BEB
102
{ACAD_REACTORS
330
C
102
}
330
C
100
AcDbXrecord
280
     1
  1
DWGPROPS COOKIE
  2

  3

  4

  6

  7

  8
Yu Hu
  9

300
=
301
=
302
=
303
=
304
=
305
=
306
=
307
=
308
=
309
=
 40
0.1823091319444444
 41
2450373.679054004
 42
2453950.907621123
  1

 90
        0
  0
XRECORD
  5
AE3
102
{ACAD_REACTORS
330
956
102
}
330
956
100
AcDbXrecord
280
     1
340
17
  0
XRECORD
  5
AE2
102
{ACAD_REACTORS
330
954
102
}
330
954
100
AcDbXrecord
280
     1
340
14
  0
LAYOUT
  5
8FD
102
{ACAD_XDICTIONARY
360
BEE
102
}
102
{ACAD_REACTORS
330
8FA
102
}
330
8FA
100
AcDbPlotSettings
  1

  2
Fax
  4

  6

 40
0.0
 41
0.0
 42
0.0
 43
0.0
 44
0.0
 45
0.0
 46
0.0
 47
0.0
 48
0.0
 49
0.0
140
0.0
141
0.0
142
1.0
143
1.0
 70
   688
 72
     0
 73
     0
 74
     5
  7
Default R14 pen assignments.ctb
 75
    16
147
1.0
148
0.0
149
0.0
100
AcDbLayout
  1
Layout1
 70
     1
 71
     1
 10
0.0
 20
0.0
 11
12.0
 21
9.0
 12
1.667196317885515E+99
 22
2.439420651286265E+99
 32
0.0
 14
1.000000000000000E+20
 24
1.000000000000000E+20
 34
1.000000000000000E+20
 15
-1.000000000000000E+20
 25
-1.000000000000000E+20
 35
-1.000000000000000E+20
146
0.0
 13
0.0
 23
0.0
 33
0.0
 16
1.0
 26
0.0
 36
0.0
 17
0.0
 27
1.0
 37
0.0
 76
     0
330
14
  0
LAYOUT
  5
8FC
102
{ACAD_XDICTIONARY
360
BEC
102
}
102
{ACAD_REACTORS
330
8FA
102
}
330
8FA
100
AcDbPlotSettings
  1

  2
Fax
  4

  6

 40
0.0
 41
0.0
 42
0.0
 43
0.0
 44
0.0
 45
0.0
 46
0.0
 47
0.0
 48
0.0
 49
0.0
140
0.0
141
0.0
142
1.0
143
1.0
 70
  1712
 72
     0
 73
     0
 74
     0
  7
Default R14 pen assignments.ctb
 75
     0
147
1.0
148
0.0
149
0.0
100
AcDbLayout
  1
Model
 70
     1
 71
     0
 10
0.0
 20
0.0
 11
12.0
 21
9.0
 12
0.0
 22
0.0
 32
0.0
 14
0.0
 24
0.0
 34
0.0
 15
0.0
 25
0.0
 35
0.0
146
0.0
 13
0.0
 23
0.0
 33
0.0
 16
1.0
 26
0.0
 36
0.0
 17
0.0
 27
1.0
 37
0.0
 76
     0
330
17
331
ABE
  0
MATERIAL
  5
AEB
102
{ACAD_XDICTIONARY
360
BF2
102
}
102
{ACAD_REACTORS
330
AE9
102
}
330
AE9
100
AcDbMaterial
  1
ByBlock
  0
MATERIAL
  5
AEA
102
{ACAD_XDICTIONARY
360
BF0
102
}
102
{ACAD_REACTORS
330
AE9
102
}
330
AE9
100
AcDbMaterial
  1
ByLayer
  0
MATERIAL
  5
AEC
102
{ACAD_XDICTIONARY
360
BF4
102
}
102
{ACAD_REACTORS
330
AE9
102
}
330
AE9
100
AcDbMaterial
  1
Global
  0
MLINESTYLE
  5
1B
102
{ACAD_REACTORS
330
1A
102
}
330
1A
100
AcDbMlineStyle
  2
STANDARD
 70
     0
  3

 62
   256
 51
90.0
 52
90.0
 71
     2
 49
0.5
 62
   256
  6
BYLAYER
 49
-0.5
 62
   256
  6
BYLAYER
  0
ACDBPLACEHOLDER
  5
8F9
102
{ACAD_REACTORS
330
8F8
102
}
330
8F8
  0
TABLESTYLE
  5
B00
102
{ACAD_XDICTIONARY
360
BF6
102
}
102
{ACAD_REACTORS
330
AFF
102
}
330
AFF
100
AcDbTableStyle
  3
Standard
 70
     0
 71
     0
 40
0.06
 41
0.06
280
     0
281
     0
  7
STANDARD
140
0.18
170
     2
 62
     0
 63
     7
283
     0
274
    -2
284
     1
 64
     0
275
    -2
285
     1
 65
     0
276
    -2
286
     1
 66
     0
277
    -2
287
     1
 67
     0
278
    -2
288
     1
 68
     0
279
    -2
289
     1
 69
     0
  7
STANDARD
140
0.25
170
     5
 62
     0
 63
     7
283
     0
274
    -2
284
     1
 64
     0
275
    -2
285
     1
 65
     0
276
    -2
286
     1
 66
     0
277
    -2
287
     1
 67
     0
278
    -2
288
     1
 68
     0
279
    -2
289
     1
 69
     0
  7
STANDARD
140
0.18
170
     5
 62
     0
 63
     7
283
     0
274
    -2
284
     1
 64
     0
275
    -2
285
     1
 65
     0
276
    -2
286
     1
 66
     0
277
    -2
287
     1
 67
     0
278
    -2
288
     1
 68
     0
279
    -2
289
     1
 69
     0
  0
VISUALSTYLE
  5
AF3
102
{ACAD_REACTORS
330
AED
102
}
330
AED
100
AcDbVisualStyle
  2
2dWireframe
 70
     4
 71
     0
 72
     2
 73
     0
 90
        0
 40
-0.6
 41
-30.0
 62
     5
 63
     7
 74
     1
 91
        4
 64
     7
 65
   257
 75
     1
175
     1
 42
1.0
 92
        0
 66
   257
 43
1.0
 76
     1
 77
     6
 78
     2
 67
     7
 79
     5
170
     0
171
     0
290
     0
174
     0
 93
        1
 44
0.0
173
     0
291
     0
 45
0.0
1001
ACAD
1000
AcDbSavedByObjectVersion
1070
     0
  0
VISUALSTYLE
  5
AF5
102
{ACAD_REACTORS
330
AED
102
}
330
AED
100
AcDbVisualStyle
  2
3D Hidden
 70
     6
 71
     1
 72
     2
 73
     2
 90
        0
 40
-0.6
 41
-30.0
 62
     5
 63
     7
 74
     2
 91
        2
 64
     7
 65
   257
 75
     2
175
     1
 42
40.0
 92
        0
 66
   257
 43
1.0
 76
     1
 77
     6
 78
     2
 67
     7
 79
     3
170
     0
171
     0
290
     0
174
     0
 93
        1
 44
0.0
173
     0
291
     0
 45
0.0
1001
ACAD
1000
AcDbSavedByObjectVersion
1070
     0
  0
VISUALSTYLE
  5
AF4
102
{ACAD_REACTORS
330
AED
102
}
330
AED
100
AcDbVisualStyle
  2
3dWireframe
 70
     5
 71
     0
 72
     2
 73
     0
 90
        0
 40
-0.6
 41
-30.0
 62
     5
 63
     7
 74
     1
 91
        4
 64
     7
 65
   257
 75
     1
175
     1
 42
1.0
 92
        0
 66
   257
 43
1.0
 76
     1
 77
     6
 78
     2
 67
     7
 79
     5
170
     0
171
     0
290
     0
174
     0
 93
        1
 44
0.0
173
     0
291
     0
 45
0.0
1001
ACAD
1000
AcDbSavedByObjectVersion
1070
     0
  0
VISUALSTYLE
  5
AF2
102
{ACAD_REACTORS
330
AED
102
}
330
AED
100
AcDbVisualStyle
  2
Basic
 70
     7
 71
     1
 72
     0
 73
     1
 90
        0
 40
-0.6
 41
-30.0
 62
     5
 63
     7
 74
     0
 91
        4
 64
     7
 65
   257
 75
     1
175
     1
 42
1.0
 92
        8
 66
     7
 43
1.0
 76
     1
 77
     6
 78
     2
 67
     7
 79
     5
170
     0
171
     0
290
     0
174
     0
 93
        1
 44
0.0
173
     0
291
     1
 45
0.0
1001
ACAD
1000
AcDbSavedByObjectVersion
1070
     0
  0
VISUALSTYLE
  5
AF9
102
{ACAD_REACTORS
330
AED
102
}
330
AED
100
AcDbVisualStyle
  2
Brighten
 70
    12
 71
     2
 72
     2
 73
     0
 90
        0
 40
-0.6
 41
-30.0
 62
     5
 63
     7
 74
     1
 91
        4
 64
     7
 65
   257
 75
     1
175
     1
 42
1.0
 92
        8
 66
     7
 43
1.0
 76
     1
 77
     6
 78
     2
 67
     7
 79
     5
170
     0
171
     0
290
     0
174
     0
 93
        1
 44
50.0
173
     0
291
     1
 45
0.0
1001
ACAD
1000
AcDbSavedByObjectVersion
1070
     0
  0
VISUALSTYLE
  5
AFD
102
{ACAD_REACTORS
330
AED
102
}
330
AED
100
AcDbVisualStyle
  2
ColorChange
 70
    16
 71
     2
 72
     2
 73
     3
 90
        0
 40
-0.6
 41
-30.0
 62
     5
 63
     8
 74
     1
 91
        4
 64
     7
 65
   257
 75
     1
175
     1
 42
1.0
 92
        8
 66
     8
 43
1.0
 76
     1
 77
     6
 78
     2
 67
     7
 79
     5
170
     0
171
     0
290
     0
174
     0
 93
        1
 44
0.0
173
     0
291
     1
 45
0.0
1001
ACAD
1000
AcDbSavedByObjectVersion
1070
     0
  0
VISUALSTYLE
  5
AF6
102
{ACAD_REACTORS
330
AED
102
}
330
AED
100
AcDbVisualStyle
  2
Conceptual
 70
     9
 71
     3
 72
     2
 73
     0
 90
        0
 40
-0.6
 41
-30.0
 62
     5
 63
     7
 74
     2
 91
        2
 64
     7
 65
   257
 75
     1
175
     1
 42
40.0
 92
        8
 66
     7
 43
1.0
 76
     1
 77
     6
 78
     2
 67
     7
 79
     3
170
     0
171
     0
290
     0
174
     0
 93
        1
 44
0.0
173
     0
291
     0
 45
0.0
1001
ACAD
1000
AcDbSavedByObjectVersion
1070
     0
  0
VISUALSTYLE
  5
AF8
102
{ACAD_REACTORS
330
AED
102
}
330
AED
100
AcDbVisualStyle
  2
Dim
 70
    11
 71
     2
 72
     2
 73
     0
 90
        0
 40
-0.6
 41
-30.0
 62
     5
 63
     7
 74
     1
 91
        4
 64
     7
 65
   257
 75
     1
175
     1
 42
1.0
 92
        8
 66
     7
 43
1.0
 76
     1
 77
     6
 78
     2
 67
     7
 79
     5
170
     0
171
     0
290
     0
174
     0
 93
        1
 44
-50.0
173
     0
291
     1
 45
0.0
1001
ACAD
1000
AcDbSavedByObjectVersion
1070
     0
  0
VISUALSTYLE
  5
AFC
102
{ACAD_REACTORS
330
AED
102
}
330
AED
100
AcDbVisualStyle
  2
Facepattern
 70
    15
 71
     2
 72
     2
 73
     0
 90
        0
 40
-0.6
 41
-30.0
 62
     5
 63
     7
 74
     1
 91
        4
 64
     7
 65
   257
 75
     1
175
     1
 42
1.0
 92
        8
 66
     7
 43
1.0
 76
     1
 77
     6
 78
     2
 67
     7
 79
     5
170
     0
171
     0
290
     0
174
     0
 93
        1
 44
0.0
173
     0
291
     1
 45
0.0
1001
ACAD
1000
AcDbSavedByObjectVersion
1070
     0
  0
VISUALSTYLE
  5
AEE
102
{ACAD_REACTORS
330
AED
102
}
330
AED
100
AcDbVisualStyle
  2
Flat
 70
     0
 71
     2
 72
     1
 73
     1
 90
        2
 40
-0.6
 41
30.0
 62
     5
 63
     7
 74
     0
 91
        4
 64
     7
 65
   257
 75
     1
175
     1
 42
1.0
 92
        8
 66
     7
 43
1.0
 76
     1
 77
     6
 78
     2
 67
     7
 79
     5
170
     0
171
     0
290
     0
174
     0
 93
       13
 44
0.0
173
     0
291
     1
 45
0.0
1001
ACAD
1000
AcDbSavedByObjectVersion
1070
     0
  0
VISUALSTYLE
  5
AEF
102
{ACAD_REACTORS
330
AED
102
}
330
AED
100
AcDbVisualStyle
  2
FlatWithEdges
 70
     1
 71
     2
 72
     1
 73
     1
 90
        2
 40
-0.6
 41
30.0
 62
     5
 63
     7
 74
     1
 91
        4
 64
     7
 65
   257
 75
     1
175
     1
 42
1.0
 92
        0
 66
   257
 43
1.0
 76
     1
 77
     6
 78
     2
 67
     7
 79
     5
170
     0
171
     0
290
     0
174
     0
 93
       13
 44
0.0
173
     0
291
     1
 45
0.0
1001
ACAD
1000
AcDbSavedByObjectVersion
1070
     0
  0
VISUALSTYLE
  5
AF0
102
{ACAD_REACTORS
330
AED
102
}
330
AED
100
AcDbVisualStyle
  2
Gouraud
 70
     2
 71
     2
 72
     2
 73
     1
 90
        2
 40
-0.6
 41
30.0
 62
     5
 63
     7
 74
     0
 91
        4
 64
     7
 65
   257
 75
     1
175
     1
 42
1.0
 92
        0
 66
     7
 43
1.0
 76
     1
 77
     6
 78
     2
 67
     7
 79
     5
170
     0
171
     0
290
     0
174
     0
 93
       13
 44
0.0
173
     0
291
     1
 45
0.0
1001
ACAD
1000
AcDbSavedByObjectVersion
1070
     0
  0
VISUALSTYLE
  5
AF1
102
{ACAD_REACTORS
330
AED
102
}
330
AED
100
AcDbVisualStyle
  2
GouraudWithEdges
 70
     3
 71
     2
 72
     2
 73
     1
 90
        2
 40
-0.6
 41
30.0
 62
     5
 63
     7
 74
     1
 91
        4
 64
     7
 65
   257
 75
     1
175
     1
 42
1.0
 92
        0
 66
   257
 43
1.0
 76
     1
 77
     6
 78
     2
 67
     7
 79
     5
170
     0
171
     0
290
     0
174
     0
 93
       13
 44
0.0
173
     0
291
     1
 45
0.0
1001
ACAD
1000
AcDbSavedByObjectVersion
1070
     0
  0
VISUALSTYLE
  5
AFB
102
{ACAD_REACTORS
330
AED
102
}
330
AED
100
AcDbVisualStyle
  2
Linepattern
 70
    14
 71
     2
 72
     2
 73
     0
 90
        0
 40
-0.6
 41
-30.0
 62
     5
 63
     7
 74
     1
 91
        4
 64
     7
 65
   257
 75
     7
175
     7
 42
1.0
 92
        8
 66
     7
 43
1.0
 76
     1
 77
     6
 78
     2
 67
     7
 79
     5
170
     0
171
     0
290
     0
174
     0
 93
        1
 44
0.0
173
     0
291
     1
 45
0.0
1001
ACAD
1000
AcDbSavedByObjectVersion
1070
     0
  0
VISUALSTYLE
  5
AF7
102
{ACAD_REACTORS
330
AED
102
}
330
AED
100
AcDbVisualStyle
  2
Realistic
 70
     8
 71
     2
 72
     2
 73
     0
 90
        0
 40
-0.6
 41
-30.0
 62
     5
 63
     7
 74
     1
 91
        0
 64
     7
 65
   257
 75
     1
175
     1
 42
1.0
 92
        8
 66
     8
 43
1.0
 76
     1
 77
     6
 78
     2
 67
     7
 79
     5
170
     0
171
     0
290
     0
174
     0
 93
       13
 44
0.0
173
     0
291
     0
 45
0.0
1001
ACAD
1000
AcDbSavedByObjectVersion
1070
     0
  0
VISUALSTYLE
  5
AFA
102
{ACAD_REACTORS
330
AED
102
}
330
AED
100
AcDbVisualStyle
  2
Thicken
 70
    13
 71
     2
 72
     2
 73
     0
 90
        0
 40
-0.6
 41
-30.0
 62
     5
 63
     7
 74
     1
 91
        4
 64
     7
 65
   257
 75
     1
175
     1
 42
1.0
 92
       12
 66
     7
 43
1.0
 76
     1
 77
     6
 78
     2
 67
     7
 79
     5
170
     0
171
     0
290
     0
174
     0
 93
        1
 44
0.0
173
     0
291
     1
 45
0.0
1001
ACAD
1000
AcDbSavedByObjectVersion
1070
     0
  0
DICTIONARYVAR
  5
BE8
102
{ACAD_REACTORS
330
27
102
}
330
27
100
DictionaryVariables
280
     0
  1
STANDARD
  0
DICTIONARYVAR
  5
28
102
{ACAD_REACTORS
330
27
102
}
330
27
100
DictionaryVariables
280
     0
  1
0
  0
DICTIONARYVAR
  5
95C
102
{ACAD_REACTORS
330
27
102
}
330
27
100
DictionaryVariables
280
     0
  1
1
  0
DICTIONARYVAR
  5
BEA
102
{ACAD_REACTORS
330
27
102
}
330
27
100
DictionaryVariables
280
     0
  1
0
  0
DICTIONARYVAR
  5
BE9
102
{ACAD_REACTORS
330
27
102
}
330
27
100
DictionaryVariables
280
     0
  1
127
  0
DICTIONARY
  5
BEE
330
8FD
100
AcDbDictionary
280
     1
281
     1
  3
ACAD_XREC_ROUNDTRIP
360
BEF
  0
DICTIONARY
  5
BEC
330
8FC
100
AcDbDictionary
280
     1
281
     1
  3
ACAD_XREC_ROUNDTRIP
360
BED
  0
DICTIONARY
  5
BF2
330
AEB
100
AcDbDictionary
280
     1
281
     1
  3
ACAD_XREC_ROUNDTRIP
360
BF3
  0
DICTIONARY
  5
BF0
330
AEA
100
AcDbDictionary
280
     1
281
     1
  3
ACAD_XREC_ROUNDTRIP
360
BF1
  0
DICTIONARY
  5
BF4
330
AEC
100
AcDbDictionary
280
     1
281
     1
  3
ACAD_XREC_ROUNDTRIP
360
BF5
  0
DICTIONARY
  5
BF6
330
B00
100
AcDbDictionary
280
     1
281
     1
  3
ACAD_XREC_ROUNDTRIP
360
BF7
  0
XRECORD
  5
BEF
102
{ACAD_REACTORS
330
BEE
102
}
330
BEE
100
AcDbXrecord
280
     1
102
SHADEPLOT
 70
     0
102
SHADEPLOTRESLEVEL
 70
     2
102
SHADEPLOTCUSTOMDPI
 70
   300
  0
XRECORD
  5
BED
102
{ACAD_REACTORS
330
BEC
102
}
330
BEC
100
AcDbXrecord
280
     1
102
SHADEPLOT
 70
     0
102
SHADEPLOTRESLEVEL
 70
     2
102
SHADEPLOTCUSTOMDPI
 70
   300
  0
XRECORD
  5
BF3
102
{ACAD_REACTORS
330
BF2
102
}
330
BF2
100
AcDbXrecord
280
     1
102
MATERIAL
148
0.0
149
0.0
149
0.0
 93
        0
 94
       63
282
     0
 72
     1
 77
     1
171
     1
175
     1
179
     1
273
     0
  0
XRECORD
  5
BF1
102
{ACAD_REACTORS
330
BF0
102
}
330
BF0
100
AcDbXrecord
280
     1
102
MATERIAL
148
0.0
149
0.0
149
0.0
 93
        0
 94
       63
282
     0
 72
     1
 77
     1
171
     1
175
     1
179
     1
273
     0
  0
XRECORD
  5
BF5
102
{ACAD_REACTORS
330
BF4
102
}
330
BF4
100
AcDbXrecord
280
     1
102
MATERIAL
148
0.0
149
0.0
149
0.0
 93
        0
 94
       63
282
     0
 72
     1
 77
     1
171
     1
175
     1
179
     1
273
     0
  0
XRECORD
  5
BF7
102
{ACAD_REACTORS
330
BF6
102
}
330
BF6
100
AcDbXrecord
280
     1
102
ACAD_ROUNDTRIP_PRE2007_TABLESTYLE
 90
      512
 91
        0
  1

 92
      512
 93
        0
  2

 94
      512
 95
        0
  3

  0
ENDSEC
  0
EOF
