  0
SECTION
  2
HEADER
  9
$ACADVER
  1
AC1015
  9
$ACADMAINTVER
 70
    18
  9
$DWGCODEPAGE
  3
ANSI_1252
  9
$INSBASE
 10
0.0
 20
0.0
 30
0.0
  9
$EXTMIN
 10
1.000000000000000E+20
 20
1.000000000000000E+20
 30
1.000000000000000E+20
  9
$EXTMAX
 10
0.0
 20
0.0
 30
0.0
  9
$LIMMIN
 10
82.46938476562499
 20
116.823876953125
  9
$LIMMAX
 10
92.56558159722223
 20
162.2472886827256
  9
$ORTHOMODE
 70
     0
  9
$REGENMODE
 70
     1
  9
$FILLMODE
 70
     1
  9
$QTEXTMODE
 70
     0
  9
$MIRRTEXT
 70
     1
  9
$LTSCALE
 40
1.0
  9
$ATTMODE
 70
     1
  9
$TEXTSIZE
 40
0.0
  9
$TRACEWID
 40
0.05
  9
$TEXTSTYLE
  7
Standard
  9
$CLAYER
  8
0
  9
$CELTYPE
  6
Continuous
  9
$CECOLOR
 62
   256
  9
$CELTSCALE
 40
1.0
  9
$DISPSILH
 70
     0
  9
$DIMSCALE
 40
1.0
  9
$DIMASZ
 40
0.18
  9
$DIMEXO
 40
0.0625
  9
$DIMDLI
 40
0.38
  9
$DIMRND
 40
0.0
  9
$DIMDLE
 40
0.0
  9
$DIMEXE
 40
0.18
  9
$DIMTP
 40
0.0
  9
$DIMTM
 40
0.0
  9
$DIMTXT
 40
0.18
  9
$DIMCEN
 40
0.09
  9
$DIMTSZ
 40
0.0
  9
$DIMTOL
 70
     0
  9
$DIMLIM
 70
     0
  9
$DIMTIH
 70
     1
  9
$DIMTOH
 70
     1
  9
$DIMSE1
 70
     0
  9
$DIMSE2
 70
     0
  9
$DIMTAD
 70
     0
  9
$DIMZIN
 70
     0
  9
$DIMBLK
  1

  9
$DIMASO
 70
     1
  9
$DIMSHO
 70
     1
  9
$DIMPOST
  1

  9
$DIMAPOST
  1

  9
$DIMALT
 70
     0
  9
$DIMALTD
 70
     2
  9
$DIMALTF
 40
25.4
  9
$DIMLFAC
 40
1.0
  9
$DIMTOFL
 70
     0
  9
$DIMTVP
 40
0.0
  9
$DIMTIX
 70
     0
  9
$DIMSOXD
 70
     0
  9
$DIMSAH
 70
     0
  9
$DIMBLK1
  1

  9
$DIMBLK2
  1

  9
$DIMSTYLE
  2
Standard
  9
$DIMCLRD
 70
     0
  9
$DIMCLRE
 70
     0
  9
$DIMCLRT
 70
     0
  9
$DIMTFAC
 40
1.0
  9
$DIMGAP
 40
0.09
  9
$DIMJUST
 70
     0
  9
$DIMSD1
 70
     0
  9
$DIMSD2
 70
     0
  9
$DIMTOLJ
 70
     1
  9
$DIMTZIN
 70
     0
  9
$DIMALTZ
 70
     0
  9
$DIMALTTZ
 70
     0
  9
$DIMUPT
 70
     0
  9
$DIMDEC
 70
     4
  9
$DIMTDEC
 70
     4
  9
$DIMALTU
 70
     2
  9
$DIMALTTD
 70
     2
  9
$DIMTXSTY
  7
Standard
  9
$DIMAUNIT
 70
     0
  9
$DIMADEC
 70
     0
  9
$DIMALTRND
 40
0.0
  9
$DIMAZIN
 70
     0
  9
$DIMDSEP
 70
     0
  9
$DIMATFIT
 70
     3
  9
$DIMFRAC
 70
     0
  9
$DIMLDRBLK
  1

  9
$DIMLUNIT
 70
     2
  9
$DIMLWD
 70
     0
  9
$DIMLWE
 70
     0
  9
$DIMTMOVE
 70
     0
  9
$LUNITS
 70
     2
  9
$LUPREC
 70
     4
  9
$SKETCHINC
 40
0.1
  9
$FILLETRAD
 40
0.0
  9
$AUNITS
 70
     0
  9
$AUPREC
 70
     0
  9
$MENU
  1
acad
  9
$ELEVATION
 40
0.0
  9
$PELEVATION
 40
0.0
  9
$THICKNESS
 40
0.0
  9
$LIMCHECK
 70
     0
  9
$CHAMFERA
 40
0.0
  9
$CHAMFERB
 40
0.0
  9
$CHAMFERC
 40
0.0
  9
$CHAMFERD
 40
0.0
  9
$SKPOLY
 70
     0
  9
$TDCREATE
 40
2454257.554598519
  9
$TDUCREATE
 40
2454257.721265185
  9
$TDUPDATE
 40
2454263.498711840
  9
$TDUUPDATE
 40
2454263.665378507
  9
$TDINDWG
 40
0.0308684144
  9
$TDUSRTIMER
 40
0.0308684144
  9
$USRTIMER
 70
     1
  9
$ANGBASE
 50
0.0
  9
$ANGDIR
 70
     0
  9
$PDMODE
 70
     0
  9
$PDSIZE
 40
0.0
  9
$PLINEWID
 40
0.0
  9
$SPLFRAME
 70
     0
  9
$SPLINETYPE
 70
     6
  9
$SPLINESEGS
 70
     8
  9
$HANDSEED
  5
8D
  9
$SURFTAB1
 70
     6
  9
$SURFTAB2
 70
     6
  9
$SURFTYPE
 70
     6
  9
$SURFU
 70
     6
  9
$SURFV
 70
     6
  9
$UCSBASE
  2

  9
$UCSNAME
  2

  9
$UCSORG
 10
0.0
 20
0.0
 30
0.0
  9
$UCSXDIR
 10
1.0
 20
0.0
 30
0.0
  9
$UCSYDIR
 10
0.0
 20
1.0
 30
0.0
  9
$UCSORTHOREF
  2

  9
$UCSORTHOVIEW
 70
     0
  9
$UCSORGTOP
 10
0.0
 20
0.0
 30
0.0
  9
$UCSORGBOTTOM
 10
0.0
 20
0.0
 30
0.0
  9
$UCSORGLEFT
 10
0.0
 20
0.0
 30
0.0
  9
$UCSORGRIGHT
 10
0.0
 20
0.0
 30
0.0
  9
$UCSORGFRONT
 10
0.0
 20
0.0
 30
0.0
  9
$UCSORGBACK
 10
0.0
 20
0.0
 30
0.0
  9
$PUCSBASE
  2

  9
$PUCSNAME
  2

  9
$PUCSORG
 10
0.0
 20
0.0
 30
0.0
  9
$PUCSXDIR
 10
1.0
 20
0.0
 30
0.0
  9
$PUCSYDIR
 10
0.0
 20
1.0
 30
0.0
  9
$PUCSORTHOREF
  2

  9
$PUCSORTHOVIEW
 70
     0
  9
$PUCSORGTOP
 10
0.0
 20
0.0
 30
0.0
  9
$PUCSORGBOTTOM
 10
0.0
 20
0.0
 30
0.0
  9
$PUCSORGLEFT
 10
0.0
 20
0.0
 30
0.0
  9
$PUCSORGRIGHT
 10
0.0
 20
0.0
 30
0.0
  9
$PUCSORGFRONT
 10
0.0
 20
0.0
 30
0.0
  9
$PUCSORGBACK
 10
0.0
 20
0.0
 30
0.0
  9
$USERI1
 70
     0
  9
$USERI2
 70
     0
  9
$USERI3
 70
     0
  9
$USERI4
 70
     0
  9
$USERI5
 70
     0
  9
$USERR1
 40
0.0
  9
$USERR2
 40
0.0
  9
$USERR3
 40
0.0
  9
$USERR4
 40
0.0
  9
$USERR5
 40
0.0
  9
$WORLDVIEW
 70
     1
  9
$SHADEDGE
 70
     3
  9
$SHADEDIF
 70
    70
  9
$TILEMODE
 70
     1
  9
$MAXACTVP
 70
    16
  9
$PINSBASE
 10
0.0
 20
0.0
 30
0.0
  9
$PLIMCHECK
 70
     0
  9
$PEXTMIN
 10
1.000000000000000E+20
 20
1.000000000000000E+20
 30
1.000000000000000E+20
  9
$PEXTMAX
 10
-1.000000000000000E+20
 20
-1.000000000000000E+20
 30
-1.000000000000000E+20
  9
$PLIMMIN
 10
0.0
 20
0.0
  9
$PLIMMAX
 10
12.0
 20
9.0
  9
$UNITMODE
 70
     0
  9
$VISRETAIN
 70
     0
  9
$PLINEGEN
 70
     1
  9
$PSLTSCALE
 70
     0
  9
$TREEDEPTH
 70
  3020
  9
$CMLSTYLE
  2
Standard
  9
$CMLJUST
 70
     0
  9
$CMLSCALE
 40
1.0
  9
$PROXYGRAPHICS
 70
     0
  9
$MEASUREMENT
 70
     1
  9
$CELWEIGHT
370
    -1
  9
$ENDCAPS
280
     0
  9
$JOINSTYLE
280
     0
  9
$LWDISPLAY
290
     0
  9
$INSUNITS
 70
     0
  9
$HYPERLINKBASE
  1

  9
$STYLESHEET
  1

  9
$XEDIT
290
     1
  9
$CEPSNTYPE
380
     0
  9
$PSTYLEMODE
290
     1
  9
$FINGERPRINTGUID
  2

  9
$VERSIONGUID
  2
{17049714-48FC-4DB0-A642-B03B70AD74B6}
  9
$EXTNAMES
290
     1
  9
$PSVPSCALE
 40
0.0
  9
$OLESTARTUP
290
     0
  0
ENDSEC
  0
SECTION
  2
CLASSES
  0
CLASS
  1
IMAGE
  2
AcDbRasterImage
  3
ISM
 90
    32895
280
     0
281
     1
  0
CLASS
  1
DICTIONARYVAR
  2
AcDbDictionaryVar
  3
ObjectDBX Classes
 90
        0
280
     0
281
     0
  0
CLASS
  1
RASTERVARIABLES
  2
AcDbRasterVariables
  3
ISM
 90
    32768
280
     0
281
     0
  0
CLASS
  1
IMAGEDEF
  2
AcDbRasterImageDef
  3
ISM
 90
    32768
280
     0
281
     0
  0
CLASS
  1
IMAGEDEF_REACTOR
  2
AcDbRasterImageDefReactor
  3
ISM
 90
    32769
280
     0
281
     0
  0
CLASS
  1
IDBUFFER
  2
AcDbIdBuffer
  3
ObjectDBX Classes
 90
    32768
280
     0
281
     0
  0
CLASS
  1
SPATIAL_FILTER
  2
AcDbSpatialFilter
  3
ObjectDBX Classes
 90
    32768
280
     0
281
     0
  0
CLASS
  1
SORTENTSTABLE
  2
AcDbSortentsTable
  3
ObjectDBX Classes
 90
    32768
280
     0
281
     0
  0
CLASS
  1
LAYER_INDEX
  2
AcDbLayerIndex
  3
ObjectDBX Classes
 90
    32768
280
     0
281
     0
  0
CLASS
  1
SPATIAL_INDEX
  2
AcDbSpatialIndex
  3
ObjectDBX Classes
 90
    32768
280
     0
281
     0
  0
CLASS
  1
OBJECT_PTR
  2
CAseDLPNTableRecord
  3
ASE-LPNTableRecord
 90
    32769
280
     0
281
     0
  0
CLASS
  1
LAYOUT
  2
AcDbLayout
  3
ObjectDBX Classes
 90
        0
280
     0
281
     0
  0
CLASS
  1
PLOTSETTINGS
  2
AcDbPlotSettings
  3
ObjectDBX Classes
 90
    32768
280
     0
281
     0
  0
CLASS
  1
ACDBDICTIONARYWDFLT
  2
AcDbDictionaryWithDefault
  3
ObjectDBX Classes
 90
        0
280
     0
281
     0
  0
CLASS
  1
ACDBPLACEHOLDER
  2
AcDbPlaceHolder
  3
ObjectDBX Classes
 90
        0
280
     0
281
     0
  0
CLASS
  1
VBA_PROJECT
  2
AcDbVbaProject
  3
acad
 90
    32768
280
     0
281
     0
  0
CLASS
  1
WIPEOUT
  2
AcDbWipeout
  3
"WipeOut|Product Desc: Object Enabler for WipeOut entity^I^I^I^I^I^I|Company: Autodesk, Inc.^I^I^I^I^I^I|WEB Address: www.autodesk.com"
 90
    32895
280
     0
281
     1
  0
CLASS
  1
WIPEOUTVARIABLES
  2
AcDbWipeoutVariables
  3
"WipeOut|Product Desc:     WipeOut Dbx Application|Company:          Autodesk, Inc.|WEB Address:      www.autodesk.com"
 90
    32768
280
     0
281
     0
  0
CLASS
  1
RTEXT
  2
RText
  3
RText|AutoCAD Express Tool|expresstools@autodesk.com
 90
    32768
280
     1
281
     1
  0
CLASS
  1
ARCALIGNEDTEXT
  2
AcDbArcAlignedText
  3
ATEXT|AutoCAD Express Tool|expresstools@autodesk.com
 90
    32768
280
     1
281
     1
  0
ENDSEC
  0
SECTION
  2
TABLES
  0
TABLE
  2
VPORT
  5
76
330
0
100
AcDbSymbolTable
 70
     1
  0
VPORT
  5
77
330
76
100
AcDbSymbolTableRecord
100
AcDbViewportTableRecord
  2
*Active
 70
     0
 10
0.0
 20
0.0
 11
1.0
 21
1.0
 12
86.51329951785568
 22
129.7443073436397
 13
0.0
 23
0.0
 14
1.0
 24
1.0
 15
0.0
 25
0.0
 16
0.0
 26
0.0
 36
1.0
 17
0.0
 27
0.0
 37
0.0
 40
48.4225016769633
 41
1.974155069582504
 42
50.0
 43
0.0
 44
0.0
 50
0.0
 51
0.0
 71
     0
 72
   100
 73
     1
 74
     1
 75
     0
 76
     0
 77
     0
 78
     0
281
     0
 65
     0
110
0.0
120
0.0
130
0.0
111
1.0
121
0.0
131
0.0
112
0.0
122
1.0
132
0.0
 79
     0
146
0.0
  0
ENDTAB
  0
TABLE
  2
LTYPE
  5
71
330
0
100
AcDbSymbolTable
 70
     1
  0
LTYPE
  5
72
330
71
100
AcDbSymbolTableRecord
100
AcDbLinetypeTableRecord
  2
ByBlock
 70
     0
  3

 72
    65
 73
     0
 40
0.0
  0
LTYPE
  5
73
330
71
100
AcDbSymbolTableRecord
100
AcDbLinetypeTableRecord
  2
ByLayer
 70
     0
  3

 72
    65
 73
     0
 40
0.0
  0
LTYPE
  5
8
330
71
100
AcDbSymbolTableRecord
100
AcDbLinetypeTableRecord
  2
Continuous
 70
     0
  3
Solid line
 72
    65
 73
     0
 40
0.0
  0
ENDTAB
  0
TABLE
  2
LAYER
  5
6E
330
0
100
AcDbSymbolTable
 70
     4
  0
LAYER
  5
4
330
6E
100
AcDbSymbolTableRecord
100
AcDbLayerTableRecord
  2
0
 70
     0
 62
     7
  6
Continuous
370
    -3
390
5
  0
LAYER
  5
A
330
6E
100
AcDbSymbolTableRecord
100
AcDbLayerTableRecord
  2
ADP1DETAIL
 70
     0
 62
     1
  6
Continuous
370
    -3
390
5
  0
LAYER
  5
45
330
6E
100
AcDbSymbolTableRecord
100
AcDbLayerTableRecord
  2
ADPDIM
 70
     0
 62
     3
  6
Continuous
370
    -3
390
5
  0
LAYER
  5
52
330
6E
100
AcDbSymbolTableRecord
100
AcDbLayerTableRecord
  2
Defpoints
 70
     0
 62
     7
  6
Continuous
290
     0
370
    -3
390
5
  0
ENDTAB
  0
TABLE
  2
STYLE
  5
6F
330
0
100
AcDbSymbolTable
 70
     2
  0
STYLE
  5
46
330
6F
100
AcDbSymbolTableRecord
100
AcDbTextStyleTableRecord
  2
Standard
 70
     0
 40
0.0
 41
1.0
 50
0.0
 71
     0
 42
0.0
  3
txt
  4

  0
STYLE
  5
66
330
6F
100
AcDbSymbolTableRecord
100
AcDbTextStyleTableRecord
  2
ARIAL_WIDE
 70
     0
 40
0.0
 41
1.25
 50
0.0
 71
     0
 42
0.2
  3
ARIAL.TTF
  4

1001
ACAD
1000
Arial
1071
       34
  0
ENDTAB
  0
TABLE
  2
VIEW
  5
74
330
0
100
AcDbSymbolTable
 70
     0
  0
ENDTAB
  0
TABLE
  2
UCS
  5
75
330
0
100
AcDbSymbolTable
 70
     0
  0
ENDTAB
  0
TABLE
  2
APPID
  5
78
330
0
100
AcDbSymbolTable
 70
     1
  0
APPID
  5
56
330
78
100
AcDbSymbolTableRecord
100
AcDbRegAppTableRecord
  2
ACAD
 70
     0
  0
ENDTAB
  0
TABLE
  2
DIMSTYLE
  5
79
330
0
100
AcDbSymbolTable
 70
     1
100
AcDbDimStyleTable
 71
     1
340
47
  0
DIMSTYLE
105
47
102
{ACAD_REACTORS
330
44
330
57
102
}
330
79
100
AcDbSymbolTableRecord
100
AcDbDimStyleTableRecord
  2
Standard
 70
     0
340
46
  0
ENDTAB
  0
TABLE
  2
BLOCK_RECORD
  5
1
330
0
100
AcDbSymbolTable
 70
    12
  0
BLOCK_RECORD
  5
2
330
1
100
AcDbSymbolTableRecord
100
AcDbBlockTableRecord
  2
*MODEL_SPACE
340
68
  0
BLOCK_RECORD
  5
6A
330
1
100
AcDbSymbolTableRecord
100
AcDbBlockTableRecord
  2
*PAPER_SPACE
340
6D
  0
BLOCK_RECORD
  5
30
330
1
100
AcDbSymbolTableRecord
100
AcDbBlockTableRecord
  2
AI9-BLK1
340
0
102
{BLKREFS
331
2F
102
}
  0
BLOCK_RECORD
  5
3D
330
1
100
AcDbSymbolTableRecord
100
AcDbBlockTableRecord
  2
AI9-BLK2
340
0
102
{BLKREFS
331
3C
102
}
  0
BLOCK_RECORD
  5
38
330
1
100
AcDbSymbolTableRecord
100
AcDbBlockTableRecord
  2
AI9-BLK3
340
0
102
{BLKREFS
331
37
102
}
  0
BLOCK_RECORD
  5
33
330
1
100
AcDbSymbolTableRecord
100
AcDbBlockTableRecord
  2
AI9-BLK4
340
0
102
{BLKREFS
331
32
102
}
  0
BLOCK_RECORD
  5
29
330
1
100
AcDbSymbolTableRecord
100
AcDbBlockTableRecord
  2
AI9-BLK5
340
0
102
{BLKREFS
331
28
102
}
  0
BLOCK_RECORD
  5
14
330
1
100
AcDbSymbolTableRecord
100
AcDbBlockTableRecord
  2
AI9-BLK6
340
0
102
{BLKREFS
331
13
102
}
  0
BLOCK_RECORD
  5
21
330
1
100
AcDbSymbolTableRecord
100
AcDbBlockTableRecord
  2
AI9-BLK7
340
0
102
{BLKREFS
331
20
102
}
  0
BLOCK_RECORD
  5
1C
330
1
100
AcDbSymbolTableRecord
100
AcDbBlockTableRecord
  2
AI9-BLK8
340
0
102
{BLKREFS
331
1B
102
}
  0
BLOCK_RECORD
  5
17
330
1
100
AcDbSymbolTableRecord
100
AcDbBlockTableRecord
  2
AI9-BLK9
340
0
102
{BLKREFS
331
16
102
}
  0
BLOCK_RECORD
  5
D
330
1
100
AcDbSymbolTableRecord
100
AcDbBlockTableRecord
  2
AI9-BLK10
340
0
102
{BLKREFS
331
C
102
}
  0
BLOCK_RECORD
  5
48
330
1
100
AcDbSymbolTableRecord
100
AcDbBlockTableRecord
  2
*D10
340
0
  0
BLOCK_RECORD
  5
58
330
1
100
AcDbSymbolTableRecord
100
AcDbBlockTableRecord
  2
*D11
340
0
  0
ENDTAB
  0
ENDSEC
  0
SECTION
  2
BLOCKS
  0
BLOCK
  5
3
330
2
100
AcDbEntity
  8
0
100
AcDbBlockBegin
  2
*MODEL_SPACE
 70
     0
 10
0.0
 20
0.0
 30
0.0
  3
*MODEL_SPACE
  1

  0
ENDBLK
  5
67
330
2
100
AcDbEntity
  8
0
100
AcDbBlockEnd
  0
BLOCK
  5
6B
330
6A
100
AcDbEntity
 67
     1
  8
0
100
AcDbBlockBegin
  2
*PAPER_SPACE
 70
     0
 10
0.0
 20
0.0
 30
0.0
  3
*PAPER_SPACE
  1

  0
ENDBLK
  5
6C
330
6A
100
AcDbEntity
 67
     1
  8
0
100
AcDbBlockEnd
  0
BLOCK
  5
31
330
30
100
AcDbEntity
  8
ADP1DETAIL
 62
     7
100
AcDbBlockBegin
  2
AI9-BLK1
 70
     0
 10
0.0
 20
0.0
 30
0.0
  3
AI9-BLK1
  1

  0
INSERT
  5
32
330
30
100
AcDbEntity
  8
ADP1DETAIL
 62
     7
100
AcDbBlockReference
  2
AI9-BLK4
 10
-0.0022393120659722
 20
0.1572686089409722
 30
0.0
  0
INSERT
  5
37
330
30
100
AcDbEntity
  8
ADP1DETAIL
 62
     7
100
AcDbBlockReference
  2
AI9-BLK3
 10
-0.0022393120659722
 20
-0.1574408637152778
 30
0.0
  0
INSERT
  5
3C
330
30
100
AcDbEntity
  8
ADP1DETAIL
 62
     7
100
AcDbBlockReference
  2
AI9-BLK2
 10
0.0
 20
0.0389295789930556
 30
0.0
  0
ENDBLK
  5
41
330
30
100
AcDbEntity
  8
ADP1DETAIL
100
AcDbBlockEnd
  0
BLOCK
  5
3E
330
3D
100
AcDbEntity
  8
ADP1DETAIL
 62
     7
100
AcDbBlockBegin
  2
AI9-BLK2
 70
     0
 10
0.0
 20
0.0
 30
0.0
  3
AI9-BLK2
  1

  0
SPLINE
  5
3F
330
3D
100
AcDbEntity
  8
ADP1DETAIL
 62
     7
100
AcDbSpline
210
0.0
220
0.0
230
1.0
 70
    11
 71
     3
 72
    32
 73
    28
 74
     0
 42
0.0000000001
 43
0.0000000001
 40
0.0
 40
0.0
 40
0.0
 40
0.0
 40
1.0
 40
1.0
 40
1.0
 40
2.0
 40
2.0
 40
2.0
 40
3.0
 40
3.0
 40
3.0
 40
4.0
 40
4.0
 40
4.0
 40
5.0
 40
5.0
 40
5.0
 40
6.0
 40
6.0
 40
6.0
 40
7.0
 40
7.0
 40
7.0
 40
8.0
 40
8.0
 40
8.0
 40
9.0
 40
9.0
 40
9.0
 40
9.0
 10
-0.3073886447482639
 20
0.0597724066840278
 30
0.0
 10
-0.3029100206163195
 20
0.0583943684895833
 30
0.0
 10
-0.2980868869357638
 20
0.0570163302951389
 30
0.0
 10
-0.2930914984809028
 20
0.0570163302951389
 30
0.0
 10
-0.2930914984809028
 20
0.0570163302951389
 30
0.0
 10
0.293780517578125
 20
0.0570163302951389
 30
0.0
 10
0.293780517578125
 20
0.0570163302951389
 30
0.0
 10
0.298431396484375
 20
0.0570163302951389
 30
0.0
 10
0.3025655110677083
 20
0.0583943684895833
 30
0.0
 10
0.306182861328125
 20
0.0597724066840278
 30
0.0
 10
0.287579345703125
 20
0.0360012478298611
 30
0.0
 10
0.2765550401475694
 20
0.0060289171006944
 30
0.0
 10
0.2765550401475694
 20
-0.0270439995659722
 30
0.0
 10
0.2765550401475694
 20
-0.0683851453993056
 30
0.0
 10
0.2942972819010416
 20
-0.1062811957465278
 30
0.0
 10
0.3227193196614583
 20
-0.1324639214409722
 30
0.0
 10
0.3227193196614583
 20
-0.1324639214409722
 30
0.0
 10
0.3227193196614583
 20
-0.1352199978298611
 30
0.0
 10
0.3227193196614583
 20
-0.1352199978298611
 30
0.0
 10
0.3227193196614583
 20
-0.1352199978298611
 30
0.0
 10
-0.3271979437934027
 20
-0.1352199978298611
 30
0.0
 10
-0.3271979437934027
 20
-0.1352199978298611
 30
0.0
 10
-0.296881103515625
 20
-0.1086927625868055
 30
0.0
 10
-0.2775885687934028
 20
-0.0704522026909722
 30
0.0
 10
-0.2775885687934028
 20
-0.0270439995659722
 30
0.0
 10
-0.2775885687934028
 20
0.0060289171006944
 30
0.0
 10
-0.2887851291232639
 20
0.0360012478298611
 30
0.0
 10
-0.3073886447482639
 20
0.0597724066840278
 30
0.0
  0
ENDBLK
  5
40
330
3D
100
AcDbEntity
  8
ADP1DETAIL
100
AcDbBlockEnd
  0
BLOCK
  5
39
330
38
100
AcDbEntity
  8
ADP1DETAIL
 62
     7
100
AcDbBlockBegin
  2
AI9-BLK3
 70
     0
 10
0.0
 20
0.0
 30
0.0
  3
AI9-BLK3
  1

  0
SPLINE
  5
3A
330
38
100
AcDbEntity
  8
ADP1DETAIL
 62
     7
100
AcDbSpline
210
0.0
220
0.0
230
1.0
 70
    11
 71
     3
 72
    29
 73
    25
 74
     0
 42
0.0000000001
 43
0.0000000001
 40
0.0
 40
0.0
 40
0.0
 40
0.0
 40
1.0
 40
1.0
 40
1.0
 40
2.0
 40
2.0
 40
2.0
 40
3.0
 40
3.0
 40
3.0
 40
4.0
 40
4.0
 40
4.0
 40
5.0
 40
5.0
 40
5.0
 40
6.0
 40
6.0
 40
6.0
 40
7.0
 40
7.0
 40
7.0
 40
8.0
 40
8.0
 40
8.0
 40
8.0
 10
0.4000617133246528
 20
-0.0277330186631945
 30
0.0
 10
0.4000617133246528
 20
-0.0277330186631945
 30
0.0
 10
0.3649217393663194
 20
0.0322116427951389
 30
0.0
 10
0.3649217393663194
 20
0.0322116427951389
 30
0.0
 10
0.3585483127170139
 20
0.0446139865451389
 30
0.0
 10
0.3483852810329861
 20
0.0611504448784722
 30
0.0
 10
0.3308152940538194
 20
0.0611504448784722
 30
0.0
 10
0.3308152940538194
 20
0.0611504448784722
 30
0.0
 10
-0.3323655870225694
 20
0.0611504448784722
 30
0.0
 10
-0.3323655870225694
 20
0.0611504448784722
 30
0.0
 10
-0.3501078287760416
 20
0.0611504448784722
 30
0.0
 10
-0.3659552680121527
 20
0.0473700629340278
 30
0.0
 10
-0.3718119303385416
 20
0.0298000759548611
 30
0.0
 10
-0.3718119303385416
 20
0.0298000759548611
 30
0.0
 10
-0.4047125922309027
 20
-0.02945556640625
 30
0.0
 10
-0.4047125922309027
 20
-0.02945556640625
 30
0.0
 10
-0.4109137641059028
 20
-0.0546047634548611
 30
0.0
 10
-0.3905877007378472
 20
-0.0611504448784722
 30
0.0
 10
-0.3730177137586805
 20
-0.0611504448784722
 30
0.0
 10
-0.3730177137586805
 20
-0.0611504448784722
 30
0.0
 10
0.3874871148003472
 20
-0.0611504448784722
 30
0.0
 10
0.3874871148003472
 20
-0.0611504448784722
 30
0.0
 10
0.4048848470052083
 20
-0.0611504448784722
 30
0.0
 10
0.4119472927517361
 20
-0.0439249674479167
 30
0.0
 10
0.4000617133246528
 20
-0.0277330186631945
 30
0.0
  0
ENDBLK
  5
3B
330
38
100
AcDbEntity
  8
ADP1DETAIL
100
AcDbBlockEnd
  0
BLOCK
  5
34
330
33
100
AcDbEntity
  8
ADP1DETAIL
 62
     7
100
AcDbBlockBegin
  2
AI9-BLK4
 70
     0
 10
0.0
 20
0.0
 30
0.0
  3
AI9-BLK4
  1

  0
SPLINE
  5
35
330
33
100
AcDbEntity
  8
ADP1DETAIL
 62
     7
100
AcDbSpline
210
0.0
220
0.0
230
1.0
 70
    11
 71
     3
 72
    29
 73
    25
 74
     0
 42
0.0000000001
 43
0.0000000001
 40
0.0
 40
0.0
 40
0.0
 40
0.0
 40
1.0
 40
1.0
 40
1.0
 40
2.0
 40
2.0
 40
2.0
 40
3.0
 40
3.0
 40
3.0
 40
4.0
 40
4.0
 40
4.0
 40
5.0
 40
5.0
 40
5.0
 40
6.0
 40
6.0
 40
6.0
 40
7.0
 40
7.0
 40
7.0
 40
8.0
 40
8.0
 40
8.0
 40
8.0
 10
0.361993408203125
 20
0.0279052734375
 30
0.0
 10
0.361993408203125
 20
0.0279052734375
 30
0.0
 10
0.3268534342447916
 20
-0.0320393880208333
 30
0.0
 10
0.3268534342447916
 20
-0.0320393880208333
 30
0.0
 10
0.3206522623697916
 20
-0.0444417317708333
 30
0.0
 10
0.3099724663628472
 20
-0.0613226996527778
 30
0.0
 10
0.2925747341579861
 20
-0.0613226996527778
 30
0.0
 10
0.2925747341579861
 20
-0.0613226996527778
 30
0.0
 10
-0.2944695366753472
 20
-0.0613226996527778
 30
0.0
 10
-0.2944695366753472
 20
-0.0613226996527778
 30
0.0
 10
-0.3118672688802083
 20
-0.0613226996527778
 30
0.0
 10
-0.3277147081163194
 20
-0.0468532986111111
 30
0.0
 10
-0.3337436252170138
 20
-0.0296278211805556
 30
0.0
 10
-0.3337436252170138
 20
-0.0296278211805556
 30
0.0
 10
-0.366644287109375
 20
0.0296278211805556
 30
0.0
 10
-0.366644287109375
 20
0.0296278211805556
 30
0.0
 10
-0.372845458984375
 20
0.0551215277777778
 30
0.0
 10
-0.3525193956163194
 20
0.0613226996527778
 30
0.0
 10
-0.3349494086371527
 20
0.0613226996527778
 30
0.0
 10
-0.3349494086371527
 20
0.0613226996527778
 30
0.0
 10
0.3490743001302083
 20
0.0613226996527778
 30
0.0
 10
0.3490743001302083
 20
0.0613226996527778
 30
0.0
 10
0.366644287109375
 20
0.0613226996527778
 30
0.0
 10
0.3738789876302083
 20
0.0437527126736111
 30
0.0
 10
0.361993408203125
 20
0.0279052734375
 30
0.0
  0
ENDBLK
  5
36
330
33
100
AcDbEntity
  8
ADP1DETAIL
100
AcDbBlockEnd
  0
BLOCK
  5
2A
330
29
100
AcDbEntity
  8
ADP1DETAIL
 62
     7
100
AcDbBlockBegin
  2
AI9-BLK5
 70
     0
 10
0.0
 20
0.0
 30
0.0
  3
AI9-BLK5
  1

  0
SPLINE
  5
2B
330
29
100
AcDbEntity
  8
ADP1DETAIL
 62
     7
100
AcDbSpline
210
0.0
220
0.0
230
1.0
 70
    11
 71
     3
 72
    29
 73
    25
 74
     0
 42
0.0000000001
 43
0.0000000001
 40
0.0
 40
0.0
 40
0.0
 40
0.0
 40
1.0
 40
1.0
 40
1.0
 40
2.0
 40
2.0
 40
2.0
 40
3.0
 40
3.0
 40
3.0
 40
4.0
 40
4.0
 40
4.0
 40
5.0
 40
5.0
 40
5.0
 40
6.0
 40
6.0
 40
6.0
 40
7.0
 40
7.0
 40
7.0
 40
8.0
 40
8.0
 40
8.0
 40
8.0
 10
-0.3738789876302083
 20
-0.1851738823784722
 30
0.0
 10
-0.3738789876302083
 20
-0.1851738823784722
 30
0.0
 10
-0.3389112684461805
 20
-0.12557373046875
 30
0.0
 10
-0.3389112684461805
 20
-0.12557373046875
 30
0.0
 10
-0.332537841796875
 20
-0.1124823676215278
 30
0.0
 10
-0.3222025553385416
 20
-0.0962904188368056
 30
0.0
 10
-0.304632568359375
 20
-0.0962904188368056
 30
0.0
 10
-0.304632568359375
 20
-0.0962904188368056
 30
0.0
 10
0.2824117024739583
 20
-0.0962904188368056
 30
0.0
 10
0.2824117024739583
 20
-0.0962904188368056
 30
0.0
 10
0.2998094346788194
 20
-0.0962904188368056
 30
0.0
 10
0.3156568739149305
 20
-0.11007080078125
 30
0.0
 10
0.3218580457899305
 20
-0.1279852973090278
 30
0.0
 10
0.3218580457899305
 20
-0.1279852973090278
 30
0.0
 10
0.3545864529079861
 20
-0.1868964301215278
 30
0.0
 10
0.3545864529079861
 20
-0.1868964301215278
 30
0.0
 10
0.3609598795572916
 20
-0.21239013671875
 30
0.0
 10
0.340289306640625
 20
-0.21859130859375
 30
0.0
 10
0.3228915744357639
 20
-0.21859130859375
 30
0.0
 10
0.3228915744357639
 20
-0.21859130859375
 30
0.0
 10
-0.3611321343315972
 20
-0.21859130859375
 30
0.0
 10
-0.3611321343315972
 20
-0.21859130859375
 30
0.0
 10
-0.3787021213107638
 20
-0.21859130859375
 30
0.0
 10
-0.3859368218315971
 20
-0.2010213216145833
 30
0.0
 10
-0.3738789876302083
 20
-0.1851738823784722
 30
0.0
  0
SPLINE
  5
2C
330
29
100
AcDbEntity
  8
ADP1DETAIL
 62
     7
100
AcDbSpline
210
0.0
220
0.0
230
1.0
 70
    11
 71
     3
 72
    29
 73
    25
 74
     0
 42
0.0000000001
 43
0.0000000001
 40
0.0
 40
0.0
 40
0.0
 40
0.0
 40
1.0
 40
1.0
 40
1.0
 40
2.0
 40
2.0
 40
2.0
 40
3.0
 40
3.0
 40
3.0
 40
4.0
 40
4.0
 40
4.0
 40
5.0
 40
5.0
 40
5.0
 40
6.0
 40
6.0
 40
6.0
 40
7.0
 40
7.0
 40
7.0
 40
8.0
 40
8.0
 40
8.0
 40
8.0
 10
-0.4121195475260416
 20
0.1851738823784722
 30
0.0
 10
-0.4121195475260416
 20
0.1851738823784722
 30
0.0
 10
-0.3769795735677083
 20
0.1252292209201389
 30
0.0
 10
-0.3769795735677083
 20
0.1252292209201389
 30
0.0
 10
-0.3706061469184028
 20
0.1124823676215278
 30
0.0
 10
-0.3600986056857638
 20
0.0962904188368056
 30
0.0
 10
-0.3427008734809027
 20
0.0962904188368056
 30
0.0
 10
-0.3427008734809027
 20
0.0962904188368056
 30
0.0
 10
0.3206522623697916
 20
0.0962904188368056
 30
0.0
 10
0.3206522623697916
 20
0.0962904188368056
 30
0.0
 10
0.3380499945746527
 20
0.0962904188368056
 30
0.0
 10
0.3537251790364583
 20
0.1104153103298611
 30
0.0
 10
0.3597540961371528
 20
0.1279852973090278
 30
0.0
 10
0.3597540961371528
 20
0.1279852973090278
 30
0.0
 10
0.3926547580295138
 20
0.1865519205729166
 30
0.0
 10
0.3926547580295138
 20
0.1865519205729166
 30
0.0
 10
0.3990281846788194
 20
0.2127346462673611
 30
0.0
 10
0.3783576117621528
 20
0.21859130859375
 30
0.0
 10
0.3609598795572916
 20
0.21859130859375
 30
0.0
 10
0.3609598795572916
 20
0.21859130859375
 30
0.0
 10
-0.3993726942274305
 20
0.21859130859375
 30
0.0
 10
-0.3993726942274305
 20
0.21859130859375
 30
0.0
 10
-0.4167704264322916
 20
0.21859130859375
 30
0.0
 10
-0.424005126953125
 20
0.2013658311631944
 30
0.0
 10
-0.4121195475260416
 20
0.1851738823784722
 30
0.0
  0
SPLINE
  5
2D
330
29
100
AcDbEntity
  8
ADP1DETAIL
 62
     7
100
AcDbSpline
210
0.0
220
0.0
230
1.0
 70
    11
 71
     3
 72
    32
 73
    28
 74
     0
 42
0.0000000001
 43
0.0000000001
 40
0.0
 40
0.0
 40
0.0
 40
0.0
 40
1.0
 40
1.0
 40
1.0
 40
2.0
 40
2.0
 40
2.0
 40
3.0
 40
3.0
 40
3.0
 40
4.0
 40
4.0
 40
4.0
 40
5.0
 40
5.0
 40
5.0
 40
6.0
 40
6.0
 40
6.0
 40
7.0
 40
7.0
 40
7.0
 40
8.0
 40
8.0
 40
8.0
 40
9.0
 40
9.0
 40
9.0
 40
9.0
 10
0.2932637532552083
 20
-0.0990464952256944
 30
0.0
 10
0.2886128743489583
 20
-0.0969794379340278
 30
0.0
 10
0.2837897406684027
 20
-0.0962904188368056
 30
0.0
 10
0.2789666069878472
 20
-0.0962904188368056
 30
0.0
 10
0.2789666069878472
 20
-0.0962904188368056
 30
0.0
 10
-0.3080776638454861
 20
-0.0962904188368056
 30
0.0
 10
-0.3080776638454861
 20
-0.0962904188368056
 30
0.0
 10
-0.3127285427517361
 20
-0.0962904188368056
 30
0.0
 10
-0.3166904025607638
 20
-0.0973239474826389
 30
0.0
 10
-0.3204800075954861
 20
-0.0990464952256944
 30
0.0
 10
-0.3017042371961805
 20
-0.0749308268229167
 30
0.0
 10
-0.290679931640625
 20
-0.04495849609375
 30
0.0
 10
-0.290679931640625
 20
-0.0118855794270833
 30
0.0
 10
-0.290679931640625
 20
0.02945556640625
 30
0.0
 10
-0.3087666829427083
 20
0.0670071072048611
 30
0.0
 10
-0.3370164659288194
 20
0.0931898328993056
 30
0.0
 10
-0.3370164659288194
 20
0.0931898328993056
 30
0.0
 10
-0.3370164659288194
 20
0.0962904188368056
 30
0.0
 10
-0.3370164659288194
 20
0.0962904188368056
 30
0.0
 10
-0.3370164659288194
 20
0.0962904188368056
 30
0.0
 10
0.3129007975260416
 20
0.0962904188368056
 30
0.0
 10
0.3129007975260416
 20
0.0962904188368056
 30
0.0
 10
0.2825839572482638
 20
0.0701076931423611
 30
0.0
 10
0.2634636773003472
 20
0.0311781141493056
 30
0.0
 10
0.2634636773003472
 20
-0.0118855794270833
 30
0.0
 10
0.2634636773003472
 20
-0.04495849609375
 30
0.0
 10
0.2744879828559028
 20
-0.0749308268229167
 30
0.0
 10
0.2932637532552083
 20
-0.0990464952256944
 30
0.0
  0
ENDBLK
  5
2E
330
29
100
AcDbEntity
  8
ADP1DETAIL
100
AcDbBlockEnd
  0
BLOCK
  5
15
330
14
100
AcDbEntity
  8
ADP1DETAIL
 62
     7
100
AcDbBlockBegin
  2
AI9-BLK6
 70
     0
 10
0.0
 20
0.0
 30
0.0
  3
AI9-BLK6
  1

  0
INSERT
  5
16
330
14
100
AcDbEntity
  8
ADP1DETAIL
 62
     7
100
AcDbBlockReference
  2
AI9-BLK9
 10
-0.0124884711371528
 20
-0.157354736328125
 30
0.0
  0
INSERT
  5
1B
330
14
100
AcDbEntity
  8
ADP1DETAIL
 62
     7
100
AcDbBlockReference
  2
AI9-BLK8
 10
-0.01240234375
 20
0.157354736328125
 30
0.0
  0
INSERT
  5
20
330
14
100
AcDbEntity
  8
ADP1DETAIL
 62
     7
100
AcDbBlockReference
  2
AI9-BLK7
 10
0.0403937445746528
 20
0.0
 30
0.0
  0
ENDBLK
  5
25
330
14
100
AcDbEntity
  8
ADP1DETAIL
100
AcDbBlockEnd
  0
BLOCK
  5
22
330
21
100
AcDbEntity
  8
ADP1DETAIL
 62
     7
100
AcDbBlockBegin
  2
AI9-BLK7
 70
     0
 10
0.0
 20
0.0
 30
0.0
  3
AI9-BLK7
  1

  0
SPLINE
  5
23
330
21
100
AcDbEntity
  8
ADP1DETAIL
 62
     7
100
AcDbSpline
210
0.0
220
0.0
230
1.0
 70
    11
 71
     3
 72
    32
 73
    28
 74
     0
 42
0.0000000001
 43
0.0000000001
 40
0.0
 40
0.0
 40
0.0
 40
0.0
 40
1.0
 40
1.0
 40
1.0
 40
2.0
 40
2.0
 40
2.0
 40
3.0
 40
3.0
 40
3.0
 40
4.0
 40
4.0
 40
4.0
 40
5.0
 40
5.0
 40
5.0
 40
6.0
 40
6.0
 40
6.0
 40
7.0
 40
7.0
 40
7.0
 40
8.0
 40
8.0
 40
8.0
 40
9.0
 40
9.0
 40
9.0
 40
9.0
 10
0.2523532443576388
 20
-0.0991326226128472
 30
0.0
 10
0.2478746202256944
 20
-0.0972378200954861
 30
0.0
 10
0.2430514865451388
 20
-0.0962042914496528
 30
0.0
 10
0.2382283528645833
 20
-0.0962042914496528
 30
0.0
 10
0.2382283528645833
 20
-0.0962042914496528
 30
0.0
 10
-0.3489881727430555
 20
-0.0962042914496528
 30
0.0
 10
-0.3489881727430555
 20
-0.0962042914496528
 30
0.0
 10
-0.353466796875
 20
-0.0962042914496528
 30
0.0
 10
-0.3576009114583333
 20
-0.0972378200954861
 30
0.0
 10
-0.36121826171875
 20
-0.0991326226128472
 30
0.0
 10
-0.34261474609375
 20
-0.0750169542100694
 30
0.0
 10
-0.3314181857638889
 20
-0.0448723687065972
 30
0.0
 10
-0.3314181857638889
 20
-0.0119717068142361
 30
0.0
 10
-0.3314181857638889
 20
0.0297139485677083
 30
0.0
 10
-0.3493326822916666
 20
0.0670932345920139
 30
0.0
 10
-0.3779269748263889
 20
0.0932759602864583
 30
0.0
 10
-0.3779269748263889
 20
0.0932759602864583
 30
0.0
 10
-0.3779269748263889
 20
0.0962042914496528
 30
0.0
 10
-0.3779269748263889
 20
0.0962042914496528
 30
0.0
 10
-0.3779269748263889
 20
0.0962042914496528
 30
0.0
 10
0.2721625434027777
 20
0.0962042914496528
 30
0.0
 10
0.2721625434027777
 20
0.0962042914496528
 30
0.0
 10
0.2416734483506944
 20
0.0700215657552083
 30
0.0
 10
0.2225531684027778
 20
0.0312642415364583
 30
0.0
 10
0.2225531684027778
 20
-0.0119717068142361
 30
0.0
 10
0.2225531684027778
 20
-0.0448723687065972
 30
0.0
 10
0.2335774739583333
 20
-0.0750169542100694
 30
0.0
 10
0.2523532443576388
 20
-0.0991326226128472
 30
0.0
  0
ENDBLK
  5
24
330
21
100
AcDbEntity
  8
ADP1DETAIL
100
AcDbBlockEnd
  0
BLOCK
  5
1D
330
1C
100
AcDbEntity
  8
ADP1DETAIL
 62
     7
100
AcDbBlockBegin
  2
AI9-BLK8
 70
     0
 10
0.0
 20
0.0
 30
0.0
  3
AI9-BLK8
  1

  0
SPLINE
  5
1E
330
1C
100
AcDbEntity
  8
ADP1DETAIL
 62
     7
100
AcDbSpline
210
0.0
220
0.0
230
1.0
 70
    11
 71
     3
 72
    29
 73
    25
 74
     0
 42
0.0000000001
 43
0.0000000001
 40
0.0
 40
0.0
 40
0.0
 40
0.0
 40
1.0
 40
1.0
 40
1.0
 40
2.0
 40
2.0
 40
2.0
 40
3.0
 40
3.0
 40
3.0
 40
4.0
 40
4.0
 40
4.0
 40
5.0
 40
5.0
 40
5.0
 40
6.0
 40
6.0
 40
6.0
 40
7.0
 40
7.0
 40
7.0
 40
8.0
 40
8.0
 40
8.0
 40
8.0
 10
-0.4000617133246528
 20
0.0279052734375
 30
0.0
 10
-0.4000617133246528
 20
0.0279052734375
 30
0.0
 10
-0.365093994140625
 20
-0.0320393880208333
 30
0.0
 10
-0.365093994140625
 20
-0.0320393880208333
 30
0.0
 10
-0.3587205674913194
 20
-0.0446139865451389
 30
0.0
 10
-0.3482130262586805
 20
-0.0611504448784722
 30
0.0
 10
-0.3308152940538194
 20
-0.0611504448784722
 30
0.0
 10
-0.3308152940538194
 20
-0.0611504448784722
 30
0.0
 10
0.332537841796875
 20
-0.0611504448784722
 30
0.0
 10
0.332537841796875
 20
-0.0611504448784722
 30
0.0
 10
0.3499355740017361
 20
-0.0611504448784722
 30
0.0
 10
0.3657830132378472
 20
-0.0471978081597222
 30
0.0
 10
0.3718119303385416
 20
-0.02945556640625
 30
0.0
 10
0.3718119303385416
 20
-0.02945556640625
 30
0.0
 10
0.4047125922309027
 20
0.02945556640625
 30
0.0
 10
0.4047125922309027
 20
0.02945556640625
 30
0.0
 10
0.4110860188802083
 20
0.0552937825520833
 30
0.0
 10
0.3904154459635416
 20
0.0611504448784722
 30
0.0
 10
0.3730177137586805
 20
0.0611504448784722
 30
0.0
 10
0.3730177137586805
 20
0.0611504448784722
 30
0.0
 10
-0.3873148600260416
 20
0.0611504448784722
 30
0.0
 10
-0.3873148600260416
 20
0.0611504448784722
 30
0.0
 10
-0.4047125922309027
 20
0.0611504448784722
 30
0.0
 10
-0.4121195475260416
 20
0.0437527126736111
 30
0.0
 10
-0.4000617133246528
 20
0.0279052734375
 30
0.0
  0
ENDBLK
  5
1F
330
1C
100
AcDbEntity
  8
ADP1DETAIL
100
AcDbBlockEnd
  0
BLOCK
  5
18
330
17
100
AcDbEntity
  8
ADP1DETAIL
 62
     7
100
AcDbBlockBegin
  2
AI9-BLK9
 70
     0
 10
0.0
 20
0.0
 30
0.0
  3
AI9-BLK9
  1

  0
SPLINE
  5
19
330
17
100
AcDbEntity
  8
ADP1DETAIL
 62
     7
100
AcDbSpline
210
0.0
220
0.0
230
1.0
 70
    11
 71
     3
 72
    29
 73
    25
 74
     0
 42
0.0000000001
 43
0.0000000001
 40
0.0
 40
0.0
 40
0.0
 40
0.0
 40
1.0
 40
1.0
 40
1.0
 40
2.0
 40
2.0
 40
2.0
 40
3.0
 40
3.0
 40
3.0
 40
4.0
 40
4.0
 40
4.0
 40
5.0
 40
5.0
 40
5.0
 40
6.0
 40
6.0
 40
6.0
 40
7.0
 40
7.0
 40
7.0
 40
8.0
 40
8.0
 40
8.0
 40
8.0
 10
-0.3619072808159722
 20
-0.0277330186631945
 30
0.0
 10
-0.3619072808159722
 20
-0.0277330186631945
 30
0.0
 10
-0.3269395616319444
 20
0.0320393880208333
 30
0.0
 10
-0.3269395616319444
 20
0.0320393880208333
 30
0.0
 10
-0.3203938802083333
 20
0.0447862413194445
 30
0.0
 10
-0.31005859375
 20
0.0611504448784722
 30
0.0
 10
-0.2926608615451389
 20
0.0611504448784722
 30
0.0
 10
-0.2926608615451389
 20
0.0611504448784722
 30
0.0
 10
0.2943834092881944
 20
0.0611504448784722
 30
0.0
 10
0.2943834092881944
 20
0.0611504448784722
 30
0.0
 10
0.3119533962673611
 20
0.0611504448784722
 30
0.0
 10
0.3278008355034721
 20
0.0471978081597222
 30
0.0
 10
0.3338297526041666
 20
0.02945556640625
 30
0.0
 10
0.3338297526041666
 20
0.02945556640625
 30
0.0
 10
0.3665581597222221
 20
-0.0292833116319445
 30
0.0
 10
0.3665581597222221
 20
-0.0292833116319445
 30
0.0
 10
0.3729315863715277
 20
-0.0551215277777778
 30
0.0
 10
0.3524332682291666
 20
-0.0611504448784722
 30
0.0
 10
0.33486328125
 20
-0.0611504448784722
 30
0.0
 10
0.33486328125
 20
-0.0611504448784722
 30
0.0
 10
-0.3491604275173611
 20
-0.0611504448784722
 30
0.0
 10
-0.3491604275173611
 20
-0.0611504448784722
 30
0.0
 10
-0.3665581597222221
 20
-0.0611504448784722
 30
0.0
 10
-0.3737928602430555
 20
-0.0437527126736111
 30
0.0
 10
-0.3619072808159722
 20
-0.0277330186631945
 30
0.0
  0
ENDBLK
  5
1A
330
17
100
AcDbEntity
  8
ADP1DETAIL
100
AcDbBlockEnd
  0
BLOCK
  5
E
330
D
100
AcDbEntity
  8
ADP1DETAIL
 62
     7
100
AcDbBlockBegin
  2
AI9-BLK10
 70
     0
 10
0.0
 20
0.0
 30
0.0
  3
AI9-BLK10
  1

  0
SPLINE
  5
F
330
D
100
AcDbEntity
  8
ADP1DETAIL
 62
     7
100
AcDbSpline
210
0.0
220
0.0
230
1.0
 70
    11
 71
     3
 72
    29
 73
    25
 74
     0
 42
0.0000000001
 43
0.0000000001
 40
0.0
 40
0.0
 40
0.0
 40
0.0
 40
1.0
 40
1.0
 40
1.0
 40
2.0
 40
2.0
 40
2.0
 40
3.0
 40
3.0
 40
3.0
 40
4.0
 40
4.0
 40
4.0
 40
5.0
 40
5.0
 40
5.0
 40
6.0
 40
6.0
 40
6.0
 40
7.0
 40
7.0
 40
7.0
 40
8.0
 40
8.0
 40
8.0
 40
8.0
 10
0.374395751953125
 20
0.1851738823784722
 30
0.0
 10
0.374395751953125
 20
0.1851738823784722
 30
0.0
 10
0.3392557779947916
 20
0.1252292209201389
 30
0.0
 10
0.3392557779947916
 20
0.1252292209201389
 30
0.0
 10
0.3328823513454861
 20
0.1126546223958333
 30
0.0
 10
0.3225470648871527
 20
0.0961181640625
 30
0.0
 10
0.3051493326822916
 20
0.0961181640625
 30
0.0
 10
0.3051493326822916
 20
0.0961181640625
 30
0.0
 10
-0.2820671929253472
 20
0.0961181640625
 30
0.0
 10
-0.2820671929253472
 20
0.0961181640625
 30
0.0
 10
-0.2994649251302083
 20
0.0961181640625
 30
0.0
 10
-0.3153123643663194
 20
0.1102430555555556
 30
0.0
 10
-0.3211690266927083
 20
0.1278130425347222
 30
0.0
 10
-0.3211690266927083
 20
0.1278130425347222
 30
0.0
 10
-0.3540696885850694
 20
0.1867241753472222
 30
0.0
 10
-0.3540696885850694
 20
0.1867241753472222
 30
0.0
 10
-0.360443115234375
 20
0.2125623914930555
 30
0.0
 10
-0.3399447970920138
 20
0.2184190538194444
 30
0.0
 10
-0.3223748101128472
 20
0.2184190538194444
 30
0.0
 10
-0.3223748101128472
 20
0.2184190538194444
 30
0.0
 10
0.3616488986545138
 20
0.2184190538194444
 30
0.0
 10
0.3616488986545138
 20
0.2184190538194444
 30
0.0
 10
0.379046630859375
 20
0.2184190538194444
 30
0.0
 10
0.3862813313802083
 20
0.2010213216145833
 30
0.0
 10
0.374395751953125
 20
0.1851738823784722
 30
0.0
  0
SPLINE
  5
10
330
D
100
AcDbEntity
  8
ADP1DETAIL
 62
     7
100
AcDbSpline
210
0.0
220
0.0
230
1.0
 70
    11
 71
     3
 72
    29
 73
    25
 74
     0
 42
0.0000000001
 43
0.0000000001
 40
0.0
 40
0.0
 40
0.0
 40
0.0
 40
1.0
 40
1.0
 40
1.0
 40
2.0
 40
2.0
 40
2.0
 40
3.0
 40
3.0
 40
3.0
 40
4.0
 40
4.0
 40
4.0
 40
5.0
 40
5.0
 40
5.0
 40
6.0
 40
6.0
 40
6.0
 40
7.0
 40
7.0
 40
7.0
 40
8.0
 40
8.0
 40
8.0
 40
8.0
 10
0.4126363118489583
 20
-0.1851738823784722
 30
0.0
 10
0.4126363118489583
 20
-0.1851738823784722
 30
0.0
 10
0.3773240831163194
 20
-0.1254014756944444
 30
0.0
 10
0.3773240831163194
 20
-0.1254014756944444
 30
0.0
 10
0.3711229112413194
 20
-0.1126546223958333
 30
0.0
 10
0.3606153700086805
 20
-0.0961181640625
 30
0.0
 10
0.3432176378038194
 20
-0.0961181640625
 30
0.0
 10
0.3432176378038194
 20
-0.0961181640625
 30
0.0
 10
-0.320135498046875
 20
-0.0961181640625
 30
0.0
 10
-0.320135498046875
 20
-0.0961181640625
 30
0.0
 10
-0.3375332302517361
 20
-0.0961181640625
 30
0.0
 10
-0.3533806694878472
 20
-0.1102430555555556
 30
0.0
 10
-0.3594095865885416
 20
-0.1279852973090278
 30
0.0
 10
-0.3594095865885416
 20
-0.1279852973090278
 30
0.0
 10
-0.3921379937065972
 20
-0.1867241753472222
 30
0.0
 10
-0.3921379937065972
 20
-0.1867241753472222
 30
0.0
 10
-0.3986836751302083
 20
-0.2125623914930555
 30
0.0
 10
-0.3780131022135416
 20
-0.2184190538194444
 30
0.0
 10
-0.3606153700086805
 20
-0.2184190538194444
 30
0.0
 10
-0.3606153700086805
 20
-0.2184190538194444
 30
0.0
 10
0.3997172037760416
 20
-0.2184190538194444
 30
0.0
 10
0.3997172037760416
 20
-0.2184190538194444
 30
0.0
 10
0.4172871907552083
 20
-0.2184190538194444
 30
0.0
 10
0.4245218912760416
 20
-0.2011935763888889
 30
0.0
 10
0.4126363118489583
 20
-0.1851738823784722
 30
0.0
  0
SPLINE
  5
11
330
D
100
AcDbEntity
  8
ADP1DETAIL
 62
     7
100
AcDbSpline
210
0.0
220
0.0
230
1.0
 70
    11
 71
     3
 72
    32
 73
    28
 74
     0
 42
0.0000000001
 43
0.0000000001
 40
0.0
 40
0.0
 40
0.0
 40
0.0
 40
1.0
 40
1.0
 40
1.0
 40
2.0
 40
2.0
 40
2.0
 40
3.0
 40
3.0
 40
3.0
 40
4.0
 40
4.0
 40
4.0
 40
5.0
 40
5.0
 40
5.0
 40
6.0
 40
6.0
 40
6.0
 40
7.0
 40
7.0
 40
7.0
 40
8.0
 40
8.0
 40
8.0
 40
9.0
 40
9.0
 40
9.0
 40
9.0
 10
-0.2927469889322916
 20
0.09921875
 30
0.0
 10
-0.2882683648003472
 20
0.0971516927083333
 30
0.0
 10
-0.2834452311197916
 20
0.0961181640625
 30
0.0
 10
-0.2784498426649305
 20
0.0961181640625
 30
0.0
 10
-0.2784498426649305
 20
0.0961181640625
 30
0.0
 10
0.3084221733940972
 20
0.0961181640625
 30
0.0
 10
0.3084221733940972
 20
0.0961181640625
 30
0.0
 10
0.3130730523003472
 20
0.0961181640625
 30
0.0
 10
0.3172071668836805
 20
0.0971516927083333
 30
0.0
 10
0.3208245171440972
 20
0.09921875
 30
0.0
 10
0.3022210015190972
 20
0.0751030815972222
 30
0.0
 10
0.2911966959635416
 20
0.0447862413194445
 30
0.0
 10
0.2911966959635416
 20
0.0118855794270833
 30
0.0
 10
0.2911966959635416
 20
-0.0296278211805556
 30
0.0
 10
0.3089389377170138
 20
-0.0671793619791667
 30
0.0
 10
0.3373609754774305
 20
-0.0933620876736111
 30
0.0
 10
0.3373609754774305
 20
-0.0933620876736111
 30
0.0
 10
0.3373609754774305
 20
-0.0961181640625
 30
0.0
 10
0.3373609754774305
 20
-0.0961181640625
 30
0.0
 10
0.3373609754774305
 20
-0.0961181640625
 30
0.0
 10
-0.3125562879774305
 20
-0.0961181640625
 30
0.0
 10
-0.3125562879774305
 20
-0.0961181640625
 30
0.0
 10
-0.2822394476996528
 20
-0.0701076931423611
 30
0.0
 10
-0.262774658203125
 20
-0.0311781141493056
 30
0.0
 10
-0.262774658203125
 20
0.0118855794270833
 30
0.0
 10
-0.262774658203125
 20
0.0447862413194445
 30
0.0
 10
-0.2741434733072916
 20
0.0751030815972222
 30
0.0
 10
-0.2927469889322916
 20
0.09921875
 30
0.0
  0
ENDBLK
  5
12
330
D
100
AcDbEntity
  8
ADP1DETAIL
100
AcDbBlockEnd
  0
BLOCK
  5
49
330
48
100
AcDbEntity
  8
0
370
     0
100
AcDbBlockBegin
  2
*D10
 70
     1
 10
0.0
 20
0.0
 30
0.0
  3
*D10
  1

  0
LINE
  5
4A
330
48
100
AcDbEntity
  8
ADPDIM
  6
Continuous
 62
     0
370
     0
100
AcDbLine
 10
91.68528883743681
 20
119.8473651483985
 30
0.0
 11
91.68528883743681
 21
119.1629907130321
 31
0.0
  0
LINE
  5
4B
330
48
100
AcDbEntity
  8
ADPDIM
  6
Continuous
 62
     0
370
     0
100
AcDbLine
 10
92.18179022251002
 20
119.8946045902386
 30
0.0
 11
92.18179022251002
 21
119.1629907130321
 31
0.0
  0
LINE
  5
4C
330
48
100
AcDbEntity
  8
ADPDIM
  6
Continuous
 62
     0
370
     0
100
AcDbLine
 10
91.5052888374368
 20
119.3429907130321
 30
0.0
 11
91.32528883743681
 21
119.3429907130321
 31
0.0
  0
LINE
  5
4D
330
48
100
AcDbEntity
  8
ADPDIM
  6
Continuous
 62
     0
370
     0
100
AcDbLine
 10
92.36179022251002
 20
119.3429907130321
 30
0.0
 11
92.54179022251001
 21
119.3429907130321
 31
0.0
  0
SOLID
  5
4E
330
48
100
AcDbEntity
  8
ADPDIM
  6
Continuous
 62
     0
370
     0
100
AcDbTrace
 10
91.5052888374368
 20
119.3729907130321
 30
0.0
 11
91.5052888374368
 21
119.3129907130321
 31
0.0
 12
91.68528883743681
 22
119.3429907130321
 32
0.0
 13
91.68528883743681
 23
119.3429907130321
 33
0.0
  0
SOLID
  5
4F
330
48
100
AcDbEntity
  8
ADPDIM
  6
Continuous
 62
     0
370
     0
100
AcDbTrace
 10
92.36179022251002
 20
119.3729907130321
 30
0.0
 11
92.36179022251002
 21
119.3129907130321
 31
0.0
 12
92.18179022251002
 22
119.3429907130321
 32
0.0
 13
92.18179022251002
 23
119.3429907130321
 33
0.0
  0
MTEXT
  5
50
330
48
100
AcDbEntity
  8
ADPDIM
  6
Continuous
 62
     0
370
     0
100
AcDbMText
 10
93.38179022251003
 20
119.3429907130321
 30
0.0
 40
0.5
 41
0.0
 71
     5
 72
     1
  1
\A1;1/2"
 73
     1
 44
1.0
1001
ACAD
1000
MTEXTBEGIN
1070
    73
1070
     1
1070
    44
1040
1.0
1070
    74
1070
     0
1000
MTEXTEND
  0
POINT
  5
51
330
48
100
AcDbEntity
  8
Defpoints
  6
Continuous
 62
     0
370
     0
100
AcDbPoint
 10
91.68528883743681
 20
119.9098651483985
 30
0.0
  0
POINT
  5
53
330
48
100
AcDbEntity
  8
Defpoints
  6
Continuous
 62
     0
370
     0
100
AcDbPoint
 10
92.18179022251002
 20
119.9571045902386
 30
0.0
  0
POINT
  5
54
330
48
100
AcDbEntity
  8
Defpoints
  6
Continuous
 62
     0
370
     0
100
AcDbPoint
 10
92.18179022251002
 20
119.3429907130321
 30
0.0
  0
ENDBLK
  5
55
330
48
100
AcDbEntity
  8
0
370
     0
100
AcDbBlockEnd
  0
BLOCK
  5
59
330
58
100
AcDbEntity
  8
0
370
     0
100
AcDbBlockBegin
  2
*D11
 70
     1
 10
0.0
 20
0.0
 30
0.0
  3
*D11
  1

  0
LINE
  5
5A
330
58
100
AcDbEntity
  8
ADPDIM
  6
Continuous
 62
     0
370
     0
100
AcDbLine
 10
92.33678305675459
 20
162.2939007012649
 30
0.0
 11
93.98716581055939
 21
162.2939007012649
 31
0.0
  0
LINE
  5
5B
330
58
100
AcDbEntity
  8
ADPDIM
  6
Continuous
 62
     0
370
     0
100
AcDbLine
 10
92.36279067700412
 20
120.295468127774
 30
0.0
 11
93.98716581055937
 21
120.295468127774
 31
0.0
  0
LINE
  5
5C
330
58
100
AcDbEntity
  8
ADPDIM
  6
Continuous
 62
     0
370
     0
100
AcDbLine
 10
93.80716581055938
 20
162.1139007012649
 30
0.0
 11
93.80716581055937
 21
141.2984625952871
 31
0.0
  0
LINE
  5
5D
330
58
100
AcDbEntity
  8
ADPDIM
  6
Continuous
 62
     0
370
     0
100
AcDbLine
 10
93.80716581055937
 20
120.475468127774
 30
0.0
 11
93.80716581055937
 21
140.6184625952871
 31
0.0
  0
SOLID
  5
5E
330
58
100
AcDbEntity
  8
ADPDIM
  6
Continuous
 62
     0
370
     0
100
AcDbTrace
 10
93.77716581055938
 20
162.1139007012649
 30
0.0
 11
93.83716581055939
 21
162.1139007012649
 31
0.0
 12
93.80716581055938
 22
162.2939007012649
 32
0.0
 13
93.80716581055938
 23
162.2939007012649
 33
0.0
  0
SOLID
  5
5F
330
58
100
AcDbEntity
  8
ADPDIM
  6
Continuous
 62
     0
370
     0
100
AcDbTrace
 10
93.77716581055937
 20
120.475468127774
 30
0.0
 11
93.83716581055937
 21
120.475468127774
 31
0.0
 12
93.80716581055937
 22
120.295468127774
 32
0.0
 13
93.80716581055937
 23
120.295468127774
 33
0.0
  0
MTEXT
  5
60
330
58
100
AcDbEntity
  8
ADPDIM
  6
Continuous
 62
     0
370
     0
100
AcDbMText
 10
93.80716581055935
 20
140.9584625952871
 30
0.0
 40
0.5
 41
0.0
 71
     5
 72
     1
  1
\A1;42"
 73
     1
 44
1.0
1001
ACAD
1000
MTEXTBEGIN
1070
    73
1070
     1
1070
    44
1040
1.0
1070
    74
1070
     0
1000
MTEXTEND
  0
POINT
  5
61
330
58
100
AcDbEntity
  8
Defpoints
  6
Continuous
 62
     0
370
     0
100
AcDbPoint
 10
92.27428305675459
 20
162.2939007012649
 30
0.0
  0
POINT
  5
62
330
58
100
AcDbEntity
  8
Defpoints
  6
Continuous
 62
     0
370
     0
100
AcDbPoint
 10
92.30029067700412
 20
120.295468127774
 30
0.0
  0
POINT
  5
63
330
58
100
AcDbEntity
  8
Defpoints
  6
Continuous
 62
     0
370
     0
100
AcDbPoint
 10
93.80716581055937
 20
120.295468127774
 30
0.0
  0
ENDBLK
  5
64
330
58
100
AcDbEntity
  8
0
370
     0
100
AcDbBlockEnd
  0
ENDSEC
  0
SECTION
  2
ENTITIES
  0
CIRCLE
  5
9
330
2
100
AcDbEntity
  8
ADP1DETAIL
 62
     7
100
AcDbCircle
 10
91.92933231431338
 20
118.5565959073612
 30
0.0
 40
0.2642388237847222
  0
SPLINE
  5
B
330
2
100
AcDbEntity
  8
ADP1DETAIL
 62
     7
100
AcDbSpline
210
0.0
220
0.0
230
1.0
 70
    11
 71
     3
 72
    29
 73
    25
 74
     0
 42
0.0000000001
 43
0.0000000001
 40
0.0
 40
0.0
 40
0.0
 40
0.0
 40
1.0
 40
1.0
 40
1.0
 40
2.0
 40
2.0
 40
2.0
 40
3.0
 40
3.0
 40
3.0
 40
4.0
 40
4.0
 40
4.0
 40
5.0
 40
5.0
 40
5.0
 40
6.0
 40
6.0
 40
6.0
 40
7.0
 40
7.0
 40
7.0
 40
8.0
 40
8.0
 40
8.0
 40
8.0
 10
91.19345991848003
 20
151.9945204407813
 30
0.0
 10
91.19345991848003
 20
151.8369073222918
 30
0.0
 10
91.32127296101476
 20
151.709094279757
 30
0.0
 10
91.47888607950434
 20
151.709094279757
 30
0.0
 10
91.47888607950434
 20
151.709094279757
 30
0.0
 10
92.3983820647474
 20
151.709094279757
 30
0.0
 10
92.3983820647474
 20
151.709094279757
 30
0.0
 10
92.55599518323698
 20
151.709094279757
 30
0.0
 10
92.68363597099741
 20
151.8369073222918
 30
0.0
 10
92.68363597099741
 20
151.9945204407813
 30
0.0
 10
92.68363597099741
 20
151.9945204407813
 30
0.0
 10
92.68363597099741
 20
152.0036499438195
 30
0.0
 10
92.68363597099741
 20
152.0036499438195
 30
0.0
 10
92.68363597099741
 20
152.1614353170834
 30
0.0
 10
92.55599518323698
 20
152.2890761048438
 30
0.0
 10
92.3983820647474
 20
152.2890761048438
 30
0.0
 10
92.3983820647474
 20
152.2890761048438
 30
0.0
 10
91.47888607950434
 20
152.2890761048438
 30
0.0
 10
91.47888607950434
 20
152.2890761048438
 30
0.0
 10
91.32127296101476
 20
152.2890761048438
 30
0.0
 10
91.19345991848003
 20
152.1614353170834
 30
0.0
 10
91.19345991848003
 20
152.0036499438195
 30
0.0
 10
91.19345991848003
 20
152.0036499438195
 30
0.0
 10
91.19345991848003
 20
151.9945204407813
 30
0.0
 10
91.19345991848003
 20
151.9945204407813
 30
0.0
  0
INSERT
  5
C
330
2
100
AcDbEntity
  8
ADP1DETAIL
 62
     7
100
AcDbBlockReference
  2
AI9-BLK10
 10
91.92614560098872
 20
152.5076674134376
 30
0.0
  0
INSERT
  5
13
330
2
100
AcDbEntity
  8
ADP1DETAIL
 62
     7
100
AcDbBlockReference
  2
AI9-BLK6
 10
91.95112254326302
 20
151.4909336080991
 30
0.0
  0
SPLINE
  5
26
330
2
100
AcDbEntity
  8
ADP1DETAIL
 62
     7
100
AcDbSpline
210
0.0
220
0.0
230
1.0
 70
    11
 71
     3
 72
    32
 73
    28
 74
     0
 42
0.0000000001
 43
0.0000000001
 40
0.0
 40
0.0
 40
0.0
 40
0.0
 40
1.0
 40
1.0
 40
1.0
 40
2.0
 40
2.0
 40
2.0
 40
3.0
 40
3.0
 40
3.0
 40
4.0
 40
4.0
 40
4.0
 40
5.0
 40
5.0
 40
5.0
 40
6.0
 40
6.0
 40
6.0
 40
7.0
 40
7.0
 40
7.0
 40
8.0
 40
8.0
 40
8.0
 40
9.0
 40
9.0
 40
9.0
 40
9.0
 10
92.21045210598004
 20
162.3093085809723
 30
0.0
 10
92.21045210598004
 20
162.3093085809723
 30
0.0
 10
92.39338667629253
 20
154.3990248353126
 30
0.0
 10
92.39338667629253
 20
154.3990248353126
 30
0.0
 10
92.43610586032032
 20
153.6347304017188
 30
0.0
 10
92.53756392238628
 20
153.3887505840105
 30
0.0
 10
92.59458025268143
 20
153.1038411873091
 30
0.0
 10
92.62214101657031
 20
152.966209622639
 30
0.0
 10
92.54307607516407
 20
152.7707004538022
 30
0.0
 10
92.28124881821962
 20
152.7338379321008
 30
0.0
 10
92.28124881821962
 20
152.7338379321008
 30
0.0
 10
91.93742828870574
 20
152.7338379321008
 30
0.0
 10
91.93742828870574
 20
152.7338379321008
 30
0.0
 10
91.93742828870574
 20
152.7338379321008
 30
0.0
 10
91.59360775919184
 20
152.7333211677779
 30
0.0
 10
91.59360775919184
 20
152.7333211677779
 30
0.0
 10
91.3316082474731
 20
152.7703559442536
 30
0.0
 10
91.25254330606685
 20
152.9656928583161
 30
0.0
 10
91.28010406995572
 20
153.1033244229862
 30
0.0
 10
91.33729265502518
 20
153.3882338196876
 30
0.0
 10
91.43875071709116
 20
153.6343858921702
 30
0.0
 10
91.48129764634461
 20
154.398680325764
 30
0.0
 10
91.48129764634461
 20
154.398680325764
 30
0.0
 10
91.66457672620573
 20
162.3093085809723
 30
0.0
 10
91.66457672620573
 20
162.3093085809723
 30
0.0
 10
91.66457672620573
 20
162.3093085809723
 30
0.0
 10
92.21045210598004
 20
162.3093085809723
 30
0.0
 10
92.21045210598004
 20
162.3093085809723
 30
0.0
  0
SPLINE
  5
27
330
2
100
AcDbEntity
  8
ADP1DETAIL
 62
     7
100
AcDbSpline
210
0.0
220
0.0
230
1.0
 70
    11
 71
     3
 72
    29
 73
    25
 74
     0
 42
0.0000000001
 43
0.0000000001
 40
0.0
 40
0.0
 40
0.0
 40
0.0
 40
1.0
 40
1.0
 40
1.0
 40
2.0
 40
2.0
 40
2.0
 40
3.0
 40
3.0
 40
3.0
 40
4.0
 40
4.0
 40
4.0
 40
5.0
 40
5.0
 40
5.0
 40
6.0
 40
6.0
 40
6.0
 40
7.0
 40
7.0
 40
7.0
 40
8.0
 40
8.0
 40
8.0
 40
8.0
 10
92.68139665893142
 20
130.432873576632
 30
0.0
 10
92.68139665893142
 20
130.5903144403473
 30
0.0
 10
92.5535836163967
 20
130.7184719924306
 30
0.0
 10
92.39597049790711
 20
130.7184719924306
 30
0.0
 10
92.39597049790711
 20
130.7184719924306
 30
0.0
 10
91.47630225788976
 20
130.7184719924306
 30
0.0
 10
91.47630225788976
 20
130.7184719924306
 30
0.0
 10
91.31868913940017
 20
130.7184719924306
 30
0.0
 10
91.19104835163977
 20
130.5903144403473
 30
0.0
 10
91.19104835163977
 20
130.432873576632
 30
0.0
 10
91.19104835163977
 20
130.432873576632
 30
0.0
 10
91.19104835163977
 20
130.4239163283681
 30
0.0
 10
91.19104835163977
 20
130.4239163283681
 30
0.0
 10
91.19104835163977
 20
130.2661309551043
 30
0.0
 10
91.31868913940017
 20
130.1383179125695
 30
0.0
 10
91.47630225788976
 20
130.1383179125695
 30
0.0
 10
91.47630225788976
 20
130.1383179125695
 30
0.0
 10
92.39597049790711
 20
130.1383179125695
 30
0.0
 10
92.39597049790711
 20
130.1383179125695
 30
0.0
 10
92.5535836163967
 20
130.1383179125695
 30
0.0
 10
92.68139665893142
 20
130.2661309551043
 30
0.0
 10
92.68139665893142
 20
130.4239163283681
 30
0.0
 10
92.68139665893142
 20
130.4239163283681
 30
0.0
 10
92.68139665893142
 20
130.432873576632
 30
0.0
 10
92.68139665893142
 20
130.432873576632
 30
0.0
  0
INSERT
  5
28
330
2
100
AcDbEntity
  8
ADP1DETAIL
 62
     7
100
AcDbBlockReference
  2
AI9-BLK5
 10
91.94819421209983
 20
129.9197266039758
 30
0.0
  0
INSERT
  5
2F
330
2
100
AcDbEntity
  8
ADP1DETAIL
 62
     7
100
AcDbBlockReference
  2
AI9-BLK1
 10
91.93837568996441
 20
130.9363742819272
 30
0.0
  0
SPLINE
  5
42
330
2
100
AcDbEntity
  8
ADP1DETAIL
 62
     7
100
AcDbSpline
210
0.0
220
0.0
230
1.0
 70
    11
 71
     3
 72
    32
 73
    28
 74
     0
 42
0.0000000001
 43
0.0000000001
 40
0.0
 40
0.0
 40
0.0
 40
0.0
 40
1.0
 40
1.0
 40
1.0
 40
2.0
 40
2.0
 40
2.0
 40
3.0
 40
3.0
 40
3.0
 40
4.0
 40
4.0
 40
4.0
 40
5.0
 40
5.0
 40
5.0
 40
6.0
 40
6.0
 40
6.0
 40
7.0
 40
7.0
 40
7.0
 40
8.0
 40
8.0
 40
8.0
 40
9.0
 40
9.0
 40
9.0
 40
9.0
 10
91.66440447143143
 20
120.3094604906945
 30
0.0
 10
91.66440447143143
 20
120.3094604906945
 30
0.0
 10
91.48129764634461
 20
128.0281969273265
 30
0.0
 10
91.48129764634461
 20
128.0281969273265
 30
0.0
 10
91.43857846231684
 20
128.7926636156945
 30
0.0
 10
91.33712040025086
 20
129.0386434334028
 30
0.0
 10
91.28010406995572
 20
129.3235528301043
 30
0.0
 10
91.25254330606685
 20
129.4610121400001
 30
0.0
 10
91.3316082474731
 20
129.6566935636112
 30
0.0
 10
91.59360775919184
 20
129.6939005948612
 30
0.0
 10
91.59360775919184
 20
129.6939005948612
 30
0.0
 10
91.93725603393142
 20
129.6939005948612
 30
0.0
 10
91.93725603393142
 20
129.6939005948612
 30
0.0
 10
91.93725603393142
 20
129.6939005948612
 30
0.0
 10
92.28107656344532
 20
129.6939005948612
 30
0.0
 10
92.28107656344532
 20
129.6939005948612
 30
0.0
 10
92.54307607516407
 20
129.6570380731598
 30
0.0
 10
92.62214101657031
 20
129.4617011590973
 30
0.0
 10
92.59458025268143
 20
129.3242418492015
 30
0.0
 10
92.53756392238628
 20
129.0393324525001
 30
0.0
 10
92.43593360554601
 20
128.7930081252431
 30
0.0
 10
92.39338667629253
 20
128.0285414368751
 30
0.0
 10
92.39338667629253
 20
128.0285414368751
 30
0.0
 10
92.21045210598004
 20
120.3094604906945
 30
0.0
 10
92.21045210598004
 20
120.3094604906945
 30
0.0
 10
92.21045210598004
 20
120.3094604906945
 30
0.0
 10
91.66440447143143
 20
120.3094604906945
 30
0.0
 10
91.66440447143143
 20
120.3094604906945
 30
0.0
  0
SPLINE
  5
43
330
2
100
AcDbEntity
  8
ADP1DETAIL
 62
     7
100
AcDbSpline
210
0.0
220
0.0
230
1.0
 70
    11
 71
     3
 72
    59
 73
    55
 74
     0
 42
0.0000000001
 43
0.0000000001
 40
0.0
 40
0.0
 40
0.0
 40
0.0
 40
1.0
 40
1.0
 40
1.0
 40
2.0
 40
2.0
 40
2.0
 40
3.0
 40
3.0
 40
3.0
 40
4.0
 40
4.0
 40
4.0
 40
5.0
 40
5.0
 40
5.0
 40
6.0
 40
6.0
 40
6.0
 40
7.0
 40
7.0
 40
7.0
 40
8.0
 40
8.0
 40
8.0
 40
9.0
 40
9.0
 40
9.0
 40
10.0
 40
10.0
 40
10.0
 40
11.0
 40
11.0
 40
11.0
 40
12.0
 40
12.0
 40
12.0
 40
13.0
 40
13.0
 40
13.0
 40
14.0
 40
14.0
 40
14.0
 40
15.0
 40
15.0
 40
15.0
 40
16.0
 40
16.0
 40
16.0
 40
17.0
 40
17.0
 40
17.0
 40
18.0
 40
18.0
 40
18.0
 40
18.0
 10
92.19443241196961
 20
141.2203288175174
 30
0.0
 10
92.19443241196961
 20
141.2203288175174
 30
0.0
 10
92.39338667629253
 20
149.6074137784549
 30
0.0
 10
92.39338667629253
 20
149.6074137784549
 30
0.0
 10
92.43610586032032
 20
150.371880466823
 30
0.0
 10
92.53756392238628
 20
150.6178602845313
 30
0.0
 10
92.59458025268143
 20
150.9027696812327
 30
0.0
 10
92.62214101657031
 20
151.0404012459029
 30
0.0
 10
92.54307607516407
 20
151.2355659051911
 30
0.0
 10
92.28124881821962
 20
151.2727729364411
 30
0.0
 10
92.28124881821962
 20
151.2727729364411
 30
0.0
 10
91.93725603393142
 20
151.2722561721181
 30
0.0
 10
91.93725603393142
 20
151.2722561721181
 30
0.0
 10
91.93725603393142
 20
151.2722561721181
 30
0.0
 10
91.59360775919184
 20
151.2722561721181
 30
0.0
 10
91.59360775919184
 20
151.2722561721181
 30
0.0
 10
91.3316082474731
 20
151.2352213956424
 30
0.0
 10
91.25254330606685
 20
151.03988448158
 30
0.0
 10
91.28010406995572
 20
150.9022529169098
 30
0.0
 10
91.33712040025086
 20
150.6173435202084
 30
0.0
 10
91.43857846231684
 20
150.3713637025001
 30
0.0
 10
91.48129764634461
 20
149.6070692689063
 30
0.0
 10
91.48129764634461
 20
149.6070692689063
 30
0.0
 10
91.68007965589323
 20
141.2198120531945
 30
0.0
 10
91.68007965589323
 20
141.2198120531945
 30
0.0
 10
91.68007965589323
 20
141.2198120531945
 30
0.0
 10
91.68007965589323
 20
141.2070651998959
 30
0.0
 10
91.68007965589323
 20
141.2070651998959
 30
0.0
 10
91.68007965589323
 20
141.2070651998959
 30
0.0
 10
91.48129764634461
 20
132.8199802389584
 30
0.0
 10
91.48129764634461
 20
132.8199802389584
 30
0.0
 10
91.43857846231684
 20
132.0555135505904
 30
0.0
 10
91.33712040025086
 20
131.8091892233334
 30
0.0
 10
91.28010406995572
 20
131.524279826632
 30
0.0
 10
91.25254330606685
 20
131.3871650262848
 30
0.0
 10
91.3316082474731
 20
131.1918281122223
 30
0.0
 10
91.59360775919184
 20
131.1546210809723
 30
0.0
 10
91.59360775919184
 20
131.1546210809723
 30
0.0
 10
91.93725603393142
 20
131.1549655905209
 30
0.0
 10
91.93725603393142
 20
131.1549655905209
 30
0.0
 10
91.93725603393142
 20
131.1549655905209
 30
0.0
 10
92.28124881821962
 20
131.1549655905209
 30
0.0
 10
92.28124881821962
 20
131.1549655905209
 30
0.0
 10
92.54307607516407
 20
131.1925171313195
 30
0.0
 10
92.62214101657031
 20
131.3875095358334
 30
0.0
 10
92.59458025268143
 20
131.5249688457293
 30
0.0
 10
92.53756392238628
 20
131.8098782424306
 30
0.0
 10
92.43610586032032
 20
132.055858060139
 30
0.0
 10
92.39338667629253
 20
132.820324748507
 30
0.0
 10
92.39338667629253
 20
132.820324748507
 30
0.0
 10
92.19443241196961
 20
141.2075819642188
 30
0.0
 10
92.19443241196961
 20
141.2075819642188
 30
0.0
 10
92.19443241196961
 20
141.2075819642188
 30
0.0
 10
92.19443241196961
 20
141.2203288175174
 30
0.0
 10
92.19443241196961
 20
141.2203288175174
 30
0.0
  0
DIMENSION
  5
44
330
2
100
AcDbEntity
  8
ADPDIM
  6
Continuous
 62
     3
370
     0
100
AcDbDimension
  2
*D10
 10
92.18179022251002
 20
119.3429907130321
 30
0.0
 11
93.38179022251003
 21
119.3429907130321
 31
0.0
 70
   128
 71
     5
 42
0.4965013850732021
  3
Standard
100
AcDbAlignedDimension
 13
91.68528883743681
 23
119.9098651483985
 33
0.0
 14
92.18179022251002
 24
119.9571045902386
 34
0.0
100
AcDbRotatedDimension
1001
ACAD
1000
DSTYLE
1002
{
1070
     3
1000
"
1070
   276
1070
     2
1070
   277
1070
     5
1070
   140
1040
0.5
1070
   278
1070
     0
1070
   371
1070
     0
1070
   372
1070
     0
1002
}
  0
DIMENSION
  5
57
330
2
100
AcDbEntity
  8
ADPDIM
  6
Continuous
 62
     3
370
     0
100
AcDbDimension
  2
*D11
 10
93.80716581055937
 20
120.295468127774
 30
0.0
 11
93.80716581055935
 21
140.9584625952871
 31
0.0
 70
   128
 71
     5
 42
41.99843257349091
  3
Standard
100
AcDbAlignedDimension
 13
92.27428305675459
 23
162.2939007012649
 33
0.0
 14
92.30029067700412
 24
120.295468127774
 34
0.0
 50
90.0
100
AcDbRotatedDimension
1001
ACAD
1000
DSTYLE
1002
{
1070
     3
1000
"
1070
   276
1070
     2
1070
   277
1070
     5
1070
   140
1040
0.5
1070
   278
1070
     0
1070
   371
1070
     0
1070
   372
1070
     0
1002
}
  0
TEXT
  5
65
330
2
100
AcDbEntity
  8
ADPDIM
100
AcDbText
 10
53.10160626001046
 20
111.6714811628976
 30
0.0
 40
0.75
  1
J U L I U S  B L U M  &  C O . ,  I N C .      ( 8 0 0 )  5 2 6 - 6 2 9 3        W W W . J U L I U S B L U M . C O M        P A R T  N o .  3 2 5 D L
 41
1.25
  7
ARIAL_WIDE
 72
     1
 11
92.91082351785494
 21
112.4214811628976
 31
0.0
100
AcDbText
 73
     3
  0
ENDSEC
  0
SECTION
  2
OBJECTS
  0
DICTIONARY
  5
7
330
0
100
AcDbDictionary
281
     1
  3
ACAD_COLOR
350
7F
  3
ACAD_GROUP
350
7B
  3
ACAD_LAYOUT
350
69
  3
ACAD_MATERIAL
350
7E
  3
ACAD_MLINESTYLE
350
7C
  3
ACAD_PLOTSETTINGS
350
7D
  3
ACAD_PLOTSTYLENAME
350
6
  3
ACDBHEADERROUNDTRIPXREC
350
85
  3
AcDbVariableDictionary
350
81
  0
DICTIONARY
  5
7F
102
{ACAD_REACTORS
330
7
102
}
330
7
100
AcDbDictionary
281
     1
  0
DICTIONARY
  5
7B
102
{ACAD_REACTORS
330
7
102
}
330
7
100
AcDbDictionary
281
     1
  0
DICTIONARY
  5
69
102
{ACAD_REACTORS
330
7
102
}
330
7
100
AcDbDictionary
281
     1
  3
Layout1
350
6D
  3
Model
350
68
  0
DICTIONARY
  5
7E
102
{ACAD_REACTORS
330
7
102
}
330
7
100
AcDbDictionary
281
     1
  0
DICTIONARY
  5
7C
102
{ACAD_REACTORS
330
7
102
}
330
7
100
AcDbDictionary
281
     1
  3
Standard
350
80
  0
DICTIONARY
  5
7D
102
{ACAD_REACTORS
330
7
102
}
330
7
100
AcDbDictionary
281
     1
  0
ACDBDICTIONARYWDFLT
  5
6
102
{ACAD_REACTORS
330
7
102
}
330
7
100
AcDbDictionary
281
     1
  3
Normal
350
5
100
AcDbDictionaryWithDefault
340
5
  0
DICTIONARY
  5
85
102
{ACAD_REACTORS
330
7
102
}
330
7
100
AcDbDictionary
281
     1
  3
COLORDICT
350
87
  3
MATERIALDICT
350
86
  0
DICTIONARY
  5
81
102
{ACAD_REACTORS
330
7
102
}
330
7
100
AcDbDictionary
281
     1
  3
DIMASSOC
350
83
  3
HIDETEXT
350
82
  3
PROJECTNAME
350
84
  0
LAYOUT
  5
6D
102
{ACAD_XDICTIONARY
360
8B
102
}
102
{ACAD_REACTORS
330
69
102
}
330
69
100
AcDbPlotSettings
  1

  2

  4

  6

 40
0.0
 41
0.0
 42
0.0
 43
0.0
 44
0.0
 45
0.0
 46
0.0
 47
0.0
 48
0.0
 49
0.0
140
0.0
141
0.0
142
1.0
143
1.0
 70
     0
 72
     0
 73
     0
 74
     0
  7

 75
     0
147
1.0
148
0.0
149
0.0
100
AcDbLayout
  1
Layout1
 70
     0
 71
     1
 10
0.0
 20
0.0
 11
12.0
 21
9.0
 12
0.0
 22
0.0
 32
0.0
 14
1.000000000000000E+20
 24
1.000000000000000E+20
 34
1.000000000000000E+20
 15
-1.000000000000000E+20
 25
-1.000000000000000E+20
 35
-1.000000000000000E+20
146
0.0
 13
0.0
 23
0.0
 33
0.0
 16
1.0
 26
0.0
 36
0.0
 17
0.0
 27
1.0
 37
0.0
 76
     0
330
6A
  0
LAYOUT
  5
68
102
{ACAD_XDICTIONARY
360
89
102
}
102
{ACAD_REACTORS
330
69
102
}
330
69
100
AcDbPlotSettings
  1

  2

  4

  6

 40
0.0
 41
0.0
 42
0.0
 43
0.0
 44
0.0
 45
0.0
 46
0.0
 47
0.0
 48
0.0
 49
0.0
140
0.0
141
0.0
142
1.0
143
1.0
 70
  1024
 72
     0
 73
     0
 74
     0
  7

 75
     0
147
1.0
148
0.0
149
0.0
100
AcDbLayout
  1
Model
 70
     0
 71
     0
 10
0.0
 20
0.0
 11
0.0
 21
0.0
 12
0.0
 22
0.0
 32
0.0
 14
0.0
 24
0.0
 34
0.0
 15
0.0
 25
0.0
 35
0.0
146
0.0
 13
0.0
 23
0.0
 33
0.0
 16
0.0
 26
0.0
 36
0.0
 17
0.0
 27
0.0
 37
0.0
 76
     0
330
2
  0
MLINESTYLE
  5
80
102
{ACAD_REACTORS
330
7C
102
}
330
7C
100
AcDbMlineStyle
  2
STANDARD
 70
     0
  3

 62
     0
 51
90.0
 52
90.0
 71
     2
 49
0.5
 62
   256
  6
BYLAYER
 49
-0.5
 62
   256
  6
BYLAYER
  0
ACDBPLACEHOLDER
  5
5
102
{ACAD_REACTORS
330
6
102
}
330
6
  0
XRECORD
  5
87
102
{ACAD_REACTORS
330
85
102
}
330
85
100
AcDbXrecord
280
     1
340
7F
  0
XRECORD
  5
86
102
{ACAD_REACTORS
330
85
102
}
330
85
100
AcDbXrecord
280
     1
340
7E
  0
DICTIONARYVAR
  5
83
102
{ACAD_REACTORS
330
81
102
}
330
81
100
DictionaryVariables
280
     0
  1
1
  0
DICTIONARYVAR
  5
82
102
{ACAD_REACTORS
330
81
102
}
330
81
100
DictionaryVariables
280
     0
  1
1
  0
DICTIONARYVAR
  5
84
102
{ACAD_REACTORS
330
81
102
}
330
81
100
DictionaryVariables
280
     0
  1

  0
DICTIONARY
  5
8B
330
6D
100
AcDbDictionary
280
     1
281
     1
  3
ACAD_XREC_ROUNDTRIP
360
8C
  0
DICTIONARY
  5
89
330
68
100
AcDbDictionary
280
     1
281
     1
  3
ACAD_XREC_ROUNDTRIP
360
8A
  0
XRECORD
  5
8C
102
{ACAD_REACTORS
330
8B
102
}
330
8B
100
AcDbXrecord
280
     1
102
SHADEPLOT
 70
     0
102
SHADEPLOTRESLEVEL
 70
     2
102
SHADEPLOTCUSTOMDPI
 70
   300
  0
XRECORD
  5
8A
102
{ACAD_REACTORS
330
89
102
}
330
89
100
AcDbXrecord
280
     1
102
SHADEPLOT
 70
     0
102
SHADEPLOTRESLEVEL
 70
     2
102
SHADEPLOTCUSTOMDPI
 70
   300
  0
ENDSEC
  0
EOF
