  0
SECTION
  2
HEADER
  9
$ACADVER
  1
AC1015
  9
$ACADMAINTVER
 70
    20
  9
$DWGCODEPAGE
  3
ANSI_1252
  9
$INSBASE
 10
22.62199468275258
 20
3.447602616499355
 30
0.0
  9
$EXTMIN
 10
-9.293138096857219
 20
1.12802193859884
 30
0.0
  9
$EXTMAX
 10
55.05393727831331
 20
40.35385261649935
 30
0.0
  9
$LIMMIN
 10
0.0
 20
0.0
  9
$LIMMAX
 10
36.0
 20
36.0
  9
$ORTHOMODE
 70
     0
  9
$REGENMODE
 70
     1
  9
$FILLMODE
 70
     1
  9
$QTEXTMODE
 70
     0
  9
$MIRRTEXT
 70
     1
  9
$LTSCALE
 40
1.0
  9
$ATTMODE
 70
     1
  9
$TEXTSIZE
 40
0.2
  9
$TRACEWID
 40
0.05
  9
$TEXTSTYLE
  7
STANDARD
  9
$CLAYER
  8
ADPDIM
  9
$CELTYPE
  6
BYLAYER
  9
$CECOLOR
 62
   256
  9
$CELTSCALE
 40
1.0
  9
$DISPSILH
 70
     0
  9
$DIMSCALE
 40
1.0
  9
$DIMASZ
 40
0.125
  9
$DIMEXO
 40
0.0625
  9
$DIMDLI
 40
0.38
  9
$DIMRND
 40
0.0
  9
$DIMDLE
 40
0.0
  9
$DIMEXE
 40
0.18
  9
$DIMTP
 40
0.0
  9
$DIMTM
 40
0.0
  9
$DIMTXT
 40
0.125
  9
$DIMCEN
 40
0.1875
  9
$DIMTSZ
 40
0.125
  9
$DIMTOL
 70
     0
  9
$DIMLIM
 70
     0
  9
$DIMTIH
 70
     0
  9
$DIMTOH
 70
     0
  9
$DIMSE1
 70
     0
  9
$DIMSE2
 70
     0
  9
$DIMTAD
 70
     0
  9
$DIMZIN
 70
     3
  9
$DIMBLK
  1

  9
$DIMASO
 70
     1
  9
$DIMSHO
 70
     1
  9
$DIMPOST
  1

  9
$DIMAPOST
  1

  9
$DIMALT
 70
     0
  9
$DIMALTD
 70
     1
  9
$DIMALTF
 40
25.4
  9
$DIMLFAC
 40
1.0
  9
$DIMTOFL
 70
     0
  9
$DIMTVP
 40
0.0
  9
$DIMTIX
 70
     0
  9
$DIMSOXD
 70
     0
  9
$DIMSAH
 70
     0
  9
$DIMBLK1
  1

  9
$DIMBLK2
  1

  9
$DIMSTYLE
  2
STANDARD
  9
$DIMCLRD
 70
     0
  9
$DIMCLRE
 70
     0
  9
$DIMCLRT
 70
     0
  9
$DIMTFAC
 40
1.0
  9
$DIMGAP
 40
0.125
  9
$DIMJUST
 70
     0
  9
$DIMSD1
 70
     0
  9
$DIMSD2
 70
     0
  9
$DIMTOLJ
 70
     1
  9
$DIMTZIN
 70
     0
  9
$DIMALTZ
 70
     0
  9
$DIMALTTZ
 70
     0
  9
$DIMUPT
 70
     0
  9
$DIMDEC
 70
     4
  9
$DIMTDEC
 70
     4
  9
$DIMALTU
 70
     2
  9
$DIMALTTD
 70
     2
  9
$DIMTXSTY
  7
STANDARD
  9
$DIMAUNIT
 70
     0
  9
$DIMADEC
 70
     0
  9
$DIMALTRND
 40
0.0
  9
$DIMAZIN
 70
     0
  9
$DIMDSEP
 70
    46
  9
$DIMATFIT
 70
     3
  9
$DIMFRAC
 70
     0
  9
$DIMLDRBLK
  1

  9
$DIMLUNIT
 70
     2
  9
$DIMLWD
 70
    -2
  9
$DIMLWE
 70
    -2
  9
$DIMTMOVE
 70
     0
  9
$LUNITS
 70
     5
  9
$LUPREC
 70
     4
  9
$SKETCHINC
 40
0.1
  9
$FILLETRAD
 40
0.062
  9
$AUNITS
 70
     0
  9
$AUPREC
 70
     0
  9
$MENU
  1
acad
  9
$ELEVATION
 40
0.0
  9
$PELEVATION
 40
0.0
  9
$THICKNESS
 40
0.0
  9
$LIMCHECK
 70
     0
  9
$CHAMFERA
 40
0.0
  9
$CHAMFERB
 40
0.0
  9
$CHAMFERC
 40
0.0
  9
$CHAMFERD
 40
0.0
  9
$SKPOLY
 70
     0
  9
$TDCREATE
 40
2450374.476241898
  9
$TDUCREATE
 40
2450374.642908565
  9
$TDUPDATE
 40
2453950.902730532
  9
$TDUUPDATE
 40
2453951.069397199
  9
$TDINDWG
 40
0.0809347454
  9
$TDUSRTIMER
 40
0.0809347454
  9
$USRTIMER
 70
     1
  9
$ANGBASE
 50
0.0
  9
$ANGDIR
 70
     0
  9
$PDMODE
 70
     0
  9
$PDSIZE
 40
0.0
  9
$PLINEWID
 40
0.0
  9
$SPLFRAME
 70
     0
  9
$SPLINETYPE
 70
     6
  9
$SPLINESEGS
 70
     8
  9
$HANDSEED
  5
3A7
  9
$SURFTAB1
 70
     6
  9
$SURFTAB2
 70
     6
  9
$SURFTYPE
 70
     6
  9
$SURFU
 70
     6
  9
$SURFV
 70
     6
  9
$UCSBASE
  2

  9
$UCSNAME
  2

  9
$UCSORG
 10
0.0
 20
0.0
 30
0.0
  9
$UCSXDIR
 10
1.0
 20
0.0
 30
0.0
  9
$UCSYDIR
 10
0.0
 20
1.0
 30
0.0
  9
$UCSORTHOREF
  2

  9
$UCSORTHOVIEW
 70
     0
  9
$UCSORGTOP
 10
0.0
 20
0.0
 30
0.0
  9
$UCSORGBOTTOM
 10
0.0
 20
0.0
 30
0.0
  9
$UCSORGLEFT
 10
0.0
 20
0.0
 30
0.0
  9
$UCSORGRIGHT
 10
0.0
 20
0.0
 30
0.0
  9
$UCSORGFRONT
 10
0.0
 20
0.0
 30
0.0
  9
$UCSORGBACK
 10
0.0
 20
0.0
 30
0.0
  9
$PUCSBASE
  2

  9
$PUCSNAME
  2

  9
$PUCSORG
 10
0.0
 20
0.0
 30
0.0
  9
$PUCSXDIR
 10
1.0
 20
0.0
 30
0.0
  9
$PUCSYDIR
 10
0.0
 20
1.0
 30
0.0
  9
$PUCSORTHOREF
  2

  9
$PUCSORTHOVIEW
 70
     0
  9
$PUCSORGTOP
 10
0.0
 20
0.0
 30
0.0
  9
$PUCSORGBOTTOM
 10
0.0
 20
0.0
 30
0.0
  9
$PUCSORGLEFT
 10
0.0
 20
0.0
 30
0.0
  9
$PUCSORGRIGHT
 10
0.0
 20
0.0
 30
0.0
  9
$PUCSORGFRONT
 10
0.0
 20
0.0
 30
0.0
  9
$PUCSORGBACK
 10
0.0
 20
0.0
 30
0.0
  9
$USERI1
 70
     0
  9
$USERI2
 70
     0
  9
$USERI3
 70
     0
  9
$USERI4
 70
     0
  9
$USERI5
 70
     0
  9
$USERR1
 40
0.0
  9
$USERR2
 40
0.0
  9
$USERR3
 40
0.0
  9
$USERR4
 40
0.0
  9
$USERR5
 40
0.0
  9
$WORLDVIEW
 70
     1
  9
$SHADEDGE
 70
     3
  9
$SHADEDIF
 70
    70
  9
$TILEMODE
 70
     1
  9
$MAXACTVP
 70
    15
  9
$PINSBASE
 10
0.0
 20
0.0
 30
0.0
  9
$PLIMCHECK
 70
     0
  9
$PEXTMIN
 10
1.000000000000000E+20
 20
1.000000000000000E+20
 30
1.000000000000000E+20
  9
$PEXTMAX
 10
-1.000000000000000E+20
 20
-1.000000000000000E+20
 30
-1.000000000000000E+20
  9
$PLIMMIN
 10
0.0
 20
0.0
  9
$PLIMMAX
 10
12.0
 20
9.0
  9
$UNITMODE
 70
     0
  9
$VISRETAIN
 70
     0
  9
$PLINEGEN
 70
     0
  9
$PSLTSCALE
 70
     1
  9
$TREEDEPTH
 70
  3020
  9
$CMLSTYLE
  2
STANDARD
  9
$CMLJUST
 70
     0
  9
$CMLSCALE
 40
1.0
  9
$PROXYGRAPHICS
 70
     1
  9
$MEASUREMENT
 70
     0
  9
$CELWEIGHT
370
    -1
  9
$ENDCAPS
280
     0
  9
$JOINSTYLE
280
     0
  9
$LWDISPLAY
290
     0
  9
$INSUNITS
 70
     0
  9
$HYPERLINKBASE
  1

  9
$STYLESHEET
  1

  9
$XEDIT
290
     1
  9
$CEPSNTYPE
380
     0
  9
$PSTYLEMODE
290
     1
  9
$FINGERPRINTGUID
  2
{75F6D2FF-16F3-4AC2-8EF2-A15A39E7CF47}
  9
$VERSIONGUID
  2
{05E4C539-B30A-4B0B-81AC-D0C66122B615}
  9
$EXTNAMES
290
     1
  9
$PSVPSCALE
 40
0.0
  9
$OLESTARTUP
290
     0
  0
ENDSEC
  0
SECTION
  2
CLASSES
  0
CLASS
  1
ACDBDICTIONARYWDFLT
  2
AcDbDictionaryWithDefault
  3
ObjectDBX Classes
 90
        0
280
     0
281
     0
  0
CLASS
  1
ACDBPLACEHOLDER
  2
AcDbPlaceHolder
  3
ObjectDBX Classes
 90
        0
280
     0
281
     0
  0
CLASS
  1
LAYOUT
  2
AcDbLayout
  3
ObjectDBX Classes
 90
        0
280
     0
281
     0
  0
CLASS
  1
DICTIONARYVAR
  2
AcDbDictionaryVar
  3
ObjectDBX Classes
 90
        0
280
     0
281
     0
  0
CLASS
  1
MATERIAL
  2
AcDbMaterial
  3
ObjectDBX Classes
 90
     1024
280
     0
281
     0
  0
CLASS
  1
VISUALSTYLE
  2
AcDbVisualStyle
  3
ObjectDBX Classes
 90
     4095
280
     0
281
     0
  0
CLASS
  1
TABLESTYLE
  2
AcDbTableStyle
  3
ObjectDBX Classes
 90
     4095
280
     0
281
     0
  0
ENDSEC
  0
SECTION
  2
TABLES
  0
TABLE
  2
VPORT
  5
8
330
0
100
AcDbSymbolTable
 70
     1
  0
VPORT
  5
27D
330
8
100
AcDbSymbolTableRecord
100
AcDbViewportTableRecord
  2
*Active
 70
     0
 10
0.0
 20
0.0
 11
1.0
 21
1.0
 12
15.85411442462121
 22
18.8230405832439
 13
0.0
 23
0.0
 14
0.5740882589684922
 24
0.5740882589684922
 15
0.5
 25
0.5
 16
0.0
 26
0.0
 36
1.0
 17
0.0
 27
0.0
 37
0.0
 40
24.53333111696032
 41
1.774011299435028
 42
50.0
 43
0.0
 44
0.0
 50
0.0
 51
0.0
 71
     0
 72
   100
 73
     1
 74
     0
 75
     0
 76
     0
 77
     0
 78
     0
281
     0
 65
     1
110
0.0
120
0.0
130
0.0
111
1.0
121
0.0
131
0.0
112
0.0
122
1.0
132
0.0
 79
     0
146
0.0
  0
ENDTAB
  0
TABLE
  2
LTYPE
  5
5
330
0
100
AcDbSymbolTable
 70
     2
  0
LTYPE
  5
12
330
5
100
AcDbSymbolTableRecord
100
AcDbLinetypeTableRecord
  2
BYBLOCK
 70
     0
  3

 72
    65
 73
     0
 40
0.0
  0
LTYPE
  5
13
330
5
100
AcDbSymbolTableRecord
100
AcDbLinetypeTableRecord
  2
BYLAYER
 70
     0
  3

 72
    65
 73
     0
 40
0.0
  0
LTYPE
  5
14
330
5
100
AcDbSymbolTableRecord
100
AcDbLinetypeTableRecord
  2
CONTINUOUS
 70
     0
  3
Solid line
 72
    65
 73
     0
 40
0.0
  0
ENDTAB
  0
TABLE
  2
LAYER
  5
2
330
0
100
AcDbSymbolTable
 70
     4
  0
LAYER
  5
F
330
2
100
AcDbSymbolTableRecord
100
AcDbLayerTableRecord
  2
0
 70
     0
 62
     7
  6
CONTINUOUS
370
    -3
390
D8
  0
LAYER
  5
70
330
2
100
AcDbSymbolTableRecord
100
AcDbLayerTableRecord
  2
ADPDIM
 70
     0
 62
     3
  6
CONTINUOUS
370
    -3
390
D8
  0
LAYER
  5
72
330
2
100
AcDbSymbolTableRecord
100
AcDbLayerTableRecord
  2
ADP1DETAIL
 70
     0
 62
     7
  6
CONTINUOUS
370
    -3
390
D8
  0
LAYER
  5
74
330
2
100
AcDbSymbolTableRecord
100
AcDbLayerTableRecord
  2
DEFPOINTS
 70
     0
 62
     7
  6
CONTINUOUS
290
     0
370
    -3
390
D8
  0
ENDTAB
  0
TABLE
  2
STYLE
  5
3
330
0
100
AcDbSymbolTable
 70
     2
  0
STYLE
  5
10
330
3
100
AcDbSymbolTableRecord
100
AcDbTextStyleTableRecord
  2
STANDARD
 70
     0
 40
0.0
 41
1.0
 50
0.0
 71
     0
 42
0.2
  3
txt
  4

  0
STYLE
  5
DF
330
3
100
AcDbSymbolTableRecord
100
AcDbTextStyleTableRecord
  2
ARIAL_WIDE
 70
     0
 40
0.0
 41
1.25
 50
0.0
 71
     0
 42
0.2
  3
ARIAL.TTF
  4

1001
ACAD
1000
Arial
1071
       34
  0
ENDTAB
  0
TABLE
  2
VIEW
  5
6
330
0
100
AcDbSymbolTable
 70
     0
  0
ENDTAB
  0
TABLE
  2
UCS
  5
7
330
0
100
AcDbSymbolTable
 70
     0
  0
ENDTAB
  0
TABLE
  2
APPID
  5
9
330
0
100
AcDbSymbolTable
 70
     2
  0
APPID
  5
11
330
9
100
AcDbSymbolTableRecord
100
AcDbRegAppTableRecord
  2
ACAD
 70
     0
  0
APPID
  5
31A
330
9
100
AcDbSymbolTableRecord
100
AcDbRegAppTableRecord
  2
ACAD_EXEMPT_FROM_CAD_STANDARDS
 70
     0
  0
ENDTAB
  0
TABLE
  2
DIMSTYLE
  5
A
330
0
100
AcDbSymbolTable
 70
     2
100
AcDbDimStyleTable
 71
     1
340
D3
  0
DIMSTYLE
105
D3
102
{ACAD_REACTORS
330
2D2
330
301
330
92
102
}
330
A
100
AcDbSymbolTableRecord
100
AcDbDimStyleTableRecord
  2
STANDARD
 70
     0
340
10
  0
ENDTAB
  0
TABLE
  2
BLOCK_RECORD
  5
1
330
0
100
AcDbSymbolTable
 70
     9
  0
BLOCK_RECORD
  5
18
102
{ACAD_XDICTIONARY
360
134
102
}
330
1
100
AcDbSymbolTableRecord
100
AcDbBlockTableRecord
  2
*MODEL_SPACE
340
DB
  0
BLOCK_RECORD
  5
15
102
{ACAD_XDICTIONARY
360
132
102
}
330
1
100
AcDbSymbolTableRecord
100
AcDbBlockTableRecord
  2
*PAPER_SPACE
340
DC
  0
BLOCK_RECORD
  5
57
330
1
100
AcDbSymbolTableRecord
100
AcDbBlockTableRecord
  2
*D0
340
0
  0
BLOCK_RECORD
  5
6E
330
1
100
AcDbSymbolTableRecord
100
AcDbBlockTableRecord
  2
*D1
340
0
  0
BLOCK_RECORD
  5
2D3
330
1
100
AcDbSymbolTableRecord
100
AcDbBlockTableRecord
  2
*D2
340
0
  0
BLOCK_RECORD
  5
2E1
330
1
100
AcDbSymbolTableRecord
100
AcDbBlockTableRecord
  2
*D3
340
0
  0
BLOCK_RECORD
  5
2EE
330
1
100
AcDbSymbolTableRecord
100
AcDbBlockTableRecord
  2
*D4
340
0
  0
BLOCK_RECORD
  5
302
330
1
100
AcDbSymbolTableRecord
100
AcDbBlockTableRecord
  2
*D6
340
0
  0
BLOCK_RECORD
  5
334
330
1
100
AcDbSymbolTableRecord
100
AcDbBlockTableRecord
  2
*D8
340
0
  0
ENDTAB
  0
ENDSEC
  0
SECTION
  2
BLOCKS
  0
BLOCK
  5
77
330
18
100
AcDbEntity
  8
0
100
AcDbBlockBegin
  2
*MODEL_SPACE
 70
     0
 10
0.0
 20
0.0
 30
0.0
  3
*MODEL_SPACE
  1

  0
ENDBLK
  5
78
330
18
100
AcDbEntity
  8
0
100
AcDbBlockEnd
  0
BLOCK
  5
75
330
15
100
AcDbEntity
 67
     1
  8
0
100
AcDbBlockBegin
  2
*PAPER_SPACE
 70
     0
 10
0.0
 20
0.0
 30
0.0
  3
*PAPER_SPACE
  1

  0
ENDBLK
  5
76
330
15
100
AcDbEntity
 67
     1
  8
0
100
AcDbBlockEnd
  0
BLOCK
  5
7A
330
57
100
AcDbEntity
  8
0
100
AcDbBlockBegin
  2
*D0
 70
     1
 10
0.0
 20
0.0
 30
0.0
  3
*D0
  1

  0
LINE
  5
7B
330
57
100
AcDbEntity
  8
0
  6
ByBlock
 62
     0
100
AcDbLine
 10
22.57112454420933
 20
39.51158620608911
 30
0.0
 11
22.57112454420933
 21
39.97283620608911
 31
0.0
  0
LINE
  5
7C
330
57
100
AcDbEntity
  8
0
  6
ByBlock
 62
     0
100
AcDbLine
 10
23.07112454420932
 20
39.51158620608911
 30
0.0
 11
23.07112454420932
 21
39.97283620608911
 31
0.0
  0
LINE
  5
7D
330
57
100
AcDbEntity
  8
0
  6
ByBlock
 62
     0
100
AcDbLine
 10
22.57112454420933
 20
39.79283620608912
 30
0.0
 11
22.32112454420933
 21
39.79283620608912
 31
0.0
  0
LINE
  5
7E
330
57
100
AcDbEntity
  8
0
  6
ByBlock
 62
     0
100
AcDbLine
 10
23.07112454420932
 20
39.79283620608912
 30
0.0
 11
23.32112454420933
 21
39.79283620608912
 31
0.0
  0
LINE
  5
7F
330
57
100
AcDbEntity
  8
0
  6
ByBlock
 62
     0
100
AcDbLine
 10
22.44612454420932
 20
39.66783620608911
 30
0.0
 11
22.69612454420933
 21
39.91783620608912
 31
0.0
  0
LINE
  5
80
330
57
100
AcDbEntity
  8
0
  6
ByBlock
 62
     0
100
AcDbLine
 10
22.94612454420933
 20
39.66783620608911
 30
0.0
 11
23.19612454420933
 21
39.91783620608912
 31
0.0
  0
TEXT
  5
81
330
57
100
AcDbEntity
  8
0
  6
ByBlock
 62
     0
100
AcDbText
 10
23.44612454420933
 20
39.73033620608911
 30
0.0
 40
0.125
  1
1/2
 72
     1
 11
23.59195787754266
 21
39.79283620608912
 31
0.0
100
AcDbText
 73
     2
  0
POINT
  5
82
330
57
100
AcDbEntity
  8
DEFPOINTS
  6
ByBlock
 62
     0
100
AcDbPoint
 10
22.57112454420933
 20
39.44908620608912
 30
0.0
  0
POINT
  5
83
330
57
100
AcDbEntity
  8
DEFPOINTS
  6
ByBlock
 62
     0
100
AcDbPoint
 10
23.07112454420932
 20
39.44908620608912
 30
0.0
  0
POINT
  5
84
330
57
100
AcDbEntity
  8
DEFPOINTS
  6
ByBlock
 62
     0
100
AcDbPoint
 10
23.07112454420932
 20
39.79283620608912
 30
0.0
  0
ENDBLK
  5
85
330
57
100
AcDbEntity
  8
0
100
AcDbBlockEnd
  0
BLOCK
  5
86
330
6E
100
AcDbEntity
  8
0
100
AcDbBlockBegin
  2
*D1
 70
     1
 10
0.0
 20
0.0
 30
0.0
  3
*D1
  1

  0
LINE
  5
87
330
6E
100
AcDbEntity
  8
0
  6
ByBlock
 62
     0
100
AcDbLine
 10
22.55949468275258
 20
3.447602616499355
 30
0.0
 11
21.31315890772331
 21
3.447602616499355
 31
0.0
  0
LINE
  5
88
330
6E
100
AcDbEntity
  8
0
  6
ByBlock
 62
     0
100
AcDbLine
 10
22.50862454420933
 20
39.41783620608911
 30
0.0
 11
21.31315890772332
 21
39.41783620608911
 31
0.0
  0
LINE
  5
89
330
6E
100
AcDbEntity
  8
0
  6
ByBlock
 62
     0
100
AcDbLine
 10
21.49315890772331
 20
3.447602616499355
 30
0.0
 11
21.49315890772331
 21
21.20355274462757
 31
0.0
  0
LINE
  5
8A
330
6E
100
AcDbEntity
  8
0
  6
ByBlock
 62
     0
100
AcDbLine
 10
21.49315890772331
 20
39.41783620608911
 30
0.0
 11
21.49315890772331
 21
21.6618860779609
 31
0.0
  0
LINE
  5
8B
330
6E
100
AcDbEntity
  8
0
  6
ByBlock
 62
     0
100
AcDbLine
 10
21.61815890772331
 20
3.322602616499355
 30
0.0
 11
21.36815890772331
 21
3.572602616499355
 31
0.0
  0
LINE
  5
8C
330
6E
100
AcDbEntity
  8
0
  6
ByBlock
 62
     0
100
AcDbLine
 10
21.61815890772332
 20
39.29283620608912
 30
0.0
 11
21.36815890772332
 21
39.54283620608912
 31
0.0
  0
TEXT
  5
8D
330
6E
100
AcDbEntity
  8
0
  6
ByBlock
 62
     0
100
AcDbText
 10
21.55565890772331
 20
21.32855274462757
 30
0.0
 40
0.125
  1
36
 50
90.0
 72
     1
 11
21.49315890772331
 21
21.43271941129424
 31
0.0
100
AcDbText
 73
     2
  0
POINT
  5
8E
330
6E
100
AcDbEntity
  8
DEFPOINTS
  6
ByBlock
 62
     0
100
AcDbPoint
 10
22.62199468275258
 20
3.447602616499355
 30
0.0
  0
POINT
  5
8F
330
6E
100
AcDbEntity
  8
DEFPOINTS
  6
ByBlock
 62
     0
100
AcDbPoint
 10
22.57112454420933
 20
39.41783620608911
 30
0.0
  0
POINT
  5
90
330
6E
100
AcDbEntity
  8
DEFPOINTS
  6
ByBlock
 62
     0
100
AcDbPoint
 10
21.49315890772331
 20
39.41783620608911
 30
0.0
  0
ENDBLK
  5
91
330
6E
100
AcDbEntity
  8
0
100
AcDbBlockEnd
  0
BLOCK
  5
2DE
330
2D3
100
AcDbEntity
  8
0
 62
     3
100
AcDbBlockBegin
  2
*D2
 70
     1
 10
0.0
 20
0.0
 30
0.0
  3
*D2
  1

  0
LINE
  5
35F
330
2D3
100
AcDbEntity
  8
ADPDIM
 62
     0
370
    -2
100
AcDbLine
 10
23.15043436016025
 20
39.41783620608911
 30
0.0
 11
24.5663658734442
 21
39.41783620608911
 31
0.0
  0
LINE
  5
360
330
2D3
100
AcDbEntity
  8
ADPDIM
 62
     0
370
    -2
100
AcDbLine
 10
23.15043436016024
 20
22.17184387480076
 30
0.0
 11
24.56636587344419
 21
22.17184387480076
 31
0.0
  0
LINE
  5
361
330
2D3
100
AcDbEntity
  8
ADPDIM
 62
     0
370
    -2
100
AcDbLine
 10
24.3863658734442
 20
39.41783620608911
 30
0.0
 11
24.3863658734442
 21
31.23234004044494
 31
0.0
  0
LINE
  5
362
330
2D3
100
AcDbEntity
  8
ADPDIM
 62
     0
370
    -2
100
AcDbLine
 10
24.38636587344419
 20
22.17184387480076
 30
0.0
 11
24.3863658734442
 21
30.35734004044494
 31
0.0
  0
LINE
  5
363
330
2D3
100
AcDbEntity
  8
ADPDIM
 62
     0
370
    -2
100
AcDbLine
 10
24.51136587344419
 20
22.04684387480076
 30
0.0
 11
24.26136587344419
 21
22.29684387480076
 31
0.0
  0
LINE
  5
364
330
2D3
100
AcDbEntity
  8
ADPDIM
 62
     0
370
    -2
100
AcDbLine
 10
24.5113658734442
 20
39.29283620608912
 30
0.0
 11
24.2613658734442
 21
39.54283620608912
 31
0.0
  0
MTEXT
  5
365
330
2D3
100
AcDbEntity
  8
ADPDIM
 62
     0
100
AcDbMText
 10
24.38636587344419
 20
30.79484004044495
 30
0.0
 40
0.125
 41
0.0
 71
     5
 72
     1
  1
\A1;17 1/4
 11
0.0000000000000001
 21
1.0
 31
0.0
 73
     1
 44
1.0
1001
ACAD
1000
MTEXTBEGIN
1070
    73
1070
     1
1070
    44
1040
1.0
1070
    74
1070
     0
1000
MTEXTEND
  0
POINT
  5
366
330
2D3
100
AcDbEntity
  8
DEFPOINTS
 62
     0
100
AcDbPoint
 10
23.08793436016025
 20
39.41783620608911
 30
0.0
  0
POINT
  5
367
330
2D3
100
AcDbEntity
  8
DEFPOINTS
 62
     0
100
AcDbPoint
 10
23.08793436016024
 20
22.17184387480076
 30
0.0
  0
POINT
  5
368
330
2D3
100
AcDbEntity
  8
DEFPOINTS
 62
     0
100
AcDbPoint
 10
24.38636587344419
 20
22.17184387480076
 30
0.0
  0
ENDBLK
  5
2DF
330
2D3
100
AcDbEntity
  8
0
 62
     3
100
AcDbBlockEnd
  0
BLOCK
  5
2EC
330
2E1
100
AcDbEntity
  8
0
 62
     3
100
AcDbBlockBegin
  2
*D3
 70
     1
 10
0.0
 20
0.0
 30
0.0
  3
*D3
  1

  0
LINE
  5
2E2
330
2E1
100
AcDbEntity
  8
ADPDIM
 62
     0
370
    -2
100
AcDbLine
 10
23.2013044987035
 20
3.447602616499355
 30
0.0
 11
24.28721961818907
 21
3.447602616499355
 31
0.0
  0
LINE
  5
2E3
330
2E1
100
AcDbEntity
  8
ADPDIM
 62
     0
370
    -2
100
AcDbLine
 10
23.2013044987035
 20
20.82018743308297
 30
0.0
 11
24.28721961818908
 21
20.82018743308297
 31
0.0
  0
LINE
  5
2E4
330
2E1
100
AcDbEntity
  8
ADPDIM
 62
     0
370
    -2
100
AcDbLine
 10
24.10721961818908
 20
3.447602616499355
 30
0.0
 11
24.10721961818908
 21
11.65472835812449
 31
0.0
  0
LINE
  5
2E5
330
2E1
100
AcDbEntity
  8
ADPDIM
 62
     0
370
    -2
100
AcDbLine
 10
24.10721961818908
 20
20.82018743308297
 30
0.0
 11
24.10721961818908
 21
12.61306169145783
 31
0.0
  0
LINE
  5
2E6
330
2E1
100
AcDbEntity
  8
ADPDIM
 62
     0
370
    -2
100
AcDbLine
 10
24.23221961818908
 20
20.69518743308297
 30
0.0
 11
23.98221961818908
 21
20.94518743308297
 31
0.0
  0
LINE
  5
2E7
330
2E1
100
AcDbEntity
  8
ADPDIM
 62
     0
370
    -2
100
AcDbLine
 10
24.23221961818907
 20
3.322602616499355
 30
0.0
 11
23.98221961818908
 21
3.572602616499355
 31
0.0
  0
MTEXT
  5
2E8
330
2E1
100
AcDbEntity
  8
ADPDIM
 62
     0
100
AcDbMText
 10
24.10721961818908
 20
12.13389502479116
 30
0.0
 40
0.125
 41
0.0
 71
     5
 72
     1
  1
\A1;17.3726
 11
0.0000000000000001
 21
1.0
 31
0.0
 73
     1
 44
1.0
1001
ACAD
1000
MTEXTBEGIN
1070
    73
1070
     1
1070
    44
1040
1.0
1070
    74
1070
     0
1000
MTEXTEND
  0
POINT
  5
2E9
330
2E1
100
AcDbEntity
  8
DEFPOINTS
 62
     0
100
AcDbPoint
 10
23.1388044987035
 20
3.447602616499355
 30
0.0
  0
POINT
  5
2EA
330
2E1
100
AcDbEntity
  8
DEFPOINTS
 62
     0
100
AcDbPoint
 10
23.1388044987035
 20
20.82018743308297
 30
0.0
  0
POINT
  5
2EB
330
2E1
100
AcDbEntity
  8
DEFPOINTS
 62
     0
100
AcDbPoint
 10
24.10721961818908
 20
20.82018743308297
 30
0.0
  0
ENDBLK
  5
2ED
330
2E1
100
AcDbEntity
  8
0
 62
     3
100
AcDbBlockEnd
  0
BLOCK
  5
2EF
330
2EE
100
AcDbEntity
  8
0
 62
     3
100
AcDbBlockBegin
  2
*D4
 70
     1
 10
0.0
 20
0.0
 30
0.0
  3
*D4
  1

  0
LINE
  5
2F0
330
2EE
100
AcDbEntity
  8
ADPDIM
 62
     0
370
    -2
100
AcDbLine
 10
23.15043436016025
 20
39.41783620608911
 30
0.0
 11
24.5663658734442
 21
39.41783620608911
 31
0.0
  0
LINE
  5
2F1
330
2EE
100
AcDbEntity
  8
ADPDIM
 62
     0
370
    -2
100
AcDbLine
 10
23.15043436016024
 20
22.17184387480076
 30
0.0
 11
24.56636587344419
 21
22.17184387480076
 31
0.0
  0
LINE
  5
2F2
330
2EE
100
AcDbEntity
  8
ADPDIM
 62
     0
370
    -2
100
AcDbLine
 10
24.3863658734442
 20
39.41783620608911
 30
0.0
 11
24.3863658734442
 21
31.26359004044494
 31
0.0
  0
LINE
  5
2F3
330
2EE
100
AcDbEntity
  8
ADPDIM
 62
     0
370
    -2
100
AcDbLine
 10
24.38636587344419
 20
22.17184387480076
 30
0.0
 11
24.3863658734442
 21
30.32609004044494
 31
0.0
  0
LINE
  5
2F4
330
2EE
100
AcDbEntity
  8
ADPDIM
 62
     0
370
    -2
100
AcDbLine
 10
24.51136587344419
 20
22.04684387480076
 30
0.0
 11
24.26136587344419
 21
22.29684387480076
 31
0.0
  0
LINE
  5
2F5
330
2EE
100
AcDbEntity
  8
ADPDIM
 62
     0
370
    -2
100
AcDbLine
 10
24.5113658734442
 20
39.29283620608912
 30
0.0
 11
24.2613658734442
 21
39.54283620608912
 31
0.0
  0
MTEXT
  5
2F6
330
2EE
100
AcDbEntity
  8
ADPDIM
 62
     0
100
AcDbMText
 10
24.38636587344419
 20
30.79484004044495
 30
0.0
 40
0.125
 41
0.0
 71
     5
 72
     1
  1
\A1;17.2460
 11
0.0000000000000001
 21
1.0
 31
0.0
 73
     1
 44
1.0
1001
ACAD
1000
MTEXTBEGIN
1070
    73
1070
     1
1070
    44
1040
1.0
1070
    74
1070
     0
1000
MTEXTEND
  0
POINT
  5
2F7
330
2EE
100
AcDbEntity
  8
DEFPOINTS
 62
     0
100
AcDbPoint
 10
23.08793436016025
 20
39.41783620608911
 30
0.0
  0
POINT
  5
2F8
330
2EE
100
AcDbEntity
  8
DEFPOINTS
 62
     0
100
AcDbPoint
 10
23.08793436016024
 20
22.17184387480076
 30
0.0
  0
POINT
  5
2F9
330
2EE
100
AcDbEntity
  8
DEFPOINTS
 62
     0
100
AcDbPoint
 10
24.38636587344419
 20
22.17184387480076
 30
0.0
  0
ENDBLK
  5
2FA
330
2EE
100
AcDbEntity
  8
0
 62
     3
100
AcDbBlockEnd
  0
BLOCK
  5
30D
330
302
100
AcDbEntity
  8
0
100
AcDbBlockBegin
  2
*D6
 70
     1
 10
0.0
 20
0.0
 30
0.0
  3
*D6
  1

  0
LINE
  5
369
330
302
100
AcDbEntity
  8
ADPDIM
 62
     0
370
    -2
100
AcDbLine
 10
23.19558596551873
 20
20.69793720230749
 30
0.0
 11
24.61151747880268
 21
20.69793720230749
 31
0.0
  0
LINE
  5
36A
330
302
100
AcDbEntity
  8
ADPDIM
 62
     0
370
    -2
100
AcDbLine
 10
23.19558596551873
 20
3.451944871019144
 30
0.0
 11
24.61151747880268
 21
3.451944871019144
 31
0.0
  0
LINE
  5
36B
330
302
100
AcDbEntity
  8
ADPDIM
 62
     0
370
    -2
100
AcDbLine
 10
24.43151747880268
 20
20.69793720230749
 30
0.0
 11
24.43151747880268
 21
12.51244103666331
 31
0.0
  0
LINE
  5
36C
330
302
100
AcDbEntity
  8
ADPDIM
 62
     0
370
    -2
100
AcDbLine
 10
24.43151747880268
 20
3.451944871019144
 30
0.0
 11
24.43151747880268
 21
11.63744103666331
 31
0.0
  0
LINE
  5
36D
330
302
100
AcDbEntity
  8
ADPDIM
 62
     0
370
    -2
100
AcDbLine
 10
24.55651747880267
 20
3.326944871019144
 30
0.0
 11
24.30651747880268
 21
3.576944871019144
 31
0.0
  0
LINE
  5
36E
330
302
100
AcDbEntity
  8
ADPDIM
 62
     0
370
    -2
100
AcDbLine
 10
24.55651747880268
 20
20.57293720230749
 30
0.0
 11
24.30651747880268
 21
20.82293720230749
 31
0.0
  0
MTEXT
  5
36F
330
302
100
AcDbEntity
  8
ADPDIM
 62
     0
100
AcDbMText
 10
24.43151747880268
 20
12.07494103666332
 30
0.0
 40
0.125
 41
0.0
 71
     5
 72
     1
  1
\A1;17 1/4
 11
0.0000000000000001
 21
1.0
 31
0.0
 73
     1
 44
1.0
1001
ACAD
1000
MTEXTBEGIN
1070
    73
1070
     1
1070
    44
1040
1.0
1070
    74
1070
     0
1000
MTEXTEND
  0
POINT
  5
370
330
302
100
AcDbEntity
  8
DEFPOINTS
 62
     0
100
AcDbPoint
 10
23.13308596551873
 20
20.69793720230749
 30
0.0
  0
POINT
  5
371
330
302
100
AcDbEntity
  8
DEFPOINTS
 62
     0
100
AcDbPoint
 10
23.13308596551873
 20
3.451944871019144
 30
0.0
  0
POINT
  5
372
330
302
100
AcDbEntity
  8
DEFPOINTS
 62
     0
100
AcDbPoint
 10
24.43151747880268
 20
3.451944871019144
 30
0.0
  0
ENDBLK
  5
30E
330
302
100
AcDbEntity
  8
0
100
AcDbBlockEnd
  0
BLOCK
  5
33F
330
334
100
AcDbEntity
  8
0
100
AcDbBlockBegin
  2
*D8
 70
     1
 10
0.0
 20
0.0
 30
0.0
  3
*D8
  1

  0
LINE
  5
373
330
334
100
AcDbEntity
  8
ADPDIM
 62
     0
370
    -2
100
AcDbLine
 10
22.55949468275258
 20
3.447602616499355
 30
0.0
 11
21.31315890772331
 21
3.447602616499355
 31
0.0
  0
LINE
  5
374
330
334
100
AcDbEntity
  8
ADPDIM
 62
     0
370
    -2
100
AcDbLine
 10
22.50862454420933
 20
39.41783620608911
 30
0.0
 11
21.31315890772332
 21
39.41783620608911
 31
0.0
  0
LINE
  5
375
330
334
100
AcDbEntity
  8
ADPDIM
 62
     0
370
    -2
100
AcDbLine
 10
21.49315890772331
 20
3.447602616499355
 30
0.0
 11
21.49315890772331
 21
21.20355274462757
 31
0.0
  0
LINE
  5
376
330
334
100
AcDbEntity
  8
ADPDIM
 62
     0
370
    -2
100
AcDbLine
 10
21.49315890772331
 20
39.41783620608911
 30
0.0
 11
21.49315890772331
 21
21.6618860779609
 31
0.0
  0
LINE
  5
377
330
334
100
AcDbEntity
  8
ADPDIM
 62
     0
370
    -2
100
AcDbLine
 10
21.61815890772332
 20
39.29283620608912
 30
0.0
 11
21.36815890772332
 21
39.54283620608912
 31
0.0
  0
LINE
  5
378
330
334
100
AcDbEntity
  8
ADPDIM
 62
     0
370
    -2
100
AcDbLine
 10
21.61815890772331
 20
3.322602616499355
 30
0.0
 11
21.36815890772331
 21
3.572602616499355
 31
0.0
  0
MTEXT
  5
379
330
334
100
AcDbEntity
  8
ADPDIM
 62
     0
100
AcDbMText
 10
21.49315890772331
 20
21.43271941129424
 30
0.0
 40
0.125
 41
0.0
 71
     5
 72
     1
  1
\A1;36
 11
0.0000000000000001
 21
1.0
 31
0.0
 73
     1
 44
1.0
1001
ACAD
1000
MTEXTBEGIN
1070
    73
1070
     1
1070
    44
1040
1.0
1070
    74
1070
     0
1000
MTEXTEND
  0
POINT
  5
37A
330
334
100
AcDbEntity
  8
DEFPOINTS
 62
     0
100
AcDbPoint
 10
22.62199468275258
 20
3.447602616499355
 30
0.0
  0
POINT
  5
37B
330
334
100
AcDbEntity
  8
DEFPOINTS
 62
     0
100
AcDbPoint
 10
22.57112454420933
 20
39.41783620608911
 30
0.0
  0
POINT
  5
37C
330
334
100
AcDbEntity
  8
DEFPOINTS
 62
     0
100
AcDbPoint
 10
21.49315890772331
 20
39.41783620608911
 30
0.0
  0
ENDBLK
  5
340
330
334
100
AcDbEntity
  8
0
100
AcDbBlockEnd
  0
ENDSEC
  0
SECTION
  2
ENTITIES
  0
DIMENSION
  5
92
330
18
100
AcDbEntity
  8
ADPDIM
100
AcDbDimension
  2
*D8
 10
21.49315890772331
 20
39.41783620608911
 30
0.0
 11
21.49315890772331
 21
21.43271941129424
 31
0.0
 70
    32
 71
     5
 42
35.97023358958976
  3
STANDARD
100
AcDbAlignedDimension
 13
22.62199468275258
 23
3.447602616499355
 33
0.0
 14
22.57112454420933
 24
39.41783620608911
 34
0.0
 50
90.0
100
AcDbRotatedDimension
1001
ACAD
1000
DSTYLE
1002
{
1070
   276
1070
     2
1070
   277
1070
     5
1070
    41
1040
0.125
1070
    73
1070
     0
1070
    74
1070
     0
1070
    78
1070
     3
1070
   140
1040
0.125
1070
   141
1040
0.1875
1070
   142
1040
0.125
1070
   147
1040
0.125
1070
   171
1070
     1
1002
}
  0
ARC
  5
93
330
18
100
AcDbEntity
  8
0
100
AcDbCircle
 10
23.13222557060556
 20
20.36046625040177
 30
0.0
 40
0.3595534020376496
100
AcDbArc
 50
350.6439812015778
 51
70.93164153793158
  0
ARC
  5
94
330
18
100
AcDbEntity
  8
0
100
AcDbCircle
 10
22.52618796582664
 20
20.36044335569775
 30
0.0
 40
0.3595534020376496
100
AcDbArc
 50
108.8285375795656
 51
189.1161979159194
  0
LINE
  5
95
330
18
100
AcDbEntity
  8
0
 62
     7
100
AcDbLine
 10
22.57112454420933
 20
15.21478866007684
 30
0.0
 11
22.62199468275258
 21
3.447602616499355
 31
0.0
  0
LINE
  5
96
330
18
100
AcDbEntity
  8
0
 62
     7
100
AcDbLine
 10
23.1388044987035
 20
3.447602616499355
 30
0.0
 11
23.08793436016025
 21
15.21478866007684
 31
0.0
  0
LINE
  5
97
330
18
100
AcDbEntity
  8
0
 62
     7
100
AcDbLine
 10
22.62199468275258
 20
3.447602616499355
 30
0.0
 11
23.1388044987035
 21
3.447602616499355
 31
0.0
  0
LINE
  5
98
330
18
100
AcDbEntity
  8
0
 62
     7
100
AcDbLine
 10
23.16744356261424
 20
17.3615371263345
 30
0.0
 11
23.24695276506822
 21
18.63368436559831
 31
0.0
  0
LINE
  5
99
330
18
100
AcDbEntity
  8
0
 62
     7
100
AcDbLine
 10
22.41210613930135
 20
18.63368436559831
 30
0.0
 11
22.49161534175534
 21
17.3615371263345
 31
0.0
  0
LINE
  5
9A
330
18
100
AcDbEntity
  8
0
 62
     7
100
AcDbLine
 10
23.08793436016025
 20
15.77135307725475
 30
0.0
 11
23.16744356261424
 21
17.3615371263345
 31
0.0
  0
LINE
  5
9B
330
18
100
AcDbEntity
  8
0
 62
     7
100
AcDbLine
 10
22.49161534175534
 20
17.3615371263345
 30
0.0
 11
22.53136994298233
 21
15.77135307725475
 31
0.0
  0
LINE
  5
9C
330
18
100
AcDbEntity
  8
0
 62
     7
100
AcDbLine
 10
22.53136994298233
 20
15.77135307725475
 30
0.0
 11
22.57112454420933
 21
15.21478866007684
 31
0.0
  0
LINE
  5
9D
330
18
100
AcDbEntity
  8
0
 62
     7
100
AcDbLine
 10
22.57112454420933
 20
15.21478866007684
 30
0.0
 11
22.57112454420933
 21
15.21478866007684
 31
0.0
  0
LINE
  5
9E
330
18
100
AcDbEntity
  8
0
 62
     7
100
AcDbLine
 10
23.08793436016025
 20
15.21478866007684
 30
0.0
 11
23.08793436016025
 21
15.77135307725475
 31
0.0
  0
LINE
  5
9F
330
18
100
AcDbEntity
  8
0
 62
     7
100
AcDbLine
 10
23.24695276506822
 20
18.6734389668253
 30
0.0
 11
23.3662165687492
 21
19.62754939627315
 31
0.0
  0
LINE
  5
A0
330
18
100
AcDbEntity
  8
0
 62
     7
100
AcDbLine
 10
22.29284233562037
 20
19.62754939627315
 30
0.0
 11
22.41210613930135
 21
18.6734389668253
 31
0.0
  0
LINE
  5
A1
330
18
100
AcDbEntity
  8
0
 62
     7
100
AcDbLine
 10
22.17313547941677
 20
20.29238021768126
 30
0.0
 11
22.29284233562037
 21
19.62754939627315
 31
0.0
  0
LINE
  5
A2
330
18
100
AcDbEntity
  8
0
 62
     7
100
AcDbLine
 10
23.3662165687492
 20
19.62754939627315
 30
0.0
 11
23.48699592099291
 21
20.30201415546172
 31
0.0
  0
LINE
  5
A3
330
18
100
AcDbEntity
  8
0
 62
     7
100
AcDbLine
 10
22.57112454420933
 20
27.7772426478069
 30
0.0
 11
22.57112454420933
 21
39.41783620608911
 31
0.0
  0
LINE
  5
A4
330
18
100
AcDbEntity
  8
0
 62
     7
100
AcDbLine
 10
23.08793436016025
 20
39.41783620608911
 30
0.0
 11
23.08793436016025
 21
27.7772426478069
 31
0.0
  0
LINE
  5
A5
330
18
100
AcDbEntity
  8
0
 62
     7
100
AcDbLine
 10
23.08793436016025
 20
27.22067823062899
 30
0.0
 11
23.16744356261424
 21
25.63049418154923
 31
0.0
  0
LINE
  5
A6
330
18
100
AcDbEntity
  8
0
 62
     7
100
AcDbLine
 10
22.49161534175534
 20
25.63049418154923
 30
0.0
 11
22.53136994298233
 21
27.22067823062899
 31
0.0
  0
LINE
  5
A7
330
18
100
AcDbEntity
  8
0
 62
     7
100
AcDbLine
 10
23.24695276506822
 20
24.35834694228543
 30
0.0
 11
23.3662165687492
 21
23.40423651283757
 31
0.0
  0
LINE
  5
A8
330
18
100
AcDbEntity
  8
0
 62
     7
100
AcDbLine
 10
22.29284233562037
 20
23.40423651283757
 30
0.0
 11
22.41210613930135
 21
24.35834694228543
 31
0.0
  0
ARC
  5
A9
330
18
100
AcDbEntity
  8
0
100
AcDbCircle
 10
23.13064507769459
 20
22.51133334112841
 30
0.0
 40
0.3595534020376496
100
AcDbArc
 50
289.0044827418842
 51
9.292143078238046
  0
ARC
  5
AA
330
18
100
AcDbEntity
  8
0
100
AcDbCircle
 10
22.52852670531421
 20
22.51202750275204
 30
0.0
 40
0.3595534020376496
100
AcDbArc
 50
170.8199263638963
 51
251.1075867002501
  0
LINE
  5
AB
330
18
100
AcDbEntity
  8
0
 62
     7
100
AcDbLine
 10
22.41210613930135
 20
22.17184387480076
 30
0.0
 11
23.24695276506822
 21
22.17184387480076
 31
0.0
  0
LINE
  5
AC
330
18
100
AcDbEntity
  8
0
 62
     7
100
AcDbLine
 10
23.24695276506822
 20
22.17184387480076
 30
0.0
 11
22.41210613930135
 21
22.17184387480076
 31
0.0
  0
LINE
  5
AD
330
18
100
AcDbEntity
  8
0
 62
     7
100
AcDbLine
 10
22.41210613930135
 20
21.85380706498481
 30
0.0
 11
23.24695276506822
 21
21.85380706498481
 31
0.0
  0
LINE
  5
AE
330
18
100
AcDbEntity
  8
0
 62
     7
100
AcDbLine
 10
23.24695276506822
 20
22.09233467234678
 30
0.0
 11
22.41210613930135
 21
22.09233467234678
 31
0.0
  0
LINE
  5
AF
330
18
100
AcDbEntity
  8
0
 62
     7
100
AcDbLine
 10
23.24695276506822
 20
21.73454326130384
 30
0.0
 11
22.41210613930135
 21
21.73454326130384
 31
0.0
  0
LINE
  5
B0
330
18
100
AcDbEntity
  8
0
 62
     7
100
AcDbLine
 10
22.41210613930135
 20
21.13763730452806
 30
0.0
 11
23.24695276506822
 21
21.13763730452806
 31
0.0
  0
LINE
  5
B1
330
18
100
AcDbEntity
  8
0
 62
     7
100
AcDbLine
 10
23.24695276506822
 20
21.73454326130384
 30
0.0
 11
22.41210613930135
 21
21.73454326130384
 31
0.0
  0
LINE
  5
B2
330
18
100
AcDbEntity
  8
0
 62
     7
100
AcDbLine
 10
23.24695276506822
 20
21.13763730452806
 30
0.0
 11
22.41210613930135
 21
21.13763730452806
 31
0.0
  0
LINE
  5
B3
330
18
100
AcDbEntity
  8
0
 62
     7
100
AcDbLine
 10
22.41210613930135
 20
21.01837350084707
 30
0.0
 11
23.24695276506822
 21
21.01837350084707
 31
0.0
  0
LINE
  5
B4
330
18
100
AcDbEntity
  8
0
 62
     7
100
AcDbLine
 10
23.24695276506822
 20
20.77984589348511
 30
0.0
 11
22.41210613930135
 21
20.77984589348511
 31
0.0
  0
LINE
  5
B5
330
18
100
AcDbEntity
  8
0
 62
     7
100
AcDbLine
 10
22.41210613930135
 20
20.70033669103112
 30
0.0
 11
23.24695276506822
 21
20.70033669103112
 31
0.0
  0
ARC
  5
B6
330
18
100
AcDbEntity
  8
0
100
AcDbCircle
 10
22.47203151032728
 20
21.43609028291594
 30
0.0
 40
0.3044096424248042
100
AcDbArc
 50
101.3532636118024
 51
258.6467363881976
  0
LINE
  5
B7
330
18
100
AcDbEntity
  8
0
 62
     7
100
AcDbLine
 10
22.41210613930135
 20
21.01837350084707
 30
0.0
 11
22.41210613930135
 21
21.01837350084707
 31
0.0
  0
LINE
  5
B8
330
18
100
AcDbEntity
  8
0
 62
     7
100
AcDbLine
 10
22.41210613930135
 20
21.13763730452806
 30
0.0
 11
22.41210613930135
 21
21.01837350084707
 31
0.0
  0
LINE
  5
B9
330
18
100
AcDbEntity
  8
0
 62
     7
100
AcDbLine
 10
22.41210613930135
 20
20.77984589348511
 30
0.0
 11
22.41210613930135
 21
20.70033669103112
 31
0.0
  0
ARC
  5
BA
330
18
100
AcDbEntity
  8
0
100
AcDbCircle
 10
22.41210613930135
 20
20.89910969716609
 30
0.0
 40
0.1192638036809797
100
AcDbArc
 50
269.9999999999983
 51
90.00000000000175
  0
LINE
  5
BB
330
18
100
AcDbEntity
  8
0
 62
     7
100
AcDbLine
 10
22.41210613930135
 20
22.09233467234678
 30
0.0
 11
22.41210613930135
 21
22.17184387480076
 31
0.0
  0
LINE
  5
BC
330
18
100
AcDbEntity
  8
0
 62
     7
100
AcDbLine
 10
22.41210613930135
 20
21.73454326130384
 30
0.0
 11
22.41210613930135
 21
21.85380706498481
 31
0.0
  0
ARC
  5
BD
330
18
100
AcDbEntity
  8
0
100
AcDbCircle
 10
22.41210613930135
 20
21.9730708686658
 30
0.0
 40
0.1192638036809797
100
AcDbArc
 50
269.9999999999983
 51
90.00000000000175
  0
ARC
  5
BE
330
18
100
AcDbEntity
  8
0
100
AcDbCircle
 10
23.1870273940423
 20
21.43609028291595
 30
0.0
 40
0.3044096424248055
100
AcDbArc
 50
281.3532636118003
 51
78.64673638819879
  0
LINE
  5
BF
330
18
100
AcDbEntity
  8
0
 62
     7
100
AcDbLine
 10
23.24695276506822
 20
21.13763730452806
 30
0.0
 11
23.24695276506822
 21
21.13763730452806
 31
0.0
  0
LINE
  5
C0
330
18
100
AcDbEntity
  8
0
 62
     7
100
AcDbLine
 10
23.24695276506822
 20
21.01837350084707
 30
0.0
 11
23.24695276506822
 21
21.13763730452806
 31
0.0
  0
LINE
  5
C1
330
18
100
AcDbEntity
  8
0
 62
     7
100
AcDbLine
 10
23.24695276506822
 20
21.01837350084707
 30
0.0
 11
23.24695276506822
 21
21.01837350084707
 31
0.0
  0
LINE
  5
C2
330
18
100
AcDbEntity
  8
0
 62
     7
100
AcDbLine
 10
23.24695276506822
 20
20.70033669103112
 30
0.0
 11
23.24695276506822
 21
20.77984589348511
 31
0.0
  0
LINE
  5
C3
330
18
100
AcDbEntity
  8
0
 62
     7
100
AcDbLine
 10
23.24695276506822
 20
20.70033669103112
 30
0.0
 11
23.24695276506822
 21
20.70033669103112
 31
0.0
  0
ARC
  5
C4
330
18
100
AcDbEntity
  8
0
100
AcDbCircle
 10
23.24695276506822
 20
20.89910969716609
 30
0.0
 40
0.1192638036809797
100
AcDbArc
 50
89.99999999999825
 51
270.0000000000017
  0
LINE
  5
C5
330
18
100
AcDbEntity
  8
0
 62
     7
100
AcDbLine
 10
23.24695276506822
 20
21.85380706498481
 30
0.0
 11
23.24695276506822
 21
21.85380706498481
 31
0.0
  0
LINE
  5
C6
330
18
100
AcDbEntity
  8
0
 62
     7
100
AcDbLine
 10
23.24695276506822
 20
22.17184387480076
 30
0.0
 11
23.24695276506822
 21
22.09233467234678
 31
0.0
  0
ARC
  5
C7
330
18
100
AcDbEntity
  8
0
100
AcDbCircle
 10
23.24695276506822
 20
21.9730708686658
 30
0.0
 40
0.1192638036809797
100
AcDbArc
 50
89.99999999999825
 51
270.0000000000017
  0
LINE
  5
C8
330
18
100
AcDbEntity
  8
0
 62
     7
100
AcDbLine
 10
23.24695276506822
 20
21.85380706498481
 30
0.0
 11
23.24695276506822
 21
21.73454326130384
 31
0.0
  0
LINE
  5
C9
330
18
100
AcDbEntity
  8
0
 62
     7
100
AcDbLine
 10
22.17357853193939
 20
22.56938988707071
 30
0.0
 11
22.29284233562037
 21
23.40423651283757
 31
0.0
  0
LINE
  5
CA
330
18
100
AcDbEntity
  8
0
 62
     7
100
AcDbLine
 10
23.3662165687492
 20
23.40423651283757
 30
0.0
 11
23.48548037243019
 21
22.56938988707071
 31
0.0
  0
LINE
  5
CB
330
18
100
AcDbEntity
  8
0
 62
     7
100
AcDbLine
 10
23.16744356261424
 20
25.63049418154923
 30
0.0
 11
23.24695276506822
 21
24.35834694228543
 31
0.0
  0
LINE
  5
CC
330
18
100
AcDbEntity
  8
0
 62
     7
100
AcDbLine
 10
22.41210613930135
 20
24.35834694228543
 30
0.0
 11
22.49161534175534
 21
25.63049418154923
 31
0.0
  0
LINE
  5
CD
330
18
100
AcDbEntity
  8
0
 62
     7
100
AcDbLine
 10
22.53136994298233
 20
27.22067823062899
 30
0.0
 11
22.57112454420933
 21
27.7772426478069
 31
0.0
  0
LINE
  5
CE
330
18
100
AcDbEntity
  8
0
 62
     7
100
AcDbLine
 10
22.57112454420933
 20
27.7772426478069
 30
0.0
 11
22.57112454420933
 21
27.7772426478069
 31
0.0
  0
LINE
  5
CF
330
18
100
AcDbEntity
  8
0
 62
     7
100
AcDbLine
 10
23.08793436016025
 20
27.7772426478069
 30
0.0
 11
23.08793436016025
 21
27.22067823062899
 31
0.0
  0
CIRCLE
  5
D0
330
18
100
AcDbEntity
  8
ADP1DETAIL
100
AcDbCircle
 10
22.80949468275258
 20
40.10385261649935
 30
0.0
 40
0.25
  0
DIMENSION
  5
D1
330
18
100
AcDbEntity
  8
ADPDIM
100
AcDbDimension
  2
*D0
 10
23.07112454420932
 20
39.76158620608912
 30
0.0
 11
23.59195787754266
 21
39.79283620608912
 31
0.0
 12
0.0
 22
-0.03125
 32
0.0
 71
     5
 42
-1.0
100
AcDbAlignedDimension
 13
22.57112454420933
 23
39.41783620608911
 33
0.0
 14
23.07112454420932
 24
39.41783620608911
 34
0.0
100
AcDbRotatedDimension
  0
LINE
  5
D2
330
18
100
AcDbEntity
  8
0
 62
     7
100
AcDbLine
 10
22.57112454420933
 20
39.41783620608911
 30
0.0
 11
23.08793436016025
 21
39.41783620608911
 31
0.0
  0
TEXT
  5
E0
330
18
100
AcDbEntity
  8
ADPDIM
100
AcDbText
 10
-9.293138096857219
 20
1.313049223728444
 30
0.0
 40
0.625
  1
J U L I U S  B L U M  &  C O . ,  I N C .      ( 8 0 0 )  5 2 6 - 6 2 9 3        W W W . J U L I U S B L U M . C O M        P A R T  N o .  3 2 5
 41
1.25
  7
ARIAL_WIDE
 72
     1
 11
22.88039959072805
 21
1.938049223728444
 31
0.0
100
AcDbText
 73
     3
  0
DIMENSION
  5
2D2
330
18
100
AcDbEntity
  8
ADPDIM
 62
     3
100
AcDbDimension
  2
*D2
 10
24.38636587344419
 20
22.17184387480076
 30
0.0
 11
24.38636587344419
 21
30.79484004044495
 31
0.0
 70
    32
 71
     5
 42
17.24599233128835
  3
STANDARD
100
AcDbAlignedDimension
 13
23.08793436016025
 23
39.41783620608911
 33
0.0
 14
23.08793436016024
 24
22.17184387480076
 34
0.0
 50
90.0
100
AcDbRotatedDimension
1001
ACAD
1000
DSTYLE
1002
{
1070
   276
1070
     2
1070
   277
1070
     5
1070
    41
1040
0.125
1070
    73
1070
     0
1070
    74
1070
     0
1070
    78
1070
     3
1070
   140
1040
0.125
1070
   141
1040
0.1875
1070
   142
1040
0.125
1070
   147
1040
0.125
1070
   171
1070
     1
1002
}
  0
DIMENSION
  5
301
330
18
100
AcDbEntity
  8
ADPDIM
 62
     3
100
AcDbDimension
  2
*D6
 10
24.43151747880268
 20
3.451944871019144
 30
0.0
 11
24.43151747880268
 21
12.07494103666332
 31
0.0
 70
    32
 71
     5
 42
17.24599233128835
  3
STANDARD
100
AcDbAlignedDimension
 13
23.13308596551873
 23
20.69793720230749
 33
0.0
 14
23.13308596551873
 24
3.451944871019144
 34
0.0
 50
90.0
100
AcDbRotatedDimension
1001
ACAD
1000
DSTYLE
1002
{
1070
   276
1070
     2
1070
   277
1070
     5
1070
    41
1040
0.125
1070
    73
1070
     0
1070
    74
1070
     0
1070
    78
1070
     3
1070
   140
1040
0.125
1070
   141
1040
0.1875
1070
   142
1040
0.125
1070
   147
1040
0.125
1070
   171
1070
     1
1002
}
  0
ENDSEC
  0
SECTION
  2
OBJECTS
  0
DICTIONARY
  5
C
330
0
100
AcDbDictionary
281
     1
  3
ACAD_COLOR
350
2BE
  3
ACAD_GROUP
350
D
  3
ACAD_LAYOUT
350
D9
  3
ACAD_MATERIAL
350
2A9
  3
ACAD_MLINESTYLE
350
E
  3
ACAD_PLOTSETTINGS
350
DA
  3
ACAD_PLOTSTYLENAME
350
D7
  3
ACAD_TABLESTYLE
350
2BF
  3
ACAD_VISUALSTYLE
350
2AD
  3
AcDbVariableDictionary
350
13A
  3
DWGPROPS
350
39A
  0
DICTIONARY
  5
134
330
18
100
AcDbDictionary
280
     1
281
     1
  3
ACAD_LAYOUTSELFREF
360
2A3
  0
DICTIONARY
  5
132
330
15
100
AcDbDictionary
280
     1
281
     1
  3
ACAD_LAYOUTSELFREF
360
2A2
  0
DICTIONARY
  5
2BE
102
{ACAD_REACTORS
330
C
102
}
330
C
100
AcDbDictionary
281
     1
  0
DICTIONARY
  5
D
102
{ACAD_REACTORS
330
C
102
}
330
C
100
AcDbDictionary
281
     1
  0
DICTIONARY
  5
D9
102
{ACAD_REACTORS
330
C
102
}
330
C
100
AcDbDictionary
281
     1
  3
Layout1
350
DC
  3
Model
350
DB
  0
DICTIONARY
  5
2A9
102
{ACAD_REACTORS
330
C
102
}
330
C
100
AcDbDictionary
281
     1
  3
ByBlock
350
2AB
  3
ByLayer
350
2AA
  3
Global
350
2AC
  0
DICTIONARY
  5
E
102
{ACAD_REACTORS
330
C
102
}
330
C
100
AcDbDictionary
281
     1
  3
STANDARD
350
1B
  0
DICTIONARY
  5
DA
102
{ACAD_REACTORS
330
C
102
}
330
C
100
AcDbDictionary
281
     1
  0
ACDBDICTIONARYWDFLT
  5
D7
102
{ACAD_REACTORS
330
C
102
}
330
C
100
AcDbDictionary
281
     1
  3
Normal
350
D8
100
AcDbDictionaryWithDefault
340
D8
  0
DICTIONARY
  5
2BF
102
{ACAD_REACTORS
330
C
102
}
330
C
100
AcDbDictionary
281
     1
  3
Standard
350
2C0
  0
DICTIONARY
  5
2AD
102
{ACAD_REACTORS
330
C
102
}
330
C
100
AcDbDictionary
281
     1
  3
2dWireframe
350
2B3
  3
3D Hidden
350
2B5
  3
3dWireframe
350
2B4
  3
Basic
350
2B2
  3
Brighten
350
2B9
  3
ColorChange
350
2BD
  3
Conceptual
350
2B6
  3
Dim
350
2B8
  3
Facepattern
350
2BC
  3
Flat
350
2AE
  3
FlatWithEdges
350
2AF
  3
Gouraud
350
2B0
  3
GouraudWithEdges
350
2B1
  3
Linepattern
350
2BB
  3
Realistic
350
2B7
  3
Thicken
350
2BA
  0
DICTIONARY
  5
13A
102
{ACAD_REACTORS
330
C
102
}
330
C
100
AcDbDictionary
281
     1
  3
CTABLESTYLE
350
397
  3
DIMASSOC
350
13B
  3
INDEXCTL
350
399
  3
SORTENTS
350
398
  0
XRECORD
  5
39A
102
{ACAD_REACTORS
330
C
102
}
330
C
100
AcDbXrecord
280
     1
  1
DWGPROPS COOKIE
  2

  3

  4

  6

  7

  8
Yu Hu
  9

300
=
301
=
302
=
303
=
304
=
305
=
306
=
307
=
308
=
309
=
 40
0.0809346296296297
 41
2450374.476241898
 42
2453950.902730532
  1

 90
        0
  0
XRECORD
  5
2A3
102
{ACAD_REACTORS
330
134
102
}
330
134
100
AcDbXrecord
280
     1
340
18
  0
XRECORD
  5
2A2
102
{ACAD_REACTORS
330
132
102
}
330
132
100
AcDbXrecord
280
     1
340
15
  0
LAYOUT
  5
DC
102
{ACAD_XDICTIONARY
360
39D
102
}
102
{ACAD_REACTORS
330
D9
102
}
330
D9
100
AcDbPlotSettings
  1

  2
Fax
  4

  6

 40
0.0
 41
0.0
 42
0.0
 43
0.0
 44
0.0
 45
0.0
 46
0.0
 47
0.0
 48
0.0
 49
0.0
140
0.0
141
0.0
142
1.0
143
1.0
 70
   688
 72
     0
 73
     0
 74
     5
  7
Default R14 pen assignments.ctb
 75
    16
147
1.0
148
0.0
149
0.0
100
AcDbLayout
  1
Layout1
 70
     1
 71
     1
 10
0.0
 20
0.0
 11
12.0
 21
9.0
 12
0.0
 22
0.0
 32
0.0
 14
1.000000000000000E+20
 24
1.000000000000000E+20
 34
1.000000000000000E+20
 15
-1.000000000000000E+20
 25
-1.000000000000000E+20
 35
-1.000000000000000E+20
146
0.0
 13
0.0
 23
0.0
 33
0.0
 16
1.0
 26
0.0
 36
0.0
 17
0.0
 27
1.0
 37
0.0
 76
     0
330
15
  0
LAYOUT
  5
DB
102
{ACAD_XDICTIONARY
360
39B
102
}
102
{ACAD_REACTORS
330
D9
102
}
330
D9
100
AcDbPlotSettings
  1

  2
Fax
  4

  6

 40
0.0
 41
0.0
 42
0.0
 43
0.0
 44
0.0
 45
0.0
 46
0.0
 47
0.0
 48
0.0
 49
0.0
140
0.0
141
0.0
142
1.0
143
1.0
 70
  1712
 72
     0
 73
     0
 74
     0
  7
Default R14 pen assignments.ctb
 75
     0
147
1.0
148
0.0
149
0.0
100
AcDbLayout
  1
Model
 70
     1
 71
     0
 10
0.0
 20
0.0
 11
12.0
 21
9.0
 12
0.0
 22
0.0
 32
0.0
 14
0.0
 24
0.0
 34
0.0
 15
0.0
 25
0.0
 35
0.0
146
0.0
 13
0.0
 23
0.0
 33
0.0
 16
1.0
 26
0.0
 36
0.0
 17
0.0
 27
1.0
 37
0.0
 76
     0
330
18
331
27D
  0
MATERIAL
  5
2AB
102
{ACAD_XDICTIONARY
360
3A1
102
}
102
{ACAD_REACTORS
330
2A9
102
}
330
2A9
100
AcDbMaterial
  1
ByBlock
  0
MATERIAL
  5
2AA
102
{ACAD_XDICTIONARY
360
39F
102
}
102
{ACAD_REACTORS
330
2A9
102
}
330
2A9
100
AcDbMaterial
  1
ByLayer
  0
MATERIAL
  5
2AC
102
{ACAD_XDICTIONARY
360
3A3
102
}
102
{ACAD_REACTORS
330
2A9
102
}
330
2A9
100
AcDbMaterial
  1
Global
  0
MLINESTYLE
  5
1B
102
{ACAD_REACTORS
330
E
102
}
330
E
100
AcDbMlineStyle
  2
STANDARD
 70
     0
  3

 62
     0
 51
90.0
 52
90.0
 71
     2
 49
0.5
 62
   256
  6
BYLAYER
 49
-0.5
 62
   256
  6
BYLAYER
  0
ACDBPLACEHOLDER
  5
D8
102
{ACAD_REACTORS
330
D7
102
}
330
D7
  0
TABLESTYLE
  5
2C0
102
{ACAD_XDICTIONARY
360
3A5
102
}
102
{ACAD_REACTORS
330
2BF
102
}
330
2BF
100
AcDbTableStyle
  3
Standard
 70
     0
 71
     0
 40
0.06
 41
0.06
280
     0
281
     0
  7
STANDARD
140
0.18
170
     2
 62
     0
 63
     7
283
     0
274
    -2
284
     1
 64
     0
275
    -2
285
     1
 65
     0
276
    -2
286
     1
 66
     0
277
    -2
287
     1
 67
     0
278
    -2
288
     1
 68
     0
279
    -2
289
     1
 69
     0
  7
STANDARD
140
0.25
170
     5
 62
     0
 63
     7
283
     0
274
    -2
284
     1
 64
     0
275
    -2
285
     1
 65
     0
276
    -2
286
     1
 66
     0
277
    -2
287
     1
 67
     0
278
    -2
288
     1
 68
     0
279
    -2
289
     1
 69
     0
  7
STANDARD
140
0.18
170
     5
 62
     0
 63
     7
283
     0
274
    -2
284
     1
 64
     0
275
    -2
285
     1
 65
     0
276
    -2
286
     1
 66
     0
277
    -2
287
     1
 67
     0
278
    -2
288
     1
 68
     0
279
    -2
289
     1
 69
     0
  0
VISUALSTYLE
  5
2B3
102
{ACAD_REACTORS
330
2AD
102
}
330
2AD
100
AcDbVisualStyle
  2
2dWireframe
 70
     4
 71
     0
 72
     2
 73
     0
 90
        0
 40
-0.6
 41
-30.0
 62
     5
 63
     7
 74
     1
 91
        4
 64
     7
 65
   257
 75
     1
175
     1
 42
1.0
 92
        0
 66
   257
 43
1.0
 76
     1
 77
     6
 78
     2
 67
     7
 79
     5
170
     0
171
     0
290
     0
174
     0
 93
        1
 44
0.0
173
     0
291
     0
 45
0.0
1001
ACAD
1000
AcDbSavedByObjectVersion
1070
     0
  0
VISUALSTYLE
  5
2B5
102
{ACAD_REACTORS
330
2AD
102
}
330
2AD
100
AcDbVisualStyle
  2
3D Hidden
 70
     6
 71
     1
 72
     2
 73
     2
 90
        0
 40
-0.6
 41
-30.0
 62
     5
 63
     7
 74
     2
 91
        2
 64
     7
 65
   257
 75
     2
175
     1
 42
40.0
 92
        0
 66
   257
 43
1.0
 76
     1
 77
     6
 78
     2
 67
     7
 79
     3
170
     0
171
     0
290
     0
174
     0
 93
        1
 44
0.0
173
     0
291
     0
 45
0.0
1001
ACAD
1000
AcDbSavedByObjectVersion
1070
     0
  0
VISUALSTYLE
  5
2B4
102
{ACAD_REACTORS
330
2AD
102
}
330
2AD
100
AcDbVisualStyle
  2
3dWireframe
 70
     5
 71
     0
 72
     2
 73
     0
 90
        0
 40
-0.6
 41
-30.0
 62
     5
 63
     7
 74
     1
 91
        4
 64
     7
 65
   257
 75
     1
175
     1
 42
1.0
 92
        0
 66
   257
 43
1.0
 76
     1
 77
     6
 78
     2
 67
     7
 79
     5
170
     0
171
     0
290
     0
174
     0
 93
        1
 44
0.0
173
     0
291
     0
 45
0.0
1001
ACAD
1000
AcDbSavedByObjectVersion
1070
     0
  0
VISUALSTYLE
  5
2B2
102
{ACAD_REACTORS
330
2AD
102
}
330
2AD
100
AcDbVisualStyle
  2
Basic
 70
     7
 71
     1
 72
     0
 73
     1
 90
        0
 40
-0.6
 41
-30.0
 62
     5
 63
     7
 74
     0
 91
        4
 64
     7
 65
   257
 75
     1
175
     1
 42
1.0
 92
        8
 66
     7
 43
1.0
 76
     1
 77
     6
 78
     2
 67
     7
 79
     5
170
     0
171
     0
290
     0
174
     0
 93
        1
 44
0.0
173
     0
291
     1
 45
0.0
1001
ACAD
1000
AcDbSavedByObjectVersion
1070
     0
  0
VISUALSTYLE
  5
2B9
102
{ACAD_REACTORS
330
2AD
102
}
330
2AD
100
AcDbVisualStyle
  2
Brighten
 70
    12
 71
     2
 72
     2
 73
     0
 90
        0
 40
-0.6
 41
-30.0
 62
     5
 63
     7
 74
     1
 91
        4
 64
     7
 65
   257
 75
     1
175
     1
 42
1.0
 92
        8
 66
     7
 43
1.0
 76
     1
 77
     6
 78
     2
 67
     7
 79
     5
170
     0
171
     0
290
     0
174
     0
 93
        1
 44
50.0
173
     0
291
     1
 45
0.0
1001
ACAD
1000
AcDbSavedByObjectVersion
1070
     0
  0
VISUALSTYLE
  5
2BD
102
{ACAD_REACTORS
330
2AD
102
}
330
2AD
100
AcDbVisualStyle
  2
ColorChange
 70
    16
 71
     2
 72
     2
 73
     3
 90
        0
 40
-0.6
 41
-30.0
 62
     5
 63
     8
 74
     1
 91
        4
 64
     7
 65
   257
 75
     1
175
     1
 42
1.0
 92
        8
 66
     8
 43
1.0
 76
     1
 77
     6
 78
     2
 67
     7
 79
     5
170
     0
171
     0
290
     0
174
     0
 93
        1
 44
0.0
173
     0
291
     1
 45
0.0
1001
ACAD
1000
AcDbSavedByObjectVersion
1070
     0
  0
VISUALSTYLE
  5
2B6
102
{ACAD_REACTORS
330
2AD
102
}
330
2AD
100
AcDbVisualStyle
  2
Conceptual
 70
     9
 71
     3
 72
     2
 73
     0
 90
        0
 40
-0.6
 41
-30.0
 62
     5
 63
     7
 74
     2
 91
        2
 64
     7
 65
   257
 75
     1
175
     1
 42
40.0
 92
        8
 66
     7
 43
1.0
 76
     1
 77
     6
 78
     2
 67
     7
 79
     3
170
     0
171
     0
290
     0
174
     0
 93
        1
 44
0.0
173
     0
291
     0
 45
0.0
1001
ACAD
1000
AcDbSavedByObjectVersion
1070
     0
  0
VISUALSTYLE
  5
2B8
102
{ACAD_REACTORS
330
2AD
102
}
330
2AD
100
AcDbVisualStyle
  2
Dim
 70
    11
 71
     2
 72
     2
 73
     0
 90
        0
 40
-0.6
 41
-30.0
 62
     5
 63
     7
 74
     1
 91
        4
 64
     7
 65
   257
 75
     1
175
     1
 42
1.0
 92
        8
 66
     7
 43
1.0
 76
     1
 77
     6
 78
     2
 67
     7
 79
     5
170
     0
171
     0
290
     0
174
     0
 93
        1
 44
-50.0
173
     0
291
     1
 45
0.0
1001
ACAD
1000
AcDbSavedByObjectVersion
1070
     0
  0
VISUALSTYLE
  5
2BC
102
{ACAD_REACTORS
330
2AD
102
}
330
2AD
100
AcDbVisualStyle
  2
Facepattern
 70
    15
 71
     2
 72
     2
 73
     0
 90
        0
 40
-0.6
 41
-30.0
 62
     5
 63
     7
 74
     1
 91
        4
 64
     7
 65
   257
 75
     1
175
     1
 42
1.0
 92
        8
 66
     7
 43
1.0
 76
     1
 77
     6
 78
     2
 67
     7
 79
     5
170
     0
171
     0
290
     0
174
     0
 93
        1
 44
0.0
173
     0
291
     1
 45
0.0
1001
ACAD
1000
AcDbSavedByObjectVersion
1070
     0
  0
VISUALSTYLE
  5
2AE
102
{ACAD_REACTORS
330
2AD
102
}
330
2AD
100
AcDbVisualStyle
  2
Flat
 70
     0
 71
     2
 72
     1
 73
     1
 90
        2
 40
-0.6
 41
30.0
 62
     5
 63
     7
 74
     0
 91
        4
 64
     7
 65
   257
 75
     1
175
     1
 42
1.0
 92
        8
 66
     7
 43
1.0
 76
     1
 77
     6
 78
     2
 67
     7
 79
     5
170
     0
171
     0
290
     0
174
     0
 93
       13
 44
0.0
173
     0
291
     1
 45
0.0
1001
ACAD
1000
AcDbSavedByObjectVersion
1070
     0
  0
VISUALSTYLE
  5
2AF
102
{ACAD_REACTORS
330
2AD
102
}
330
2AD
100
AcDbVisualStyle
  2
FlatWithEdges
 70
     1
 71
     2
 72
     1
 73
     1
 90
        2
 40
-0.6
 41
30.0
 62
     5
 63
     7
 74
     1
 91
        4
 64
     7
 65
   257
 75
     1
175
     1
 42
1.0
 92
        0
 66
   257
 43
1.0
 76
     1
 77
     6
 78
     2
 67
     7
 79
     5
170
     0
171
     0
290
     0
174
     0
 93
       13
 44
0.0
173
     0
291
     1
 45
0.0
1001
ACAD
1000
AcDbSavedByObjectVersion
1070
     0
  0
VISUALSTYLE
  5
2B0
102
{ACAD_REACTORS
330
2AD
102
}
330
2AD
100
AcDbVisualStyle
  2
Gouraud
 70
     2
 71
     2
 72
     2
 73
     1
 90
        2
 40
-0.6
 41
30.0
 62
     5
 63
     7
 74
     0
 91
        4
 64
     7
 65
   257
 75
     1
175
     1
 42
1.0
 92
        0
 66
     7
 43
1.0
 76
     1
 77
     6
 78
     2
 67
     7
 79
     5
170
     0
171
     0
290
     0
174
     0
 93
       13
 44
0.0
173
     0
291
     1
 45
0.0
1001
ACAD
1000
AcDbSavedByObjectVersion
1070
     0
  0
VISUALSTYLE
  5
2B1
102
{ACAD_REACTORS
330
2AD
102
}
330
2AD
100
AcDbVisualStyle
  2
GouraudWithEdges
 70
     3
 71
     2
 72
     2
 73
     1
 90
        2
 40
-0.6
 41
30.0
 62
     5
 63
     7
 74
     1
 91
        4
 64
     7
 65
   257
 75
     1
175
     1
 42
1.0
 92
        0
 66
   257
 43
1.0
 76
     1
 77
     6
 78
     2
 67
     7
 79
     5
170
     0
171
     0
290
     0
174
     0
 93
       13
 44
0.0
173
     0
291
     1
 45
0.0
1001
ACAD
1000
AcDbSavedByObjectVersion
1070
     0
  0
VISUALSTYLE
  5
2BB
102
{ACAD_REACTORS
330
2AD
102
}
330
2AD
100
AcDbVisualStyle
  2
Linepattern
 70
    14
 71
     2
 72
     2
 73
     0
 90
        0
 40
-0.6
 41
-30.0
 62
     5
 63
     7
 74
     1
 91
        4
 64
     7
 65
   257
 75
     7
175
     7
 42
1.0
 92
        8
 66
     7
 43
1.0
 76
     1
 77
     6
 78
     2
 67
     7
 79
     5
170
     0
171
     0
290
     0
174
     0
 93
        1
 44
0.0
173
     0
291
     1
 45
0.0
1001
ACAD
1000
AcDbSavedByObjectVersion
1070
     0
  0
VISUALSTYLE
  5
2B7
102
{ACAD_REACTORS
330
2AD
102
}
330
2AD
100
AcDbVisualStyle
  2
Realistic
 70
     8
 71
     2
 72
     2
 73
     0
 90
        0
 40
-0.6
 41
-30.0
 62
     5
 63
     7
 74
     1
 91
        0
 64
     7
 65
   257
 75
     1
175
     1
 42
1.0
 92
        8
 66
     8
 43
1.0
 76
     1
 77
     6
 78
     2
 67
     7
 79
     5
170
     0
171
     0
290
     0
174
     0
 93
       13
 44
0.0
173
     0
291
     0
 45
0.0
1001
ACAD
1000
AcDbSavedByObjectVersion
1070
     0
  0
VISUALSTYLE
  5
2BA
102
{ACAD_REACTORS
330
2AD
102
}
330
2AD
100
AcDbVisualStyle
  2
Thicken
 70
    13
 71
     2
 72
     2
 73
     0
 90
        0
 40
-0.6
 41
-30.0
 62
     5
 63
     7
 74
     1
 91
        4
 64
     7
 65
   257
 75
     1
175
     1
 42
1.0
 92
       12
 66
     7
 43
1.0
 76
     1
 77
     6
 78
     2
 67
     7
 79
     5
170
     0
171
     0
290
     0
174
     0
 93
        1
 44
0.0
173
     0
291
     1
 45
0.0
1001
ACAD
1000
AcDbSavedByObjectVersion
1070
     0
  0
DICTIONARYVAR
  5
397
102
{ACAD_REACTORS
330
13A
102
}
330
13A
100
DictionaryVariables
280
     0
  1
STANDARD
  0
DICTIONARYVAR
  5
13B
102
{ACAD_REACTORS
330
13A
102
}
330
13A
100
DictionaryVariables
280
     0
  1
1
  0
DICTIONARYVAR
  5
399
102
{ACAD_REACTORS
330
13A
102
}
330
13A
100
DictionaryVariables
280
     0
  1
0
  0
DICTIONARYVAR
  5
398
102
{ACAD_REACTORS
330
13A
102
}
330
13A
100
DictionaryVariables
280
     0
  1
127
  0
DICTIONARY
  5
39D
330
DC
100
AcDbDictionary
280
     1
281
     1
  3
ACAD_XREC_ROUNDTRIP
360
39E
  0
DICTIONARY
  5
39B
330
DB
100
AcDbDictionary
280
     1
281
     1
  3
ACAD_XREC_ROUNDTRIP
360
39C
  0
DICTIONARY
  5
3A1
330
2AB
100
AcDbDictionary
280
     1
281
     1
  3
ACAD_XREC_ROUNDTRIP
360
3A2
  0
DICTIONARY
  5
39F
330
2AA
100
AcDbDictionary
280
     1
281
     1
  3
ACAD_XREC_ROUNDTRIP
360
3A0
  0
DICTIONARY
  5
3A3
330
2AC
100
AcDbDictionary
280
     1
281
     1
  3
ACAD_XREC_ROUNDTRIP
360
3A4
  0
DICTIONARY
  5
3A5
330
2C0
100
AcDbDictionary
280
     1
281
     1
  3
ACAD_XREC_ROUNDTRIP
360
3A6
  0
XRECORD
  5
39E
102
{ACAD_REACTORS
330
39D
102
}
330
39D
100
AcDbXrecord
280
     1
102
SHADEPLOT
 70
     0
102
SHADEPLOTRESLEVEL
 70
     2
102
SHADEPLOTCUSTOMDPI
 70
   300
  0
XRECORD
  5
39C
102
{ACAD_REACTORS
330
39B
102
}
330
39B
100
AcDbXrecord
280
     1
102
SHADEPLOT
 70
     0
102
SHADEPLOTRESLEVEL
 70
     2
102
SHADEPLOTCUSTOMDPI
 70
   300
  0
XRECORD
  5
3A2
102
{ACAD_REACTORS
330
3A1
102
}
330
3A1
100
AcDbXrecord
280
     1
102
MATERIAL
148
0.0
149
0.0
149
0.0
 93
        0
 94
       63
282
     0
 72
     1
 77
     1
171
     1
175
     1
179
     1
273
     0
  0
XRECORD
  5
3A0
102
{ACAD_REACTORS
330
39F
102
}
330
39F
100
AcDbXrecord
280
     1
102
MATERIAL
148
0.0
149
0.0
149
0.0
 93
        0
 94
       63
282
     0
 72
     1
 77
     1
171
     1
175
     1
179
     1
273
     0
  0
XRECORD
  5
3A4
102
{ACAD_REACTORS
330
3A3
102
}
330
3A3
100
AcDbXrecord
280
     1
102
MATERIAL
148
0.0
149
0.0
149
0.0
 93
        0
 94
       63
282
     0
 72
     1
 77
     1
171
     1
175
     1
179
     1
273
     0
  0
XRECORD
  5
3A6
102
{ACAD_REACTORS
330
3A5
102
}
330
3A5
100
AcDbXrecord
280
     1
102
ACAD_ROUNDTRIP_PRE2007_TABLESTYLE
 90
      512
 91
        0
  1

 92
      512
 93
        0
  2

 94
      512
 95
        0
  3

  0
ENDSEC
  0
EOF
