  0
SECTION
  2
HEADER
  9
$ACADVER
  1
AC1014
  9
$ACADMAINTVER
 70
     9
  9
$DWGCODEPAGE
  3
ANSI_1252
  9
$INSBASE
 10
20.97514061331112
 20
5.18503407923086
 30
0.0
  9
$EXTMIN
 10
18.05973588242209
 20
3.91829483395319
 30
0.0
  9
$EXTMAX
 10
30.9291509574562
 20
8.834472161783907
 30
0.0
  9
$LIMMIN
 10
0.0
 20
0.0
  9
$LIMMAX
 10
36.0
 20
36.0
  9
$ORTHOMODE
 70
     1
  9
$REGENMODE
 70
     1
  9
$FILLMODE
 70
     1
  9
$QTEXTMODE
 70
     0
  9
$MIRRTEXT
 70
     1
  9
$DRAGMODE
 70
     0
  9
$LTSCALE
 40
1.0
  9
$OSMODE
 70
    37
  9
$ATTMODE
 70
     1
  9
$TEXTSIZE
 40
0.2
  9
$TRACEWID
 40
0.05
  9
$TEXTSTYLE
  7
STANDARD
  9
$CLAYER
  8
ADP1DETAIL
  9
$CELTYPE
  6
CONTINUOUS
  9
$CECOLOR
 62
   256
  9
$CELTSCALE
 40
1.0
  9
$DELOBJ
 70
     1
  9
$DISPSILH
 70
     0
  9
$DIMSCALE
 40
1.0
  9
$DIMASZ
 40
0.125
  9
$DIMEXO
 40
0.0625
  9
$DIMDLI
 40
0.38
  9
$DIMRND
 40
0.0
  9
$DIMDLE
 40
0.0
  9
$DIMEXE
 40
0.18
  9
$DIMTP
 40
0.0
  9
$DIMTM
 40
0.0
  9
$DIMTXT
 40
0.125
  9
$DIMCEN
 40
0.1875
  9
$DIMTSZ
 40
0.125
  9
$DIMTOL
 70
     0
  9
$DIMLIM
 70
     0
  9
$DIMTIH
 70
     0
  9
$DIMTOH
 70
     0
  9
$DIMSE1
 70
     0
  9
$DIMSE2
 70
     0
  9
$DIMTAD
 70
     0
  9
$DIMZIN
 70
     3
  9
$DIMBLK
  1

  9
$DIMASO
 70
     1
  9
$DIMSHO
 70
     1
  9
$DIMPOST
  1

  9
$DIMAPOST
  1

  9
$DIMALT
 70
     0
  9
$DIMALTD
 70
     1
  9
$DIMALTF
 40
25.4
  9
$DIMLFAC
 40
1.0
  9
$DIMTOFL
 70
     0
  9
$DIMTVP
 40
0.0
  9
$DIMTIX
 70
     0
  9
$DIMSOXD
 70
     0
  9
$DIMSAH
 70
     0
  9
$DIMBLK1
  1

  9
$DIMBLK2
  1

  9
$DIMSTYLE
  2
STANDARD
  9
$DIMCLRD
 70
     0
  9
$DIMCLRE
 70
     0
  9
$DIMCLRT
 70
     0
  9
$DIMTFAC
 40
1.0
  9
$DIMGAP
 40
0.125
  9
$DIMJUST
 70
     0
  9
$DIMSD1
 70
     0
  9
$DIMSD2
 70
     0
  9
$DIMTOLJ
 70
     1
  9
$DIMTZIN
 70
     0
  9
$DIMALTZ
 70
     0
  9
$DIMALTTZ
 70
     0
  9
$DIMFIT
 70
     3
  9
$DIMUPT
 70
     0
  9
$DIMUNIT
 70
     2
  9
$DIMDEC
 70
     4
  9
$DIMTDEC
 70
     4
  9
$DIMALTU
 70
     2
  9
$DIMALTTD
 70
     2
  9
$DIMTXSTY
  7
STANDARD
  9
$DIMAUNIT
 70
     0
  9
$LUNITS
 70
     5
  9
$LUPREC
 70
     4
  9
$SKETCHINC
 40
0.1
  9
$FILLETRAD
 40
0.062
  9
$AUNITS
 70
     0
  9
$AUPREC
 70
     0
  9
$MENU
  1
acad
  9
$ELEVATION
 40
0.0
  9
$PELEVATION
 40
0.0
  9
$THICKNESS
 40
0.0
  9
$LIMCHECK
 70
     0
  9
$BLIPMODE
 70
     0
  9
$CHAMFERA
 40
0.0
  9
$CHAMFERB
 40
0.0
  9
$CHAMFERC
 40
0.0
  9
$CHAMFERD
 40
0.0
  9
$SKPOLY
 70
     0
  9
$TDCREATE
 40
2450382.686217396
  9
$TDUPDATE
 40
2452297.067731840
  9
$TDINDWG
 40
0.0805621065
  9
$TDUSRTIMER
 40
0.0805621065
  9
$USRTIMER
 70
     1
  9
$ANGBASE
 50
0.0
  9
$ANGDIR
 70
     0
  9
$PDMODE
 70
     0
  9
$PDSIZE
 40
0.0
  9
$PLINEWID
 40
0.0
  9
$COORDS
 70
     2
  9
$SPLFRAME
 70
     0
  9
$SPLINETYPE
 70
     6
  9
$SPLINESEGS
 70
     8
  9
$ATTDIA
 70
     0
  9
$ATTREQ
 70
     1
  9
$HANDLING
 70
 22529
  9
$HANDSEED
  5
281
  9
$SURFTAB1
 70
     6
  9
$SURFTAB2
 70
     6
  9
$SURFTYPE
 70
     6
  9
$SURFU
 70
     6
  9
$SURFV
 70
     6
  9
$UCSNAME
  2

  9
$UCSORG
 10
0.0
 20
0.0
 30
0.0
  9
$UCSXDIR
 10
1.0
 20
0.0
 30
0.0
  9
$UCSYDIR
 10
0.0
 20
1.0
 30
0.0
  9
$PUCSNAME
  2

  9
$PUCSORG
 10
0.0
 20
0.0
 30
0.0
  9
$PUCSXDIR
 10
1.0
 20
0.0
 30
0.0
  9
$PUCSYDIR
 10
0.0
 20
1.0
 30
0.0
  9
$USERI1
 70
     0
  9
$USERI2
 70
     0
  9
$USERI3
 70
     0
  9
$USERI4
 70
     0
  9
$USERI5
 70
     0
  9
$USERR1
 40
0.0
  9
$USERR2
 40
0.0
  9
$USERR3
 40
0.0
  9
$USERR4
 40
0.0
  9
$USERR5
 40
0.0
  9
$WORLDVIEW
 70
     1
  9
$SHADEDGE
 70
     3
  9
$SHADEDIF
 70
    70
  9
$TILEMODE
 70
     1
  9
$MAXACTVP
 70
    15
  9
$PINSBASE
 10
0.0
 20
0.0
 30
0.0
  9
$PLIMCHECK
 70
     0
  9
$PEXTMIN
 10
1.000000000000000E+20
 20
1.000000000000000E+20
 30
1.000000000000000E+20
  9
$PEXTMAX
 10
-1.000000000000000E+20
 20
-1.000000000000000E+20
 30
-1.000000000000000E+20
  9
$PLIMMIN
 10
0.0
 20
0.0
  9
$PLIMMAX
 10
12.0
 20
9.0
  9
$UNITMODE
 70
     0
  9
$VISRETAIN
 70
     0
  9
$PLINEGEN
 70
     0
  9
$PSLTSCALE
 70
     1
  9
$TREEDEPTH
 70
  3020
  9
$PICKSTYLE
 70
     1
  9
$CMLSTYLE
  2
STANDARD
  9
$CMLJUST
 70
     0
  9
$CMLSCALE
 40
1.0
  9
$PROXYGRAPHICS
 70
     1
  9
$MEASUREMENT
 70
     0
  0
ENDSEC
  0
SECTION
  2
CLASSES
  0
CLASS
  1
ACDBDICTIONARYWDFLT
  2
AcDbDictionaryWithDefault
  3
AutoCAD 2000
 90
        0
280
     0
281
     0
  0
CLASS
  1
ACDBPLACEHOLDER
  2
AcDbPlaceHolder
  3
AutoCAD 2000
 90
        0
280
     0
281
     0
  0
CLASS
  1
LAYOUT
  2
AcDbLayout
  3
AutoCAD 2000
 90
        0
280
     0
281
     0
  0
CLASS
  1
DICTIONARYVAR
  2
AcDbDictionaryVar
  3
AutoCAD 2000
 90
        0
280
     0
281
     0
  0
CLASS
  1
LONG_TRANSACTION
  2
AcDbLongTransaction
  3
AutoCAD 2000
 90
        0
280
     0
281
     0
  0
CLASS
  1
LWPOLYLINE
  2
AcDbPolyline
  3
AutoCAD 2000
 90
        0
280
     0
281
     1
  0
CLASS
  1
HATCH
  2
AcDbHatch
  3
AutoCAD 2000
 90
        0
280
     0
281
     1
  0
CLASS
  1
XRECORD
  2
AcDbXrecord
  3
AutoCAD 2000
 90
        0
280
     0
281
     0
  0
CLASS
  1
LONG_TRANSACTION
  2
AcDbLongTransaction
  3
AutoCAD 2000
 90
        0
280
     0
281
     0
  0
CLASS
  1
LWPOLYLINE
  2
AcDbPolyline
  3
AutoCAD 2000
 90
        0
280
     0
281
     1
  0
CLASS
  1
HATCH
  2
AcDbHatch
  3
AutoCAD 2000
 90
        0
280
     0
281
     1
  0
CLASS
  1
XRECORD
  2
AcDbXrecord
  3
AutoCAD 2000
 90
        0
280
     0
281
     0
  0
CLASS
  1
LONG_TRANSACTION
  2
AcDbLongTransaction
  3
AutoCAD 2000
 90
        0
280
     0
281
     0
  0
CLASS
  1
LWPOLYLINE
  2
AcDbPolyline
  3
AutoCAD 2000
 90
        0
280
     0
281
     1
  0
CLASS
  1
HATCH
  2
AcDbHatch
  3
AutoCAD 2000
 90
        0
280
     0
281
     1
  0
CLASS
  1
XRECORD
  2
AcDbXrecord
  3
AutoCAD 2000
 90
        0
280
     0
281
     0
  0
CLASS
  1
LONG_TRANSACTION
  2
AcDbLongTransaction
  3
AutoCAD 2000
 90
        0
280
     0
281
     0
  0
CLASS
  1
LWPOLYLINE
  2
AcDbPolyline
  3
AutoCAD 2000
 90
        0
280
     0
281
     1
  0
CLASS
  1
HATCH
  2
AcDbHatch
  3
AutoCAD 2000
 90
        0
280
     0
281
     1
  0
CLASS
  1
XRECORD
  2
AcDbXrecord
  3
AutoCAD 2000
 90
        0
280
     0
281
     0
  0
CLASS
  1
LONG_TRANSACTION
  2
AcDbLongTransaction
  3
AutoCAD 2000
 90
        0
280
     0
281
     0
  0
CLASS
  1
LWPOLYLINE
  2
AcDbPolyline
  3
AutoCAD 2000
 90
        0
280
     0
281
     1
  0
CLASS
  1
HATCH
  2
AcDbHatch
  3
AutoCAD 2000
 90
        0
280
     0
281
     1
  0
CLASS
  1
XRECORD
  2
AcDbXrecord
  3
AutoCAD 2000
 90
        0
280
     0
281
     0
  0
CLASS
  1
LONG_TRANSACTION
  2
AcDbLongTransaction
  3
AutoCAD 2000
 90
        0
280
     0
281
     0
  0
CLASS
  1
LWPOLYLINE
  2
AcDbPolyline
  3
AutoCAD 2000
 90
        0
280
     0
281
     1
  0
CLASS
  1
HATCH
  2
AcDbHatch
  3
AutoCAD 2000
 90
        0
280
     0
281
     1
  0
CLASS
  1
XRECORD
  2
AcDbXrecord
  3
AutoCAD 2000
 90
        0
280
     0
281
     0
  0
CLASS
  1
LONG_TRANSACTION
  2
AcDbLongTransaction
  3
AutoCAD 2000
 90
        0
280
     0
281
     0
  0
CLASS
  1
LWPOLYLINE
  2
AcDbPolyline
  3
AutoCAD 2000
 90
        0
280
     0
281
     1
  0
CLASS
  1
HATCH
  2
AcDbHatch
  3
AutoCAD 2000
 90
        0
280
     0
281
     1
  0
CLASS
  1
XRECORD
  2
AcDbXrecord
  3
AutoCAD 2000
 90
        0
280
     0
281
     0
  0
ENDSEC
  0
SECTION
  2
TABLES
  0
TABLE
  2
VPORT
  5
13
330
0
100
AcDbSymbolTable
 70
     2
  0
VPORT
  5
25E
330
13
100
AcDbSymbolTableRecord
100
AcDbViewportTableRecord
  2
*ACTIVE
 70
     0
 10
0.0
 20
0.0
 11
1.0
 21
1.0
 12
24.49429330427001
 22
6.376464914037461
 13
0.0
 23
0.0
 14
0.5740882589684922
 24
0.5740882589684922
 15
0.5
 25
0.5
 16
0.0
 26
0.0
 36
1.0
 17
0.0
 27
0.0
 37
0.0
 40
8.236137295938561
 41
1.570528967254408
 42
50.0
 43
0.0
 44
0.0
 50
0.0
 51
0.0
 71
     0
 72
   100
 73
     1
 74
     0
 75
     0
 76
     0
 77
     0
 78
     0
  0
ENDTAB
  0
TABLE
  2
LTYPE
  5
F
330
0
100
AcDbSymbolTable
 70
     2
  0
LTYPE
  5
10
330
F
100
AcDbSymbolTableRecord
100
AcDbLinetypeTableRecord
  2
BYBLOCK
 70
     0
  3

 72
    65
 73
     0
 40
0.0
  0
LTYPE
  5
6
330
F
100
AcDbSymbolTableRecord
100
AcDbLinetypeTableRecord
  2
BYLAYER
 70
     0
  3

 72
    65
 73
     0
 40
0.0
  0
LTYPE
  5
5
330
F
100
AcDbSymbolTableRecord
100
AcDbLinetypeTableRecord
  2
CONTINUOUS
 70
     0
  3
Solid line
 72
    65
 73
     0
 40
0.0
  0
LTYPE
  5
23
330
F
100
AcDbSymbolTableRecord
100
AcDbLinetypeTableRecord
  2
HIDDEN2
 70
     0
  3
_ _ _ _ _ _ _ _ _ _ _ _ _ _ _ _ _ _ _ _ _ _ _ _
 72
    65
 73
     2
 40
0.1875
 49
0.125
 74
     0
 49
-0.0625
 74
     0
  0
ENDTAB
  0
TABLE
  2
LAYER
  5
B
330
0
100
AcDbSymbolTable
 70
     5
  0
LAYER
  5
C
330
B
100
AcDbSymbolTableRecord
100
AcDbLayerTableRecord
  2
0
 70
     0
 62
     7
  6
CONTINUOUS
  0
LAYER
  5
4
330
B
100
AcDbSymbolTableRecord
100
AcDbLayerTableRecord
  2
ADP1DETAIL
 70
     0
 62
     7
  6
CONTINUOUS
  0
LAYER
  5
2F
330
B
100
AcDbSymbolTableRecord
100
AcDbLayerTableRecord
  2
DEFPOINTS
 70
     0
 62
     7
  6
CONTINUOUS
  0
LAYER
  5
27
330
B
100
AcDbSymbolTableRecord
100
AcDbLayerTableRecord
  2
ADPDIM
 70
     0
 62
     3
  6
CONTINUOUS
  0
LAYER
  5
22
330
B
100
AcDbSymbolTableRecord
100
AcDbLayerTableRecord
  2
ADP2DETAIL
 70
     0
 62
     5
  6
CONTINUOUS
  0
ENDTAB
  0
TABLE
  2
STYLE
  5
D
330
0
100
AcDbSymbolTable
 70
     2
  0
STYLE
  5
E
330
D
100
AcDbSymbolTableRecord
100
AcDbTextStyleTableRecord
  2
STANDARD
 70
     0
 40
0.0
 41
1.0
 50
0.0
 71
     0
 42
0.2
  3
txt
  4

  0
STYLE
  5
BC
330
D
100
AcDbSymbolTableRecord
100
AcDbTextStyleTableRecord
  2
ARIAL_WIDE
 70
     0
 40
0.0
 41
1.25
 50
0.0
 71
     0
 42
0.2
  3
ARIAL.TTF
  4

1001
ACAD
1000
Arial
1071
       34
  0
ENDTAB
  0
TABLE
  2
VIEW
  5
11
330
0
100
AcDbSymbolTable
 70
     0
  0
ENDTAB
  0
TABLE
  2
UCS
  5
12
330
0
100
AcDbSymbolTable
 70
     0
  0
ENDTAB
  0
TABLE
  2
APPID
  5
15
330
0
100
AcDbSymbolTable
 70
     1
  0
APPID
  5
16
330
15
100
AcDbSymbolTableRecord
100
AcDbRegAppTableRecord
  2
ACAD
 70
     0
  0
ENDTAB
  0
TABLE
  2
DIMSTYLE
  5
17
330
0
100
AcDbSymbolTable
 70
     1
  0
DIMSTYLE
105
1D
330
17
100
AcDbSymbolTableRecord
100
AcDbDimStyleTableRecord
  2
STANDARD
 70
     0
  3

  4

  5

  6

  7

 40
1.0
 41
0.18
 42
0.0625
 43
0.38
 44
0.18
 45
0.0
 46
0.0
 47
0.0
 48
0.0
140
0.18
141
0.09
142
0.0
143
25.4
144
1.0
145
0.0
146
1.0
147
0.09
 71
     0
 72
     0
 73
     1
 74
     1
 75
     0
 76
     0
 77
     0
 78
     0
170
     0
171
     2
172
     0
173
     0
174
     0
175
     0
176
     0
177
     0
178
     0
270
     2
271
     4
272
     4
273
     2
274
     2
340
E
275
     0
280
     0
281
     0
282
     0
283
     1
284
     0
285
     0
286
     0
287
     3
288
     0
  0
ENDTAB
  0
TABLE
  2
BLOCK_RECORD
  5
1
330
0
100
AcDbSymbolTable
 70
     5
  0
BLOCK_RECORD
  5
2
102
{ACAD_XDICTIONARY
360
10F
102
}
330
1
100
AcDbSymbolTableRecord
100
AcDbBlockTableRecord
  2
*MODEL_SPACE
  0
BLOCK_RECORD
  5
8
102
{ACAD_XDICTIONARY
360
111
102
}
330
1
100
AcDbSymbolTableRecord
100
AcDbBlockTableRecord
  2
*PAPER_SPACE
  0
BLOCK_RECORD
  5
62
330
1
100
AcDbSymbolTableRecord
100
AcDbBlockTableRecord
  2
*D0
  0
BLOCK_RECORD
  5
28
330
1
100
AcDbSymbolTableRecord
100
AcDbBlockTableRecord
  2
*D1
  0
BLOCK_RECORD
  5
7F
330
1
100
AcDbSymbolTableRecord
100
AcDbBlockTableRecord
  2
*D2
  0
BLOCK_RECORD
  5
34
330
1
100
AcDbSymbolTableRecord
100
AcDbBlockTableRecord
  2
*D3
  0
BLOCK_RECORD
  5
8E
330
1
100
AcDbSymbolTableRecord
100
AcDbBlockTableRecord
  2
*D4
  0
ENDTAB
  0
ENDSEC
  0
SECTION
  2
BLOCKS
  0
BLOCK
  5
3
330
2
100
AcDbEntity
  8
0
100
AcDbBlockBegin
  2
*MODEL_SPACE
 70
     0
 10
0.0
 20
0.0
 30
0.0
  3
*MODEL_SPACE
  1

  0
ENDBLK
  5
7
330
2
100
AcDbEntity
  8
0
100
AcDbBlockEnd
  0
BLOCK
  5
9
330
8
100
AcDbEntity
 67
     1
  8
0
100
AcDbBlockBegin
  2
*PAPER_SPACE
 70
     0
 10
0.0
 20
0.0
 30
0.0
  3
*PAPER_SPACE
  1

  0
ENDBLK
  5
A
330
8
100
AcDbEntity
 67
     1
  8
0
100
AcDbBlockEnd
  0
BLOCK
  5
6D
330
62
100
AcDbEntity
  8
0
100
AcDbBlockBegin
  2
*D0
 70
     1
 10
0.0
 20
0.0
 30
0.0
  3
*D0
  1

  0
LINE
  5
63
330
62
100
AcDbEntity
  8
0
  6
BYBLOCK
 62
     0
100
AcDbLine
 10
20.97514061331112
 20
8.24753407923086
 30
0.0
 11
20.97514061331112
 21
8.677534079230859
 31
0.0
  0
LINE
  5
64
330
62
100
AcDbEntity
  8
0
  6
BYBLOCK
 62
     0
100
AcDbLine
 10
23.22514061331113
 20
7.93503407923086
 30
0.0
 11
23.22514061331113
 21
8.677534079230859
 31
0.0
  0
LINE
  5
65
330
62
100
AcDbEntity
  8
0
  6
BYBLOCK
 62
     0
100
AcDbLine
 10
20.97514061331112
 20
8.49753407923086
 30
0.0
 11
21.70430727997779
 21
8.49753407923086
 31
0.0
  0
LINE
  5
66
330
62
100
AcDbEntity
  8
0
  6
BYBLOCK
 62
     0
100
AcDbLine
 10
23.22514061331113
 20
8.49753407923086
 30
0.0
 11
22.49597394664446
 21
8.49753407923086
 31
0.0
  0
LINE
  5
67
330
62
100
AcDbEntity
  8
0
  6
BYBLOCK
 62
     0
100
AcDbLine
 10
20.85014061331113
 20
8.37253407923086
 30
0.0
 11
21.10014061331113
 21
8.62253407923086
 31
0.0
  0
LINE
  5
68
330
62
100
AcDbEntity
  8
0
  6
BYBLOCK
 62
     0
100
AcDbLine
 10
23.10014061331112
 20
8.37253407923086
 30
0.0
 11
23.35014061331113
 21
8.62253407923086
 31
0.0
  0
TEXT
  5
69
330
62
100
AcDbEntity
  8
0
  6
BYBLOCK
 62
     0
100
AcDbText
 10
21.82930727997779
 20
8.43503407923086
 30
0.0
 40
0.125
  1
2 1/4
 72
     1
 11
22.10014061331113
 21
8.49753407923086
 31
0.0
100
AcDbText
 73
     2
  0
POINT
  5
6A
330
62
100
AcDbEntity
  8
DEFPOINTS
  6
BYBLOCK
 62
     0
100
AcDbPoint
 10
20.97514061331112
 20
8.18503407923086
 30
0.0
  0
POINT
  5
6B
330
62
100
AcDbEntity
  8
DEFPOINTS
  6
BYBLOCK
 62
     0
100
AcDbPoint
 10
23.22514061331113
 20
7.87253407923086
 30
0.0
  0
POINT
  5
6C
330
62
100
AcDbEntity
  8
DEFPOINTS
  6
BYBLOCK
 62
     0
100
AcDbPoint
 10
23.22514061331113
 20
8.49753407923086
 30
0.0
  0
ENDBLK
  5
6E
330
62
100
AcDbEntity
  8
0
100
AcDbBlockEnd
  0
BLOCK
  5
31
330
28
100
AcDbEntity
  8
0
100
AcDbBlockBegin
  2
*D1
 70
     1
 10
0.0
 20
0.0
 30
0.0
  3
*D1
  1

  0
LINE
  5
29
330
28
100
AcDbEntity
  8
0
  6
BYBLOCK
 62
     0
100
AcDbLine
 10
25.56474817895912
 20
5.672566847319958
 30
0.0
 11
25.37767085896831
 21
5.50672934750447
 31
0.0
  0
LINE
  5
2A
330
28
100
AcDbEntity
  8
0
  6
BYBLOCK
 62
     0
100
AcDbLine
 10
25.55412826887146
 20
5.496109437416804
 30
0.0
 11
25.57536808904679
 21
5.849024257223113
 31
0.0
  0
LINE
  5
2B
330
28
100
AcDbEntity
  8
0
  6
BYBLOCK
 62
     0
100
AcDbLine
 10
26.49971209890405
 20
6.667591846212891
 30
0.0
 11
26.87471209890405
 21
6.667591846212891
 31
0.0
  0
LINE
  5
2C
330
28
100
AcDbEntity
  8
0
  6
BYBLOCK
 62
     0
100
AcDbLine
 10
26.68721209890405
 20
6.480091846212891
 30
0.0
 11
26.68721209890405
 21
6.855091846212891
 31
0.0
  0
TEXT
  5
2D
330
28
100
AcDbEntity
  8
0
  6
BYBLOCK
 62
     0
100
AcDbText
 10
25.16969380726775
 20
5.238843351086112
 30
0.0
 40
0.125
  1
%%c3
 50
41.55586601017847
 72
     1
 11
25.20618331564339
 21
5.354711639340271
 31
0.0
100
AcDbText
 73
     2
  0
POINT
  5
2E
330
28
100
AcDbEntity
  8
DEFPOINTS
  6
BYBLOCK
 62
     0
100
AcDbPoint
 10
25.56474817895912
 20
5.672566847319958
 30
0.0
  0
POINT
  5
30
330
28
100
AcDbEntity
  8
DEFPOINTS
  6
BYBLOCK
 62
     0
100
AcDbPoint
 10
27.80967601884897
 20
7.662616845105826
 30
0.0
  0
ENDBLK
  5
32
330
28
100
AcDbEntity
  8
0
100
AcDbBlockEnd
  0
BLOCK
  5
8A
330
7F
100
AcDbEntity
  8
0
100
AcDbBlockBegin
  2
*D2
 70
     1
 10
0.0
 20
0.0
 30
0.0
  3
*D2
  1

  0
LINE
  5
80
330
7F
100
AcDbEntity
  8
0
  6
BYBLOCK
 62
     0
100
AcDbLine
 10
25.43671209890404
 20
7.889251806126329
 30
0.0
 11
25.43671209890404
 21
8.834472161783907
 31
0.0
  0
LINE
  5
81
330
7F
100
AcDbEntity
  8
0
  6
BYBLOCK
 62
     0
100
AcDbLine
 10
27.93671209890404
 20
7.832706404498212
 30
0.0
 11
27.93671209890404
 21
8.834472161783907
 31
0.0
  0
LINE
  5
82
330
7F
100
AcDbEntity
  8
0
  6
BYBLOCK
 62
     0
100
AcDbLine
 10
25.43671209890404
 20
8.654472161783907
 30
0.0
 11
26.29087876557071
 21
8.654472161783907
 31
0.0
  0
LINE
  5
83
330
7F
100
AcDbEntity
  8
0
  6
BYBLOCK
 62
     0
100
AcDbLine
 10
27.93671209890404
 20
8.654472161783907
 30
0.0
 11
27.08254543223738
 21
8.654472161783907
 31
0.0
  0
LINE
  5
84
330
7F
100
AcDbEntity
  8
0
  6
BYBLOCK
 62
     0
100
AcDbLine
 10
25.31171209890404
 20
8.529472161783907
 30
0.0
 11
25.56171209890404
 21
8.779472161783907
 31
0.0
  0
LINE
  5
85
330
7F
100
AcDbEntity
  8
0
  6
BYBLOCK
 62
     0
100
AcDbLine
 10
27.81171209890404
 20
8.529472161783907
 30
0.0
 11
28.06171209890404
 21
8.779472161783907
 31
0.0
  0
TEXT
  5
86
330
7F
100
AcDbEntity
  8
0
  6
BYBLOCK
 62
     0
100
AcDbText
 10
26.41587876557071
 20
8.591972161783907
 30
0.0
 40
0.125
  1
2 1/2
 72
     1
 11
26.68671209890404
 21
8.654472161783907
 31
0.0
100
AcDbText
 73
     2
  0
POINT
  5
87
330
7F
100
AcDbEntity
  8
DEFPOINTS
  6
BYBLOCK
 62
     0
100
AcDbPoint
 10
25.43671209890404
 20
7.826751806126329
 30
0.0
  0
POINT
  5
88
330
7F
100
AcDbEntity
  8
DEFPOINTS
  6
BYBLOCK
 62
     0
100
AcDbPoint
 10
27.93671209890404
 20
7.770206404498212
 30
0.0
  0
POINT
  5
89
330
7F
100
AcDbEntity
  8
DEFPOINTS
  6
BYBLOCK
 62
     0
100
AcDbPoint
 10
27.93671209890404
 20
8.654472161783907
 30
0.0
  0
ENDBLK
  5
8B
330
7F
100
AcDbEntity
  8
0
100
AcDbBlockEnd
  0
BLOCK
  5
3F
330
34
100
AcDbEntity
  8
0
100
AcDbBlockBegin
  2
*D3
 70
     1
 10
0.0
 20
0.0
 30
0.0
  3
*D3
  1

  0
LINE
  5
35
330
34
100
AcDbEntity
  8
0
  6
BYBLOCK
 62
     0
100
AcDbLine
 10
23.85014061331113
 20
6.68503407923086
 30
0.0
 11
24.40514061331112
 21
6.68503407923086
 31
0.0
  0
LINE
  5
36
330
34
100
AcDbEntity
  8
0
  6
BYBLOCK
 62
     0
100
AcDbLine
 10
23.53764061331113
 20
7.74753407923086
 30
0.0
 11
24.40514061331112
 21
7.74753407923086
 31
0.0
  0
LINE
  5
37
330
34
100
AcDbEntity
  8
0
  6
BYBLOCK
 62
     0
100
AcDbLine
 10
24.22514061331113
 20
6.68503407923086
 30
0.0
 11
24.22514061331113
 21
6.43503407923086
 31
0.0
  0
LINE
  5
38
330
34
100
AcDbEntity
  8
0
  6
BYBLOCK
 62
     0
100
AcDbLine
 10
24.22514061331113
 20
7.74753407923086
 30
0.0
 11
24.22514061331113
 21
7.99753407923086
 31
0.0
  0
LINE
  5
39
330
34
100
AcDbEntity
  8
0
  6
BYBLOCK
 62
     0
100
AcDbLine
 10
24.35014061331113
 20
6.56003407923086
 30
0.0
 11
24.10014061331112
 21
6.81003407923086
 31
0.0
  0
LINE
  5
3A
330
34
100
AcDbEntity
  8
0
  6
BYBLOCK
 62
     0
100
AcDbLine
 10
24.35014061331113
 20
7.62253407923086
 30
0.0
 11
24.10014061331112
 21
7.87253407923086
 31
0.0
  0
TEXT
  5
3B
330
34
100
AcDbEntity
  8
0
  6
BYBLOCK
 62
     0
100
AcDbText
 10
24.28764061331113
 20
8.12253407923086
 30
0.0
 40
0.125
  1
1 1/16
 50
90.0
 72
     1
 11
24.22514061331113
 21
8.414200745897526
 31
0.0
100
AcDbText
 73
     2
  0
POINT
  5
3C
330
34
100
AcDbEntity
  8
DEFPOINTS
  6
BYBLOCK
 62
     0
100
AcDbPoint
 10
23.78764061331112
 20
6.68503407923086
 30
0.0
  0
POINT
  5
3D
330
34
100
AcDbEntity
  8
DEFPOINTS
  6
BYBLOCK
 62
     0
100
AcDbPoint
 10
23.47514061331112
 20
7.74753407923086
 30
0.0
  0
POINT
  5
3E
330
34
100
AcDbEntity
  8
DEFPOINTS
  6
BYBLOCK
 62
     0
100
AcDbPoint
 10
24.22514061331113
 20
7.74753407923086
 30
0.0
  0
ENDBLK
  5
40
330
34
100
AcDbEntity
  8
0
100
AcDbBlockEnd
  0
BLOCK
  5
99
330
8E
100
AcDbEntity
  8
0
100
AcDbBlockBegin
  2
*D4
 70
     1
 10
0.0
 20
0.0
 30
0.0
  3
*D4
  1

  0
LINE
  5
8F
330
8E
100
AcDbEntity
  8
0
  6
BYBLOCK
 62
     0
100
AcDbLine
 10
25.87306683174978
 20
7.781570346295108
 30
0.0
 11
25.87306683174978
 21
8.479019470056108
 31
0.0
  0
LINE
  5
90
330
8E
100
AcDbEntity
  8
0
  6
BYBLOCK
 62
     0
100
AcDbLine
 10
27.49806683174978
 20
7.781570346295108
 30
0.0
 11
27.49806683174978
 21
8.479019470056108
 31
0.0
  0
LINE
  5
91
330
8E
100
AcDbEntity
  8
0
  6
BYBLOCK
 62
     0
100
AcDbLine
 10
25.87306683174978
 20
8.299019470056109
 30
0.0
 11
26.28973349841645
 21
8.299019470056109
 31
0.0
  0
LINE
  5
92
330
8E
100
AcDbEntity
  8
0
  6
BYBLOCK
 62
     0
100
AcDbLine
 10
27.49806683174978
 20
8.299019470056109
 30
0.0
 11
27.08140016508311
 21
8.299019470056109
 31
0.0
  0
LINE
  5
93
330
8E
100
AcDbEntity
  8
0
  6
BYBLOCK
 62
     0
100
AcDbLine
 10
25.74806683174978
 20
8.174019470056109
 30
0.0
 11
25.99806683174978
 21
8.424019470056109
 31
0.0
  0
LINE
  5
94
330
8E
100
AcDbEntity
  8
0
  6
BYBLOCK
 62
     0
100
AcDbLine
 10
27.37306683174978
 20
8.174019470056109
 30
0.0
 11
27.62306683174978
 21
8.424019470056109
 31
0.0
  0
TEXT
  5
95
330
8E
100
AcDbEntity
  8
0
  6
BYBLOCK
 62
     0
100
AcDbText
 10
26.41473349841644
 20
8.236519470056109
 30
0.0
 40
0.125
  1
1 5/8
 72
     1
 11
26.68556683174978
 21
8.299019470056109
 31
0.0
100
AcDbText
 73
     2
  0
POINT
  5
96
330
8E
100
AcDbEntity
  8
DEFPOINTS
  6
BYBLOCK
 62
     0
100
AcDbPoint
 10
25.87306683174978
 20
7.719070346295108
 30
0.0
  0
POINT
  5
97
330
8E
100
AcDbEntity
  8
DEFPOINTS
  6
BYBLOCK
 62
     0
100
AcDbPoint
 10
27.49806683174978
 20
7.719070346295108
 30
0.0
  0
POINT
  5
98
330
8E
100
AcDbEntity
  8
DEFPOINTS
  6
BYBLOCK
 62
     0
100
AcDbPoint
 10
27.49806683174978
 20
8.299019470056109
 30
0.0
  0
ENDBLK
  5
9A
330
8E
100
AcDbEntity
  8
0
100
AcDbBlockEnd
  0
ENDSEC
  0
SECTION
  2
ENTITIES
  0
LINE
  5
1E
330
2
100
AcDbEntity
  8
ADP1DETAIL
100
AcDbLine
 10
27.06171209890404
 20
7.378277323232375
 30
0.0
 11
27.06171209890404
 21
6.670759223311922
 31
0.0
  0
LINE
  5
1F
330
2
100
AcDbEntity
  8
ADP1DETAIL
100
AcDbLine
 10
26.31171209890404
 20
6.670759223311922
 30
0.0
 11
26.31171209890404
 21
7.378277323232375
 31
0.0
  0
LINE
  5
20
330
2
100
AcDbEntity
  8
ADP1DETAIL
100
AcDbLine
 10
23.72331805345255
 20
6.950511834363968
 30
0.0
 11
23.72331805345255
 21
6.672226315166813
 31
0.0
  0
ARC
  5
21
330
2
100
AcDbEntity
  8
ADP2DETAIL
  6
HIDDEN2
100
AcDbCircle
 10
24.41977851163031
 20
6.672226315166813
 30
0.0
 40
0.75
100
AcDbArc
 50
158.2197748746747
 51
180.0
  0
LINE
  5
24
330
2
100
AcDbEntity
  8
ADP1DETAIL
100
AcDbLine
 10
21.72514061331113
 20
6.672226315166813
 30
0.0
 11
21.72514061331113
 21
7.109726315166813
 31
0.0
  0
LINE
  5
25
330
2
100
AcDbEntity
  8
ADP1DETAIL
100
AcDbLine
 10
21.85004101935775
 20
7.07572385795439
 30
0.0
 11
21.85014061331112
 21
6.672226315166813
 31
0.0
  0
DIMENSION
  5
26
330
2
100
AcDbEntity
  8
ADPDIM
100
AcDbDimension
  2
*D1
 10
27.80967601884897
 20
7.662616845105826
 30
0.0
 11
25.20618331564339
 21
5.354711639340271
 31
0.0
 70
     3
100
AcDbDiametricDimension
 15
25.56474817895912
 25
5.672566847319958
 35
0.0
 40
0.0
  0
DIMENSION
  5
33
330
2
100
AcDbEntity
  8
ADPDIM
100
AcDbDimension
  2
*D3
 10
24.22514061331113
 20
7.74753407923086
 30
0.0
 11
24.22514061331113
 21
8.414200745897526
 31
0.0
100
AcDbAlignedDimension
 13
23.78764061331112
 23
6.68503407923086
 33
0.0
 14
23.47514061331112
 24
7.74753407923086
 34
0.0
 50
90.0
100
AcDbRotatedDimension
  0
ARC
  5
41
330
2
100
AcDbEntity
  8
ADP1DETAIL
100
AcDbCircle
 10
26.68721209890405
 20
6.667591846212893
 30
0.0
 40
0.625
100
AcDbArc
 50
126.9272149369694
 51
53.18737667338435
  0
ARC
  5
42
330
2
100
AcDbEntity
  8
ADP1DETAIL
100
AcDbCircle
 10
26.68721209890405
 20
6.667591846212893
 30
0.0
 40
0.5
100
AcDbArc
 50
138.677075376201
 51
41.49617109724033
  0
CIRCLE
  5
43
330
2
100
AcDbEntity
  8
ADP1DETAIL
100
AcDbCircle
 10
26.68721209890405
 20
6.667591846212893
 30
0.0
 40
0.2859512779740925
  0
CIRCLE
  5
44
330
2
100
AcDbEntity
  8
ADP1DETAIL
100
AcDbCircle
 10
26.68721209890405
 20
6.667591846212893
 30
0.0
 40
0.3125
  0
LINE
  5
45
330
2
100
AcDbEntity
  8
ADP1DETAIL
100
AcDbLine
 10
22.83470348026618
 20
6.296726315166814
 30
0.0
 11
22.83470348026618
 21
7.725825558533042
 31
0.0
  0
LINE
  5
46
330
2
100
AcDbEntity
  8
ADP1DETAIL
100
AcDbLine
 10
23.58470348026617
 20
7.725825558533042
 30
0.0
 11
23.58470348026617
 21
6.296726315166814
 31
0.0
  0
ARC
  5
47
330
2
100
AcDbEntity
  8
ADP1DETAIL
100
AcDbCircle
 10
26.68721209890405
 20
6.667591846212893
 30
0.0
 40
1.423752111301077
100
AcDbArc
 50
144.0584270490004
 51
35.9415729509995
  0
ARC
  5
48
330
2
100
AcDbEntity
  8
ADP1DETAIL
100
AcDbCircle
 10
26.68721209890405
 20
6.667591846212893
 30
0.0
 40
1.5
100
AcDbArc
 50
146.1428884615265
 51
33.85711153847343
  0
LINE
  5
49
330
2
100
AcDbEntity
  8
ADP1DETAIL
100
AcDbLine
 10
21.72514061331113
 20
7.16441855110277
 30
0.0
 11
21.72514061331113
 21
6.180034079230857
 31
0.0
  0
LINE
  5
4A
330
2
100
AcDbEntity
  8
ADP1DETAIL
100
AcDbLine
 10
21.22514061331112
 20
8.061318177969738
 30
0.0
 11
21.22514061331112
 21
5.97107135419051
 31
0.0
  0
LINE
  5
4B
330
2
100
AcDbEntity
  8
ADP1DETAIL
100
AcDbLine
 10
20.97514061331112
 20
5.18503407923086
 30
0.0
 11
20.97514061331112
 21
8.159418551102771
 31
0.0
  0
LINE
  5
4C
330
2
100
AcDbEntity
  8
ADP1DETAIL
100
AcDbLine
 10
23.59831805345255
 20
6.359726315166813
 30
0.0
 11
23.71905878173868
 21
6.392078695804627
 31
0.0
  0
LINE
  5
4D
330
2
100
AcDbEntity
  8
ADP1DETAIL
100
AcDbLine
 10
22.83881403850258
 20
6.357155909801065
 30
0.0
 11
21.85014061331112
 21
6.297226315166813
 31
0.0
  0
LINE
  5
4E
330
2
100
AcDbEntity
  8
ADP1DETAIL
100
AcDbLine
 10
21.22514061331112
 20
5.998818177969742
 30
0.0
 11
21.22514061331112
 21
5.283134452363889
 31
0.0
  0
LINE
  5
4F
330
2
100
AcDbEntity
  8
ADP1DETAIL
100
AcDbLine
 10
21.17817782206337
 20
5.222985617354879
 30
0.0
 11
20.98756596956149
 21
5.175332654229407
 31
0.0
  0
ARC
  5
50
330
2
100
AcDbEntity
  8
ADP1DETAIL
100
AcDbCircle
 10
20.98514061331112
 20
5.18503407923086
 30
0.0
 40
0.01
100
AcDbArc
 50
180.0
 51
284.0362434679263
  0
ARC
  5
51
330
2
100
AcDbEntity
  8
ADP1DETAIL
100
AcDbCircle
 10
21.16314061331112
 20
5.283134452363889
 30
0.0
 40
0.062
100
AcDbArc
 50
284.0362434679264
 51
0.0
  0
LINE
  5
52
330
2
100
AcDbEntity
  8
ADP1DETAIL
100
AcDbLine
 10
21.71756596956149
 20
6.170332654229405
 30
0.0
 11
21.27210340455887
 21
6.058967012978754
 31
0.0
  0
ARC
  5
53
330
2
100
AcDbEntity
  8
ADP1DETAIL
100
AcDbCircle
 10
21.28714061331112
 20
5.998818177969742
 30
0.0
 40
0.062
100
AcDbArc
 50
104.0362434679264
 51
180.0
  0
LINE
  5
54
330
2
100
AcDbEntity
  8
ADP1DETAIL
100
AcDbLine
 10
21.72514061331113
 20
6.234726315166813
 30
0.0
 11
21.85004101935775
 21
6.26872877237924
 31
0.0
  0
ARC
  5
55
330
2
100
AcDbEntity
  8
ADP1DETAIL
100
AcDbCircle
 10
21.71514061331113
 20
6.180034079230857
 30
0.0
 40
0.01
100
AcDbArc
 50
284.0362434679261
 51
0.0
  0
LINE
  5
56
330
2
100
AcDbEntity
  8
ADP1DETAIL
100
AcDbLine
 10
21.72514061331113
 20
6.672226315166813
 30
0.0
 11
21.72514061331113
 21
6.234726315166813
 31
0.0
  0
LINE
  5
57
330
2
100
AcDbEntity
  8
ADP1DETAIL
100
AcDbLine
 10
21.85004101935775
 20
6.26872877237924
 30
0.0
 11
21.85014061331112
 21
6.672226315166813
 31
0.0
  0
LINE
  5
58
330
2
100
AcDbEntity
  8
ADP1DETAIL
100
AcDbLine
 10
23.58470348026617
 20
6.296726315166814
 30
0.0
 11
22.84831805345255
 21
6.296726315166814
 31
0.0
  0
ARC
  5
59
330
2
100
AcDbEntity
  8
ADP1DETAIL
100
AcDbCircle
 10
26.68621209890404
 20
6.670759223311922
 30
0.0
 40
0.3745
100
AcDbArc
 50
180.0
 51
270.0
  0
LINE
  5
5A
330
2
100
AcDbEntity
  8
ADP1DETAIL
100
AcDbLine
 10
23.71905878173868
 20
6.392078695804627
 30
0.0
 11
23.71905878173868
 21
6.392078695804627
 31
0.0
  0
LINE
  5
5B
330
2
100
AcDbEntity
  8
ADP1DETAIL
100
AcDbLine
 10
23.72331805345255
 20
6.393940795969662
 30
0.0
 11
23.72331805345255
 21
6.672226315166813
 31
0.0
  0
ARC
  5
5C
330
2
100
AcDbEntity
  8
ADP2DETAIL
  6
HIDDEN2
100
AcDbCircle
 10
24.41977851163031
 20
6.672226315166813
 30
0.0
 40
0.75
100
AcDbArc
 50
180.0
 51
201.7802251253252
  0
ARC
  5
5D
330
2
100
AcDbEntity
  8
ADP1DETAIL
100
AcDbCircle
 10
26.68721209890405
 20
6.670759223311922
 30
0.0
 40
0.3745
100
AcDbArc
 50
270.0
 51
0.0
  0
LINE
  5
5E
330
2
100
AcDbEntity
  8
ADP1DETAIL
100
AcDbLine
 10
26.68721209890405
 20
6.296259223311921
 30
0.0
 11
26.68621209890404
 21
6.296259223311921
 31
0.0
  0
LINE
  5
5F
330
2
100
AcDbEntity
  8
ADP1DETAIL
100
AcDbLine
 10
23.59831805345255
 20
6.984726315166813
 30
0.0
 11
23.71905878173868
 21
6.952373934528999
 31
0.0
  0
LINE
  5
60
330
2
100
AcDbEntity
  8
ADP1DETAIL
100
AcDbLine
 10
21.85014061331112
 20
7.047226315166813
 30
0.0
 11
22.81917720122471
 21
6.972445765656019
 31
0.0
  0
DIMENSION
  5
61
330
2
100
AcDbEntity
  8
ADPDIM
100
AcDbDimension
  2
*D0
 10
23.22514061331113
 20
8.49753407923086
 30
0.0
 11
22.10014061331113
 21
8.49753407923086
 31
0.0
100
AcDbAlignedDimension
 13
20.97514061331112
 23
8.18503407923086
 33
0.0
 14
23.22514061331113
 24
7.87253407923086
 34
0.0
100
AcDbRotatedDimension
  0
LINE
  5
6F
330
2
100
AcDbEntity
  8
ADP1DETAIL
100
AcDbLine
 10
20.98756596956149
 20
8.169119976104223
 30
0.0
 11
21.17817782206337
 21
8.121467012978751
 31
0.0
  0
LINE
  5
70
330
2
100
AcDbEntity
  8
ADP1DETAIL
100
AcDbLine
 10
21.27210340455887
 20
7.285485617354876
 30
0.0
 11
21.71756596956149
 21
7.174119976104222
 31
0.0
  0
ARC
  5
71
330
2
100
AcDbEntity
  8
ADP1DETAIL
100
AcDbCircle
 10
21.28714061331112
 20
7.345634452363889
 30
0.0
 40
0.062
100
AcDbArc
 50
180.0
 51
255.9637565320735
  0
ARC
  5
72
330
2
100
AcDbEntity
  8
ADP1DETAIL
100
AcDbCircle
 10
21.16314061331112
 20
8.061318177969738
 30
0.0
 40
0.062
100
AcDbArc
 50
0.0
 51
75.96375653207352
  0
LINE
  5
73
330
2
100
AcDbEntity
  8
ADP1DETAIL
100
AcDbLine
 10
21.72514061331113
 20
7.109726315166813
 30
0.0
 11
21.85004101935775
 21
7.07572385795439
 31
0.0
  0
ARC
  5
74
330
2
100
AcDbEntity
  8
ADP1DETAIL
100
AcDbCircle
 10
21.71514061331113
 20
7.16441855110277
 30
0.0
 40
0.01
100
AcDbArc
 50
0.0
 51
75.96375653207362
  0
ARC
  5
75
330
2
100
AcDbEntity
  8
ADP1DETAIL
100
AcDbCircle
 10
20.98514061331112
 20
8.159418551102771
 30
0.0
 40
0.01
100
AcDbArc
 50
75.96375653207326
 51
180.0
  0
LINE
  5
76
330
2
100
AcDbEntity
  8
ADP1DETAIL
100
AcDbLine
 10
22.83470348026618
 20
7.538325558533042
 30
0.0
 11
23.58470348026617
 21
7.538325558533042
 31
0.0
  0
ARC
  5
77
330
2
100
AcDbEntity
  8
ADP1DETAIL
100
AcDbCircle
 10
23.20970348026617
 20
8.978650581304009
 30
0.0
 40
1.230779271978157
100
AcDbArc
 50
255.2913377098588
 51
284.7086622901411
  0
LINE
  5
78
330
2
100
AcDbEntity
  8
ADP1DETAIL
100
AcDbLine
 10
22.83470348026618
 20
7.725825558533042
 30
0.0
 11
22.89720348026617
 21
7.788325558533042
 31
0.0
  0
LINE
  5
79
330
2
100
AcDbEntity
  8
ADP2DETAIL
  6
HIDDEN2
100
AcDbLine
 10
23.11570348026618
 20
7.751466154931538
 30
0.0
 11
23.11570348026618
 21
7.599322157469867
 31
0.0
  0
LINE
  5
7A
330
2
100
AcDbEntity
  8
ADP2DETAIL
  6
HIDDEN2
100
AcDbLine
 10
23.11570348026618
 20
7.599322157469867
 30
0.0
 11
23.05370348026618
 21
7.537322157469869
 31
0.0
  0
LINE
  5
7B
330
2
100
AcDbEntity
  8
ADP2DETAIL
  6
HIDDEN2
100
AcDbLine
 10
23.30370348026618
 20
7.751466154931539
 30
0.0
 11
23.30370348026618
 21
7.599322157469867
 31
0.0
  0
LINE
  5
7C
330
2
100
AcDbEntity
  8
ADP2DETAIL
  6
HIDDEN2
100
AcDbLine
 10
23.30370348026618
 20
7.599322157469867
 30
0.0
 11
23.36570348026618
 21
7.537322157469869
 31
0.0
  0
LINE
  5
7D
330
2
100
AcDbEntity
  8
ADP1DETAIL
100
AcDbLine
 10
23.52220348026617
 20
7.788325558533042
 30
0.0
 11
23.58470348026617
 21
7.725825558533042
 31
0.0
  0
DIMENSION
  5
7E
330
2
100
AcDbEntity
  8
ADPDIM
100
AcDbDimension
  2
*D2
 10
27.93671209890404
 20
8.654472161783907
 30
0.0
 11
26.68671209890404
 21
8.654472161783907
 31
0.0
100
AcDbAlignedDimension
 13
25.43671209890404
 23
7.826751806126329
 33
0.0
 14
27.93671209890404
 24
7.770206404498212
 34
0.0
100
AcDbRotatedDimension
  0
LINE
  5
8C
330
2
100
AcDbEntity
  8
ADP2DETAIL
  6
HIDDEN2
100
AcDbLine
 10
25.43671209890404
 20
7.706864386534669
 30
0.0
 11
26.43782774248311
 21
7.706864386534669
 31
0.0
  0
DIMENSION
  5
8D
330
2
100
AcDbEntity
  8
ADPDIM
100
AcDbDimension
  2
*D4
 10
27.49806683174978
 20
8.299019470056109
 30
0.0
 11
26.68556683174978
 21
8.299019470056109
 31
0.0
100
AcDbAlignedDimension
 13
25.87306683174978
 23
7.719070346295108
 33
0.0
 14
27.49806683174978
 24
7.719070346295108
 34
0.0
100
AcDbRotatedDimension
  0
ARC
  5
9B
330
2
100
AcDbEntity
  8
ADP1DETAIL
100
AcDbCircle
 10
26.68674203780587
 20
6.667591815258266
 30
0.0
 40
1.5
100
AcDbArc
 50
46.00785333283123
 51
134.0038548544379
  0
ARC
  5
9C
330
2
100
AcDbEntity
  8
ADP1DETAIL
100
AcDbCircle
 10
26.68674203780587
 20
6.667591815258266
 30
0.0
 40
1.423752064658825
100
AcDbArc
 50
49.29216661607892
 51
130.7281165447394
  0
LINE
  5
9D
330
2
100
AcDbEntity
  8
ADP1DETAIL
100
AcDbLine
 10
25.43671209890404
 20
7.746531408503416
 30
0.0
 11
26.50323904416679
 21
7.746531408503416
 31
0.0
  0
LINE
  5
9E
330
2
100
AcDbEntity
  8
ADP1DETAIL
100
AcDbLine
 10
23.71905878173868
 20
6.952373934528999
 30
0.0
 11
23.71905878173868
 21
6.952373934528999
 31
0.0
  0
LINE
  5
9F
330
2
100
AcDbEntity
  8
ADP2DETAIL
  6
HIDDEN2
100
AcDbLine
 10
25.77948060011924
 20
7.581312538717964
 30
0.0
 11
25.71748060011924
 21
7.519312538717967
 31
0.0
  0
LINE
  5
A0
330
2
100
AcDbEntity
  8
ADP1DETAIL
100
AcDbLine
 10
26.18671209890404
 20
7.503277323232375
 30
0.0
 11
25.43671209890404
 21
7.503277323232375
 31
0.0
  0
LINE
  5
A1
330
2
100
AcDbEntity
  8
ADP1DETAIL
100
AcDbLine
 10
25.43671209890404
 20
7.503277323232375
 30
0.0
 11
25.43671209890404
 21
7.72730462494004
 31
0.0
  0
ARC
  5
A2
330
2
100
AcDbEntity
  8
ADP1DETAIL
100
AcDbCircle
 10
26.18671209890404
 20
7.378277323232375
 30
0.0
 40
0.125
100
AcDbArc
 50
0.0
 51
90.0
  0
LINE
  5
A3
330
2
100
AcDbEntity
  8
ADP2DETAIL
  6
HIDDEN2
100
AcDbLine
 10
25.96748060011924
 20
7.706312538717964
 30
0.0
 11
25.96748060011924
 21
7.581312538717964
 31
0.0
  0
LINE
  5
A4
330
2
100
AcDbEntity
  8
ADP2DETAIL
  6
HIDDEN2
100
AcDbLine
 10
25.96748060011924
 20
7.581312538717964
 30
0.0
 11
26.02948060011924
 21
7.519312538717967
 31
0.0
  0
LINE
  5
A5
330
2
100
AcDbEntity
  8
ADP2DETAIL
  6
HIDDEN2
100
AcDbLine
 10
25.77948060011924
 20
7.706312538717964
 30
0.0
 11
25.77948060011924
 21
7.581312538717964
 31
0.0
  0
LINE
  5
A6
330
2
100
AcDbEntity
  8
ADP1DETAIL
100
AcDbLine
 10
27.93671209890404
 20
7.503277323232375
 30
0.0
 11
27.18671209890404
 21
7.503277323232375
 31
0.0
  0
LINE
  5
A7
330
2
100
AcDbEntity
  8
ADP2DETAIL
  6
HIDDEN2
100
AcDbLine
 10
27.93671209890404
 20
7.706864386534669
 30
0.0
 11
26.96189425940778
 21
7.707951076939797
 31
0.0
  0
LINE
  5
A8
330
2
100
AcDbEntity
  8
ADP1DETAIL
100
AcDbLine
 10
27.93671209890404
 20
7.746531408503416
 30
0.0
 11
26.87446021850294
 21
7.747618098908543
 31
0.0
  0
ARC
  5
A9
330
2
100
AcDbEntity
  8
ADP1DETAIL
100
AcDbCircle
 10
27.18671209890404
 20
7.378277323232375
 30
0.0
 40
0.125
100
AcDbArc
 50
90.0
 51
180.0
  0
LINE
  5
AA
330
2
100
AcDbEntity
  8
ADP1DETAIL
100
AcDbLine
 10
26.49921209890404
 20
6.917216063788032
 30
0.0
 11
26.49921209890404
 21
7.74676356257158
 31
0.0
  0
LINE
  5
AB
330
2
100
AcDbEntity
  8
ADP1DETAIL
100
AcDbLine
 10
26.87306683174979
 20
6.917216063788032
 30
0.0
 11
26.87306683174979
 21
7.74676356257158
 31
0.0
  0
LINE
  5
AC
330
2
100
AcDbEntity
  8
ADP1DETAIL
100
AcDbLine
 10
26.49806683174979
 20
7.775149551285672
 30
0.0
 11
26.87306683174979
 21
7.775149551285672
 31
0.0
  0
LINE
  5
AD
330
2
100
AcDbEntity
  8
ADP2DETAIL
  6
HIDDEN2
100
AcDbLine
 10
26.49806683174979
 20
7.717913351306592
 30
0.0
 11
26.87306683174979
 21
7.717913351306592
 31
0.0
  0
LINE
  5
AE
330
2
100
AcDbEntity
  8
ADP2DETAIL
  6
HIDDEN2
100
AcDbLine
 10
27.40448060011924
 20
7.581312538717964
 30
0.0
 11
27.34248060011924
 21
7.519312538717967
 31
0.0
  0
LINE
  5
AF
330
2
100
AcDbEntity
  8
ADP2DETAIL
  6
HIDDEN2
100
AcDbLine
 10
27.40448060011924
 20
7.706312538717964
 30
0.0
 11
27.40448060011924
 21
7.581312538717964
 31
0.0
  0
LINE
  5
B0
330
2
100
AcDbEntity
  8
ADP2DETAIL
  6
HIDDEN2
100
AcDbLine
 10
27.59248060011924
 20
7.581312538717964
 30
0.0
 11
27.65448060011924
 21
7.519312538717967
 31
0.0
  0
LINE
  5
B1
330
2
100
AcDbEntity
  8
ADP2DETAIL
  6
HIDDEN2
100
AcDbLine
 10
27.59248060011924
 20
7.706312538717964
 30
0.0
 11
27.59248060011924
 21
7.581312538717964
 31
0.0
  0
LINE
  5
B2
330
2
100
AcDbEntity
  8
ADP1DETAIL
100
AcDbLine
 10
27.93671209890404
 20
7.72730462494004
 30
0.0
 11
27.93671209890404
 21
7.503277323232375
 31
0.0
  0
TEXT
  5
BD
330
2
100
AcDbEntity
  8
ADPDIM
100
AcDbText
 10
18.05973588242209
 20
3.955300290979111
 30
0.0
 40
0.125
  1
J U L I U S  B L U M  &  C O . ,  I N C .      ( 8 0 0 )  5 2 6 - 6 2 9 3        W W W . J U L I U S B L U M . C O M        P A R T  N o .  3 2 1
 41
1.25
  7
ARIAL_WIDE
 72
     1
 11
24.49444341993914
 21
4.080300290979111
 31
0.0
100
AcDbText
 73
     3
  0
ENDSEC
  0
SECTION
  2
OBJECTS
  0
DICTIONARY
  5
1B
330
0
100
AcDbDictionary
  3
ACAD_GROUP
350
19
  3
ACAD_LAYOUT
350
B6
  3
ACAD_MLINESTYLE
350
1A
  3
ACAD_PLOTSETTINGS
350
B7
  3
ACAD_PLOTSTYLENAME
350
B4
  3
ACDBHEADERROUNDTRIPXREC
350
25F
  3
ACDBVARIABLEDICTIONARY
350
117
  0
DICTIONARY
  5
10F
330
2
100
AcDbDictionary
280
     1
  3
ACAD_LAYOUTSELFREF
360
27F
  0
DICTIONARY
  5
111
330
8
100
AcDbDictionary
280
     1
  3
ACAD_LAYOUTSELFREF
360
280
  0
DICTIONARY
  5
19
102
{ACAD_REACTORS
330
1B
102
}
330
1B
100
AcDbDictionary
  0
DICTIONARY
  5
B6
102
{ACAD_REACTORS
330
1B
102
}
330
1B
100
AcDbDictionary
  0
DICTIONARY
  5
1A
102
{ACAD_REACTORS
330
1B
102
}
330
1B
100
AcDbDictionary
  3
STANDARD
350
1C
  0
DICTIONARY
  5
B7
102
{ACAD_REACTORS
330
1B
102
}
330
1B
100
AcDbDictionary
  0
ACDBDICTIONARYWDFLT
  5
B4
102
{ACAD_REACTORS
330
1B
102
}
330
1B
100
AcDbDictionary
281
     1
  3
Normal
350
B5
100
AcDbDictionaryWithDefault
340
B5
  0
DICTIONARY
  5
25F
102
{ACAD_REACTORS
330
1B
102
}
330
1B
100
AcDbDictionary
  3
CEPSNTYPE
350
269
  3
FINGERPRINTGUID
350
26A
  3
HYPERLINKBASE
350
262
  3
INSUNITS
350
268
  3
LAYOUTDICT
350
264
  3
LWETCUNION
350
267
  3
PLOTSETDICT
350
265
  3
PLOTSTYLNAMDICT
350
266
  3
PSVPSCALE
350
26C
  3
PUCSBASE
350
26F
  3
PUCSORGBACK
350
275
  3
PUCSORGBOTTOM
350
271
  3
PUCSORGFRONT
350
274
  3
PUCSORGLEFT
350
272
  3
PUCSORGRIGHT
350
273
  3
PUCSORGTOP
350
270
  3
PUCSORTHOREF
350
26D
  3
PUCSORTHOVIEW
350
26E
  3
STYLESHEET
350
263
  3
TSTACKALIGN
350
260
  3
TSTACKSIZE
350
261
  3
UCSBASE
350
278
  3
UCSORGBACK
350
27E
  3
UCSORGBOTTOM
350
27A
  3
UCSORGFRONT
350
27D
  3
UCSORGLEFT
350
27B
  3
UCSORGRIGHT
350
27C
  3
UCSORGTOP
350
279
  3
UCSORTHOREF
350
276
  3
UCSORTHOVIEW
350
277
  3
VERSIONGUID
350
26B
  0
DICTIONARY
  5
117
102
{ACAD_REACTORS
330
1B
102
}
330
1B
100
AcDbDictionary
  3
DIMASSOC
350
118
  0
XRECORD
  5
27F
102
{ACAD_REACTORS
330
10F
102
}
330
10F
100
AcDbXrecord
340
2
  0
XRECORD
  5
280
102
{ACAD_REACTORS
330
111
102
}
330
111
100
AcDbXrecord
340
8
  0
MLINESTYLE
  5
1C
102
{ACAD_REACTORS
330
1A
102
}
330
1A
100
AcDbMlineStyle
  2
STANDARD
 70
     0
  3

 62
     0
 51
90.0
 52
90.0
 71
     2
 49
0.5
 62
   256
  6
BYLAYER
 49
-0.5
 62
   256
  6
BYLAYER
  0
ACDBPLACEHOLDER
  5
B5
102
{ACAD_REACTORS
330
B4
102
}
330
B4
100
AcDbPlaceHolder
280
     0
  0
XRECORD
  5
269
102
{ACAD_REACTORS
330
25F
102
}
330
25F
100
AcDbXrecord
 90
        0
  0
XRECORD
  5
26A
102
{ACAD_REACTORS
330
25F
102
}
330
25F
100
AcDbXrecord
  1
{38A508F5-02C0-4BB5-9AF6-CCEFFDF6C003}
  0
XRECORD
  5
262
102
{ACAD_REACTORS
330
25F
102
}
330
25F
100
AcDbXrecord
  1

  0
XRECORD
  5
268
102
{ACAD_REACTORS
330
25F
102
}
330
25F
100
AcDbXrecord
 90
        0
  0
XRECORD
  5
264
102
{ACAD_REACTORS
330
25F
102
}
330
25F
100
AcDbXrecord
340
B6
  0
XRECORD
  5
267
102
{ACAD_REACTORS
330
25F
102
}
330
25F
100
AcDbXrecord
 90
    14877
  0
XRECORD
  5
265
102
{ACAD_REACTORS
330
25F
102
}
330
25F
100
AcDbXrecord
340
B7
  0
XRECORD
  5
266
102
{ACAD_REACTORS
330
25F
102
}
330
25F
100
AcDbXrecord
340
B4
  0
XRECORD
  5
26C
102
{ACAD_REACTORS
330
25F
102
}
330
25F
100
AcDbXrecord
 40
0.0
  0
XRECORD
  5
26F
102
{ACAD_REACTORS
330
25F
102
}
330
25F
100
AcDbXrecord
340
0
  0
XRECORD
  5
275
102
{ACAD_REACTORS
330
25F
102
}
330
25F
100
AcDbXrecord
 10
0.0
 20
0.0
 30
0.0
  0
XRECORD
  5
271
102
{ACAD_REACTORS
330
25F
102
}
330
25F
100
AcDbXrecord
 10
0.0
 20
0.0
 30
0.0
  0
XRECORD
  5
274
102
{ACAD_REACTORS
330
25F
102
}
330
25F
100
AcDbXrecord
 10
0.0
 20
0.0
 30
0.0
  0
XRECORD
  5
272
102
{ACAD_REACTORS
330
25F
102
}
330
25F
100
AcDbXrecord
 10
0.0
 20
0.0
 30
0.0
  0
XRECORD
  5
273
102
{ACAD_REACTORS
330
25F
102
}
330
25F
100
AcDbXrecord
 10
0.0
 20
0.0
 30
0.0
  0
XRECORD
  5
270
102
{ACAD_REACTORS
330
25F
102
}
330
25F
100
AcDbXrecord
 10
0.0
 20
0.0
 30
0.0
  0
XRECORD
  5
26D
102
{ACAD_REACTORS
330
25F
102
}
330
25F
100
AcDbXrecord
340
0
  0
XRECORD
  5
26E
102
{ACAD_REACTORS
330
25F
102
}
330
25F
100
AcDbXrecord
 70
     0
  0
XRECORD
  5
263
102
{ACAD_REACTORS
330
25F
102
}
330
25F
100
AcDbXrecord
  1

  0
XRECORD
  5
260
102
{ACAD_REACTORS
330
25F
102
}
330
25F
100
AcDbXrecord
 90
        1
  0
XRECORD
  5
261
102
{ACAD_REACTORS
330
25F
102
}
330
25F
100
AcDbXrecord
 90
       70
  0
XRECORD
  5
278
102
{ACAD_REACTORS
330
25F
102
}
330
25F
100
AcDbXrecord
340
0
  0
XRECORD
  5
27E
102
{ACAD_REACTORS
330
25F
102
}
330
25F
100
AcDbXrecord
 10
0.0
 20
0.0
 30
0.0
  0
XRECORD
  5
27A
102
{ACAD_REACTORS
330
25F
102
}
330
25F
100
AcDbXrecord
 10
0.0
 20
0.0
 30
0.0
  0
XRECORD
  5
27D
102
{ACAD_REACTORS
330
25F
102
}
330
25F
100
AcDbXrecord
 10
0.0
 20
0.0
 30
0.0
  0
XRECORD
  5
27B
102
{ACAD_REACTORS
330
25F
102
}
330
25F
100
AcDbXrecord
 10
0.0
 20
0.0
 30
0.0
  0
XRECORD
  5
27C
102
{ACAD_REACTORS
330
25F
102
}
330
25F
100
AcDbXrecord
 10
0.0
 20
0.0
 30
0.0
  0
XRECORD
  5
279
102
{ACAD_REACTORS
330
25F
102
}
330
25F
100
AcDbXrecord
 10
0.0
 20
0.0
 30
0.0
  0
XRECORD
  5
276
102
{ACAD_REACTORS
330
25F
102
}
330
25F
100
AcDbXrecord
340
0
  0
XRECORD
  5
277
102
{ACAD_REACTORS
330
25F
102
}
330
25F
100
AcDbXrecord
 70
     0
  0
XRECORD
  5
26B
102
{ACAD_REACTORS
330
25F
102
}
330
25F
100
AcDbXrecord
  1
{DB5EECC0-D2D6-4F2B-8650-15FCD323FF9C}
  0
DICTIONARYVAR
  5
118
102
{ACAD_REACTORS
330
117
102
}
330
117
100
DictionaryVariables
280
     0
  1
1
  0
ENDSEC
  0
EOF
