  0
SECTION
  2
HEADER
  9
$ACADVER
  1
AC1015
  9
$ACADMAINTVER
 70
    20
  9
$DWGCODEPAGE
  3
ANSI_1252
  9
$INSBASE
 10
20.97514061331112
 20
5.18503407923086
 30
0.0
  9
$EXTMIN
 10
21.27667247186959
 20
4.349487393570001
 30
-0.000000000000013
  9
$EXTMAX
 10
28.59906013379696
 20
8.645141653536285
 30
0.0000000000000023
  9
$LIMMIN
 10
0.0
 20
0.0
  9
$LIMMAX
 10
36.0
 20
36.0
  9
$ORTHOMODE
 70
     1
  9
$REGENMODE
 70
     1
  9
$FILLMODE
 70
     1
  9
$QTEXTMODE
 70
     0
  9
$MIRRTEXT
 70
     1
  9
$LTSCALE
 40
1.0
  9
$ATTMODE
 70
     1
  9
$TEXTSIZE
 40
0.2
  9
$TRACEWID
 40
0.05
  9
$TEXTSTYLE
  7
STANDARD
  9
$CLAYER
  8
ADPDIM
  9
$CELTYPE
  6
CONTINUOUS
  9
$CECOLOR
 62
   256
  9
$CELTSCALE
 40
1.0
  9
$DISPSILH
 70
     0
  9
$DIMSCALE
 40
1.0
  9
$DIMASZ
 40
0.25
  9
$DIMEXO
 40
0.0625
  9
$DIMDLI
 40
0.38
  9
$DIMRND
 40
0.0
  9
$DIMDLE
 40
0.0
  9
$DIMEXE
 40
0.18
  9
$DIMTP
 40
0.0
  9
$DIMTM
 40
0.0
  9
$DIMTXT
 40
0.125
  9
$DIMCEN
 40
0.1875
  9
$DIMTSZ
 40
0.0
  9
$DIMTOL
 70
     0
  9
$DIMLIM
 70
     0
  9
$DIMTIH
 70
     0
  9
$DIMTOH
 70
     0
  9
$DIMSE1
 70
     0
  9
$DIMSE2
 70
     0
  9
$DIMTAD
 70
     0
  9
$DIMZIN
 70
     3
  9
$DIMBLK
  1

  9
$DIMASO
 70
     1
  9
$DIMSHO
 70
     1
  9
$DIMPOST
  1

  9
$DIMAPOST
  1

  9
$DIMALT
 70
     0
  9
$DIMALTD
 70
     1
  9
$DIMALTF
 40
25.4
  9
$DIMLFAC
 40
1.0
  9
$DIMTOFL
 70
     0
  9
$DIMTVP
 40
0.0
  9
$DIMTIX
 70
     0
  9
$DIMSOXD
 70
     0
  9
$DIMSAH
 70
     1
  9
$DIMBLK1
  1
Oblique
  9
$DIMBLK2
  1
Oblique
  9
$DIMSTYLE
  2
STANDARD
  9
$DIMCLRD
 70
     0
  9
$DIMCLRE
 70
     0
  9
$DIMCLRT
 70
     0
  9
$DIMTFAC
 40
1.0
  9
$DIMGAP
 40
0.125
  9
$DIMJUST
 70
     0
  9
$DIMSD1
 70
     0
  9
$DIMSD2
 70
     0
  9
$DIMTOLJ
 70
     1
  9
$DIMTZIN
 70
     0
  9
$DIMALTZ
 70
     0
  9
$DIMALTTZ
 70
     0
  9
$DIMUPT
 70
     0
  9
$DIMDEC
 70
     4
  9
$DIMTDEC
 70
     4
  9
$DIMALTU
 70
     2
  9
$DIMALTTD
 70
     1
  9
$DIMTXSTY
  7
STANDARD
  9
$DIMAUNIT
 70
     0
  9
$DIMADEC
 70
     0
  9
$DIMALTRND
 40
0.0
  9
$DIMAZIN
 70
     0
  9
$DIMDSEP
 70
    46
  9
$DIMATFIT
 70
     3
  9
$DIMFRAC
 70
     2
  9
$DIMLDRBLK
  1

  9
$DIMLUNIT
 70
     5
  9
$DIMLWD
 70
    -2
  9
$DIMLWE
 70
    -2
  9
$DIMTMOVE
 70
     0
  9
$LUNITS
 70
     5
  9
$LUPREC
 70
     4
  9
$SKETCHINC
 40
0.1
  9
$FILLETRAD
 40
0.0
  9
$AUNITS
 70
     0
  9
$AUPREC
 70
     0
  9
$MENU
  1
acad
  9
$ELEVATION
 40
0.0
  9
$PELEVATION
 40
0.0
  9
$THICKNESS
 40
0.0
  9
$LIMCHECK
 70
     0
  9
$CHAMFERA
 40
0.0
  9
$CHAMFERB
 40
0.0
  9
$CHAMFERC
 40
0.0
  9
$CHAMFERD
 40
0.0
  9
$SKPOLY
 70
     0
  9
$TDCREATE
 40
2450382.686217396
  9
$TDUCREATE
 40
2450382.852884063
  9
$TDUPDATE
 40
2456037.298453079
  9
$TDUUPDATE
 40
2456037.465119746
  9
$TDINDWG
 40
0.1191937500
  9
$TDUSRTIMER
 40
0.1191937500
  9
$USRTIMER
 70
     1
  9
$ANGBASE
 50
0.0
  9
$ANGDIR
 70
     0
  9
$PDMODE
 70
     0
  9
$PDSIZE
 40
0.0
  9
$PLINEWID
 40
0.0
  9
$SPLFRAME
 70
     0
  9
$SPLINETYPE
 70
     6
  9
$SPLINESEGS
 70
     8
  9
$HANDSEED
  5
A04
  9
$SURFTAB1
 70
     6
  9
$SURFTAB2
 70
     6
  9
$SURFTYPE
 70
     6
  9
$SURFU
 70
     6
  9
$SURFV
 70
     6
  9
$UCSBASE
  2

  9
$UCSNAME
  2

  9
$UCSORG
 10
0.0
 20
0.0
 30
0.0
  9
$UCSXDIR
 10
1.0
 20
0.0
 30
0.0
  9
$UCSYDIR
 10
0.0
 20
1.0
 30
0.0
  9
$UCSORTHOREF
  2

  9
$UCSORTHOVIEW
 70
     0
  9
$UCSORGTOP
 10
0.0
 20
0.0
 30
0.0
  9
$UCSORGBOTTOM
 10
0.0
 20
0.0
 30
0.0
  9
$UCSORGLEFT
 10
0.0
 20
0.0
 30
0.0
  9
$UCSORGRIGHT
 10
0.0
 20
0.0
 30
0.0
  9
$UCSORGFRONT
 10
0.0
 20
0.0
 30
0.0
  9
$UCSORGBACK
 10
0.0
 20
0.0
 30
0.0
  9
$PUCSBASE
  2

  9
$PUCSNAME
  2

  9
$PUCSORG
 10
0.0
 20
0.0
 30
0.0
  9
$PUCSXDIR
 10
1.0
 20
0.0
 30
0.0
  9
$PUCSYDIR
 10
0.0
 20
1.0
 30
0.0
  9
$PUCSORTHOREF
  2

  9
$PUCSORTHOVIEW
 70
     0
  9
$PUCSORGTOP
 10
0.0
 20
0.0
 30
0.0
  9
$PUCSORGBOTTOM
 10
0.0
 20
0.0
 30
0.0
  9
$PUCSORGLEFT
 10
0.0
 20
0.0
 30
0.0
  9
$PUCSORGRIGHT
 10
0.0
 20
0.0
 30
0.0
  9
$PUCSORGFRONT
 10
0.0
 20
0.0
 30
0.0
  9
$PUCSORGBACK
 10
0.0
 20
0.0
 30
0.0
  9
$USERI1
 70
     0
  9
$USERI2
 70
     0
  9
$USERI3
 70
     0
  9
$USERI4
 70
     0
  9
$USERI5
 70
     0
  9
$USERR1
 40
0.0
  9
$USERR2
 40
0.0
  9
$USERR3
 40
0.0
  9
$USERR4
 40
0.0
  9
$USERR5
 40
0.0
  9
$WORLDVIEW
 70
     1
  9
$SHADEDGE
 70
     3
  9
$SHADEDIF
 70
    70
  9
$TILEMODE
 70
     1
  9
$MAXACTVP
 70
    15
  9
$PINSBASE
 10
0.0
 20
0.0
 30
0.0
  9
$PLIMCHECK
 70
     0
  9
$PEXTMIN
 10
1.000000000000000E+20
 20
1.000000000000000E+20
 30
1.000000000000000E+20
  9
$PEXTMAX
 10
-1.000000000000000E+20
 20
-1.000000000000000E+20
 30
-1.000000000000000E+20
  9
$PLIMMIN
 10
0.0
 20
0.0
  9
$PLIMMAX
 10
12.0
 20
9.0
  9
$UNITMODE
 70
     0
  9
$VISRETAIN
 70
     0
  9
$PLINEGEN
 70
     0
  9
$PSLTSCALE
 70
     1
  9
$TREEDEPTH
 70
  3020
  9
$CMLSTYLE
  2
STANDARD
  9
$CMLJUST
 70
     0
  9
$CMLSCALE
 40
1.0
  9
$PROXYGRAPHICS
 70
     1
  9
$MEASUREMENT
 70
     0
  9
$CELWEIGHT
370
    -1
  9
$ENDCAPS
280
     0
  9
$JOINSTYLE
280
     0
  9
$LWDISPLAY
290
     0
  9
$INSUNITS
 70
     0
  9
$HYPERLINKBASE
  1

  9
$STYLESHEET
  1
monochrome.ctb
  9
$XEDIT
290
     1
  9
$CEPSNTYPE
380
     0
  9
$PSTYLEMODE
290
     1
  9
$FINGERPRINTGUID
  2
{38A508F5-02C0-4BB5-9AF6-CCEFFDF6C003}
  9
$VERSIONGUID
  2
{DAE20EC8-52EF-4A8E-86E3-DD93A24E9678}
  9
$EXTNAMES
290
     1
  9
$PSVPSCALE
 40
0.0
  9
$OLESTARTUP
290
     0
  0
ENDSEC
  0
SECTION
  2
CLASSES
  0
CLASS
  1
ACDBDICTIONARYWDFLT
  2
AcDbDictionaryWithDefault
  3
ObjectDBX Classes
 90
        0
280
     0
281
     0
  0
CLASS
  1
ACDBPLACEHOLDER
  2
AcDbPlaceHolder
  3
ObjectDBX Classes
 90
        0
280
     0
281
     0
  0
CLASS
  1
LAYOUT
  2
AcDbLayout
  3
ObjectDBX Classes
 90
        0
280
     0
281
     0
  0
CLASS
  1
DICTIONARYVAR
  2
AcDbDictionaryVar
  3
ObjectDBX Classes
 90
        0
280
     0
281
     0
  0
CLASS
  1
TABLESTYLE
  2
AcDbTableStyle
  3
ObjectDBX Classes
 90
     2047
280
     0
281
     0
  0
CLASS
  1
SORTENTSTABLE
  2
AcDbSortentsTable
  3
ObjectDBX Classes
 90
        0
280
     0
281
     0
  0
ENDSEC
  0
SECTION
  2
TABLES
  0
TABLE
  2
VPORT
  5
13
330
0
100
AcDbSymbolTable
 70
     4
  0
VPORT
  5
9FE
330
13
100
AcDbSymbolTableRecord
100
AcDbViewportTableRecord
  2
*Active
 70
     0
 10
0.0
 20
0.0
 11
1.0
 21
1.0
 12
24.93786630283327
 22
6.497314523553143
 13
0.0
 23
0.0
 14
0.5740882589684922
 24
0.5740882589684922
 15
0.5
 25
0.5
 16
0.0
 26
0.0
 36
1.0
 17
0.0
 27
0.0
 37
0.0
 40
4.330531019857755
 41
1.796747967479674
 42
50.0
 43
0.0
 44
0.0
 50
0.0
 51
0.0
 71
     0
 72
   100
 73
     1
 74
     0
 75
     0
 76
     0
 77
     0
 78
     0
281
     0
 65
     1
110
0.0
120
0.0
130
0.0
111
1.0
121
0.0
131
0.0
112
0.0
122
1.0
132
0.0
 79
     0
146
0.0
  0
ENDTAB
  0
TABLE
  2
LTYPE
  5
F
330
0
100
AcDbSymbolTable
 70
     3
  0
LTYPE
  5
10
330
F
100
AcDbSymbolTableRecord
100
AcDbLinetypeTableRecord
  2
BYBLOCK
 70
     0
  3

 72
    65
 73
     0
 40
0.0
  0
LTYPE
  5
6
330
F
100
AcDbSymbolTableRecord
100
AcDbLinetypeTableRecord
  2
BYLAYER
 70
     0
  3

 72
    65
 73
     0
 40
0.0
  0
LTYPE
  5
5
330
F
100
AcDbSymbolTableRecord
100
AcDbLinetypeTableRecord
  2
CONTINUOUS
 70
     0
  3
Solid line
 72
    65
 73
     0
 40
0.0
  0
LTYPE
  5
23
330
F
100
AcDbSymbolTableRecord
100
AcDbLinetypeTableRecord
  2
HIDDEN2
 70
     0
  3
_ _ _ _ _ _ _ _ _ _ _ _ _ _ _ _ _ _ _ _ _ _ _ _
 72
    65
 73
     2
 40
0.1875
 49
0.125
 74
     0
 49
-0.0625
 74
     0
  0
LTYPE
  5
2BA
330
F
100
AcDbSymbolTableRecord
100
AcDbLinetypeTableRecord
  2
CENTER
 70
     0
  3
Center ____ _ ____ _ ____ _ ____ _ ____ _ ____
 72
    65
 73
     4
 40
2.0
 49
1.25
 74
     0
 49
-0.25
 74
     0
 49
0.25
 74
     0
 49
-0.25
 74
     0
  0
ENDTAB
  0
TABLE
  2
LAYER
  5
B
330
0
100
AcDbSymbolTable
 70
     5
  0
LAYER
  5
C
330
B
100
AcDbSymbolTableRecord
100
AcDbLayerTableRecord
  2
0
 70
     0
 62
     7
  6
CONTINUOUS
370
    -3
390
B5
  0
LAYER
  5
4
330
B
100
AcDbSymbolTableRecord
100
AcDbLayerTableRecord
  2
ADP1DETAIL
 70
     0
 62
     7
  6
CONTINUOUS
370
    -3
390
B5
  0
LAYER
  5
2F
330
B
100
AcDbSymbolTableRecord
100
AcDbLayerTableRecord
  2
DEFPOINTS
 70
     0
 62
     7
  6
CONTINUOUS
290
     0
370
    -3
390
B5
  0
LAYER
  5
27
330
B
100
AcDbSymbolTableRecord
100
AcDbLayerTableRecord
  2
ADPDIM
 70
     0
 62
     3
  6
CONTINUOUS
370
    -3
390
B5
  0
LAYER
  5
22
330
B
100
AcDbSymbolTableRecord
100
AcDbLayerTableRecord
  2
ADP2DETAIL
 70
     0
 62
     5
  6
CONTINUOUS
370
    -3
390
B5
  0
ENDTAB
  0
TABLE
  2
STYLE
  5
D
330
0
100
AcDbSymbolTable
 70
     4
  0
STYLE
  5
E
330
D
100
AcDbSymbolTableRecord
100
AcDbTextStyleTableRecord
  2
STANDARD
 70
     0
 40
0.0
 41
1.0
 50
0.0
 71
     0
 42
0.2
  3
txt
  4

  0
STYLE
  5
BC
330
D
100
AcDbSymbolTableRecord
100
AcDbTextStyleTableRecord
  2
ARIAL_WIDE
 70
     0
 40
0.0
 41
1.25
 50
0.0
 71
     0
 42
0.2
  3
arial.ttf
  4

1001
ACAD
1000
Arial
1071
       34
  0
STYLE
  5
2B9
330
D
100
AcDbSymbolTableRecord
100
AcDbTextStyleTableRecord
  2

 70
     1
 40
0.0
 41
1.0
 50
0.0
 71
     0
 42
0.2
  3
ltypeshp.shx
  4

  0
ENDTAB
  0
TABLE
  2
VIEW
  5
11
330
0
100
AcDbSymbolTable
 70
     0
  0
ENDTAB
  0
TABLE
  2
UCS
  5
12
330
0
100
AcDbSymbolTable
 70
     0
  0
ENDTAB
  0
TABLE
  2
APPID
  5
15
330
0
100
AcDbSymbolTable
 70
    12
  0
APPID
  5
16
330
15
100
AcDbSymbolTableRecord
100
AcDbRegAppTableRecord
  2
ACAD
 70
     0
  0
APPID
  5
28D
330
15
100
AcDbSymbolTableRecord
100
AcDbRegAppTableRecord
  2
ACAD_EXEMPT_FROM_CAD_STANDARDS
 70
     0
  0
APPID
  5
2E6
330
15
100
AcDbSymbolTableRecord
100
AcDbRegAppTableRecord
  2
ACAD_DSTYLE_DIMTEXT_FILL
 70
     0
  0
APPID
  5
2E7
330
15
100
AcDbSymbolTableRecord
100
AcDbRegAppTableRecord
  2
ACAD_DSTYLE_DIMEXT_LENGTH
 70
     0
  0
APPID
  5
2E8
330
15
100
AcDbSymbolTableRecord
100
AcDbRegAppTableRecord
  2
ACAD_DSTYLE_DIMEXT_ENABLED
 70
     0
  0
APPID
  5
2E9
330
15
100
AcDbSymbolTableRecord
100
AcDbRegAppTableRecord
  2
ACAD_DSTYLE_DIM_LINETYPE
 70
     0
  0
APPID
  5
2EA
330
15
100
AcDbSymbolTableRecord
100
AcDbRegAppTableRecord
  2
ACAD_DSTYLE_DIM_EXT1_LINETYPE
 70
     0
  0
APPID
  5
2EB
330
15
100
AcDbSymbolTableRecord
100
AcDbRegAppTableRecord
  2
ACAD_DSTYLE_DIM_EXT2_LINETYPE
 70
     0
  0
APPID
  5
3AB
330
15
100
AcDbSymbolTableRecord
100
AcDbRegAppTableRecord
  2
ACAD_DSTYLE_DIMJOGGED_JOGANGLE_SYMBOL
 70
     0
  0
APPID
  5
40F
330
15
100
AcDbSymbolTableRecord
100
AcDbRegAppTableRecord
  2
ACAD_DSTYLE_DIMARC_LENGTH_SYMBOL
 70
     0
  0
APPID
  5
659
330
15
100
AcDbSymbolTableRecord
100
AcDbRegAppTableRecord
  2
DCO15
 70
     0
  0
APPID
  5
9C9
330
15
100
AcDbSymbolTableRecord
100
AcDbRegAppTableRecord
  2
ACAD_PSEXT
 70
     0
  0
ENDTAB
  0
TABLE
  2
DIMSTYLE
  5
17
330
0
100
AcDbSymbolTable
 70
     2
100
AcDbDimStyleTable
 71
     1
340
1D
  0
DIMSTYLE
105
1D
102
{ACAD_REACTORS
330
861
330
862
330
863
330
91A
330
91B
330
91C
330
91D
102
}
330
17
100
AcDbSymbolTableRecord
100
AcDbDimStyleTableRecord
  2
STANDARD
 70
     0
340
E
  0
ENDTAB
  0
TABLE
  2
BLOCK_RECORD
  5
1
330
0
100
AcDbSymbolTable
 70
    14
  0
BLOCK_RECORD
  5
2
102
{ACAD_XDICTIONARY
360
10F
102
}
330
1
100
AcDbSymbolTableRecord
100
AcDbBlockTableRecord
  2
*MODEL_SPACE
340
B8
  0
BLOCK_RECORD
  5
8
102
{ACAD_XDICTIONARY
360
111
102
}
330
1
100
AcDbSymbolTableRecord
100
AcDbBlockTableRecord
  2
*PAPER_SPACE
340
B9
  0
BLOCK_RECORD
  5
3A7
330
1
100
AcDbSymbolTableRecord
100
AcDbBlockTableRecord
  2
_Oblique
340
0
102
{BLKREFS
331
88F
331
890
331
899
331
89A
331
8A3
331
8A4
331
8E2
331
8E3
331
8EF
331
8F0
331
8FC
331
8FD
331
909
331
90A
331
97E
331
97F
331
992
331
993
331
9A6
331
9A7
331
9B0
331
9B1
102
}
  0
BLOCK_RECORD
  5
864
330
1
100
AcDbSymbolTableRecord
100
AcDbBlockTableRecord
  2
*D1
340
0
  0
BLOCK_RECORD
  5
871
330
1
100
AcDbSymbolTableRecord
100
AcDbBlockTableRecord
  2
*D2
340
0
  0
BLOCK_RECORD
  5
87E
330
1
100
AcDbSymbolTableRecord
100
AcDbBlockTableRecord
  2
*D3
340
0
  0
BLOCK_RECORD
  5
8DC
330
1
100
AcDbSymbolTableRecord
100
AcDbBlockTableRecord
  2
*D4
340
0
  0
BLOCK_RECORD
  5
8E9
330
1
100
AcDbSymbolTableRecord
100
AcDbBlockTableRecord
  2
*D5
340
0
  0
BLOCK_RECORD
  5
8F6
330
1
100
AcDbSymbolTableRecord
100
AcDbBlockTableRecord
  2
*D6
340
0
  0
BLOCK_RECORD
  5
903
330
1
100
AcDbSymbolTableRecord
100
AcDbBlockTableRecord
  2
*D7
340
0
  0
BLOCK_RECORD
  5
910
102
{ACAD_XDICTIONARY
360
915
102
}
330
1
100
AcDbSymbolTableRecord
100
AcDbBlockTableRecord
  2
A$C0B1A66D2
340
0
1001
ACAD
1000
DesignCenter Data
1002
{
1070
     1
1070
     0
1002
}
  0
BLOCK_RECORD
  5
91E
330
1
100
AcDbSymbolTableRecord
100
AcDbBlockTableRecord
  2
*D9
340
0
  0
BLOCK_RECORD
  5
92B
330
1
100
AcDbSymbolTableRecord
100
AcDbBlockTableRecord
  2
*D10
340
0
  0
BLOCK_RECORD
  5
938
330
1
100
AcDbSymbolTableRecord
100
AcDbBlockTableRecord
  2
*D11
340
0
  0
BLOCK_RECORD
  5
945
330
1
100
AcDbSymbolTableRecord
100
AcDbBlockTableRecord
  2
*D12
340
0
  0
ENDTAB
  0
ENDSEC
  0
SECTION
  2
BLOCKS
  0
BLOCK
  5
3
330
2
100
AcDbEntity
  8
0
100
AcDbBlockBegin
  2
*MODEL_SPACE
 70
     0
 10
0.0
 20
0.0
 30
0.0
  3
*MODEL_SPACE
  1

  0
ENDBLK
  5
7
330
2
100
AcDbEntity
  8
0
100
AcDbBlockEnd
  0
BLOCK
  5
9
330
8
100
AcDbEntity
 67
     1
  8
0
100
AcDbBlockBegin
  2
*PAPER_SPACE
 70
     0
 10
0.0
 20
0.0
 30
0.0
  3
*PAPER_SPACE
  1

  0
ENDBLK
  5
A
330
8
100
AcDbEntity
 67
     1
  8
0
100
AcDbBlockEnd
  0
BLOCK
  5
3A9
330
3A7
100
AcDbEntity
  8
0
100
AcDbBlockBegin
  2
_Oblique
 70
     0
 10
0.0
 20
0.0
 30
0.0
  3
_Oblique
  1

  0
LINE
  5
3A8
330
3A7
100
AcDbEntity
  8
0
  6
ByBlock
 62
     0
370
    -2
100
AcDbLine
 10
-0.5
 20
-0.5
 30
0.0
 11
0.5
 21
0.5
 31
0.0
  0
ENDBLK
  5
3AA
330
3A7
100
AcDbEntity
  8
0
100
AcDbBlockEnd
  0
BLOCK
  5
86F
330
864
100
AcDbEntity
  8
0
100
AcDbBlockBegin
  2
*D1
 70
     1
 10
0.0
 20
0.0
 30
0.0
  3
*D1
  1

  0
LINE
  5
88B
330
864
100
AcDbEntity
  8
ADPDIM
  6
Continuous
 62
     0
370
    -2
100
AcDbLine
 10
22.77703736997636
 20
6.910398261410145
 30
0.0
 11
22.77703736997636
 21
5.60055936761044
 31
0.0
  0
LINE
  5
88C
330
864
100
AcDbEntity
  8
ADPDIM
  6
Continuous
 62
     0
370
    -2
100
AcDbLine
 10
23.52703736997636
 20
6.910398261410142
 30
0.0
 11
23.52703736997636
 21
5.60055936761044
 31
0.0
  0
LINE
  5
88D
330
864
100
AcDbEntity
  8
ADPDIM
  6
Continuous
 62
     0
370
    -2
100
AcDbLine
 10
23.52703736997636
 20
5.78055936761044
 30
0.0
 11
22.77703736997636
 21
5.78055936761044
 31
0.0
  0
LINE
  5
88E
330
864
100
AcDbEntity
  8
ADPDIM
  6
Continuous
 62
     0
370
    -2
100
AcDbLine
 10
22.77703736997636
 20
5.78055936761044
 30
0.0
 11
22.52703736997637
 21
5.78055936761044
 31
0.0
  0
INSERT
  5
88F
330
864
100
AcDbEntity
  8
ADPDIM
  6
Continuous
 62
     0
370
    -2
100
AcDbBlockReference
  2
_Oblique
 10
23.52703736997636
 20
5.78055936761044
 30
0.0
 41
0.25
 42
0.25
 43
0.25
  0
INSERT
  5
890
330
864
100
AcDbEntity
  8
ADPDIM
  6
Continuous
 62
     0
370
    -2
100
AcDbBlockReference
  2
_Oblique
 10
22.77703736997636
 20
5.78055936761044
 30
0.0
 41
0.25
 42
0.25
 43
0.25
 50
180.0
  0
MTEXT
  5
891
330
864
100
AcDbEntity
  8
ADPDIM
  6
Continuous
 62
     0
100
AcDbMText
 10
22.2353707033097
 20
5.78055936761044
 30
0.0
 40
0.125
 41
0.0
 71
     5
 72
     1
  1
\A1;3/4
 73
     1
 44
1.0
1001
ACAD
1000
MTEXTBEGIN
1070
    73
1070
     1
1070
    44
1040
1.0
1070
    74
1070
     0
1000
MTEXTEND
  0
POINT
  5
892
330
864
100
AcDbEntity
  8
DEFPOINTS
  6
Continuous
 62
     0
100
AcDbPoint
 10
22.77703736997636
 20
6.972898261410145
 30
0.0
  0
POINT
  5
893
330
864
100
AcDbEntity
  8
DEFPOINTS
  6
Continuous
 62
     0
100
AcDbPoint
 10
23.52703736997636
 20
6.972898261410142
 30
0.0
  0
POINT
  5
894
330
864
100
AcDbEntity
  8
DEFPOINTS
  6
Continuous
 62
     0
100
AcDbPoint
 10
23.52703736997636
 20
5.78055936761044
 30
0.0
  0
ENDBLK
  5
870
330
864
100
AcDbEntity
  8
0
100
AcDbBlockEnd
  0
BLOCK
  5
87C
330
871
100
AcDbEntity
  8
0
100
AcDbBlockBegin
  2
*D2
 70
     1
 10
0.0
 20
0.0
 30
0.0
  3
*D2
  1

  0
LINE
  5
895
330
871
100
AcDbEntity
  8
ADPDIM
  6
Continuous
 62
     0
370
    -2
100
AcDbLine
 10
23.08953736997636
 20
6.929986694366117
 30
0.0
 11
21.27838362303505
 21
6.929986694366118
 31
0.0
  0
LINE
  5
896
330
871
100
AcDbEntity
  8
ADPDIM
  6
Continuous
 62
     0
370
    -2
100
AcDbLine
 10
22.71453736997637
 20
7.769986694366117
 30
0.0
 11
21.27838362303505
 21
7.769986694366118
 31
0.0
  0
LINE
  5
897
330
871
100
AcDbEntity
  8
ADPDIM
  6
Continuous
 62
     0
370
    -2
100
AcDbLine
 10
21.45838362303504
 20
6.929986694366118
 30
0.0
 11
21.45838362303504
 21
7.769986694366118
 31
0.0
  0
LINE
  5
898
330
871
100
AcDbEntity
  8
ADPDIM
  6
Continuous
 62
     0
370
    -2
100
AcDbLine
 10
21.45838362303504
 20
7.769986694366118
 30
0.0
 11
21.45838362303505
 21
8.019986694366117
 31
0.0
  0
INSERT
  5
899
330
871
100
AcDbEntity
  8
ADPDIM
  6
Continuous
 62
     0
370
    -2
100
AcDbBlockReference
  2
_Oblique
 10
21.45838362303504
 20
6.929986694366118
 30
0.0
 41
0.25
 42
0.25
 43
0.25
 50
270.0
  0
INSERT
  5
89A
330
871
100
AcDbEntity
  8
ADPDIM
  6
Continuous
 62
     0
370
    -2
100
AcDbBlockReference
  2
_Oblique
 10
21.45838362303504
 20
7.769986694366118
 30
0.0
 41
0.25
 42
0.25
 43
0.25
 50
90.0
  0
MTEXT
  5
89B
330
871
100
AcDbEntity
  8
ADPDIM
  6
Continuous
 62
     0
100
AcDbMText
 10
21.45838362303504
 20
8.394986694366121
 30
0.0
 40
0.125
 41
0.0
 71
     5
 72
     1
  1
\A1;13/16
 11
0.0000000000000001
 21
1.0
 31
0.0
 73
     1
 44
1.0
1001
ACAD
1000
MTEXTBEGIN
1070
    73
1070
     1
1070
    44
1040
1.0
1070
    74
1070
     0
1000
MTEXTEND
  0
POINT
  5
89C
330
871
100
AcDbEntity
  8
DEFPOINTS
  6
Continuous
 62
     0
100
AcDbPoint
 10
23.15203736997637
 20
6.929986694366117
 30
0.0
  0
POINT
  5
89D
330
871
100
AcDbEntity
  8
DEFPOINTS
  6
Continuous
 62
     0
100
AcDbPoint
 10
22.77703736997636
 20
7.769986694366117
 30
0.0
  0
POINT
  5
89E
330
871
100
AcDbEntity
  8
DEFPOINTS
  6
Continuous
 62
     0
100
AcDbPoint
 10
21.45838362303504
 20
7.769986694366118
 30
0.0
  0
ENDBLK
  5
87D
330
871
100
AcDbEntity
  8
0
100
AcDbBlockEnd
  0
BLOCK
  5
889
330
87E
100
AcDbEntity
  8
0
100
AcDbBlockBegin
  2
*D3
 70
     1
 10
0.0
 20
0.0
 30
0.0
  3
*D3
  1

  0
LINE
  5
89F
330
87E
100
AcDbEntity
  8
ADPDIM
  6
Continuous
 62
     0
370
    -2
100
AcDbLine
 10
23.08953736997636
 20
7.680442634986489
 30
0.0
 11
21.83681362158037
 21
7.68044263498649
 31
0.0
  0
LINE
  5
8A0
330
87E
100
AcDbEntity
  8
ADPDIM
  6
Continuous
 62
     0
370
    -2
100
AcDbLine
 10
23.08953736997636
 20
6.929986694366117
 30
0.0
 11
21.83681362158037
 21
6.929986694366118
 31
0.0
  0
LINE
  5
8A1
330
87E
100
AcDbEntity
  8
ADPDIM
  6
Continuous
 62
     0
370
    -2
100
AcDbLine
 10
22.01681362158037
 20
7.680442634986489
 30
0.0
 11
22.01681362158037
 21
7.596881331342967
 31
0.0
  0
LINE
  5
8A2
330
87E
100
AcDbEntity
  8
ADPDIM
  6
Continuous
 62
     0
370
    -2
100
AcDbLine
 10
22.01681362158037
 20
6.929986694366117
 30
0.0
 11
22.01681362158037
 21
7.013547998009633
 31
0.0
  0
INSERT
  5
8A3
330
87E
100
AcDbEntity
  8
ADPDIM
  6
Continuous
 62
     0
370
    -2
100
AcDbBlockReference
  2
_Oblique
 10
22.01681362158037
 20
7.680442634986489
 30
0.0
 41
0.25
 42
0.25
 43
0.25
 50
90.0
  0
INSERT
  5
8A4
330
87E
100
AcDbEntity
  8
ADPDIM
  6
Continuous
 62
     0
370
    -2
100
AcDbBlockReference
  2
_Oblique
 10
22.01681362158037
 20
6.929986694366117
 30
0.0
 41
0.25
 42
0.25
 43
0.25
 50
270.0
  0
MTEXT
  5
8A5
330
87E
100
AcDbEntity
  8
ADPDIM
  6
Continuous
 62
     0
100
AcDbMText
 10
22.01681362158037
 20
7.305214664676303
 30
0.0
 40
0.125
 41
0.0
 71
     5
 72
     1
  1
\A1;3/4
 11
0.0000000000000001
 21
1.0
 31
0.0
 73
     1
 44
1.0
1001
ACAD
1000
MTEXTBEGIN
1070
    73
1070
     1
1070
    44
1040
1.0
1070
    74
1070
     0
1000
MTEXTEND
  0
POINT
  5
8A6
330
87E
100
AcDbEntity
  8
DEFPOINTS
  6
Continuous
 62
     0
100
AcDbPoint
 10
23.15203736997636
 20
7.680442634986489
 30
0.0
  0
POINT
  5
8A7
330
87E
100
AcDbEntity
  8
DEFPOINTS
  6
Continuous
 62
     0
100
AcDbPoint
 10
23.15203736997637
 20
6.929986694366117
 30
0.0
  0
POINT
  5
8A8
330
87E
100
AcDbEntity
  8
DEFPOINTS
  6
Continuous
 62
     0
100
AcDbPoint
 10
22.01681362158037
 20
6.929986694366117
 30
0.0
  0
ENDBLK
  5
88A
330
87E
100
AcDbEntity
  8
0
100
AcDbBlockEnd
  0
BLOCK
  5
8DD
330
8DC
100
AcDbEntity
  8
0
100
AcDbBlockBegin
  2
*D4
 70
     1
 10
0.0
 20
0.0
 30
0.0
  3
*D4
  1

  0
LINE
  5
8DE
330
8DC
100
AcDbEntity
  8
ADPDIM
  6
Continuous
 62
     0
370
    -2
100
AcDbLine
 10
26.73020974145713
 20
6.617486694366117
 30
0.0
 11
26.73020974145713
 21
6.043297327651483
 31
0.0
  0
LINE
  5
8DF
330
8DC
100
AcDbEntity
  8
ADPDIM
  6
Continuous
 62
     0
370
    -2
100
AcDbLine
 10
26.28670974145713
 20
6.867486694366117
 30
0.0
 11
26.28670974145713
 21
6.043297327651483
 31
0.0
  0
LINE
  5
8E0
330
8DC
100
AcDbEntity
  8
ADPDIM
  6
Continuous
 62
     0
370
    -2
100
AcDbLine
 10
26.73020974145713
 20
6.223297327651483
 30
0.0
 11
26.28670974145713
 21
6.223297327651483
 31
0.0
  0
LINE
  5
8E1
330
8DC
100
AcDbEntity
  8
ADPDIM
  6
Continuous
 62
     0
370
    -2
100
AcDbLine
 10
26.28670974145713
 20
6.223297327651483
 30
0.0
 11
26.03670974145714
 21
6.223297327651483
 31
0.0
  0
INSERT
  5
8E2
330
8DC
100
AcDbEntity
  8
ADPDIM
  6
Continuous
 62
     0
370
    -2
100
AcDbBlockReference
  2
_Oblique
 10
26.73020974145713
 20
6.223297327651483
 30
0.0
 41
0.25
 42
0.25
 43
0.25
  0
INSERT
  5
8E3
330
8DC
100
AcDbEntity
  8
ADPDIM
  6
Continuous
 62
     0
370
    -2
100
AcDbBlockReference
  2
_Oblique
 10
26.28670974145713
 20
6.223297327651483
 30
0.0
 41
0.25
 42
0.25
 43
0.25
 50
180.0
  0
MTEXT
  5
8E4
330
8DC
100
AcDbEntity
  8
ADPDIM
  6
Continuous
 62
     0
100
AcDbMText
 10
25.7033764081238
 20
6.223297327651483
 30
0.0
 40
0.125
 41
0.0
 71
     5
 72
     1
  1
\A1;7/16
 73
     1
 44
1.0
1001
ACAD
1000
MTEXTBEGIN
1070
    73
1070
     1
1070
    44
1040
1.0
1070
    74
1070
     0
1000
MTEXTEND
  0
POINT
  5
8E5
330
8DC
100
AcDbEntity
  8
DEFPOINTS
  6
Continuous
 62
     0
100
AcDbPoint
 10
26.73020974145713
 20
6.679986694366117
 30
0.0
  0
POINT
  5
8E6
330
8DC
100
AcDbEntity
  8
DEFPOINTS
  6
Continuous
 62
     0
100
AcDbPoint
 10
26.28670974145713
 20
6.929986694366117
 30
0.0
  0
POINT
  5
8E7
330
8DC
100
AcDbEntity
  8
DEFPOINTS
  6
Continuous
 62
     0
100
AcDbPoint
 10
26.28670974145713
 20
6.223297327651483
 30
0.0
  0
ENDBLK
  5
8E8
330
8DC
100
AcDbEntity
  8
0
100
AcDbBlockEnd
  0
BLOCK
  5
8EA
330
8E9
100
AcDbEntity
  8
0
100
AcDbBlockBegin
  2
*D5
 70
     1
 10
0.0
 20
0.0
 30
0.0
  3
*D5
  1

  0
LINE
  5
8EB
330
8E9
100
AcDbEntity
  8
ADPDIM
  6
Continuous
 62
     0
370
    -2
100
AcDbLine
 10
26.28670974145713
 20
6.867486694366117
 30
0.0
 11
26.28670974145713
 21
5.60055936761044
 31
0.0
  0
LINE
  5
8EC
330
8E9
100
AcDbEntity
  8
ADPDIM
  6
Continuous
 62
     0
370
    -2
100
AcDbLine
 10
28.99270974145713
 20
6.867486694366117
 30
0.0
 11
28.99270974145713
 21
5.60055936761044
 31
0.0
  0
LINE
  5
8ED
330
8E9
100
AcDbEntity
  8
ADPDIM
  6
Continuous
 62
     0
370
    -2
100
AcDbLine
 10
26.28670974145713
 20
5.78055936761044
 30
0.0
 11
27.16054307479046
 21
5.78055936761044
 31
0.0
  0
LINE
  5
8EE
330
8E9
100
AcDbEntity
  8
ADPDIM
  6
Continuous
 62
     0
370
    -2
100
AcDbLine
 10
28.99270974145713
 20
5.78055936761044
 30
0.0
 11
28.1188764081238
 21
5.78055936761044
 31
0.0
  0
INSERT
  5
8EF
330
8E9
100
AcDbEntity
  8
ADPDIM
  6
Continuous
 62
     0
370
    -2
100
AcDbBlockReference
  2
_Oblique
 10
26.28670974145713
 20
5.78055936761044
 30
0.0
 41
0.25
 42
0.25
 43
0.25
 50
180.0
  0
INSERT
  5
8F0
330
8E9
100
AcDbEntity
  8
ADPDIM
  6
Continuous
 62
     0
370
    -2
100
AcDbBlockReference
  2
_Oblique
 10
28.99270974145713
 20
5.78055936761044
 30
0.0
 41
0.25
 42
0.25
 43
0.25
  0
MTEXT
  5
8F1
330
8E9
100
AcDbEntity
  8
ADPDIM
  6
Continuous
 62
     0
100
AcDbMText
 10
27.63970974145713
 20
5.78055936761044
 30
0.0
 40
0.125
 41
0.0
 71
     5
 72
     1
  1
\A1;2 11/16
 73
     1
 44
1.0
1001
ACAD
1000
MTEXTBEGIN
1070
    73
1070
     1
1070
    44
1040
1.0
1070
    74
1070
     0
1000
MTEXTEND
  0
POINT
  5
8F2
330
8E9
100
AcDbEntity
  8
DEFPOINTS
  6
Continuous
 62
     0
100
AcDbPoint
 10
26.28670974145713
 20
6.929986694366117
 30
0.0
  0
POINT
  5
8F3
330
8E9
100
AcDbEntity
  8
DEFPOINTS
  6
Continuous
 62
     0
100
AcDbPoint
 10
28.99270974145713
 20
6.929986694366117
 30
0.0
  0
POINT
  5
8F4
330
8E9
100
AcDbEntity
  8
DEFPOINTS
  6
Continuous
 62
     0
100
AcDbPoint
 10
28.99270974145713
 20
5.78055936761044
 30
0.0
  0
ENDBLK
  5
8F5
330
8E9
100
AcDbEntity
  8
0
100
AcDbBlockEnd
  0
BLOCK
  5
8F7
330
8F6
100
AcDbEntity
  8
0
100
AcDbBlockBegin
  2
*D6
 70
     1
 10
0.0
 20
0.0
 30
0.0
  3
*D6
  1

  0
LINE
  5
8F8
330
8F6
100
AcDbEntity
  8
ADPDIM
  6
Continuous
 62
     0
370
    -2
100
AcDbLine
 10
26.73020974145713
 20
6.617486694366117
 30
0.0
 11
26.73020974145713
 21
6.043297327651483
 31
0.0
  0
LINE
  5
8F9
330
8F6
100
AcDbEntity
  8
ADPDIM
  6
Continuous
 62
     0
370
    -2
100
AcDbLine
 10
28.54920974145713
 20
6.617486694366108
 30
0.0
 11
28.54920974145713
 21
6.043297327651483
 31
0.0
  0
LINE
  5
8FA
330
8F6
100
AcDbEntity
  8
ADPDIM
  6
Continuous
 62
     0
370
    -2
100
AcDbLine
 10
26.73020974145713
 20
6.223297327651483
 30
0.0
 11
27.16054307479046
 21
6.223297327651483
 31
0.0
  0
LINE
  5
8FB
330
8F6
100
AcDbEntity
  8
ADPDIM
  6
Continuous
 62
     0
370
    -2
100
AcDbLine
 10
28.54920974145713
 20
6.223297327651483
 30
0.0
 11
28.1188764081238
 21
6.223297327651483
 31
0.0
  0
INSERT
  5
8FC
330
8F6
100
AcDbEntity
  8
ADPDIM
  6
Continuous
 62
     0
370
    -2
100
AcDbBlockReference
  2
_Oblique
 10
26.73020974145713
 20
6.223297327651483
 30
0.0
 41
0.25
 42
0.25
 43
0.25
 50
180.0
  0
INSERT
  5
8FD
330
8F6
100
AcDbEntity
  8
ADPDIM
  6
Continuous
 62
     0
370
    -2
100
AcDbBlockReference
  2
_Oblique
 10
28.54920974145713
 20
6.223297327651483
 30
0.0
 41
0.25
 42
0.25
 43
0.25
  0
MTEXT
  5
8FE
330
8F6
100
AcDbEntity
  8
ADPDIM
  6
Continuous
 62
     0
100
AcDbMText
 10
27.63970974145713
 20
6.223297327651483
 30
0.0
 40
0.125
 41
0.0
 71
     5
 72
     1
  1
\A1;1 13/16
 73
     1
 44
1.0
1001
ACAD
1000
MTEXTBEGIN
1070
    73
1070
     1
1070
    44
1040
1.0
1070
    74
1070
     0
1000
MTEXTEND
  0
POINT
  5
8FF
330
8F6
100
AcDbEntity
  8
DEFPOINTS
  6
Continuous
 62
     0
100
AcDbPoint
 10
26.73020974145713
 20
6.679986694366117
 30
0.0
  0
POINT
  5
900
330
8F6
100
AcDbEntity
  8
DEFPOINTS
  6
Continuous
 62
     0
100
AcDbPoint
 10
28.54920974145713
 20
6.679986694366108
 30
0.0
  0
POINT
  5
901
330
8F6
100
AcDbEntity
  8
DEFPOINTS
  6
Continuous
 62
     0
100
AcDbPoint
 10
28.54920974145713
 20
6.223297327651483
 30
0.0
  0
ENDBLK
  5
902
330
8F6
100
AcDbEntity
  8
0
100
AcDbBlockEnd
  0
BLOCK
  5
904
330
903
100
AcDbEntity
  8
0
100
AcDbBlockBegin
  2
*D7
 70
     1
 10
0.0
 20
0.0
 30
0.0
  3
*D7
  1

  0
LINE
  5
905
330
903
100
AcDbEntity
  8
ADPDIM
  6
Continuous
 62
     0
370
    -2
100
AcDbLine
 10
28.54920974145713
 20
6.617486694366117
 30
0.0
 11
28.54920974145713
 21
6.043297327651483
 31
0.0
  0
LINE
  5
906
330
903
100
AcDbEntity
  8
ADPDIM
  6
Continuous
 62
     0
370
    -2
100
AcDbLine
 10
28.99270974145713
 20
6.867486694366117
 30
0.0
 11
28.99270974145713
 21
6.043297327651483
 31
0.0
  0
LINE
  5
907
330
903
100
AcDbEntity
  8
ADPDIM
  6
Continuous
 62
     0
370
    -2
100
AcDbLine
 10
28.54920974145713
 20
6.223297327651483
 30
0.0
 11
28.99270974145713
 21
6.223297327651483
 31
0.0
  0
LINE
  5
908
330
903
100
AcDbEntity
  8
ADPDIM
  6
Continuous
 62
     0
370
    -2
100
AcDbLine
 10
28.99270974145713
 20
6.223297327651483
 30
0.0
 11
29.24270974145713
 21
6.223297327651483
 31
0.0
  0
INSERT
  5
909
330
903
100
AcDbEntity
  8
ADPDIM
  6
Continuous
 62
     0
370
    -2
100
AcDbBlockReference
  2
_Oblique
 10
28.54920974145713
 20
6.223297327651483
 30
0.0
 41
0.25
 42
0.25
 43
0.25
 50
180.0
  0
INSERT
  5
90A
330
903
100
AcDbEntity
  8
ADPDIM
  6
Continuous
 62
     0
370
    -2
100
AcDbBlockReference
  2
_Oblique
 10
28.99270974145713
 20
6.223297327651483
 30
0.0
 41
0.25
 42
0.25
 43
0.25
  0
MTEXT
  5
90B
330
903
100
AcDbEntity
  8
ADPDIM
  6
Continuous
 62
     0
100
AcDbMText
 10
29.57604307479046
 20
6.223297327651483
 30
0.0
 40
0.125
 41
0.0
 71
     5
 72
     1
  1
\A1;7/16
 73
     1
 44
1.0
1001
ACAD
1000
MTEXTBEGIN
1070
    73
1070
     1
1070
    44
1040
1.0
1070
    74
1070
     0
1000
MTEXTEND
  0
POINT
  5
90C
330
903
100
AcDbEntity
  8
DEFPOINTS
  6
Continuous
 62
     0
100
AcDbPoint
 10
28.54920974145713
 20
6.679986694366117
 30
0.0
  0
POINT
  5
90D
330
903
100
AcDbEntity
  8
DEFPOINTS
  6
Continuous
 62
     0
100
AcDbPoint
 10
28.99270974145713
 20
6.929986694366117
 30
0.0
  0
POINT
  5
90E
330
903
100
AcDbEntity
  8
DEFPOINTS
  6
Continuous
 62
     0
100
AcDbPoint
 10
28.99270974145713
 20
6.223297327651483
 30
0.0
  0
ENDBLK
  5
90F
330
903
100
AcDbEntity
  8
0
100
AcDbBlockEnd
  0
BLOCK
  5
917
330
910
100
AcDbEntity
  8
0
100
AcDbBlockBegin
  2
A$C0B1A66D2
 70
     0
 10
0.0
 20
0.0
 30
0.0
  3
A$C0B1A66D2
  1

  0
DIMENSION
  5
911
330
910
100
AcDbEntity
  8
ADPDIM
  6
Continuous
100
AcDbDimension
  2
*D4
 10
0.0
 20
-0.7066893667146346
 30
0.0
 11
-0.5833333333333322
 21
-0.7066893667146346
 31
0.0
 12
-26.28670974145713
 22
-6.929986694366117
 32
0.0
 71
     5
 42
0.4434999999999967
  3
STANDARD
100
AcDbAlignedDimension
 13
0.4434999999999967
 23
-0.25
 33
0.0
 14
0.0
 24
0.0
 34
0.0
100
AcDbRotatedDimension
1001
ACAD
1000
DSTYLE
1002
{
1070
    41
1040
0.25
1070
    73
1070
     0
1070
    74
1070
     0
1070
    78
1070
     3
1070
   140
1040
0.125
1070
   141
1040
0.1875
1070
   147
1040
0.125
1070
   171
1070
     1
1070
   173
1070
     1
1070
   274
1070
     1
1070
   276
1070
     2
1070
   277
1070
     5
1070
   343
1005
3A7
1070
   344
1005
3A7
1002
}
  0
DIMENSION
  5
912
330
910
100
AcDbEntity
  8
ADPDIM
  6
Continuous
100
AcDbDimension
  2
*D5
 10
2.705999999999999
 20
-1.149427326755677
 30
0.0
 11
1.352999999999997
 21
-1.149427326755677
 31
0.0
 12
-26.28670974145713
 22
-6.929986694366117
 32
0.0
 71
     5
 42
2.705999999999999
  3
STANDARD
100
AcDbAlignedDimension
 13
0.0
 23
0.0
 33
0.0
 14
2.705999999999999
 24
0.0
 34
0.0
100
AcDbRotatedDimension
1001
ACAD
1000
DSTYLE
1002
{
1070
    41
1040
0.25
1070
    73
1070
     0
1070
    74
1070
     0
1070
    78
1070
     3
1070
   140
1040
0.125
1070
   141
1040
0.1875
1070
   147
1040
0.125
1070
   171
1070
     1
1070
   173
1070
     1
1070
   274
1070
     1
1070
   276
1070
     2
1070
   277
1070
     5
1070
   343
1005
3A7
1070
   344
1005
3A7
1002
}
  0
DIMENSION
  5
913
330
910
100
AcDbEntity
  8
ADPDIM
  6
Continuous
100
AcDbDimension
  2
*D6
 10
2.262499999999995
 20
-0.7066893667146346
 30
0.0
 11
1.352999999999997
 21
-0.7066893667146346
 31
0.0
 12
-26.28670974145713
 22
-6.929986694366117
 32
0.0
 71
     5
 42
1.818999999999999
  3
STANDARD
100
AcDbAlignedDimension
 13
0.4434999999999967
 23
-0.25
 33
0.0
 14
2.262499999999995
 24
-0.2500000000000098
 34
0.0
100
AcDbRotatedDimension
1001
ACAD
1000
DSTYLE
1002
{
1070
    41
1040
0.25
1070
    73
1070
     0
1070
    74
1070
     0
1070
    78
1070
     3
1070
   140
1040
0.125
1070
   141
1040
0.1875
1070
   147
1040
0.125
1070
   171
1070
     1
1070
   173
1070
     1
1070
   274
1070
     1
1070
   276
1070
     2
1070
   277
1070
     5
1070
   343
1005
3A7
1070
   344
1005
3A7
1002
}
  0
DIMENSION
  5
914
330
910
100
AcDbEntity
  8
ADPDIM
  6
Continuous
100
AcDbDimension
  2
*D7
 10
2.705999999999999
 20
-0.7066893667146346
 30
0.0
 11
3.289333333333331
 21
-0.7066893667146346
 31
0.0
 12
-26.28670974145713
 22
-6.929986694366117
 32
0.0
 71
     5
 42
0.4435000000000038
  3
STANDARD
100
AcDbAlignedDimension
 13
2.262499999999995
 23
-0.25
 33
0.0
 14
2.705999999999999
 24
0.0
 34
0.0
100
AcDbRotatedDimension
1001
ACAD
1000
DSTYLE
1002
{
1070
    41
1040
0.25
1070
    73
1070
     0
1070
    74
1070
     0
1070
    78
1070
     3
1070
   140
1040
0.125
1070
   141
1040
0.1875
1070
   147
1040
0.125
1070
   171
1070
     1
1070
   173
1070
     1
1070
   274
1070
     1
1070
   276
1070
     2
1070
   277
1070
     5
1070
   343
1005
3A7
1070
   344
1005
3A7
1002
}
  0
ENDBLK
  5
918
330
910
100
AcDbEntity
  8
0
100
AcDbBlockEnd
  0
BLOCK
  5
929
330
91E
100
AcDbEntity
  8
0
100
AcDbBlockBegin
  2
*D9
 70
     1
 10
0.0
 20
0.0
 30
0.0
  3
*D9
  1

  0
LINE
  5
97A
330
91E
100
AcDbEntity
  8
ADPDIM
  6
Continuous
 62
     0
370
    -2
100
AcDbLine
 10
25.74713319912151
 20
6.617486694366117
 30
0.0
 11
25.74713319912151
 21
6.043297327651483
 31
0.0
  0
LINE
  5
97B
330
91E
100
AcDbEntity
  8
ADPDIM
  6
Continuous
 62
     0
370
    -2
100
AcDbLine
 10
25.30613319912151
 20
6.867486694366117
 30
0.0
 11
25.30613319912151
 21
6.043297327651483
 31
0.0
  0
LINE
  5
97C
330
91E
100
AcDbEntity
  8
ADPDIM
  6
Continuous
 62
     0
370
    -2
100
AcDbLine
 10
25.74713319912151
 20
6.223297327651483
 30
0.0
 11
25.30613319912151
 21
6.223297327651483
 31
0.0
  0
LINE
  5
97D
330
91E
100
AcDbEntity
  8
ADPDIM
  6
Continuous
 62
     0
370
    -2
100
AcDbLine
 10
25.30613319912151
 20
6.223297327651483
 30
0.0
 11
25.05613319912151
 21
6.223297327651483
 31
0.0
  0
INSERT
  5
97E
330
91E
100
AcDbEntity
  8
ADPDIM
  6
Continuous
 62
     0
370
    -2
100
AcDbBlockReference
  2
_Oblique
 10
25.74713319912151
 20
6.223297327651483
 30
0.0
 41
0.25
 42
0.25
 43
0.25
  0
INSERT
  5
97F
330
91E
100
AcDbEntity
  8
ADPDIM
  6
Continuous
 62
     0
370
    -2
100
AcDbBlockReference
  2
_Oblique
 10
25.30613319912151
 20
6.223297327651483
 30
0.0
 41
0.25
 42
0.25
 43
0.25
 50
180.0
  0
MTEXT
  5
980
330
91E
100
AcDbEntity
  8
ADPDIM
  6
Continuous
 62
     0
100
AcDbMText
 10
24.72279986578818
 20
6.223297327651483
 30
0.0
 40
0.125
 41
0.0
 71
     5
 72
     1
  1
\A1;7/16
 73
     1
 44
1.0
1001
ACAD
1000
MTEXTBEGIN
1070
    73
1070
     1
1070
    44
1040
1.0
1070
    74
1070
     0
1000
MTEXTEND
  0
POINT
  5
981
330
91E
100
AcDbEntity
  8
DEFPOINTS
  6
Continuous
 62
     0
100
AcDbPoint
 10
25.74713319912151
 20
6.679986694366117
 30
0.0
  0
POINT
  5
982
330
91E
100
AcDbEntity
  8
DEFPOINTS
  6
Continuous
 62
     0
100
AcDbPoint
 10
25.30613319912151
 20
6.929986694366117
 30
0.0
  0
POINT
  5
983
330
91E
100
AcDbEntity
  8
DEFPOINTS
  6
Continuous
 62
     0
100
AcDbPoint
 10
25.30613319912151
 20
6.223297327651483
 30
0.0
  0
ENDBLK
  5
92A
330
91E
100
AcDbEntity
  8
0
100
AcDbBlockEnd
  0
BLOCK
  5
936
330
92B
100
AcDbEntity
  8
0
100
AcDbBlockBegin
  2
*D10
 70
     1
 10
0.0
 20
0.0
 30
0.0
  3
*D10
  1

  0
LINE
  5
9A2
330
92B
100
AcDbEntity
  8
ADPDIM
  6
Continuous
 62
     0
370
    -2
100
AcDbLine
 10
25.30613319912151
 20
6.867486694366117
 30
0.0
 11
25.30613319912151
 21
5.60055936761044
 31
0.0
  0
LINE
  5
9A3
330
92B
100
AcDbEntity
  8
ADPDIM
  6
Continuous
 62
     0
370
    -2
100
AcDbLine
 10
27.80613319912151
 20
6.867486694366117
 30
0.0
 11
27.80613319912151
 21
5.60055936761044
 31
0.0
  0
LINE
  5
9A4
330
92B
100
AcDbEntity
  8
ADPDIM
  6
Continuous
 62
     0
370
    -2
100
AcDbLine
 10
25.30613319912151
 20
5.78055936761044
 30
0.0
 11
26.16029986578818
 21
5.78055936761044
 31
0.0
  0
LINE
  5
9A5
330
92B
100
AcDbEntity
  8
ADPDIM
  6
Continuous
 62
     0
370
    -2
100
AcDbLine
 10
27.80613319912151
 20
5.78055936761044
 30
0.0
 11
26.95196653245484
 21
5.78055936761044
 31
0.0
  0
INSERT
  5
9A6
330
92B
100
AcDbEntity
  8
ADPDIM
  6
Continuous
 62
     0
370
    -2
100
AcDbBlockReference
  2
_Oblique
 10
25.30613319912151
 20
5.78055936761044
 30
0.0
 41
0.25
 42
0.25
 43
0.25
 50
180.0
  0
INSERT
  5
9A7
330
92B
100
AcDbEntity
  8
ADPDIM
  6
Continuous
 62
     0
370
    -2
100
AcDbBlockReference
  2
_Oblique
 10
27.80613319912151
 20
5.78055936761044
 30
0.0
 41
0.25
 42
0.25
 43
0.25
  0
MTEXT
  5
9A8
330
92B
100
AcDbEntity
  8
ADPDIM
  6
Continuous
 62
     0
100
AcDbMText
 10
26.55613319912151
 20
5.78055936761044
 30
0.0
 40
0.125
 41
0.0
 71
     5
 72
     1
  1
\A1;2 1/2
 73
     1
 44
1.0
1001
ACAD
1000
MTEXTBEGIN
1070
    73
1070
     1
1070
    44
1040
1.0
1070
    74
1070
     0
1000
MTEXTEND
  0
POINT
  5
9A9
330
92B
100
AcDbEntity
  8
DEFPOINTS
  6
Continuous
 62
     0
100
AcDbPoint
 10
25.30613319912151
 20
6.929986694366117
 30
0.0
  0
POINT
  5
9AA
330
92B
100
AcDbEntity
  8
DEFPOINTS
  6
Continuous
 62
     0
100
AcDbPoint
 10
27.80613319912151
 20
6.929986694366117
 30
0.0
  0
POINT
  5
9AB
330
92B
100
AcDbEntity
  8
DEFPOINTS
  6
Continuous
 62
     0
100
AcDbPoint
 10
27.80613319912151
 20
5.78055936761044
 30
0.0
  0
ENDBLK
  5
937
330
92B
100
AcDbEntity
  8
0
100
AcDbBlockEnd
  0
BLOCK
  5
943
330
938
100
AcDbEntity
  8
0
100
AcDbBlockBegin
  2
*D11
 70
     1
 10
0.0
 20
0.0
 30
0.0
  3
*D11
  1

  0
LINE
  5
98E
330
938
100
AcDbEntity
  8
ADPDIM
  6
Continuous
 62
     0
370
    -2
100
AcDbLine
 10
25.74713319912151
 20
6.617486694366117
 30
0.0
 11
25.74713319912151
 21
6.043297327651483
 31
0.0
  0
LINE
  5
98F
330
938
100
AcDbEntity
  8
ADPDIM
  6
Continuous
 62
     0
370
    -2
100
AcDbLine
 10
27.36513319912151
 20
6.617486694366108
 30
0.0
 11
27.36513319912151
 21
6.043297327651483
 31
0.0
  0
LINE
  5
990
330
938
100
AcDbEntity
  8
ADPDIM
  6
Continuous
 62
     0
370
    -2
100
AcDbLine
 10
25.74713319912151
 20
6.223297327651483
 30
0.0
 11
26.16029986578818
 21
6.223297327651483
 31
0.0
  0
LINE
  5
991
330
938
100
AcDbEntity
  8
ADPDIM
  6
Continuous
 62
     0
370
    -2
100
AcDbLine
 10
27.36513319912151
 20
6.223297327651483
 30
0.0
 11
26.95196653245484
 21
6.223297327651483
 31
0.0
  0
INSERT
  5
992
330
938
100
AcDbEntity
  8
ADPDIM
  6
Continuous
 62
     0
370
    -2
100
AcDbBlockReference
  2
_Oblique
 10
25.74713319912151
 20
6.223297327651483
 30
0.0
 41
0.25
 42
0.25
 43
0.25
 50
180.0
  0
INSERT
  5
993
330
938
100
AcDbEntity
  8
ADPDIM
  6
Continuous
 62
     0
370
    -2
100
AcDbBlockReference
  2
_Oblique
 10
27.36513319912151
 20
6.223297327651483
 30
0.0
 41
0.25
 42
0.25
 43
0.25
  0
MTEXT
  5
994
330
938
100
AcDbEntity
  8
ADPDIM
  6
Continuous
 62
     0
100
AcDbMText
 10
26.55613319912151
 20
6.223297327651483
 30
0.0
 40
0.125
 41
0.0
 71
     5
 72
     1
  1
\A1;1 5/8
 73
     1
 44
1.0
1001
ACAD
1000
MTEXTBEGIN
1070
    73
1070
     1
1070
    44
1040
1.0
1070
    74
1070
     0
1000
MTEXTEND
  0
POINT
  5
995
330
938
100
AcDbEntity
  8
DEFPOINTS
  6
Continuous
 62
     0
100
AcDbPoint
 10
25.74713319912151
 20
6.679986694366117
 30
0.0
  0
POINT
  5
996
330
938
100
AcDbEntity
  8
DEFPOINTS
  6
Continuous
 62
     0
100
AcDbPoint
 10
27.36513319912151
 20
6.679986694366108
 30
0.0
  0
POINT
  5
997
330
938
100
AcDbEntity
  8
DEFPOINTS
  6
Continuous
 62
     0
100
AcDbPoint
 10
27.36513319912151
 20
6.223297327651483
 30
0.0
  0
ENDBLK
  5
944
330
938
100
AcDbEntity
  8
0
100
AcDbBlockEnd
  0
BLOCK
  5
950
330
945
100
AcDbEntity
  8
0
100
AcDbBlockBegin
  2
*D12
 70
     1
 10
0.0
 20
0.0
 30
0.0
  3
*D12
  1

  0
LINE
  5
9AC
330
945
100
AcDbEntity
  8
ADPDIM
  6
Continuous
 62
     0
370
    -2
100
AcDbLine
 10
27.36513319912151
 20
6.617486694366117
 30
0.0
 11
27.36513319912151
 21
6.043297327651483
 31
0.0
  0
LINE
  5
9AD
330
945
100
AcDbEntity
  8
ADPDIM
  6
Continuous
 62
     0
370
    -2
100
AcDbLine
 10
27.80613319912151
 20
6.867486694366117
 30
0.0
 11
27.80613319912151
 21
6.043297327651483
 31
0.0
  0
LINE
  5
9AE
330
945
100
AcDbEntity
  8
ADPDIM
  6
Continuous
 62
     0
370
    -2
100
AcDbLine
 10
27.36513319912151
 20
6.223297327651483
 30
0.0
 11
27.80613319912151
 21
6.223297327651483
 31
0.0
  0
LINE
  5
9AF
330
945
100
AcDbEntity
  8
ADPDIM
  6
Continuous
 62
     0
370
    -2
100
AcDbLine
 10
27.80613319912151
 20
6.223297327651483
 30
0.0
 11
28.05613319912151
 21
6.223297327651483
 31
0.0
  0
INSERT
  5
9B0
330
945
100
AcDbEntity
  8
ADPDIM
  6
Continuous
 62
     0
370
    -2
100
AcDbBlockReference
  2
_Oblique
 10
27.36513319912151
 20
6.223297327651483
 30
0.0
 41
0.25
 42
0.25
 43
0.25
 50
180.0
  0
INSERT
  5
9B1
330
945
100
AcDbEntity
  8
ADPDIM
  6
Continuous
 62
     0
370
    -2
100
AcDbBlockReference
  2
_Oblique
 10
27.80613319912151
 20
6.223297327651483
 30
0.0
 41
0.25
 42
0.25
 43
0.25
  0
MTEXT
  5
9B2
330
945
100
AcDbEntity
  8
ADPDIM
  6
Continuous
 62
     0
100
AcDbMText
 10
28.38946653245484
 20
6.223297327651483
 30
0.0
 40
0.125
 41
0.0
 71
     5
 72
     1
  1
\A1;7/16
 73
     1
 44
1.0
1001
ACAD
1000
MTEXTBEGIN
1070
    73
1070
     1
1070
    44
1040
1.0
1070
    74
1070
     0
1000
MTEXTEND
  0
POINT
  5
9B3
330
945
100
AcDbEntity
  8
DEFPOINTS
  6
Continuous
 62
     0
100
AcDbPoint
 10
27.36513319912151
 20
6.679986694366117
 30
0.0
  0
POINT
  5
9B4
330
945
100
AcDbEntity
  8
DEFPOINTS
  6
Continuous
 62
     0
100
AcDbPoint
 10
27.80613319912151
 20
6.929986694366117
 30
0.0
  0
POINT
  5
9B5
330
945
100
AcDbEntity
  8
DEFPOINTS
  6
Continuous
 62
     0
100
AcDbPoint
 10
27.80613319912151
 20
6.223297327651483
 30
0.0
  0
ENDBLK
  5
951
330
945
100
AcDbEntity
  8
0
100
AcDbBlockEnd
  0
ENDSEC
  0
SECTION
  2
ENTITIES
  0
LINE
  5
857
330
2
100
AcDbEntity
  8
ADP1DETAIL
  6
Continuous
100
AcDbLine
 10
23.52703736997636
 20
6.972898261410145
 30
0.0
 11
23.52703736997637
 21
7.769986694366117
 31
0.0
  0
LINE
  5
858
330
2
100
AcDbEntity
  8
ADP1DETAIL
  6
Continuous
100
AcDbLine
 10
22.77703736997636
 20
7.769986694366117
 30
0.0
 11
22.77703736997636
 21
6.972898261410145
 31
0.0
  0
ARC
  5
859
330
2
100
AcDbEntity
  8
ADP1DETAIL
  6
Continuous
100
AcDbCircle
 10
23.15203736997636
 20
8.589986694366118
 30
0.0
 40
1.659999999999999
100
AcDbArc
 50
256.9439803772421
 51
283.0560196227582
  0
ARC
  5
85A
330
2
100
AcDbEntity
  8
ADP1DETAIL
  6
Continuous
100
AcDbCircle
 10
23.15203736997636
 20
8.510442634986489
 30
0.0
 40
0.8299999999999998
100
AcDbArc
 50
243.1403068697965
 51
296.8596931302042
  0
LINE
  5
85B
330
2
100
AcDbEntity
  8
ADP2DETAIL
  6
HIDDEN2
100
AcDbLine
 10
23.35203736997637
 20
6.942078929956957
 30
0.0
 11
23.35203736997637
 21
7.269986694366117
 31
0.0
  0
LINE
  5
85C
330
2
100
AcDbEntity
  8
ADP2DETAIL
  6
HIDDEN2
100
AcDbLine
 10
22.95203736997637
 20
6.942078929956956
 30
0.0
 11
22.95203736997637
 21
7.269986694366117
 31
0.0
  0
LINE
  5
85D
330
2
100
AcDbEntity
  8
ADP2DETAIL
  6
HIDDEN2
100
AcDbLine
 10
22.95203736997637
 20
7.269986694366117
 30
0.0
 11
23.35203736997636
 21
7.269986694366117
 31
0.0
  0
LINE
  5
85E
330
2
100
AcDbEntity
  8
ADP2DETAIL
  6
HIDDEN2
100
AcDbLine
 10
23.28203736997636
 20
7.269986694366117
 30
0.0
 11
23.28203736997636
 21
7.690686573709721
 31
0.0
  0
LINE
  5
85F
330
2
100
AcDbEntity
  8
ADP2DETAIL
  6
HIDDEN2
100
AcDbLine
 10
23.02203736997637
 20
7.269986694366117
 30
0.0
 11
23.02203736997637
 21
7.69068657370972
 31
0.0
  0
LINE
  5
860
330
2
100
AcDbEntity
  8
ADPDIM
  6
CENTER
 48
0.5
100
AcDbLine
 10
23.15203736997636
 20
6.679986694366117
 30
0.0
 11
23.15203736997637
 21
7.930442634986489
 31
0.0
  0
DIMENSION
  5
861
330
2
100
AcDbEntity
  8
ADPDIM
  6
Continuous
100
AcDbDimension
  2
*D1
 10
23.52703736997636
 20
5.78055936761044
 30
0.0
 11
22.2353707033097
 21
5.78055936761044
 31
0.0
 70
   160
  1
<>
 71
     5
 42
0.7499999999999965
  3
STANDARD
100
AcDbAlignedDimension
 13
22.77703736997636
 23
6.972898261410145
 33
0.0
 14
23.52703736997636
 24
6.972898261410142
 34
0.0
100
AcDbRotatedDimension
1001
ACAD
1000
DSTYLE
1002
{
1070
    41
1040
0.25
1070
    73
1070
     0
1070
    74
1070
     0
1070
    78
1070
     3
1070
   140
1040
0.125
1070
   141
1040
0.1875
1070
   147
1040
0.125
1070
   171
1070
     1
1070
   173
1070
     1
1070
   274
1070
     1
1070
   276
1070
     2
1070
   277
1070
     5
1070
   343
1005
3A7
1070
   344
1005
3A7
1002
}
  0
DIMENSION
  5
862
330
2
100
AcDbEntity
  8
ADPDIM
  6
Continuous
100
AcDbDimension
  2
*D2
 10
21.45838362303504
 20
7.769986694366118
 30
0.0
 11
21.45838362303504
 21
8.394986694366121
 31
0.0
 70
   160
 71
     5
 42
0.8399999999999998
  3
STANDARD
100
AcDbAlignedDimension
 13
23.15203736997637
 23
6.929986694366117
 33
0.0
 14
22.77703736997636
 24
7.769986694366117
 34
0.0
 50
90.0
100
AcDbRotatedDimension
1001
ACAD
1000
DSTYLE
1002
{
1070
    41
1040
0.25
1070
    73
1070
     0
1070
    74
1070
     0
1070
    78
1070
     3
1070
   140
1040
0.125
1070
   141
1040
0.1875
1070
   147
1040
0.125
1070
   171
1070
     1
1070
   173
1070
     1
1070
   274
1070
     1
1070
   276
1070
     2
1070
   277
1070
     5
1070
   343
1005
3A7
1070
   344
1005
3A7
1002
}
  0
DIMENSION
  5
863
330
2
100
AcDbEntity
  8
ADPDIM
  6
Continuous
100
AcDbDimension
  2
*D3
 10
22.01681362158037
 20
6.929986694366117
 30
0.0
 11
22.01681362158037
 21
7.305214664676303
 31
0.0
 70
   160
 71
     5
 42
0.7504559406203715
  3
STANDARD
100
AcDbAlignedDimension
 13
23.15203736997636
 23
7.680442634986489
 33
0.0
 14
23.15203736997637
 24
6.929986694366117
 34
0.0
 50
90.0
100
AcDbRotatedDimension
1001
ACAD
1000
DSTYLE
1002
{
1070
    41
1040
0.25
1070
    73
1070
     0
1070
    74
1070
     0
1070
    78
1070
     3
1070
   140
1040
0.125
1070
   141
1040
0.1875
1070
   147
1040
0.125
1070
   171
1070
     1
1070
   173
1070
     1
1070
   274
1070
     1
1070
   276
1070
     2
1070
   277
1070
     5
1070
   343
1005
3A7
1070
   344
1005
3A7
1002
}
  0
LINE
  5
8C1
330
2
100
AcDbEntity
  8
ADP1DETAIL
  6
Continuous
100
AcDbLine
 10
25.30613319912151
 20
6.929986694366117
 30
0.0
 11
25.30613319912151
 21
7.769986694366117
 31
0.0
  0
LINE
  5
8C3
330
2
100
AcDbEntity
  8
ADP1DETAIL
  6
Continuous
100
AcDbLine
 10
25.30613319912151
 20
7.76998669436612
 30
0.0
 11
27.80613319912152
 21
7.769986694366121
 31
0.0
  0
LINE
  5
8C4
330
2
100
AcDbEntity
  8
ADP1DETAIL
  6
Continuous
100
AcDbLine
 10
25.30613319912151
 20
6.929986694366117
 30
0.0
 11
27.80613319912152
 21
6.929986694366119
 31
0.0
  0
LINE
  5
8C5
330
2
100
AcDbEntity
  8
ADP1DETAIL
  6
Continuous
100
AcDbLine
 10
25.30613319912151
 20
6.972898261410147
 30
0.0
 11
27.80613319912152
 21
6.972898261410148
 31
0.0
  0
LINE
  5
8C6
330
2
100
AcDbEntity
  8
ADP2DETAIL
  6
HIDDEN2
100
AcDbLine
 10
25.30613319912152
 20
7.680442634986489
 30
0.0
 11
27.80613319912151
 21
7.680442634986486
 31
0.0
  0
LINE
  5
8CC
330
2
100
AcDbEntity
  8
ADP2DETAIL
  6
HIDDEN2
100
AcDbLine
 10
27.16513319912151
 20
6.931834991233726
 30
0.0
 11
27.16513319912151
 21
7.269986694366117
 31
0.0
  0
LINE
  5
8CD
330
2
100
AcDbEntity
  8
ADP2DETAIL
  6
HIDDEN2
100
AcDbLine
 10
27.56513319912151
 20
6.931834991233725
 30
0.0
 11
27.56513319912151
 21
7.269986694366117
 31
0.0
  0
LINE
  5
8CE
330
2
100
AcDbEntity
  8
ADP2DETAIL
  6
HIDDEN2
100
AcDbLine
 10
27.56513319912151
 20
7.269986694366117
 30
0.0
 11
27.16513319912152
 21
7.269986694366117
 31
0.0
  0
LINE
  5
8CF
330
2
100
AcDbEntity
  8
ADP2DETAIL
  6
HIDDEN2
100
AcDbLine
 10
27.23513319912151
 20
7.269986694366117
 30
0.0
 11
27.23513319912151
 21
7.680442634986491
 31
0.0
  0
LINE
  5
8D0
330
2
100
AcDbEntity
  8
ADP2DETAIL
  6
HIDDEN2
100
AcDbLine
 10
27.49513319912151
 20
7.269986694366117
 30
0.0
 11
27.49513319912151
 21
7.68044263498649
 31
0.0
  0
LINE
  5
8D2
330
2
100
AcDbEntity
  8
ADPDIM
  6
CENTER
 48
0.5
100
AcDbLine
 10
27.36513319912151
 20
6.679986694366117
 30
0.0
 11
27.36513319912152
 21
7.930442634986489
 31
0.0
  0
LINE
  5
8D3
330
2
100
AcDbEntity
  8
ADP1DETAIL
  6
Continuous
100
AcDbLine
 10
27.80613319912151
 20
6.929986694366117
 30
0.0
 11
27.80613319912151
 21
7.769986694366117
 31
0.0
  0
LINE
  5
8D6
330
2
100
AcDbEntity
  8
ADP2DETAIL
  6
HIDDEN2
100
AcDbLine
 10
25.94713319912151
 20
6.931834991233726
 30
0.0
 11
25.94713319912151
 21
7.269986694366117
 31
0.0
  0
LINE
  5
8D7
330
2
100
AcDbEntity
  8
ADP2DETAIL
  6
HIDDEN2
100
AcDbLine
 10
25.54713319912151
 20
6.931834991233725
 30
0.0
 11
25.54713319912151
 21
7.269986694366117
 31
0.0
  0
LINE
  5
8D8
330
2
100
AcDbEntity
  8
ADP2DETAIL
  6
HIDDEN2
100
AcDbLine
 10
25.54713319912151
 20
7.269986694366117
 30
0.0
 11
25.94713319912151
 21
7.269986694366117
 31
0.0
  0
LINE
  5
8D9
330
2
100
AcDbEntity
  8
ADP2DETAIL
  6
HIDDEN2
100
AcDbLine
 10
25.87713319912151
 20
7.269986694366117
 30
0.0
 11
25.87713319912151
 21
7.680442634986491
 31
0.0
  0
LINE
  5
8DA
330
2
100
AcDbEntity
  8
ADP2DETAIL
  6
HIDDEN2
100
AcDbLine
 10
25.61713319912151
 20
7.269986694366117
 30
0.0
 11
25.61713319912151
 21
7.68044263498649
 31
0.0
  0
LINE
  5
8DB
330
2
100
AcDbEntity
  8
ADPDIM
  6
CENTER
 48
0.5
100
AcDbLine
 10
25.74713319912151
 20
6.679986694366117
 30
0.0
 11
25.74713319912151
 21
7.930442634986489
 31
0.0
  0
DIMENSION
  5
91A
330
2
100
AcDbEntity
  8
ADPDIM
  6
Continuous
100
AcDbDimension
  2
*D9
 10
25.30613319912151
 20
6.223297327651483
 30
0.0
 11
24.72279986578818
 21
6.223297327651483
 31
0.0
 70
    32
 71
     5
 42
0.440999999999999
  3
STANDARD
100
AcDbAlignedDimension
 13
25.74713319912151
 23
6.679986694366117
 33
0.0
 14
25.30613319912151
 24
6.929986694366117
 34
0.0
100
AcDbRotatedDimension
1001
ACAD
1000
DSTYLE
1002
{
1070
    41
1040
0.25
1070
    73
1070
     0
1070
    74
1070
     0
1070
    78
1070
     3
1070
   140
1040
0.125
1070
   141
1040
0.1875
1070
   147
1040
0.125
1070
   171
1070
     1
1070
   173
1070
     1
1070
   274
1070
     1
1070
   276
1070
     2
1070
   277
1070
     5
1070
   343
1005
3A7
1070
   344
1005
3A7
1002
}
  0
DIMENSION
  5
91B
330
2
100
AcDbEntity
  8
ADPDIM
  6
Continuous
100
AcDbDimension
  2
*D10
 10
27.80613319912151
 20
5.78055936761044
 30
0.0
 11
26.55613319912151
 21
5.78055936761044
 31
0.0
 70
    32
 71
     5
 42
2.5
  3
STANDARD
100
AcDbAlignedDimension
 13
25.30613319912151
 23
6.929986694366117
 33
0.0
 14
27.80613319912151
 24
6.929986694366117
 34
0.0
100
AcDbRotatedDimension
1001
ACAD
1000
DSTYLE
1002
{
1070
    41
1040
0.25
1070
    73
1070
     0
1070
    74
1070
     0
1070
    78
1070
     3
1070
   140
1040
0.125
1070
   141
1040
0.1875
1070
   147
1040
0.125
1070
   171
1070
     1
1070
   173
1070
     1
1070
   274
1070
     1
1070
   276
1070
     2
1070
   277
1070
     5
1070
   343
1005
3A7
1070
   344
1005
3A7
1002
}
  0
DIMENSION
  5
91C
330
2
100
AcDbEntity
  8
ADPDIM
  6
Continuous
100
AcDbDimension
  2
*D11
 10
27.36513319912151
 20
6.223297327651483
 30
0.0
 11
26.55613319912151
 21
6.223297327651483
 31
0.0
 70
    32
 71
     5
 42
1.618000000000002
  3
STANDARD
100
AcDbAlignedDimension
 13
25.74713319912151
 23
6.679986694366117
 33
0.0
 14
27.36513319912151
 24
6.679986694366108
 34
0.0
100
AcDbRotatedDimension
1001
ACAD
1000
DSTYLE
1002
{
1070
    41
1040
0.25
1070
    73
1070
     0
1070
    74
1070
     0
1070
    78
1070
     3
1070
   140
1040
0.125
1070
   141
1040
0.1875
1070
   147
1040
0.125
1070
   171
1070
     1
1070
   173
1070
     1
1070
   274
1070
     1
1070
   276
1070
     2
1070
   277
1070
     5
1070
   343
1005
3A7
1070
   344
1005
3A7
1002
}
  0
DIMENSION
  5
91D
330
2
100
AcDbEntity
  8
ADPDIM
  6
Continuous
100
AcDbDimension
  2
*D12
 10
27.80613319912151
 20
6.223297327651483
 30
0.0
 11
28.38946653245484
 21
6.223297327651483
 31
0.0
 70
    32
 71
     5
 42
0.440999999999999
  3
STANDARD
100
AcDbAlignedDimension
 13
27.36513319912151
 23
6.679986694366117
 33
0.0
 14
27.80613319912151
 24
6.929986694366117
 34
0.0
100
AcDbRotatedDimension
1001
ACAD
1000
DSTYLE
1002
{
1070
    41
1040
0.25
1070
    73
1070
     0
1070
    74
1070
     0
1070
    78
1070
     3
1070
   140
1040
0.125
1070
   141
1040
0.1875
1070
   147
1040
0.125
1070
   171
1070
     1
1070
   173
1070
     1
1070
   274
1070
     1
1070
   276
1070
     2
1070
   277
1070
     5
1070
   343
1005
3A7
1070
   344
1005
3A7
1002
}
  0
TEXT
  5
9D2
330
2
100
AcDbEntity
  8
ADPDIM
100
AcDbText
 10
21.74341379882443
 20
4.730066065760215
 30
0.0
 40
0.125
  1
J U L I U S  B L U M  &  C O . ,  I N C .      ( 8 0 0 )  5 2 6 - 6 2 9 3
 41
1.25
  7
ARIAL_WIDE
 72
     1
 11
24.89735095776031
 21
4.855066065760215
 31
0.0
100
AcDbText
 73
     3
  0
TEXT
  5
9D3
330
2
100
AcDbEntity
  8
ADPDIM
100
AcDbText
 10
21.88948516649155
 20
4.388053973012295
 30
0.0
 40
0.125
  1
 W W W . J U L I U S B L U M . C O M        P A R T  N o .  320
 41
1.25
  7
ARIAL_WIDE
 72
     1
 11
24.89735095776031
 21
4.513053973012295
 31
0.0
100
AcDbText
 73
     3
  0
ENDSEC
  0
SECTION
  2
OBJECTS
  0
DICTIONARY
  5
1B
330
0
100
AcDbDictionary
281
     1
  3
ACAD_COLOR
350
25C
  3
ACAD_GROUP
350
19
  3
ACAD_LAYOUT
350
B6
  3
ACAD_MATERIAL
350
25B
  3
ACAD_MLINESTYLE
350
1A
  3
ACAD_PLOTSETTINGS
350
B7
  3
ACAD_PLOTSTYLENAME
350
B4
  3
ACAD_TABLESTYLE
350
25D
  3
ACDBHEADERROUNDTRIPXREC
350
9FF
  3
AcDbVariableDictionary
350
117
  3
ASE_INDEX_DICTIONARY
350
658
  0
DICTIONARY
  5
10F
330
2
100
AcDbDictionary
280
     1
281
     1
  3
ACAD_LAYOUTSELFREF
360
252
  3
ACAD_SORTENTS
360
275
  0
DICTIONARY
  5
111
330
8
100
AcDbDictionary
280
     1
281
     1
  3
ACAD_LAYOUTSELFREF
360
253
  0
DICTIONARY
  5
915
330
910
100
AcDbDictionary
280
     1
281
     1
  3
ACAD_SORTENTS
360
916
  0
DICTIONARY
  5
25C
102
{ACAD_REACTORS
330
1B
102
}
330
1B
100
AcDbDictionary
281
     1
  0
DICTIONARY
  5
19
102
{ACAD_REACTORS
330
1B
102
}
330
1B
100
AcDbDictionary
281
     1
  0
DICTIONARY
  5
B6
102
{ACAD_REACTORS
330
1B
102
}
330
1B
100
AcDbDictionary
281
     1
  3
Layout1
350
B9
  3
Model
350
B8
  0
DICTIONARY
  5
25B
102
{ACAD_REACTORS
330
1B
102
}
330
1B
100
AcDbDictionary
281
     1
  0
DICTIONARY
  5
1A
102
{ACAD_REACTORS
330
1B
102
}
330
1B
100
AcDbDictionary
281
     1
  3
STANDARD
350
1C
  0
DICTIONARY
  5
B7
102
{ACAD_REACTORS
330
1B
102
}
330
1B
100
AcDbDictionary
281
     1
  0
ACDBDICTIONARYWDFLT
  5
B4
102
{ACAD_REACTORS
330
1B
102
}
330
1B
100
AcDbDictionary
281
     1
  3
Normal
350
B5
100
AcDbDictionaryWithDefault
340
B5
  0
DICTIONARY
  5
25D
102
{ACAD_REACTORS
330
1B
102
}
330
1B
100
AcDbDictionary
281
     1
  3
Standard
350
25E
  0
DICTIONARY
  5
9FF
102
{ACAD_REACTORS
330
1B
102
}
330
1B
100
AcDbDictionary
281
     1
  0
DICTIONARY
  5
117
102
{ACAD_REACTORS
330
1B
102
}
330
1B
100
AcDbDictionary
281
     1
  3
CTABLESTYLE
350
263
  3
DIMASSOC
350
118
  3
PROJECTNAME
350
9C3
  0
DICTIONARY
  5
658
102
{ACAD_REACTORS
330
1B
102
}
330
1B
100
AcDbDictionary
281
     1
  3
ASEBlockHierarchyIndexRecord
350
65A
1001
DCO15
1040
1748166733.022
  0
XRECORD
  5
252
102
{ACAD_REACTORS
330
10F
102
}
330
10F
100
AcDbXrecord
280
     1
340
2
  0
SORTENTSTABLE
  5
275
102
{ACAD_REACTORS
330
10F
102
}
330
10F
100
AcDbSortentsTable
330
2
331
8D2
  5
8D5
331
8C5
  5
8C8
331
85B
  5
85B
331
8DB
  5
8DB
331
8CE
  5
8D1
331
8C1
  5
8C1
331
857
  5
857
331
8D7
  5
8D7
331
860
  5
860
331
91C
  5
91C
331
8D3
  5
8C4
331
8C6
  5
8C9
331
85C
  5
85C
331
8CF
  5
8D2
331
858
  5
858
331
8D8
  5
8D8
331
861
  5
861
331
91D
  5
91D
331
85D
  5
85D
331
8D0
  5
8D3
331
8C3
  5
8C6
331
859
  5
859
331
8D9
  5
8D9
331
8CC
  5
8CF
331
862
  5
862
331
91A
  5
91A
331
85E
  5
85E
331
8C4
  5
8C7
331
85A
  5
85A
331
8DA
  5
8DA
331
8CD
  5
8D0
331
863
  5
863
331
8D6
  5
8D6
331
91B
  5
91B
331
85F
  5
85F
  0
XRECORD
  5
253
102
{ACAD_REACTORS
330
111
102
}
330
111
100
AcDbXrecord
280
     1
340
8
  0
SORTENTSTABLE
  5
916
102
{ACAD_REACTORS
330
915
102
}
330
915
100
AcDbSortentsTable
330
910
  0
LAYOUT
  5
B9
102
{ACAD_XDICTIONARY
360
A02
102
}
102
{ACAD_REACTORS
330
B6
102
}
330
B6
100
AcDbPlotSettings
  1

  2
Fax
  4

  6

 40
0.0
 41
0.0
 42
0.0
 43
0.0
 44
0.0
 45
0.0
 46
0.0
 47
0.0
 48
0.0
 49
0.0
140
0.0
141
0.0
142
1.0
143
1.0
 70
   688
 72
     0
 73
     0
 74
     5
  7
monochrome.ctb
 75
    16
147
1.0
148
0.0
149
0.0
100
AcDbLayout
  1
Layout1
 70
     1
 71
     1
 10
0.0
 20
0.0
 11
12.0
 21
9.0
 12
0.0
 22
0.0
 32
0.0
 14
1.000000000000000E+20
 24
1.000000000000000E+20
 34
1.000000000000000E+20
 15
-1.000000000000000E+20
 25
-1.000000000000000E+20
 35
-1.000000000000000E+20
146
0.0
 13
0.0
 23
0.0
 33
0.0
 16
1.0
 26
0.0
 36
0.0
 17
0.0
 27
1.0
 37
0.0
 76
     0
330
8
  0
LAYOUT
  5
B8
102
{ACAD_XDICTIONARY
360
A00
102
}
102
{ACAD_REACTORS
330
B6
102
}
330
B6
100
AcDbPlotSettings
  1

  2
\\2008SERVER\Lexmark Optra T630 PCL
  4
Letter
  6

 40
7.143749713897705
 41
6.127734661102294
 42
7.14373779296875
 43
7.14373779296875
 44
215.8999938964844
 45
279.3999938964844
 46
0.0
 47
0.0
 48
0.0
 49
0.0
140
0.0
141
0.0
142
1.0
143
0.7426267889400492
 70
 11952
 72
     0
 73
     1
 74
     0
  7
monochrome.ctb
 75
     0
147
1.346571406920694
148
-534.6047194298939
149
-110.0340449460563
100
AcDbLayout
  1
Model
 70
     1
 71
     0
 10
0.0
 20
0.0
 11
12.0
 21
9.0
 12
0.0
 22
0.0
 32
0.0
 14
0.0
 24
0.0
 34
0.0
 15
0.0
 25
0.0
 35
0.0
146
0.0
 13
0.0
 23
0.0
 33
0.0
 16
1.0
 26
0.0
 36
0.0
 17
0.0
 27
1.0
 37
0.0
 76
     0
330
2
1001
ACAD_PSEXT
1000
\\2008SERVER\Lexmark Optra T630 PCL
1000
Lexmark Optra T610 (MS)
1000
\\2008SERVER
1000

1070
     0
  0
MLINESTYLE
  5
1C
102
{ACAD_REACTORS
330
1A
102
}
330
1A
100
AcDbMlineStyle
  2
STANDARD
 70
     0
  3

 62
     0
 51
90.0
 52
90.0
 71
     2
 49
0.5
 62
   256
  6
BYLAYER
 49
-0.5
 62
   256
  6
BYLAYER
  0
ACDBPLACEHOLDER
  5
B5
102
{ACAD_REACTORS
330
B4
102
}
330
B4
  0
TABLESTYLE
  5
25E
102
{ACAD_REACTORS
330
25D
102
}
330
25D
100
AcDbTableStyle
  3
Standard
 70
     0
 71
     0
 40
0.06
 41
0.06
280
     0
281
     0
  7
STANDARD
140
0.18
170
     2
 62
     0
 63
     7
283
     0
274
    -2
284
     1
 64
     0
275
    -2
285
     1
 65
     0
276
    -2
286
     1
 66
     0
277
    -2
287
     1
 67
     0
278
    -2
288
     1
 68
     0
279
    -2
289
     1
 69
     0
  7
STANDARD
140
0.25
170
     5
 62
     0
 63
     7
283
     0
274
    -2
284
     1
 64
     0
275
    -2
285
     1
 65
     0
276
    -2
286
     1
 66
     0
277
    -2
287
     1
 67
     0
278
    -2
288
     1
 68
     0
279
    -2
289
     1
 69
     0
  7
STANDARD
140
0.18
170
     5
 62
     0
 63
     7
283
     0
274
    -2
284
     1
 64
     0
275
    -2
285
     1
 65
     0
276
    -2
286
     1
 66
     0
277
    -2
287
     1
 67
     0
278
    -2
288
     1
 68
     0
279
    -2
289
     1
 69
     0
  0
DICTIONARYVAR
  5
263
102
{ACAD_REACTORS
330
117
102
}
330
117
100
DictionaryVariables
280
     0
  1
STANDARD
  0
DICTIONARYVAR
  5
118
102
{ACAD_REACTORS
330
117
102
}
330
117
100
DictionaryVariables
280
     0
  1
1
  0
DICTIONARYVAR
  5
9C3
102
{ACAD_REACTORS
330
117
102
}
330
117
100
DictionaryVariables
280
     0
  1

  0
XRECORD
  5
65A
102
{ACAD_REACTORS
330
658
102
}
330
658
100
AcDbXrecord
280
     1
330
88F
330
890
330
899
330
89A
330
8A3
330
8A4
330
97E
330
97F
330
9A6
330
9A7
330
992
330
993
330
9B0
330
9B1
  0
DICTIONARY
  5
A02
330
B9
100
AcDbDictionary
280
     1
281
     1
  3
ACAD_XREC_ROUNDTRIP
360
A03
  0
DICTIONARY
  5
A00
330
B8
100
AcDbDictionary
280
     1
281
     1
  3
ACAD_XREC_ROUNDTRIP
360
A01
  0
XRECORD
  5
A03
102
{ACAD_REACTORS
330
A02
102
}
330
A02
100
AcDbXrecord
280
     1
102
SHADEPLOT
 70
     0
102
SHADEPLOTRESLEVEL
 70
     2
102
SHADEPLOTCUSTOMDPI
 70
   300
  0
XRECORD
  5
A01
102
{ACAD_REACTORS
330
A00
102
}
330
A00
100
AcDbXrecord
280
     1
102
SHADEPLOT
 70
     0
102
SHADEPLOTRESLEVEL
 70
     2
102
SHADEPLOTCUSTOMDPI
 70
   300
  0
ENDSEC
  0
EOF
