  0
SECTION
  2
HEADER
  9
$ACADVER
  1
AC1014
  9
$ACADMAINTVER
 70
     9
  9
$DWGCODEPAGE
  3
ANSI_1252
  9
$INSBASE
 10
-21.13741974613822
 20
8.403506244676909
 30
0.0
  9
$EXTMIN
 10
-24.09745911155365
 20
7.172870606947757
 30
0.0
  9
$EXTMAX
 10
-11.22804403651955
 20
12.91246964858036
 30
0.0
  9
$LIMMIN
 10
0.0
 20
0.0
  9
$LIMMAX
 10
36.0
 20
36.0
  9
$ORTHOMODE
 70
     1
  9
$REGENMODE
 70
     1
  9
$FILLMODE
 70
     1
  9
$QTEXTMODE
 70
     0
  9
$MIRRTEXT
 70
     1
  9
$DRAGMODE
 70
     0
  9
$LTSCALE
 40
1.0
  9
$OSMODE
 70
    37
  9
$ATTMODE
 70
     1
  9
$TEXTSIZE
 40
0.2
  9
$TRACEWID
 40
0.05
  9
$TEXTSTYLE
  7
STANDARD
  9
$CLAYER
  8
ADP2DETAIL
  9
$CELTYPE
  6
BYLAYER
  9
$CECOLOR
 62
   256
  9
$CELTSCALE
 40
1.0
  9
$DELOBJ
 70
     1
  9
$DISPSILH
 70
     0
  9
$DIMSCALE
 40
1.0
  9
$DIMASZ
 40
0.125
  9
$DIMEXO
 40
0.0625
  9
$DIMDLI
 40
0.38
  9
$DIMRND
 40
0.0
  9
$DIMDLE
 40
0.0
  9
$DIMEXE
 40
0.18
  9
$DIMTP
 40
0.0
  9
$DIMTM
 40
0.0
  9
$DIMTXT
 40
0.125
  9
$DIMCEN
 40
0.1875
  9
$DIMTSZ
 40
0.125
  9
$DIMTOL
 70
     0
  9
$DIMLIM
 70
     0
  9
$DIMTIH
 70
     0
  9
$DIMTOH
 70
     0
  9
$DIMSE1
 70
     0
  9
$DIMSE2
 70
     0
  9
$DIMTAD
 70
     0
  9
$DIMZIN
 70
     3
  9
$DIMBLK
  1

  9
$DIMASO
 70
     1
  9
$DIMSHO
 70
     1
  9
$DIMPOST
  1

  9
$DIMAPOST
  1

  9
$DIMALT
 70
     0
  9
$DIMALTD
 70
     1
  9
$DIMALTF
 40
25.4
  9
$DIMLFAC
 40
1.0
  9
$DIMTOFL
 70
     0
  9
$DIMTVP
 40
0.0
  9
$DIMTIX
 70
     0
  9
$DIMSOXD
 70
     0
  9
$DIMSAH
 70
     0
  9
$DIMBLK1
  1

  9
$DIMBLK2
  1

  9
$DIMSTYLE
  2
STANDARD
  9
$DIMCLRD
 70
     0
  9
$DIMCLRE
 70
     0
  9
$DIMCLRT
 70
     0
  9
$DIMTFAC
 40
1.0
  9
$DIMGAP
 40
0.125
  9
$DIMJUST
 70
     0
  9
$DIMSD1
 70
     0
  9
$DIMSD2
 70
     0
  9
$DIMTOLJ
 70
     1
  9
$DIMTZIN
 70
     0
  9
$DIMALTZ
 70
     0
  9
$DIMALTTZ
 70
     0
  9
$DIMFIT
 70
     3
  9
$DIMUPT
 70
     0
  9
$DIMUNIT
 70
     2
  9
$DIMDEC
 70
     4
  9
$DIMTDEC
 70
     4
  9
$DIMALTU
 70
     2
  9
$DIMALTTD
 70
     2
  9
$DIMTXSTY
  7
STANDARD
  9
$DIMAUNIT
 70
     0
  9
$LUNITS
 70
     5
  9
$LUPREC
 70
     4
  9
$SKETCHINC
 40
0.1
  9
$FILLETRAD
 40
0.062
  9
$AUNITS
 70
     0
  9
$AUPREC
 70
     0
  9
$MENU
  1
acad
  9
$ELEVATION
 40
0.0
  9
$PELEVATION
 40
0.0
  9
$THICKNESS
 40
0.0
  9
$LIMCHECK
 70
     0
  9
$BLIPMODE
 70
     0
  9
$CHAMFERA
 40
0.0
  9
$CHAMFERB
 40
0.0
  9
$CHAMFERC
 40
0.0
  9
$CHAMFERD
 40
0.0
  9
$SKPOLY
 70
     0
  9
$TDCREATE
 40
2450386.495918206
  9
$TDUPDATE
 40
2452297.067643229
  9
$TDINDWG
 40
0.0082675231
  9
$TDUSRTIMER
 40
0.0082675231
  9
$USRTIMER
 70
     1
  9
$ANGBASE
 50
0.0
  9
$ANGDIR
 70
     0
  9
$PDMODE
 70
     0
  9
$PDSIZE
 40
0.0
  9
$PLINEWID
 40
0.0
  9
$COORDS
 70
     2
  9
$SPLFRAME
 70
     0
  9
$SPLINETYPE
 70
     6
  9
$SPLINESEGS
 70
     8
  9
$ATTDIA
 70
     0
  9
$ATTREQ
 70
     1
  9
$HANDLING
 70
 22529
  9
$HANDSEED
  5
3D5
  9
$SURFTAB1
 70
     6
  9
$SURFTAB2
 70
     6
  9
$SURFTYPE
 70
     6
  9
$SURFU
 70
     6
  9
$SURFV
 70
     6
  9
$UCSNAME
  2

  9
$UCSORG
 10
0.0
 20
0.0
 30
0.0
  9
$UCSXDIR
 10
1.0
 20
0.0
 30
0.0
  9
$UCSYDIR
 10
0.0
 20
1.0
 30
0.0
  9
$PUCSNAME
  2

  9
$PUCSORG
 10
0.0
 20
0.0
 30
0.0
  9
$PUCSXDIR
 10
1.0
 20
0.0
 30
0.0
  9
$PUCSYDIR
 10
0.0
 20
1.0
 30
0.0
  9
$USERI1
 70
     0
  9
$USERI2
 70
     0
  9
$USERI3
 70
     0
  9
$USERI4
 70
     0
  9
$USERI5
 70
     0
  9
$USERR1
 40
0.0
  9
$USERR2
 40
0.0
  9
$USERR3
 40
0.0
  9
$USERR4
 40
0.0
  9
$USERR5
 40
0.0
  9
$WORLDVIEW
 70
     1
  9
$SHADEDGE
 70
     3
  9
$SHADEDIF
 70
    70
  9
$TILEMODE
 70
     1
  9
$MAXACTVP
 70
    15
  9
$PINSBASE
 10
4.403525741743744E+99
 20
7.061986388769092E+99
 30
0.0
  9
$PLIMCHECK
 70
     0
  9
$PEXTMIN
 10
1.000000000000000E+20
 20
1.000000000000000E+20
 30
1.000000000000000E+20
  9
$PEXTMAX
 10
-1.000000000000000E+20
 20
-1.000000000000000E+20
 30
-1.000000000000000E+20
  9
$PLIMMIN
 10
0.0
 20
0.0
  9
$PLIMMAX
 10
12.0
 20
9.0
  9
$UNITMODE
 70
     0
  9
$VISRETAIN
 70
     0
  9
$PLINEGEN
 70
     0
  9
$PSLTSCALE
 70
     1
  9
$TREEDEPTH
 70
  3020
  9
$PICKSTYLE
 70
     1
  9
$CMLSTYLE
  2
STANDARD
  9
$CMLJUST
 70
     0
  9
$CMLSCALE
 40
1.0
  9
$PROXYGRAPHICS
 70
     1
  9
$MEASUREMENT
 70
     0
  0
ENDSEC
  0
SECTION
  2
CLASSES
  0
CLASS
  1
ACDBDICTIONARYWDFLT
  2
AcDbDictionaryWithDefault
  3
AutoCAD 2000
 90
        0
280
     0
281
     0
  0
CLASS
  1
ACDBPLACEHOLDER
  2
AcDbPlaceHolder
  3
AutoCAD 2000
 90
        0
280
     0
281
     0
  0
CLASS
  1
LAYOUT
  2
AcDbLayout
  3
AutoCAD 2000
 90
        0
280
     0
281
     0
  0
CLASS
  1
DICTIONARYVAR
  2
AcDbDictionaryVar
  3
AutoCAD 2000
 90
        0
280
     0
281
     0
  0
CLASS
  1
LONG_TRANSACTION
  2
AcDbLongTransaction
  3
AutoCAD 2000
 90
        0
280
     0
281
     0
  0
CLASS
  1
LWPOLYLINE
  2
AcDbPolyline
  3
AutoCAD 2000
 90
        0
280
     0
281
     1
  0
CLASS
  1
HATCH
  2
AcDbHatch
  3
AutoCAD 2000
 90
        0
280
     0
281
     1
  0
CLASS
  1
XRECORD
  2
AcDbXrecord
  3
AutoCAD 2000
 90
        0
280
     0
281
     0
  0
CLASS
  1
LONG_TRANSACTION
  2
AcDbLongTransaction
  3
AutoCAD 2000
 90
        0
280
     0
281
     0
  0
CLASS
  1
LWPOLYLINE
  2
AcDbPolyline
  3
AutoCAD 2000
 90
        0
280
     0
281
     1
  0
CLASS
  1
HATCH
  2
AcDbHatch
  3
AutoCAD 2000
 90
        0
280
     0
281
     1
  0
CLASS
  1
XRECORD
  2
AcDbXrecord
  3
AutoCAD 2000
 90
        0
280
     0
281
     0
  0
CLASS
  1
LONG_TRANSACTION
  2
AcDbLongTransaction
  3
AutoCAD 2000
 90
        0
280
     0
281
     0
  0
CLASS
  1
LWPOLYLINE
  2
AcDbPolyline
  3
AutoCAD 2000
 90
        0
280
     0
281
     1
  0
CLASS
  1
HATCH
  2
AcDbHatch
  3
AutoCAD 2000
 90
        0
280
     0
281
     1
  0
CLASS
  1
XRECORD
  2
AcDbXrecord
  3
AutoCAD 2000
 90
        0
280
     0
281
     0
  0
CLASS
  1
LONG_TRANSACTION
  2
AcDbLongTransaction
  3
AutoCAD 2000
 90
        0
280
     0
281
     0
  0
CLASS
  1
LWPOLYLINE
  2
AcDbPolyline
  3
AutoCAD 2000
 90
        0
280
     0
281
     1
  0
CLASS
  1
HATCH
  2
AcDbHatch
  3
AutoCAD 2000
 90
        0
280
     0
281
     1
  0
CLASS
  1
XRECORD
  2
AcDbXrecord
  3
AutoCAD 2000
 90
        0
280
     0
281
     0
  0
CLASS
  1
LONG_TRANSACTION
  2
AcDbLongTransaction
  3
AutoCAD 2000
 90
        0
280
     0
281
     0
  0
CLASS
  1
LWPOLYLINE
  2
AcDbPolyline
  3
AutoCAD 2000
 90
        0
280
     0
281
     1
  0
CLASS
  1
HATCH
  2
AcDbHatch
  3
AutoCAD 2000
 90
        0
280
     0
281
     1
  0
CLASS
  1
XRECORD
  2
AcDbXrecord
  3
AutoCAD 2000
 90
        0
280
     0
281
     0
  0
CLASS
  1
LONG_TRANSACTION
  2
AcDbLongTransaction
  3
AutoCAD 2000
 90
        0
280
     0
281
     0
  0
CLASS
  1
LWPOLYLINE
  2
AcDbPolyline
  3
AutoCAD 2000
 90
        0
280
     0
281
     1
  0
CLASS
  1
HATCH
  2
AcDbHatch
  3
AutoCAD 2000
 90
        0
280
     0
281
     1
  0
CLASS
  1
XRECORD
  2
AcDbXrecord
  3
AutoCAD 2000
 90
        0
280
     0
281
     0
  0
CLASS
  1
LONG_TRANSACTION
  2
AcDbLongTransaction
  3
AutoCAD 2000
 90
        0
280
     0
281
     0
  0
CLASS
  1
LWPOLYLINE
  2
AcDbPolyline
  3
AutoCAD 2000
 90
        0
280
     0
281
     1
  0
CLASS
  1
HATCH
  2
AcDbHatch
  3
AutoCAD 2000
 90
        0
280
     0
281
     1
  0
CLASS
  1
XRECORD
  2
AcDbXrecord
  3
AutoCAD 2000
 90
        0
280
     0
281
     0
  0
CLASS
  1
LONG_TRANSACTION
  2
AcDbLongTransaction
  3
AutoCAD 2000
 90
        0
280
     0
281
     0
  0
CLASS
  1
LWPOLYLINE
  2
AcDbPolyline
  3
AutoCAD 2000
 90
        0
280
     0
281
     1
  0
CLASS
  1
HATCH
  2
AcDbHatch
  3
AutoCAD 2000
 90
        0
280
     0
281
     1
  0
CLASS
  1
XRECORD
  2
AcDbXrecord
  3
AutoCAD 2000
 90
        0
280
     0
281
     0
  0
ENDSEC
  0
SECTION
  2
TABLES
  0
TABLE
  2
VPORT
  5
8
330
0
100
AcDbSymbolTable
 70
     2
  0
VPORT
  5
3B2
330
8
100
AcDbSymbolTableRecord
100
AcDbViewportTableRecord
  2
*ACTIVE
 70
     0
 10
0.0
 20
0.0
 11
1.0
 21
1.0
 12
-17.66418245043614
 22
10.04177863900757
 13
0.0
 23
0.0
 14
0.5740882589684922
 24
0.5740882589684922
 15
0.5
 25
0.5
 16
0.0
 26
0.0
 36
1.0
 17
0.0
 27
0.0
 37
0.0
 40
8.2375525913583
 41
1.570528967254408
 42
50.0
 43
0.0
 44
0.0
 50
0.0
 51
0.0
 71
     0
 72
   100
 73
     1
 74
     0
 75
     0
 76
     0
 77
     0
 78
     0
  0
ENDTAB
  0
TABLE
  2
LTYPE
  5
5
330
0
100
AcDbSymbolTable
 70
     2
  0
LTYPE
  5
12
330
5
100
AcDbSymbolTableRecord
100
AcDbLinetypeTableRecord
  2
BYBLOCK
 70
     0
  3

 72
    65
 73
     0
 40
0.0
  0
LTYPE
  5
13
330
5
100
AcDbSymbolTableRecord
100
AcDbLinetypeTableRecord
  2
BYLAYER
 70
     0
  3

 72
    65
 73
     0
 40
0.0
  0
LTYPE
  5
14
330
5
100
AcDbSymbolTableRecord
100
AcDbLinetypeTableRecord
  2
CONTINUOUS
 70
     0
  3
Solid line
 72
    65
 73
     0
 40
0.0
  0
LTYPE
  5
13A
330
5
100
AcDbSymbolTableRecord
100
AcDbLinetypeTableRecord
  2
HIDDEN2
 70
     0
  3
_ _ _ _ _ _ _ _ _ _ _ _ _ _ _ _ _ _ _ _ _ _ _ _
 72
    65
 73
     2
 40
0.1875
 49
0.125
 74
     0
 49
-0.0625
 74
     0
  0
ENDTAB
  0
TABLE
  2
LAYER
  5
2
330
0
100
AcDbSymbolTable
 70
     5
  0
LAYER
  5
F
330
2
100
AcDbSymbolTableRecord
100
AcDbLayerTableRecord
  2
0
 70
     0
 62
     7
  6
CONTINUOUS
  0
LAYER
  5
13E
330
2
100
AcDbSymbolTableRecord
100
AcDbLayerTableRecord
  2
ADP1DETAIL
 70
     0
 62
     7
  6
CONTINUOUS
  0
LAYER
  5
140
330
2
100
AcDbSymbolTableRecord
100
AcDbLayerTableRecord
  2
DEFPOINTS
 70
     0
 62
     7
  6
CONTINUOUS
  0
LAYER
  5
141
330
2
100
AcDbSymbolTableRecord
100
AcDbLayerTableRecord
  2
ADP2DETAIL
 70
     0
 62
     5
  6
CONTINUOUS
  0
LAYER
  5
142
330
2
100
AcDbSymbolTableRecord
100
AcDbLayerTableRecord
  2
ADPDIM
 70
     0
 62
     3
  6
CONTINUOUS
  0
ENDTAB
  0
TABLE
  2
STYLE
  5
3
330
0
100
AcDbSymbolTable
 70
     2
  0
STYLE
  5
10
330
3
100
AcDbSymbolTableRecord
100
AcDbTextStyleTableRecord
  2
STANDARD
 70
     0
 40
0.0
 41
1.0
 50
0.0
 71
     0
 42
0.2
  3
txt
  4

  0
STYLE
  5
20C
330
3
100
AcDbSymbolTableRecord
100
AcDbTextStyleTableRecord
  2
ARIAL_WIDE
 70
     0
 40
0.0
 41
1.25
 50
0.0
 71
     0
 42
0.2
  3
ARIAL.TTF
  4

1001
ACAD
1000
Arial
1071
       34
  0
ENDTAB
  0
TABLE
  2
VIEW
  5
6
330
0
100
AcDbSymbolTable
 70
     0
  0
ENDTAB
  0
TABLE
  2
UCS
  5
7
330
0
100
AcDbSymbolTable
 70
     0
  0
ENDTAB
  0
TABLE
  2
APPID
  5
9
330
0
100
AcDbSymbolTable
 70
     1
  0
APPID
  5
11
330
9
100
AcDbSymbolTableRecord
100
AcDbRegAppTableRecord
  2
ACAD
 70
     0
  0
ENDTAB
  0
TABLE
  2
DIMSTYLE
  5
A
330
0
100
AcDbSymbolTable
 70
     1
  0
DIMSTYLE
105
1F8
330
A
100
AcDbSymbolTableRecord
100
AcDbDimStyleTableRecord
  2
STANDARD
 70
     0
  3

  4

  5

  6

  7

 40
1.0
 41
0.18
 42
0.0625
 43
0.38
 44
0.18
 45
0.0
 46
0.0
 47
0.0
 48
0.0
140
0.18
141
0.09
142
0.0
143
25.4
144
1.0
145
0.0
146
1.0
147
0.09
 71
     0
 72
     0
 73
     1
 74
     1
 75
     0
 76
     0
 77
     0
 78
     0
170
     0
171
     2
172
     0
173
     0
174
     0
175
     0
176
     0
177
     0
178
     0
270
     2
271
     4
272
     4
273
     2
274
     2
340
10
275
     0
280
     0
281
     0
282
     0
283
     1
284
     0
285
     0
286
     0
287
     3
288
     0
  0
ENDTAB
  0
TABLE
  2
BLOCK_RECORD
  5
1
330
0
100
AcDbSymbolTable
 70
     6
  0
BLOCK_RECORD
  5
18
102
{ACAD_XDICTIONARY
360
261
102
}
330
1
100
AcDbSymbolTableRecord
100
AcDbBlockTableRecord
  2
*MODEL_SPACE
  0
BLOCK_RECORD
  5
15
102
{ACAD_XDICTIONARY
360
25F
102
}
330
1
100
AcDbSymbolTableRecord
100
AcDbBlockTableRecord
  2
*PAPER_SPACE
  0
BLOCK_RECORD
  5
133
330
1
100
AcDbSymbolTableRecord
100
AcDbBlockTableRecord
  2
*D0
  0
BLOCK_RECORD
  5
134
330
1
100
AcDbSymbolTableRecord
100
AcDbBlockTableRecord
  2
*D1
  0
BLOCK_RECORD
  5
135
330
1
100
AcDbSymbolTableRecord
100
AcDbBlockTableRecord
  2
*D2
  0
BLOCK_RECORD
  5
136
330
1
100
AcDbSymbolTableRecord
100
AcDbBlockTableRecord
  2
*D3
  0
BLOCK_RECORD
  5
137
330
1
100
AcDbSymbolTableRecord
100
AcDbBlockTableRecord
  2
*D4
  0
BLOCK_RECORD
  5
138
330
1
100
AcDbSymbolTableRecord
100
AcDbBlockTableRecord
  2
*D5
  0
ENDTAB
  0
ENDSEC
  0
SECTION
  2
BLOCKS
  0
BLOCK
  5
145
330
18
100
AcDbEntity
  8
0
100
AcDbBlockBegin
  2
*MODEL_SPACE
 70
     0
 10
0.0
 20
0.0
 30
0.0
  3
*MODEL_SPACE
  1

  0
ENDBLK
  5
146
330
18
100
AcDbEntity
  8
0
100
AcDbBlockEnd
  0
BLOCK
  5
143
330
15
100
AcDbEntity
 67
     1
  8
0
100
AcDbBlockBegin
  2
*PAPER_SPACE
 70
     0
 10
0.0
 20
0.0
 30
0.0
  3
*PAPER_SPACE
  1

  0
ENDBLK
  5
144
330
15
100
AcDbEntity
 67
     1
  8
0
100
AcDbBlockEnd
  0
BLOCK
  5
148
330
133
100
AcDbEntity
  8
0
100
AcDbBlockBegin
  2
*D0
 70
     1
 10
0.0
 20
0.0
 30
0.0
  3
*D0
  1

  0
LINE
  5
149
330
133
100
AcDbEntity
  8
0
  6
BYBLOCK
 62
     0
100
AcDbLine
 10
-17.01997795197391
 20
12.26685382121504
 30
0.0
 11
-17.01997795197391
 21
12.91246964858036
 31
0.0
  0
LINE
  5
14A
330
133
100
AcDbEntity
  8
0
  6
BYBLOCK
 62
     0
100
AcDbLine
 10
-15.02391437555717
 20
12.26685382121504
 30
0.0
 11
-15.02391437555717
 21
12.91246964858036
 31
0.0
  0
LINE
  5
14B
330
133
100
AcDbEntity
  8
0
  6
BYBLOCK
 62
     0
100
AcDbLine
 10
-17.01997795197391
 20
12.73246964858036
 30
0.0
 11
-16.1886128304322
 21
12.73246964858036
 31
0.0
  0
LINE
  5
14C
330
133
100
AcDbEntity
  8
0
  6
BYBLOCK
 62
     0
100
AcDbLine
 10
-15.02391437555717
 20
12.73246964858036
 30
0.0
 11
-15.85527949709887
 21
12.73246964858036
 31
0.0
  0
LINE
  5
14D
330
133
100
AcDbEntity
  8
0
  6
BYBLOCK
 62
     0
100
AcDbLine
 10
-17.14497795197391
 20
12.60746964858036
 30
0.0
 11
-16.89497795197391
 21
12.85746964858035
 31
0.0
  0
LINE
  5
14E
330
133
100
AcDbEntity
  8
0
  6
BYBLOCK
 62
     0
100
AcDbLine
 10
-15.14891437555717
 20
12.60746964858036
 30
0.0
 11
-14.89891437555717
 21
12.85746964858035
 31
0.0
  0
TEXT
  5
14F
330
133
100
AcDbEntity
  8
0
  6
BYBLOCK
 62
     0
100
AcDbText
 10
-16.06361283043221
 20
12.66996964858035
 30
0.0
 40
0.125
  1
2
 72
     1
 11
-16.02194616376554
 21
12.73246964858036
 31
0.0
100
AcDbText
 73
     2
  0
POINT
  5
150
330
133
100
AcDbEntity
  8
DEFPOINTS
  6
BYBLOCK
 62
     0
100
AcDbPoint
 10
-17.01997795197391
 20
12.20435382121504
 30
0.0
  0
POINT
  5
151
330
133
100
AcDbEntity
  8
DEFPOINTS
  6
BYBLOCK
 62
     0
100
AcDbPoint
 10
-15.02391437555717
 20
12.20435382121504
 30
0.0
  0
POINT
  5
152
330
133
100
AcDbEntity
  8
DEFPOINTS
  6
BYBLOCK
 62
     0
100
AcDbPoint
 10
-15.02391437555717
 20
12.73246964858036
 30
0.0
  0
ENDBLK
  5
153
330
133
100
AcDbEntity
  8
0
100
AcDbBlockEnd
  0
BLOCK
  5
154
330
134
100
AcDbEntity
  8
0
100
AcDbBlockBegin
  2
*D1
 70
     1
 10
0.0
 20
0.0
 30
0.0
  3
*D1
  1

  0
LINE
  5
155
330
134
100
AcDbEntity
  8
0
  6
BYBLOCK
 62
     0
100
AcDbLine
 10
-16.69315414190786
 20
12.27285382121504
 30
0.0
 11
-16.69315414190786
 21
12.57035382121504
 31
0.0
  0
LINE
  5
156
330
134
100
AcDbEntity
  8
0
  6
BYBLOCK
 62
     0
100
AcDbLine
 10
-15.33876978971949
 20
12.32996964858036
 30
0.0
 11
-15.33876978971949
 21
12.57035382121504
 31
0.0
  0
LINE
  5
157
330
134
100
AcDbEntity
  8
0
  6
BYBLOCK
 62
     0
100
AcDbLine
 10
-16.69315414190786
 20
12.39035382121504
 30
0.0
 11
-16.41179529914701
 21
12.39035382121504
 31
0.0
  0
LINE
  5
158
330
134
100
AcDbEntity
  8
0
  6
BYBLOCK
 62
     0
100
AcDbLine
 10
-15.33876978971949
 20
12.39035382121504
 30
0.0
 11
-15.62012863248034
 21
12.39035382121504
 31
0.0
  0
LINE
  5
159
330
134
100
AcDbEntity
  8
0
  6
BYBLOCK
 62
     0
100
AcDbLine
 10
-16.81815414190786
 20
12.26535382121504
 30
0.0
 11
-16.56815414190786
 21
12.51535382121504
 31
0.0
  0
LINE
  5
15A
330
134
100
AcDbEntity
  8
0
  6
BYBLOCK
 62
     0
100
AcDbLine
 10
-15.4637697897195
 20
12.26535382121504
 30
0.0
 11
-15.21376978971949
 21
12.51535382121504
 31
0.0
  0
TEXT
  5
15B
330
134
100
AcDbEntity
  8
0
  6
BYBLOCK
 62
     0
100
AcDbText
 10
-16.28679529914701
 20
12.32785382121504
 30
0.0
 40
0.125
  1
1 3/8
 72
     1
 11
-16.01596196581368
 21
12.39035382121504
 31
0.0
100
AcDbText
 73
     2
  0
POINT
  5
15C
330
134
100
AcDbEntity
  8
DEFPOINTS
  6
BYBLOCK
 62
     0
100
AcDbPoint
 10
-16.69315414190786
 20
12.21035382121504
 30
0.0
  0
POINT
  5
15D
330
134
100
AcDbEntity
  8
DEFPOINTS
  6
BYBLOCK
 62
     0
100
AcDbPoint
 10
-15.33876978971949
 20
12.26746964858036
 30
0.0
  0
POINT
  5
15E
330
134
100
AcDbEntity
  8
DEFPOINTS
  6
BYBLOCK
 62
     0
100
AcDbPoint
 10
-15.33876978971949
 20
12.39035382121504
 30
0.0
  0
ENDBLK
  5
15F
330
134
100
AcDbEntity
  8
0
100
AcDbBlockEnd
  0
BLOCK
  5
160
330
135
100
AcDbEntity
  8
0
100
AcDbBlockBegin
  2
*D2
 70
     1
 10
0.0
 20
0.0
 30
0.0
  3
*D2
  1

  0
LINE
  5
161
330
135
100
AcDbEntity
  8
0
  6
BYBLOCK
 62
     0
100
AcDbLine
 10
-17.22785989970654
 20
8.891256409274248
 30
0.0
 11
-17.4104234901144
 21
8.72046257022438
 31
0.0
  0
LINE
  5
162
330
135
100
AcDbEntity
  8
0
  6
BYBLOCK
 62
     0
100
AcDbLine
 10
-17.23374477538553
 20
8.714577694545386
 30
0.0
 11
-17.22197502402755
 21
9.067935124003112
 31
0.0
  0
LINE
  5
163
330
135
100
AcDbEntity
  8
0
  6
BYBLOCK
 62
     0
100
AcDbLine
 10
-16.22869656205547
 20
10.00141636309839
 30
0.0
 11
-15.85369656205547
 21
10.00141636309839
 31
0.0
  0
LINE
  5
164
330
135
100
AcDbEntity
  8
0
  6
BYBLOCK
 62
     0
100
AcDbLine
 10
-16.04119656205547
 20
9.813916363098394
 30
0.0
 11
-16.04119656205547
 21
10.18891636309839
 31
0.0
  0
TEXT
  5
165
330
135
100
AcDbEntity
  8
0
  6
BYBLOCK
 62
     0
100
AcDbText
 10
-17.94584306664347
 20
8.133974515631164
 30
0.0
 40
0.125
  1
%%c3 1/4
 50
43.09227767452933
 72
     1
 11
-17.74512340586213
 21
8.407340531966287
 31
0.0
100
AcDbText
 73
     2
  0
POINT
  5
166
330
135
100
AcDbEntity
  8
DEFPOINTS
  6
BYBLOCK
 62
     0
100
AcDbPoint
 10
-17.22785989970654
 20
8.891256409274248
 30
0.0
  0
POINT
  5
167
330
135
100
AcDbEntity
  8
DEFPOINTS
  6
BYBLOCK
 62
     0
100
AcDbPoint
 10
-14.8545332244044
 20
11.11157631692254
 30
0.0
  0
ENDBLK
  5
168
330
135
100
AcDbEntity
  8
0
100
AcDbBlockEnd
  0
BLOCK
  5
169
330
136
100
AcDbEntity
  8
0
100
AcDbBlockBegin
  2
*D3
 70
     1
 10
0.0
 20
0.0
 30
0.0
  3
*D3
  1

  0
LINE
  5
16A
330
136
100
AcDbEntity
  8
0
  6
BYBLOCK
 62
     0
100
AcDbLine
 10
-21.25146950979258
 20
11.65614295996773
 30
0.0
 11
-21.25146950979258
 21
12.7409435451584
 31
0.0
  0
LINE
  5
16B
330
136
100
AcDbEntity
  8
0
  6
BYBLOCK
 62
     0
100
AcDbLine
 10
-18.25189658667095
 20
12.32863132782131
 30
0.0
 11
-18.25189658667095
 21
12.7409435451584
 31
0.0
  0
LINE
  5
16C
330
136
100
AcDbEntity
  8
0
  6
BYBLOCK
 62
     0
100
AcDbLine
 10
-21.25146950979258
 20
12.5609435451584
 30
0.0
 11
-19.91834971489843
 21
12.5609435451584
 31
0.0
  0
LINE
  5
16D
330
136
100
AcDbEntity
  8
0
  6
BYBLOCK
 62
     0
100
AcDbLine
 10
-18.25189658667095
 20
12.5609435451584
 30
0.0
 11
-19.5850163815651
 21
12.5609435451584
 31
0.0
  0
LINE
  5
16E
330
136
100
AcDbEntity
  8
0
  6
BYBLOCK
 62
     0
100
AcDbLine
 10
-21.37646950979259
 20
12.4359435451584
 30
0.0
 11
-21.12646950979259
 21
12.6859435451584
 31
0.0
  0
LINE
  5
16F
330
136
100
AcDbEntity
  8
0
  6
BYBLOCK
 62
     0
100
AcDbLine
 10
-18.37689658667095
 20
12.4359435451584
 30
0.0
 11
-18.12689658667095
 21
12.6859435451584
 31
0.0
  0
TEXT
  5
170
330
136
100
AcDbEntity
  8
0
  6
BYBLOCK
 62
     0
100
AcDbText
 10
-19.79334971489843
 20
12.49844354515841
 30
0.0
 40
0.125
  1
3
 72
     1
 11
-19.75168304823176
 21
12.5609435451584
 31
0.0
100
AcDbText
 73
     2
  0
POINT
  5
171
330
136
100
AcDbEntity
  8
DEFPOINTS
  6
BYBLOCK
 62
     0
100
AcDbPoint
 10
-21.25146950979258
 20
11.59364295996773
 30
0.0
  0
POINT
  5
172
330
136
100
AcDbEntity
  8
DEFPOINTS
  6
BYBLOCK
 62
     0
100
AcDbPoint
 10
-18.25189658667095
 20
12.26613132782132
 30
0.0
  0
POINT
  5
173
330
136
100
AcDbEntity
  8
DEFPOINTS
  6
BYBLOCK
 62
     0
100
AcDbPoint
 10
-18.25189658667095
 20
12.5609435451584
 30
0.0
  0
ENDBLK
  5
174
330
136
100
AcDbEntity
  8
0
100
AcDbBlockEnd
  0
BLOCK
  5
175
330
137
100
AcDbEntity
  8
0
100
AcDbBlockBegin
  2
*D4
 70
     1
 10
0.0
 20
0.0
 30
0.0
  3
*D4
  1

  0
LINE
  5
176
330
137
100
AcDbEntity
  8
0
  6
BYBLOCK
 62
     0
100
AcDbLine
 10
-15.88869656205547
 20
10.00141636309839
 30
0.0
 11
-13.8567697897195
 21
10.00141636309839
 31
0.0
  0
LINE
  5
177
330
137
100
AcDbEntity
  8
0
  6
BYBLOCK
 62
     0
100
AcDbLine
 10
-14.96141437555717
 20
12.20435382121504
 30
0.0
 11
-13.8567697897195
 21
12.20435382121503
 31
0.0
  0
LINE
  5
178
330
137
100
AcDbEntity
  8
0
  6
BYBLOCK
 62
     0
100
AcDbLine
 10
-14.0367697897195
 20
10.00141636309839
 30
0.0
 11
-14.0367697897195
 21
10.64455175882338
 31
0.0
  0
LINE
  5
179
330
137
100
AcDbEntity
  8
0
  6
BYBLOCK
 62
     0
100
AcDbLine
 10
-14.0367697897195
 20
12.20435382121503
 30
0.0
 11
-14.0367697897195
 21
11.56121842549004
 31
0.0
  0
LINE
  5
17A
330
137
100
AcDbEntity
  8
0
  6
BYBLOCK
 62
     0
100
AcDbLine
 10
-13.9117697897195
 20
9.876416363098392
 30
0.0
 11
-14.1617697897195
 21
10.12641636309839
 31
0.0
  0
LINE
  5
17B
330
137
100
AcDbEntity
  8
0
  6
BYBLOCK
 62
     0
100
AcDbLine
 10
-13.9117697897195
 20
12.07935382121503
 30
0.0
 11
-14.1617697897195
 21
12.32935382121503
 31
0.0
  0
TEXT
  5
17C
330
137
100
AcDbEntity
  8
0
  6
BYBLOCK
 62
     0
100
AcDbText
 10
-13.9742697897195
 20
10.76955175882338
 30
0.0
 40
0.125
  1
2 3/16
 50
90.0
 72
     1
 11
-14.0367697897195
 21
11.10288509215671
 31
0.0
100
AcDbText
 73
     2
  0
POINT
  5
17D
330
137
100
AcDbEntity
  8
DEFPOINTS
  6
BYBLOCK
 62
     0
100
AcDbPoint
 10
-15.95119656205547
 20
10.00141636309839
 30
0.0
  0
POINT
  5
17E
330
137
100
AcDbEntity
  8
DEFPOINTS
  6
BYBLOCK
 62
     0
100
AcDbPoint
 10
-15.02391437555717
 20
12.20435382121504
 30
0.0
  0
POINT
  5
17F
330
137
100
AcDbEntity
  8
DEFPOINTS
  6
BYBLOCK
 62
     0
100
AcDbPoint
 10
-14.0367697897195
 20
12.20435382121503
 30
0.0
  0
ENDBLK
  5
180
330
137
100
AcDbEntity
  8
0
100
AcDbBlockEnd
  0
BLOCK
  5
181
330
138
100
AcDbEntity
  8
0
100
AcDbBlockBegin
  2
*D5
 70
     1
 10
0.0
 20
0.0
 30
0.0
  3
*D5
  1

  0
LINE
  5
182
330
138
100
AcDbEntity
  8
0
  6
BYBLOCK
 62
     0
100
AcDbLine
 10
-15.8796673390753
 20
9.864331947347825
 30
0.0
 11
-15.70266630822137
 21
9.687779872659799
 31
0.0
  0
LINE
  5
183
330
138
100
AcDbEntity
  8
0
  6
BYBLOCK
 62
     0
100
AcDbLine
 10
-16.05644389184628
 20
9.864107469264872
 30
0.0
 11
-15.70289078630432
 21
9.864556425430777
 31
0.0
  0
LINE
  5
184
330
138
100
AcDbEntity
  8
0
  6
BYBLOCK
 62
     0
100
AcDbLine
 10
-16.21536044062961
 20
10.01214916291792
 30
0.0
 11
-15.84036044062961
 21
10.01214916291792
 31
0.0
  0
LINE
  5
185
330
138
100
AcDbEntity
  8
0
  6
BYBLOCK
 62
     0
100
AcDbLine
 10
-16.02786044062961
 20
9.824649162917928
 30
0.0
 11
-16.02786044062961
 21
10.19964916291792
 31
0.0
  0
TEXT
  5
186
330
138
100
AcDbEntity
  8
0
  6
BYBLOCK
 62
     0
100
AcDbText
 10
-15.65830381146641
 20
9.555253577602304
 30
0.0
 40
0.125
  1
%%c7/16
 50
315.0727564806056
 72
     1
 11
-15.42241467603598
 21
9.408239087737092
 31
0.0
100
AcDbText
 73
     2
  0
POINT
  5
187
330
138
100
AcDbEntity
  8
DEFPOINTS
  6
BYBLOCK
 62
     0
100
AcDbPoint
 10
-15.8796673390753
 20
9.864331947347825
 30
0.0
  0
POINT
  5
188
330
138
100
AcDbEntity
  8
DEFPOINTS
  6
BYBLOCK
 62
     0
100
AcDbPoint
 10
-16.17605354218391
 20
10.15996637848803
 30
0.0
  0
ENDBLK
  5
189
330
138
100
AcDbEntity
  8
0
100
AcDbBlockEnd
  0
ENDSEC
  0
SECTION
  2
ENTITIES
  0
ARC
  5
18A
330
18
100
AcDbEntity
  8
ADP2DETAIL
  6
HIDDEN2
100
AcDbCircle
 10
-20.80123252692707
 20
8.449649837558137
 30
0.0
 40
2.452332167849075
100
AcDbArc
 50
50.33907951502153
 51
87.21836424406847
  0
DIMENSION
  5
18B
330
18
100
AcDbEntity
  8
ADPDIM
100
AcDbDimension
  2
*D3
 10
-18.25189658667095
 20
12.5609435451584
 30
0.0
 11
-19.75168304823176
 21
12.5609435451584
 31
0.0
100
AcDbAlignedDimension
 13
-21.25146950979258
 23
11.59364295996773
 33
0.0
 14
-18.25189658667095
 24
12.26613132782132
 34
0.0
100
AcDbRotatedDimension
  0
ARC
  5
18C
330
18
100
AcDbEntity
  8
ADP1DETAIL
100
AcDbCircle
 10
-19.76344515726331
 20
12.65520326346123
 30
0.0
 40
2.373334708758199
100
AcDbArc
 50
245.6666759264739
 51
280.6516829889811
  0
ARC
  5
18D
330
18
100
AcDbEntity
  8
ADP1DETAIL
100
AcDbCircle
 10
-19.7804194643475
 20
12.07300804709321
 30
0.0
 40
1.172455949556209
100
AcDbArc
 50
251.9165546169515
 51
323.1345821304941
  0
ARC
  5
18E
330
18
100
AcDbEntity
  8
ADP1DETAIL
100
AcDbCircle
 10
-19.6788339069093
 20
11.980299256171
 30
0.0
 40
0.9629863350569513
100
AcDbArc
 50
238.673137210173
 51
304.5608866135803
  0
LINE
  5
18F
330
18
100
AcDbEntity
  8
ADP2DETAIL
  6
HIDDEN2
100
AcDbLine
 10
-21.19971971092367
 20
8.667664559637692
 30
0.0
 11
-21.19971971092367
 21
11.31286725289586
 31
0.0
  0
LINE
  5
190
330
18
100
AcDbEntity
  8
ADP1DETAIL
100
AcDbLine
 10
-21.25146950979258
 20
11.59364295996773
 30
0.0
 11
-21.25146950979258
 21
8.401666508918252
 31
0.0
  0
LINE
  5
191
330
18
100
AcDbEntity
  8
ADP1DETAIL
100
AcDbLine
 10
-20.96121569239526
 20
8.755914352162823
 30
0.0
 11
-20.96121569239526
 21
10.38090729223674
 31
0.0
  0
LINE
  5
192
330
18
100
AcDbEntity
  8
ADP1DETAIL
100
AcDbLine
 10
-21.13741974613822
 20
8.403506244676909
 30
0.0
 11
-21.13741974613822
 21
10.69415894333533
 31
0.0
  0
LINE
  5
193
330
18
100
AcDbEntity
  8
ADP2DETAIL
  6
HIDDEN2
100
AcDbLine
 10
-21.25146950979258
 20
8.667664559637692
 30
0.0
 11
-21.19971971092367
 21
8.667664559637692
 31
0.0
  0
LINE
  5
194
330
18
100
AcDbEntity
  8
ADP1DETAIL
100
AcDbLine
 10
-21.13741974613822
 20
8.403506244676909
 30
0.0
 11
-20.96121569239526
 21
8.755914352162823
 31
0.0
  0
LINE
  5
195
330
18
100
AcDbEntity
  8
ADP1DETAIL
100
AcDbLine
 10
-21.14057708364492
 20
8.401666508918252
 30
0.0
 11
-21.25146950979258
 21
8.401666508918252
 31
0.0
  0
LINE
  5
196
330
18
100
AcDbEntity
  8
ADP2DETAIL
  6
HIDDEN2
100
AcDbLine
 10
-21.25146950979258
 20
9.805545044277602
 30
0.0
 11
-20.97054205377881
 21
9.805545044277602
 31
0.0
  0
ARC
  5
197
330
18
100
AcDbEntity
  8
ADP2DETAIL
  6
HIDDEN2
100
AcDbCircle
 10
-20.23947394294913
 20
10.43890503823228
 30
0.0
 40
0.7191734542571133
100
AcDbArc
 50
149.5809160396714
 51
185.139140160979
  0
ARC
  5
198
330
18
100
AcDbEntity
  8
ADP1DETAIL
100
AcDbCircle
 10
-20.66107922398232
 20
10.63967853253073
 30
0.0
 40
0.4794459387764087
100
AcDbArc
 50
82.56261357207518
 51
173.4752716142652
  0
ARC
  5
199
330
18
100
AcDbEntity
  8
ADP1DETAIL
100
AcDbCircle
 10
-20.79164426982659
 20
10.31988603739375
 30
0.0
 40
0.1799861901635983
100
AcDbArc
 50
73.77833533032211
 51
162.3409274400418
  0
ARC
  5
19A
330
18
100
AcDbEntity
  8
ADP1DETAIL
100
AcDbCircle
 10
-21.27100707896334
 20
10.29369265928197
 30
0.0
 40
1.300097112088975
100
AcDbArc
 50
57.82634906515344
 51
89.13893940446826
  0
LINE
  5
19B
330
18
100
AcDbEntity
  8
ADP2DETAIL
  6
HIDDEN2
100
AcDbLine
 10
-21.19971971092367
 20
11.31286725289586
 30
0.0
 11
-21.25146950979258
 21
11.31286725289586
 31
0.0
  0
LINE
  5
19C
330
18
100
AcDbEntity
  8
ADP2DETAIL
  6
HIDDEN2
100
AcDbLine
 10
-20.97054205377881
 20
10.23409744094081
 30
0.0
 11
-21.25146950979258
 21
10.23409744094081
 31
0.0
  0
LINE
  5
19D
330
18
100
AcDbEntity
  8
ADP1DETAIL
100
AcDbLine
 10
-20.57872217161738
 20
11.39414443374693
 30
0.0
 11
-20.17950943748577
 21
11.15770172724911
 31
0.0
  0
LINE
  5
19E
330
18
100
AcDbEntity
  8
ADP1DETAIL
100
AcDbLine
 10
-20.59901847081252
 20
11.11509084949906
 30
0.0
 11
-20.14435188006781
 21
10.95846502394976
 31
0.0
  0
ARC
  5
19F
330
18
100
AcDbEntity
  8
ADP2DETAIL
  6
HIDDEN2
100
AcDbCircle
 10
-20.69147955104853
 20
10.70429756836331
 30
0.0
 40
0.1950148286458832
100
AcDbArc
 50
87.27901407747433
 51
149.5809160396714
  0
DIMENSION
  5
1A0
330
18
100
AcDbEntity
  8
ADPDIM
100
AcDbDimension
  2
*D4
 10
-14.0367697897195
 20
12.20435382121503
 30
0.0
 11
-14.0367697897195
 21
11.10288509215671
 31
0.0
100
AcDbAlignedDimension
 13
-15.95119656205547
 23
10.00141636309839
 33
0.0
 14
-15.02391437555717
 24
12.20435382121504
 34
0.0
 50
90.0
100
AcDbRotatedDimension
  0
DIMENSION
  5
1A1
330
18
100
AcDbEntity
  8
ADPDIM
100
AcDbDimension
  2
*D2
 10
-14.8545332244044
 20
11.11157631692254
 30
0.0
 11
-17.74512340586213
 21
8.407340531966287
 31
0.0
 70
     3
100
AcDbDiametricDimension
 15
-17.22785989970654
 25
8.891256409274248
 35
0.0
 40
0.0
  0
DIMENSION
  5
1A2
330
18
100
AcDbEntity
  8
ADPDIM
100
AcDbDimension
  2
*D0
 10
-15.02391437555717
 20
12.73246964858036
 30
0.0
 11
-16.02194616376554
 21
12.73246964858036
 31
0.0
100
AcDbAlignedDimension
 13
-17.01997795197391
 23
12.20435382121504
 33
0.0
 14
-15.02391437555717
 24
12.20435382121504
 34
0.0
100
AcDbRotatedDimension
  0
LINE
  5
1A3
330
18
100
AcDbEntity
  8
ADP1DETAIL
100
AcDbLine
 10
-15.02391437555717
 20
12.20435382121504
 30
0.0
 11
-17.01997795197391
 21
12.20435382121504
 31
0.0
  0
LINE
  5
1A4
330
18
100
AcDbEntity
  8
ADP1DETAIL
100
AcDbLine
 10
-17.01997795197391
 20
12.20435382121504
 30
0.0
 11
-15.01997795197391
 21
12.20435382121504
 31
0.0
  0
ARC
  5
1A5
330
18
100
AcDbEntity
  8
ADP1DETAIL
100
AcDbCircle
 10
-16.04119656205547
 20
10.00141636309839
 30
0.0
 40
1.625
100
AcDbArc
 50
101.2304182073896
 51
78.75183484241006
  0
LWPOLYLINE
  5
1A6
330
18
100
AcDbEntity
  8
ADP1DETAIL
100
AcDbPolyline
 90
       10
 70
     0
 43
0.0
 10
-15.82086124515396
 20
12.01563132782132
 10
-15.85043255879334
 20
10.99486413766947
 42
0.0995495467782223
 10
-15.73214730423583
 20
10.3077025421006
 42
0.530312501866907
 10
-15.63604055846817
 20
10.28553603393439
 10
-15.29597045161532
 20
10.47025688804438
 42
-0.2280764246741457
 10
-14.84500794217512
 20
10.49242339621059
 42
-0.2007657771815652
 10
-14.73411553958778
 20
10.25598068971277
 42
-0.0449749975058741
 10
-14.75629402481731
 20
9.790484128530918
 42
-0.2573227376079197
 10
-15.45121984822205
 20
8.859491006167209
 42
-0.0999220194063038
 10
-16.02786044062961
 20
8.72649198868668
 42
-0.0138988819437221
  0
ARC
  5
1B9
330
18
100
AcDbEntity
  8
ADP1DETAIL
100
AcDbCircle
 10
-15.08197795197391
 20
12.07835382121504
 30
0.0
 40
0.062
100
AcDbArc
 50
270.0
 51
0.0
  0
DIMENSION
  5
1BA
330
18
100
AcDbEntity
  8
ADPDIM
100
AcDbDimension
  2
*D5
 10
-16.17605354218391
 20
10.15996637848803
 30
0.0
 11
-15.42241467603598
 21
9.408239087737092
 31
0.0
 70
     3
100
AcDbDiametricDimension
 15
-15.8796673390753
 25
9.864331947347825
 35
0.0
 40
0.0
  0
CIRCLE
  5
1BB
330
18
100
AcDbEntity
  8
ADP1DETAIL
100
AcDbCircle
 10
-16.02786044062961
 20
10.01214916291792
 30
0.0
 40
0.2093110712962469
  0
LWPOLYLINE
  5
1BC
330
18
100
AcDbEntity
  8
ADP1DETAIL
100
AcDbPolyline
 90
       10
 70
     0
 43
0.0
 10
-16.22007397928556
 20
12.01563132782132
 10
-16.19050266564618
 20
10.99486413766947
 42
-0.0995495467782223
 10
-16.3087879202037
 20
10.3077025421006
 42
-0.530312501866907
 10
-16.40489466597135
 20
10.28553603393439
 10
-16.7449647728242
 20
10.47025688804438
 42
0.2280764246741457
 10
-17.1959272822644
 20
10.49242339621059
 42
0.2007657771815652
 10
-17.30681968485175
 20
10.25598068971277
 42
0.0449749975058741
 10
-17.28464119962221
 20
9.790484128530918
 42
0.2573227376079197
 10
-16.58971537621747
 20
8.859491006167209
 42
0.0999220194063038
 10
-16.01307478380991
 20
8.72649198868668
 42
0.0138988819437221
  0
ARC
  5
1C8
330
18
100
AcDbEntity
  8
ADP1DETAIL
100
AcDbCircle
 10
-19.61678797642284
 20
11.73873176950148
 30
0.0
 40
1.445767943777813
100
AcDbArc
 50
281.653126621906
 51
358.551946848911
  0
LINE
  5
1C9
330
18
100
AcDbEntity
  8
ADP1DETAIL
100
AcDbLine
 10
-18.72064658667095
 20
12.20363132782132
 30
0.0
 11
-17.75814658667095
 21
12.20363132782132
 31
0.0
  0
LINE
  5
1CA
330
18
100
AcDbEntity
  8
ADP1DETAIL
100
AcDbLine
 10
-17.75814658667095
 20
12.01563132782132
 30
0.0
 11
-18.72064658667095
 21
12.01563132782132
 31
0.0
  0
ARC
  5
1CB
330
18
100
AcDbEntity
  8
ADP1DETAIL
100
AcDbCircle
 10
-19.37102303947398
 20
11.88913828906099
 30
0.0
 40
0.7412873435454836
100
AcDbArc
 50
288.7658883287426
 51
336.9377156135389
  0
ARC
  5
1CC
330
18
100
AcDbEntity
  8
ADP1DETAIL
100
AcDbCircle
 10
-19.2391454998676
 20
11.78756190799181
 30
0.0
 40
0.5762749765465124
100
AcDbArc
 50
313.5088109509354
 51
25.39420979157996
  0
ARC
  5
1CD
330
18
100
AcDbEntity
  8
ADP1DETAIL
100
AcDbCircle
 10
-19.2786748726589
 20
11.77772531239558
 30
0.0
 40
0.6162561167263925
100
AcDbArc
 50
343.1169401907346
 51
24.64428283399763
  0
LINE
  5
1CE
330
18
100
AcDbEntity
  8
ADP1DETAIL
100
AcDbLine
 10
-18.72064658667095
 20
12.01563132782132
 30
0.0
 11
-18.72064658667095
 21
12.20363132782132
 31
0.0
  0
LINE
  5
1CF
330
18
100
AcDbEntity
  8
ADP2DETAIL
  6
HIDDEN2
100
AcDbLine
 10
-18.37646166268213
 20
12.14740859969144
 30
0.0
 11
-18.15467683394713
 21
12.14740859969144
 31
0.0
  0
LINE
  5
1D0
330
18
100
AcDbEntity
  8
ADP2DETAIL
  6
HIDDEN2
100
AcDbLine
 10
-18.36906883427229
 20
12.14740859969144
 30
0.0
 11
-18.46517560360027
 21
12.02179841826631
 31
0.0
  0
LINE
  5
1D1
330
18
100
AcDbEntity
  8
ADP2DETAIL
  6
HIDDEN2
100
AcDbLine
 10
-18.36906883427229
 20
12.21390810843171
 30
0.0
 11
-18.36906883427229
 21
12.14740859969144
 31
0.0
  0
LINE
  5
1D2
330
18
100
AcDbEntity
  8
ADP2DETAIL
  6
HIDDEN2
100
AcDbLine
 10
-18.15467683394713
 20
12.14740859969144
 30
0.0
 11
-18.02899875097977
 21
12.01440958221091
 31
0.0
  0
ARC
  5
1D3
330
18
100
AcDbEntity
  8
ADP2DETAIL
  6
HIDDEN2
100
AcDbCircle
 10
-17.53576355995071
 20
11.69471542981285
 30
0.0
 40
0.5752780623039437
100
AcDbArc
 50
145.9463746550799
 51
152.4487575162419
  0
LINE
  5
1D4
330
18
100
AcDbEntity
  8
ADP2DETAIL
  6
HIDDEN2
100
AcDbLine
 10
-18.15467683394713
 20
12.210213690404
 30
0.0
 11
-18.15467683394713
 21
12.14740859969144
 31
0.0
  0
ARC
  5
1D5
330
18
100
AcDbEntity
  8
ADP1DETAIL
100
AcDbCircle
 10
-13.57185026181895
 20
9.626724855610127
 30
0.0
 40
5.046205667409746
100
AcDbArc
 50
152.4487575162419
 51
155.7138849512715
  0
LINE
  5
1D7
330
18
100
AcDbEntity
  8
ADP1DETAIL
100
AcDbLine
 10
-17.75814658667095
 20
12.20363132782132
 30
0.0
 11
-17.75814658667095
 21
12.01563132782132
 31
0.0
  0
DIMENSION
  5
1D8
330
18
100
AcDbEntity
  8
ADPDIM
100
AcDbDimension
  2
*D1
 10
-15.33876978971949
 20
12.39035382121504
 30
0.0
 11
-16.01596196581368
 21
12.39035382121504
 31
0.0
100
AcDbAlignedDimension
 13
-16.69315414190786
 23
12.21035382121504
 33
0.0
 14
-15.33876978971949
 24
12.26746964858036
 34
0.0
100
AcDbRotatedDimension
  0
LINE
  5
1D9
330
18
100
AcDbEntity
  8
ADP1DETAIL
100
AcDbLine
 10
-15.08197795197391
 20
12.01635382121504
 30
0.0
 11
-16.95797795197391
 21
12.01635382121504
 31
0.0
  0
LWPOLYLINE
  5
1DA
330
18
100
AcDbEntity
  8
ADP1DETAIL
100
AcDbPolyline
 90
        3
 70
     0
 43
0.0
 10
-16.02046761221976
 20
10.38159088689627
 42
0.3800457981514723
 10
-16.15353852359696
 20
10.26336952576818
 10
-16.35314486710244
 20
10.26336952576818
  0
LWPOLYLINE
  5
1DF
330
18
100
AcDbEntity
  8
ADP1DETAIL
100
AcDbPolyline
 90
        5
 70
     0
 43
0.0
 10
-16.33835921028276
 20
12.01563132782132
 10
-16.30139509179385
 20
11.29780633714917
 42
-0.1110981312721881
 10
-16.36053769551229
 20
10.95791995739245
 42
-0.5757162225684706
 10
-16.47143012165996
 20
10.94314228528163
 42
0.4032437108922223
 10
-17.34378382690097
 20
10.98747530161406
 42
1.403425664058203
  0
LINE
  5
1E6
330
18
100
AcDbEntity
  8
ADP2DETAIL
  6
HIDDEN2
100
AcDbLine
 10
-16.84343600322801
 20
12.14863034530185
 30
0.0
 11
-16.62165117449299
 21
12.14863034530185
 31
0.0
  0
LINE
  5
1E7
330
18
100
AcDbEntity
  8
ADP2DETAIL
  6
HIDDEN2
100
AcDbLine
 10
-16.83604317481816
 20
12.14863034530185
 30
0.0
 11
-16.93214994414614
 21
12.02302016387672
 31
0.0
  0
LINE
  5
1E8
330
18
100
AcDbEntity
  8
ADP2DETAIL
  6
HIDDEN2
100
AcDbLine
 10
-16.83604317481816
 20
12.21512985404211
 30
0.0
 11
-16.83604317481816
 21
12.14863034530185
 31
0.0
  0
ARC
  5
1E9
330
18
100
AcDbEntity
  8
ADP1DETAIL
100
AcDbCircle
 10
-16.95797795197391
 20
12.07835382121504
 30
0.0
 40
0.062
100
AcDbArc
 50
180.0
 51
270.0
  0
LINE
  5
1EA
330
18
100
AcDbEntity
  8
ADP1DETAIL
100
AcDbLine
 10
-17.01997795197391
 20
12.07835382121504
 30
0.0
 11
-17.01997795197391
 21
12.20435382121504
 31
0.0
  0
LINE
  5
1EB
330
18
100
AcDbEntity
  8
ADP2DETAIL
  6
HIDDEN2
100
AcDbLine
 10
-16.62165117449299
 20
12.14863034530185
 30
0.0
 11
-16.49597309152564
 21
12.01563132782132
 31
0.0
  0
LINE
  5
1EC
330
18
100
AcDbEntity
  8
ADP2DETAIL
  6
HIDDEN2
100
AcDbLine
 10
-16.62165117449299
 20
12.21143543601441
 30
0.0
 11
-16.62165117449299
 21
12.14863034530185
 31
0.0
  0
LWPOLYLINE
  5
1ED
330
18
100
AcDbEntity
  8
ADP1DETAIL
100
AcDbPolyline
 90
        3
 70
     0
 43
0.0
 10
-16.02046761221976
 20
10.38159088689627
 42
-0.3800457981514723
 10
-15.88739670084256
 20
10.26336952576818
 10
-15.68779035733708
 20
10.26336952576818
  0
LINE
  5
1F2
330
18
100
AcDbEntity
  8
ADP2DETAIL
  6
HIDDEN2
100
AcDbLine
 10
-15.46097716126804
 20
12.14863034530185
 30
0.0
 11
-15.23919233253303
 21
12.14863034530185
 31
0.0
  0
LINE
  5
1F3
330
18
100
AcDbEntity
  8
ADP2DETAIL
  6
HIDDEN2
100
AcDbLine
 10
-15.4535843328582
 20
12.14863034530185
 30
0.0
 11
-15.54969110218618
 21
12.02302016387672
 31
0.0
  0
LINE
  5
1F4
330
18
100
AcDbEntity
  8
ADP2DETAIL
  6
HIDDEN2
100
AcDbLine
 10
-15.4535843328582
 20
12.21512985404211
 30
0.0
 11
-15.4535843328582
 21
12.14863034530185
 31
0.0
  0
LINE
  5
1F5
330
18
100
AcDbEntity
  8
ADP2DETAIL
  6
HIDDEN2
100
AcDbLine
 10
-15.23919233253303
 20
12.14863034530185
 30
0.0
 11
-15.11351424956567
 21
12.01563132782132
 31
0.0
  0
LINE
  5
1F6
330
18
100
AcDbEntity
  8
ADP2DETAIL
  6
HIDDEN2
100
AcDbLine
 10
-15.23919233253303
 20
12.21143543601441
 30
0.0
 11
-15.23919233253303
 21
12.14863034530185
 31
0.0
  0
LINE
  5
1F7
330
18
100
AcDbEntity
  8
ADP1DETAIL
100
AcDbLine
 10
-15.01997795197391
 20
12.20435382121504
 30
0.0
 11
-15.01997795197391
 21
12.07835382121504
 31
0.0
  0
LWPOLYLINE
  5
1FA
330
18
100
AcDbEntity
  8
ADP1DETAIL
100
AcDbPolyline
 90
        5
 70
     0
 43
0.0
 10
-15.70257601415677
 20
12.01563132782132
 10
-15.73954013264567
 20
11.29780633714917
 42
0.1110981312721881
 10
-15.68039752892723
 20
10.95791995739245
 42
0.5757162225684706
 10
-15.56950510277957
 20
10.94314228528163
 42
-0.3379396845760314
 10
-14.81613160335967
 20
11.06904965546784
 42
-1.403425664058203
  0
TEXT
  5
20D
330
18
100
AcDbEntity
  8
ADPDIM
100
AcDbText
 10
-24.09745911155365
 20
7.209876063973678
 30
0.0
 40
0.125
  1
J U L I U S  B L U M  &  C O . ,  I N C .      ( 8 0 0 )  5 2 6 - 6 2 9 3        W W W . J U L I U S B L U M . C O M        P A R T  N o .  3 1 7
 41
1.25
  7
ARIAL_WIDE
 72
     1
 11
-17.6627515740366
 21
7.334876063973678
 31
0.0
100
AcDbText
 73
     3
  0
ENDSEC
  0
SECTION
  2
OBJECTS
  0
DICTIONARY
  5
C
330
0
100
AcDbDictionary
  3
ACAD_GROUP
350
D
  3
ACAD_LAYOUT
350
206
  3
ACAD_MLINESTYLE
350
E
  3
ACAD_PLOTSETTINGS
350
207
  3
ACAD_PLOTSTYLENAME
350
204
  3
ACDBHEADERROUNDTRIPXREC
350
3B3
  3
ACDBVARIABLEDICTIONARY
350
267
  0
DICTIONARY
  5
261
330
18
100
AcDbDictionary
280
     1
  3
ACAD_LAYOUTSELFREF
360
3D4
  0
DICTIONARY
  5
25F
330
15
100
AcDbDictionary
280
     1
  3
ACAD_LAYOUTSELFREF
360
3D3
  0
DICTIONARY
  5
D
102
{ACAD_REACTORS
330
C
102
}
330
C
100
AcDbDictionary
  0
DICTIONARY
  5
206
102
{ACAD_REACTORS
330
C
102
}
330
C
100
AcDbDictionary
  0
DICTIONARY
  5
E
102
{ACAD_REACTORS
330
C
102
}
330
C
100
AcDbDictionary
  3
STANDARD
350
1B
  0
DICTIONARY
  5
207
102
{ACAD_REACTORS
330
C
102
}
330
C
100
AcDbDictionary
  0
ACDBDICTIONARYWDFLT
  5
204
102
{ACAD_REACTORS
330
C
102
}
330
C
100
AcDbDictionary
281
     1
  3
Normal
350
205
100
AcDbDictionaryWithDefault
340
205
  0
DICTIONARY
  5
3B3
102
{ACAD_REACTORS
330
C
102
}
330
C
100
AcDbDictionary
  3
CEPSNTYPE
350
3BD
  3
FINGERPRINTGUID
350
3BE
  3
HYPERLINKBASE
350
3B6
  3
INSUNITS
350
3BC
  3
LAYOUTDICT
350
3B8
  3
LWETCUNION
350
3BB
  3
PLOTSETDICT
350
3B9
  3
PLOTSTYLNAMDICT
350
3BA
  3
PSVPSCALE
350
3C0
  3
PUCSBASE
350
3C3
  3
PUCSORGBACK
350
3C9
  3
PUCSORGBOTTOM
350
3C5
  3
PUCSORGFRONT
350
3C8
  3
PUCSORGLEFT
350
3C6
  3
PUCSORGRIGHT
350
3C7
  3
PUCSORGTOP
350
3C4
  3
PUCSORTHOREF
350
3C1
  3
PUCSORTHOVIEW
350
3C2
  3
STYLESHEET
350
3B7
  3
TSTACKALIGN
350
3B4
  3
TSTACKSIZE
350
3B5
  3
UCSBASE
350
3CC
  3
UCSORGBACK
350
3D2
  3
UCSORGBOTTOM
350
3CE
  3
UCSORGFRONT
350
3D1
  3
UCSORGLEFT
350
3CF
  3
UCSORGRIGHT
350
3D0
  3
UCSORGTOP
350
3CD
  3
UCSORTHOREF
350
3CA
  3
UCSORTHOVIEW
350
3CB
  3
VERSIONGUID
350
3BF
  0
DICTIONARY
  5
267
102
{ACAD_REACTORS
330
C
102
}
330
C
100
AcDbDictionary
  3
DIMASSOC
350
268
  0
XRECORD
  5
3D4
102
{ACAD_REACTORS
330
261
102
}
330
261
100
AcDbXrecord
340
18
  0
XRECORD
  5
3D3
102
{ACAD_REACTORS
330
25F
102
}
330
25F
100
AcDbXrecord
340
15
  0
MLINESTYLE
  5
1B
102
{ACAD_REACTORS
330
E
102
}
330
E
100
AcDbMlineStyle
  2
STANDARD
 70
     0
  3

 62
     0
 51
90.0
 52
90.0
 71
     2
 49
0.5
 62
   256
  6
BYLAYER
 49
-0.5
 62
   256
  6
BYLAYER
  0
ACDBPLACEHOLDER
  5
205
102
{ACAD_REACTORS
330
204
102
}
330
204
100
AcDbPlaceHolder
280
     0
  0
XRECORD
  5
3BD
102
{ACAD_REACTORS
330
3B3
102
}
330
3B3
100
AcDbXrecord
 90
        0
  0
XRECORD
  5
3BE
102
{ACAD_REACTORS
330
3B3
102
}
330
3B3
100
AcDbXrecord
  1
{AABD9569-A4D0-40AF-9746-500F8538E205}
  0
XRECORD
  5
3B6
102
{ACAD_REACTORS
330
3B3
102
}
330
3B3
100
AcDbXrecord
  1

  0
XRECORD
  5
3BC
102
{ACAD_REACTORS
330
3B3
102
}
330
3B3
100
AcDbXrecord
 90
        0
  0
XRECORD
  5
3B8
102
{ACAD_REACTORS
330
3B3
102
}
330
3B3
100
AcDbXrecord
340
206
  0
XRECORD
  5
3BB
102
{ACAD_REACTORS
330
3B3
102
}
330
3B3
100
AcDbXrecord
 90
    14877
  0
XRECORD
  5
3B9
102
{ACAD_REACTORS
330
3B3
102
}
330
3B3
100
AcDbXrecord
340
207
  0
XRECORD
  5
3BA
102
{ACAD_REACTORS
330
3B3
102
}
330
3B3
100
AcDbXrecord
340
204
  0
XRECORD
  5
3C0
102
{ACAD_REACTORS
330
3B3
102
}
330
3B3
100
AcDbXrecord
 40
0.0
  0
XRECORD
  5
3C3
102
{ACAD_REACTORS
330
3B3
102
}
330
3B3
100
AcDbXrecord
340
0
  0
XRECORD
  5
3C9
102
{ACAD_REACTORS
330
3B3
102
}
330
3B3
100
AcDbXrecord
 10
0.0
 20
0.0
 30
0.0
  0
XRECORD
  5
3C5
102
{ACAD_REACTORS
330
3B3
102
}
330
3B3
100
AcDbXrecord
 10
0.0
 20
0.0
 30
0.0
  0
XRECORD
  5
3C8
102
{ACAD_REACTORS
330
3B3
102
}
330
3B3
100
AcDbXrecord
 10
0.0
 20
0.0
 30
0.0
  0
XRECORD
  5
3C6
102
{ACAD_REACTORS
330
3B3
102
}
330
3B3
100
AcDbXrecord
 10
0.0
 20
0.0
 30
0.0
  0
XRECORD
  5
3C7
102
{ACAD_REACTORS
330
3B3
102
}
330
3B3
100
AcDbXrecord
 10
0.0
 20
0.0
 30
0.0
  0
XRECORD
  5
3C4
102
{ACAD_REACTORS
330
3B3
102
}
330
3B3
100
AcDbXrecord
 10
0.0
 20
0.0
 30
0.0
  0
XRECORD
  5
3C1
102
{ACAD_REACTORS
330
3B3
102
}
330
3B3
100
AcDbXrecord
340
0
  0
XRECORD
  5
3C2
102
{ACAD_REACTORS
330
3B3
102
}
330
3B3
100
AcDbXrecord
 70
     0
  0
XRECORD
  5
3B7
102
{ACAD_REACTORS
330
3B3
102
}
330
3B3
100
AcDbXrecord
  1

  0
XRECORD
  5
3B4
102
{ACAD_REACTORS
330
3B3
102
}
330
3B3
100
AcDbXrecord
 90
        1
  0
XRECORD
  5
3B5
102
{ACAD_REACTORS
330
3B3
102
}
330
3B3
100
AcDbXrecord
 90
       70
  0
XRECORD
  5
3CC
102
{ACAD_REACTORS
330
3B3
102
}
330
3B3
100
AcDbXrecord
340
0
  0
XRECORD
  5
3D2
102
{ACAD_REACTORS
330
3B3
102
}
330
3B3
100
AcDbXrecord
 10
0.0
 20
0.0
 30
0.0
  0
XRECORD
  5
3CE
102
{ACAD_REACTORS
330
3B3
102
}
330
3B3
100
AcDbXrecord
 10
0.0
 20
0.0
 30
0.0
  0
XRECORD
  5
3D1
102
{ACAD_REACTORS
330
3B3
102
}
330
3B3
100
AcDbXrecord
 10
0.0
 20
0.0
 30
0.0
  0
XRECORD
  5
3CF
102
{ACAD_REACTORS
330
3B3
102
}
330
3B3
100
AcDbXrecord
 10
0.0
 20
0.0
 30
0.0
  0
XRECORD
  5
3D0
102
{ACAD_REACTORS
330
3B3
102
}
330
3B3
100
AcDbXrecord
 10
0.0
 20
0.0
 30
0.0
  0
XRECORD
  5
3CD
102
{ACAD_REACTORS
330
3B3
102
}
330
3B3
100
AcDbXrecord
 10
0.0
 20
0.0
 30
0.0
  0
XRECORD
  5
3CA
102
{ACAD_REACTORS
330
3B3
102
}
330
3B3
100
AcDbXrecord
340
0
  0
XRECORD
  5
3CB
102
{ACAD_REACTORS
330
3B3
102
}
330
3B3
100
AcDbXrecord
 70
     0
  0
XRECORD
  5
3BF
102
{ACAD_REACTORS
330
3B3
102
}
330
3B3
100
AcDbXrecord
  1
{A9530F30-DAF6-439F-9963-A81B0170DF0C}
  0
DICTIONARYVAR
  5
268
102
{ACAD_REACTORS
330
267
102
}
330
267
100
DictionaryVariables
280
     0
  1
1
  0
ENDSEC
  0
EOF
