  0
SECTION
  2
HEADER
  9
$ACADVER
  1
AC1014
  9
$ACADMAINTVER
 70
     9
  9
$DWGCODEPAGE
  3
ANSI_1252
  9
$INSBASE
 10
-10.1647149654744
 20
8.401666508918252
 30
0.0
  9
$EXTMIN
 10
-13.0792331549931
 20
7.252195549782148
 30
0.0
  9
$EXTMAX
 10
-0.2098180799589944
 20
13.02586454742056
 30
0.0
  9
$LIMMIN
 10
0.0
 20
0.0
  9
$LIMMAX
 10
36.0
 20
36.0
  9
$ORTHOMODE
 70
     1
  9
$REGENMODE
 70
     1
  9
$FILLMODE
 70
     1
  9
$QTEXTMODE
 70
     0
  9
$MIRRTEXT
 70
     1
  9
$DRAGMODE
 70
     0
  9
$LTSCALE
 40
1.0
  9
$OSMODE
 70
    37
  9
$ATTMODE
 70
     1
  9
$TEXTSIZE
 40
0.2
  9
$TRACEWID
 40
0.05
  9
$TEXTSTYLE
  7
STANDARD
  9
$CLAYER
  8
ADP2DETAIL
  9
$CELTYPE
  6
BYLAYER
  9
$CECOLOR
 62
   256
  9
$CELTSCALE
 40
1.0
  9
$DELOBJ
 70
     1
  9
$DISPSILH
 70
     0
  9
$DIMSCALE
 40
1.0
  9
$DIMASZ
 40
0.125
  9
$DIMEXO
 40
0.0625
  9
$DIMDLI
 40
0.38
  9
$DIMRND
 40
0.0
  9
$DIMDLE
 40
0.0
  9
$DIMEXE
 40
0.18
  9
$DIMTP
 40
0.0
  9
$DIMTM
 40
0.0
  9
$DIMTXT
 40
0.125
  9
$DIMCEN
 40
0.1875
  9
$DIMTSZ
 40
0.125
  9
$DIMTOL
 70
     0
  9
$DIMLIM
 70
     0
  9
$DIMTIH
 70
     0
  9
$DIMTOH
 70
     0
  9
$DIMSE1
 70
     0
  9
$DIMSE2
 70
     0
  9
$DIMTAD
 70
     0
  9
$DIMZIN
 70
     3
  9
$DIMBLK
  1

  9
$DIMASO
 70
     1
  9
$DIMSHO
 70
     1
  9
$DIMPOST
  1

  9
$DIMAPOST
  1

  9
$DIMALT
 70
     0
  9
$DIMALTD
 70
     1
  9
$DIMALTF
 40
25.4
  9
$DIMLFAC
 40
1.0
  9
$DIMTOFL
 70
     0
  9
$DIMTVP
 40
0.0
  9
$DIMTIX
 70
     0
  9
$DIMSOXD
 70
     0
  9
$DIMSAH
 70
     0
  9
$DIMBLK1
  1

  9
$DIMBLK2
  1

  9
$DIMSTYLE
  2
STANDARD
  9
$DIMCLRD
 70
     0
  9
$DIMCLRE
 70
     0
  9
$DIMCLRT
 70
     0
  9
$DIMTFAC
 40
1.0
  9
$DIMGAP
 40
0.125
  9
$DIMJUST
 70
     0
  9
$DIMSD1
 70
     0
  9
$DIMSD2
 70
     0
  9
$DIMTOLJ
 70
     1
  9
$DIMTZIN
 70
     0
  9
$DIMALTZ
 70
     0
  9
$DIMALTTZ
 70
     0
  9
$DIMFIT
 70
     3
  9
$DIMUPT
 70
     0
  9
$DIMUNIT
 70
     2
  9
$DIMDEC
 70
     4
  9
$DIMTDEC
 70
     4
  9
$DIMALTU
 70
     2
  9
$DIMALTTD
 70
     2
  9
$DIMTXSTY
  7
STANDARD
  9
$DIMAUNIT
 70
     0
  9
$LUNITS
 70
     5
  9
$LUPREC
 70
     4
  9
$SKETCHINC
 40
0.1
  9
$FILLETRAD
 40
0.062
  9
$AUNITS
 70
     0
  9
$AUPREC
 70
     0
  9
$MENU
  1
acad
  9
$ELEVATION
 40
0.0
  9
$PELEVATION
 40
0.0
  9
$THICKNESS
 40
0.0
  9
$LIMCHECK
 70
     0
  9
$BLIPMODE
 70
     0
  9
$CHAMFERA
 40
0.0
  9
$CHAMFERB
 40
0.0
  9
$CHAMFERC
 40
0.0
  9
$CHAMFERD
 40
0.0
  9
$SKPOLY
 70
     0
  9
$TDCREATE
 40
2450386.496971446
  9
$TDUPDATE
 40
2452297.067620254
  9
$TDINDWG
 40
0.0080392245
  9
$TDUSRTIMER
 40
0.0080392245
  9
$USRTIMER
 70
     1
  9
$ANGBASE
 50
0.0
  9
$ANGDIR
 70
     0
  9
$PDMODE
 70
     0
  9
$PDSIZE
 40
0.0
  9
$PLINEWID
 40
0.0
  9
$COORDS
 70
     2
  9
$SPLFRAME
 70
     0
  9
$SPLINETYPE
 70
     6
  9
$SPLINESEGS
 70
     8
  9
$ATTDIA
 70
     0
  9
$ATTREQ
 70
     1
  9
$HANDLING
 70
 22529
  9
$HANDSEED
  5
3CF
  9
$SURFTAB1
 70
     6
  9
$SURFTAB2
 70
     6
  9
$SURFTYPE
 70
     6
  9
$SURFU
 70
     6
  9
$SURFV
 70
     6
  9
$UCSNAME
  2

  9
$UCSORG
 10
0.0
 20
0.0
 30
0.0
  9
$UCSXDIR
 10
1.0
 20
0.0
 30
0.0
  9
$UCSYDIR
 10
0.0
 20
1.0
 30
0.0
  9
$PUCSNAME
  2

  9
$PUCSORG
 10
0.0
 20
0.0
 30
0.0
  9
$PUCSXDIR
 10
1.0
 20
0.0
 30
0.0
  9
$PUCSYDIR
 10
0.0
 20
1.0
 30
0.0
  9
$USERI1
 70
     0
  9
$USERI2
 70
     0
  9
$USERI3
 70
     0
  9
$USERI4
 70
     0
  9
$USERI5
 70
     0
  9
$USERR1
 40
0.0
  9
$USERR2
 40
0.0
  9
$USERR3
 40
0.0
  9
$USERR4
 40
0.0
  9
$USERR5
 40
0.0
  9
$WORLDVIEW
 70
     1
  9
$SHADEDGE
 70
     3
  9
$SHADEDIF
 70
    70
  9
$TILEMODE
 70
     1
  9
$MAXACTVP
 70
    15
  9
$PINSBASE
 10
4.403525741743744E+99
 20
7.061986388769092E+99
 30
0.0
  9
$PLIMCHECK
 70
     0
  9
$PEXTMIN
 10
1.000000000000000E+20
 20
1.000000000000000E+20
 30
1.000000000000000E+20
  9
$PEXTMAX
 10
-1.000000000000000E+20
 20
-1.000000000000000E+20
 30
-1.000000000000000E+20
  9
$PLIMMIN
 10
0.0
 20
0.0
  9
$PLIMMAX
 10
12.0
 20
9.0
  9
$UNITMODE
 70
     0
  9
$VISRETAIN
 70
     0
  9
$PLINEGEN
 70
     0
  9
$PSLTSCALE
 70
     1
  9
$TREEDEPTH
 70
  3020
  9
$PICKSTYLE
 70
     1
  9
$CMLSTYLE
  2
STANDARD
  9
$CMLJUST
 70
     0
  9
$CMLSCALE
 40
1.0
  9
$PROXYGRAPHICS
 70
     1
  9
$MEASUREMENT
 70
     0
  0
ENDSEC
  0
SECTION
  2
CLASSES
  0
CLASS
  1
ACDBDICTIONARYWDFLT
  2
AcDbDictionaryWithDefault
  3
AutoCAD 2000
 90
        0
280
     0
281
     0
  0
CLASS
  1
ACDBPLACEHOLDER
  2
AcDbPlaceHolder
  3
AutoCAD 2000
 90
        0
280
     0
281
     0
  0
CLASS
  1
LAYOUT
  2
AcDbLayout
  3
AutoCAD 2000
 90
        0
280
     0
281
     0
  0
CLASS
  1
DICTIONARYVAR
  2
AcDbDictionaryVar
  3
AutoCAD 2000
 90
        0
280
     0
281
     0
  0
CLASS
  1
LONG_TRANSACTION
  2
AcDbLongTransaction
  3
AutoCAD 2000
 90
        0
280
     0
281
     0
  0
CLASS
  1
LWPOLYLINE
  2
AcDbPolyline
  3
AutoCAD 2000
 90
        0
280
     0
281
     1
  0
CLASS
  1
HATCH
  2
AcDbHatch
  3
AutoCAD 2000
 90
        0
280
     0
281
     1
  0
CLASS
  1
XRECORD
  2
AcDbXrecord
  3
AutoCAD 2000
 90
        0
280
     0
281
     0
  0
CLASS
  1
LONG_TRANSACTION
  2
AcDbLongTransaction
  3
AutoCAD 2000
 90
        0
280
     0
281
     0
  0
CLASS
  1
LWPOLYLINE
  2
AcDbPolyline
  3
AutoCAD 2000
 90
        0
280
     0
281
     1
  0
CLASS
  1
HATCH
  2
AcDbHatch
  3
AutoCAD 2000
 90
        0
280
     0
281
     1
  0
CLASS
  1
XRECORD
  2
AcDbXrecord
  3
AutoCAD 2000
 90
        0
280
     0
281
     0
  0
CLASS
  1
LONG_TRANSACTION
  2
AcDbLongTransaction
  3
AutoCAD 2000
 90
        0
280
     0
281
     0
  0
CLASS
  1
LWPOLYLINE
  2
AcDbPolyline
  3
AutoCAD 2000
 90
        0
280
     0
281
     1
  0
CLASS
  1
HATCH
  2
AcDbHatch
  3
AutoCAD 2000
 90
        0
280
     0
281
     1
  0
CLASS
  1
XRECORD
  2
AcDbXrecord
  3
AutoCAD 2000
 90
        0
280
     0
281
     0
  0
CLASS
  1
LONG_TRANSACTION
  2
AcDbLongTransaction
  3
AutoCAD 2000
 90
        0
280
     0
281
     0
  0
CLASS
  1
LWPOLYLINE
  2
AcDbPolyline
  3
AutoCAD 2000
 90
        0
280
     0
281
     1
  0
CLASS
  1
HATCH
  2
AcDbHatch
  3
AutoCAD 2000
 90
        0
280
     0
281
     1
  0
CLASS
  1
XRECORD
  2
AcDbXrecord
  3
AutoCAD 2000
 90
        0
280
     0
281
     0
  0
CLASS
  1
LONG_TRANSACTION
  2
AcDbLongTransaction
  3
AutoCAD 2000
 90
        0
280
     0
281
     0
  0
CLASS
  1
LWPOLYLINE
  2
AcDbPolyline
  3
AutoCAD 2000
 90
        0
280
     0
281
     1
  0
CLASS
  1
HATCH
  2
AcDbHatch
  3
AutoCAD 2000
 90
        0
280
     0
281
     1
  0
CLASS
  1
XRECORD
  2
AcDbXrecord
  3
AutoCAD 2000
 90
        0
280
     0
281
     0
  0
CLASS
  1
LONG_TRANSACTION
  2
AcDbLongTransaction
  3
AutoCAD 2000
 90
        0
280
     0
281
     0
  0
CLASS
  1
LWPOLYLINE
  2
AcDbPolyline
  3
AutoCAD 2000
 90
        0
280
     0
281
     1
  0
CLASS
  1
HATCH
  2
AcDbHatch
  3
AutoCAD 2000
 90
        0
280
     0
281
     1
  0
CLASS
  1
XRECORD
  2
AcDbXrecord
  3
AutoCAD 2000
 90
        0
280
     0
281
     0
  0
CLASS
  1
LONG_TRANSACTION
  2
AcDbLongTransaction
  3
AutoCAD 2000
 90
        0
280
     0
281
     0
  0
CLASS
  1
LWPOLYLINE
  2
AcDbPolyline
  3
AutoCAD 2000
 90
        0
280
     0
281
     1
  0
CLASS
  1
HATCH
  2
AcDbHatch
  3
AutoCAD 2000
 90
        0
280
     0
281
     1
  0
CLASS
  1
XRECORD
  2
AcDbXrecord
  3
AutoCAD 2000
 90
        0
280
     0
281
     0
  0
CLASS
  1
LONG_TRANSACTION
  2
AcDbLongTransaction
  3
AutoCAD 2000
 90
        0
280
     0
281
     0
  0
CLASS
  1
LWPOLYLINE
  2
AcDbPolyline
  3
AutoCAD 2000
 90
        0
280
     0
281
     1
  0
CLASS
  1
HATCH
  2
AcDbHatch
  3
AutoCAD 2000
 90
        0
280
     0
281
     1
  0
CLASS
  1
XRECORD
  2
AcDbXrecord
  3
AutoCAD 2000
 90
        0
280
     0
281
     0
  0
ENDSEC
  0
SECTION
  2
TABLES
  0
TABLE
  2
VPORT
  5
8
330
0
100
AcDbSymbolTable
 70
     2
  0
VPORT
  5
3AC
330
8
100
AcDbSymbolTableRecord
100
AcDbViewportTableRecord
  2
*ACTIVE
 70
     0
 10
0.0
 20
0.0
 11
1.0
 21
1.0
 12
-6.644158386687615
 22
10.13790901021323
 13
0.0
 23
0.0
 14
0.5740882589684922
 24
0.5740882589684922
 15
0.5
 25
0.5
 16
0.0
 26
0.0
 36
1.0
 17
0.0
 27
0.0
 37
0.0
 40
8.234246386434117
 41
1.570528967254408
 42
50.0
 43
0.0
 44
0.0
 50
0.0
 51
0.0
 71
     0
 72
   100
 73
     1
 74
     0
 75
     0
 76
     0
 77
     0
 78
     0
  0
ENDTAB
  0
TABLE
  2
LTYPE
  5
5
330
0
100
AcDbSymbolTable
 70
     2
  0
LTYPE
  5
12
330
5
100
AcDbSymbolTableRecord
100
AcDbLinetypeTableRecord
  2
BYBLOCK
 70
     0
  3

 72
    65
 73
     0
 40
0.0
  0
LTYPE
  5
13
330
5
100
AcDbSymbolTableRecord
100
AcDbLinetypeTableRecord
  2
BYLAYER
 70
     0
  3

 72
    65
 73
     0
 40
0.0
  0
LTYPE
  5
14
330
5
100
AcDbSymbolTableRecord
100
AcDbLinetypeTableRecord
  2
CONTINUOUS
 70
     0
  3
Solid line
 72
    65
 73
     0
 40
0.0
  0
LTYPE
  5
134
330
5
100
AcDbSymbolTableRecord
100
AcDbLinetypeTableRecord
  2
HIDDEN2
 70
     0
  3
_ _ _ _ _ _ _ _ _ _ _ _ _ _ _ _ _ _ _ _ _ _ _ _
 72
    65
 73
     2
 40
0.1875
 49
0.125
 74
     0
 49
-0.0625
 74
     0
  0
ENDTAB
  0
TABLE
  2
LAYER
  5
2
330
0
100
AcDbSymbolTable
 70
     5
  0
LAYER
  5
F
330
2
100
AcDbSymbolTableRecord
100
AcDbLayerTableRecord
  2
0
 70
     0
 62
     7
  6
CONTINUOUS
  0
LAYER
  5
138
330
2
100
AcDbSymbolTableRecord
100
AcDbLayerTableRecord
  2
ADP1DETAIL
 70
     0
 62
     7
  6
CONTINUOUS
  0
LAYER
  5
13A
330
2
100
AcDbSymbolTableRecord
100
AcDbLayerTableRecord
  2
DEFPOINTS
 70
     0
 62
     7
  6
CONTINUOUS
  0
LAYER
  5
13B
330
2
100
AcDbSymbolTableRecord
100
AcDbLayerTableRecord
  2
ADP2DETAIL
 70
     0
 62
     5
  6
CONTINUOUS
  0
LAYER
  5
13C
330
2
100
AcDbSymbolTableRecord
100
AcDbLayerTableRecord
  2
ADPDIM
 70
     0
 62
     3
  6
CONTINUOUS
  0
ENDTAB
  0
TABLE
  2
STYLE
  5
3
330
0
100
AcDbSymbolTable
 70
     2
  0
STYLE
  5
10
330
3
100
AcDbSymbolTableRecord
100
AcDbTextStyleTableRecord
  2
STANDARD
 70
     0
 40
0.0
 41
1.0
 50
0.0
 71
     0
 42
0.2
  3
txt
  4

  0
STYLE
  5
206
330
3
100
AcDbSymbolTableRecord
100
AcDbTextStyleTableRecord
  2
ARIAL_WIDE
 70
     0
 40
0.0
 41
1.25
 50
0.0
 71
     0
 42
0.2
  3
ARIAL.TTF
  4

1001
ACAD
1000
Arial
1071
       34
  0
ENDTAB
  0
TABLE
  2
VIEW
  5
6
330
0
100
AcDbSymbolTable
 70
     0
  0
ENDTAB
  0
TABLE
  2
UCS
  5
7
330
0
100
AcDbSymbolTable
 70
     0
  0
ENDTAB
  0
TABLE
  2
APPID
  5
9
330
0
100
AcDbSymbolTable
 70
     1
  0
APPID
  5
11
330
9
100
AcDbSymbolTableRecord
100
AcDbRegAppTableRecord
  2
ACAD
 70
     0
  0
ENDTAB
  0
TABLE
  2
DIMSTYLE
  5
A
330
0
100
AcDbSymbolTable
 70
     1
  0
DIMSTYLE
105
1F3
330
A
100
AcDbSymbolTableRecord
100
AcDbDimStyleTableRecord
  2
STANDARD
 70
     0
  3

  4

  5

  6

  7

 40
1.0
 41
0.18
 42
0.0625
 43
0.38
 44
0.18
 45
0.0
 46
0.0
 47
0.0
 48
0.0
140
0.18
141
0.09
142
0.0
143
25.4
144
1.0
145
0.0
146
1.0
147
0.09
 71
     0
 72
     0
 73
     1
 74
     1
 75
     0
 76
     0
 77
     0
 78
     0
170
     0
171
     2
172
     0
173
     0
174
     0
175
     0
176
     0
177
     0
178
     0
270
     2
271
     4
272
     4
273
     2
274
     2
340
10
275
     0
280
     0
281
     0
282
     0
283
     1
284
     0
285
     0
286
     0
287
     3
288
     0
  0
ENDTAB
  0
TABLE
  2
BLOCK_RECORD
  5
1
330
0
100
AcDbSymbolTable
 70
     6
  0
BLOCK_RECORD
  5
18
102
{ACAD_XDICTIONARY
360
25B
102
}
330
1
100
AcDbSymbolTableRecord
100
AcDbBlockTableRecord
  2
*MODEL_SPACE
  0
BLOCK_RECORD
  5
15
102
{ACAD_XDICTIONARY
360
259
102
}
330
1
100
AcDbSymbolTableRecord
100
AcDbBlockTableRecord
  2
*PAPER_SPACE
  0
BLOCK_RECORD
  5
12D
330
1
100
AcDbSymbolTableRecord
100
AcDbBlockTableRecord
  2
*D0
  0
BLOCK_RECORD
  5
12E
330
1
100
AcDbSymbolTableRecord
100
AcDbBlockTableRecord
  2
*D1
  0
BLOCK_RECORD
  5
12F
330
1
100
AcDbSymbolTableRecord
100
AcDbBlockTableRecord
  2
*D2
  0
BLOCK_RECORD
  5
130
330
1
100
AcDbSymbolTableRecord
100
AcDbBlockTableRecord
  2
*D3
  0
BLOCK_RECORD
  5
131
330
1
100
AcDbSymbolTableRecord
100
AcDbBlockTableRecord
  2
*D4
  0
BLOCK_RECORD
  5
132
330
1
100
AcDbSymbolTableRecord
100
AcDbBlockTableRecord
  2
*D5
  0
ENDTAB
  0
ENDSEC
  0
SECTION
  2
BLOCKS
  0
BLOCK
  5
13F
330
18
100
AcDbEntity
  8
0
100
AcDbBlockBegin
  2
*MODEL_SPACE
 70
     0
 10
0.0
 20
0.0
 30
0.0
  3
*MODEL_SPACE
  1

  0
ENDBLK
  5
140
330
18
100
AcDbEntity
  8
0
100
AcDbBlockEnd
  0
BLOCK
  5
13D
330
15
100
AcDbEntity
 67
     1
  8
0
100
AcDbBlockBegin
  2
*PAPER_SPACE
 70
     0
 10
0.0
 20
0.0
 30
0.0
  3
*PAPER_SPACE
  1

  0
ENDBLK
  5
13E
330
15
100
AcDbEntity
 67
     1
  8
0
100
AcDbBlockEnd
  0
BLOCK
  5
142
330
12D
100
AcDbEntity
  8
0
100
AcDbBlockBegin
  2
*D0
 70
     1
 10
0.0
 20
0.0
 30
0.0
  3
*D0
  1

  0
LINE
  5
143
330
12D
100
AcDbEntity
  8
0
  6
BYBLOCK
 62
     0
100
AcDbLine
 10
-5.613629242338468
 20
12.38624872005524
 30
0.0
 11
-5.613629242338468
 21
12.68374872005524
 31
0.0
  0
LINE
  5
144
330
12D
100
AcDbEntity
  8
0
  6
BYBLOCK
 62
     0
100
AcDbLine
 10
-4.259244890150102
 20
12.44336454742056
 30
0.0
 11
-4.259244890150102
 21
12.68374872005524
 31
0.0
  0
LINE
  5
145
330
12D
100
AcDbEntity
  8
0
  6
BYBLOCK
 62
     0
100
AcDbLine
 10
-5.613629242338468
 20
12.50374872005524
 30
0.0
 11
-5.332270399577619
 21
12.50374872005524
 31
0.0
  0
LINE
  5
146
330
12D
100
AcDbEntity
  8
0
  6
BYBLOCK
 62
     0
100
AcDbLine
 10
-4.259244890150102
 20
12.50374872005524
 30
0.0
 11
-4.540603732910953
 21
12.50374872005524
 31
0.0
  0
LINE
  5
147
330
12D
100
AcDbEntity
  8
0
  6
BYBLOCK
 62
     0
100
AcDbLine
 10
-5.738629242338468
 20
12.37874872005524
 30
0.0
 11
-5.488629242338468
 21
12.62874872005524
 31
0.0
  0
LINE
  5
148
330
12D
100
AcDbEntity
  8
0
  6
BYBLOCK
 62
     0
100
AcDbLine
 10
-4.384244890150102
 20
12.37874872005524
 30
0.0
 11
-4.134244890150102
 21
12.62874872005524
 31
0.0
  0
TEXT
  5
149
330
12D
100
AcDbEntity
  8
0
  6
BYBLOCK
 62
     0
100
AcDbText
 10
-5.207270399577619
 20
12.44124872005524
 30
0.0
 40
0.125
  1
1 3/8
 72
     1
 11
-4.936437066244286
 21
12.50374872005524
 31
0.0
100
AcDbText
 73
     2
  0
POINT
  5
14A
330
12D
100
AcDbEntity
  8
DEFPOINTS
  6
BYBLOCK
 62
     0
100
AcDbPoint
 10
-5.613629242338468
 20
12.32374872005524
 30
0.0
  0
POINT
  5
14B
330
12D
100
AcDbEntity
  8
DEFPOINTS
  6
BYBLOCK
 62
     0
100
AcDbPoint
 10
-4.259244890150102
 20
12.38086454742056
 30
0.0
  0
POINT
  5
14C
330
12D
100
AcDbEntity
  8
DEFPOINTS
  6
BYBLOCK
 62
     0
100
AcDbPoint
 10
-4.259244890150102
 20
12.50374872005524
 30
0.0
  0
ENDBLK
  5
14D
330
12D
100
AcDbEntity
  8
0
100
AcDbBlockEnd
  0
BLOCK
  5
14E
330
12E
100
AcDbEntity
  8
0
100
AcDbBlockBegin
  2
*D1
 70
     1
 10
0.0
 20
0.0
 30
0.0
  3
*D1
  1

  0
LINE
  5
14F
330
12E
100
AcDbEntity
  8
0
  6
BYBLOCK
 62
     0
100
AcDbLine
 10
-5.940453052404514
 20
12.38024872005524
 30
0.0
 11
-5.940453052404514
 21
13.02586454742056
 31
0.0
  0
LINE
  5
150
330
12E
100
AcDbEntity
  8
0
  6
BYBLOCK
 62
     0
100
AcDbLine
 10
-3.944389475987776
 20
12.38024872005524
 30
0.0
 11
-3.944389475987776
 21
13.02586454742056
 31
0.0
  0
LINE
  5
151
330
12E
100
AcDbEntity
  8
0
  6
BYBLOCK
 62
     0
100
AcDbLine
 10
-5.940453052404514
 20
12.84586454742056
 30
0.0
 11
-5.109087930862812
 21
12.84586454742056
 31
0.0
  0
LINE
  5
152
330
12E
100
AcDbEntity
  8
0
  6
BYBLOCK
 62
     0
100
AcDbLine
 10
-3.944389475987776
 20
12.84586454742056
 30
0.0
 11
-4.775754597529478
 21
12.84586454742056
 31
0.0
  0
LINE
  5
153
330
12E
100
AcDbEntity
  8
0
  6
BYBLOCK
 62
     0
100
AcDbLine
 10
-6.065453052404514
 20
12.72086454742056
 30
0.0
 11
-5.815453052404514
 21
12.97086454742056
 31
0.0
  0
LINE
  5
154
330
12E
100
AcDbEntity
  8
0
  6
BYBLOCK
 62
     0
100
AcDbLine
 10
-4.069389475987776
 20
12.72086454742056
 30
0.0
 11
-3.819389475987776
 21
12.97086454742056
 31
0.0
  0
TEXT
  5
155
330
12E
100
AcDbEntity
  8
0
  6
BYBLOCK
 62
     0
100
AcDbText
 10
-4.984087930862812
 20
12.78336454742056
 30
0.0
 40
0.125
  1
2
 72
     1
 11
-4.942421264196145
 21
12.84586454742056
 31
0.0
100
AcDbText
 73
     2
  0
POINT
  5
156
330
12E
100
AcDbEntity
  8
DEFPOINTS
  6
BYBLOCK
 62
     0
100
AcDbPoint
 10
-5.940453052404514
 20
12.31774872005524
 30
0.0
  0
POINT
  5
157
330
12E
100
AcDbEntity
  8
DEFPOINTS
  6
BYBLOCK
 62
     0
100
AcDbPoint
 10
-3.944389475987776
 20
12.31774872005524
 30
0.0
  0
POINT
  5
158
330
12E
100
AcDbEntity
  8
DEFPOINTS
  6
BYBLOCK
 62
     0
100
AcDbPoint
 10
-3.944389475987776
 20
12.84586454742056
 30
0.0
  0
ENDBLK
  5
159
330
12E
100
AcDbEntity
  8
0
100
AcDbBlockEnd
  0
BLOCK
  5
15A
330
12F
100
AcDbEntity
  8
0
100
AcDbBlockBegin
  2
*D2
 70
     1
 10
0.0
 20
0.0
 30
0.0
  3
*D2
  1

  0
LINE
  5
15B
330
12F
100
AcDbEntity
  8
0
  6
BYBLOCK
 62
     0
100
AcDbLine
 10
-6.197286371425216
 20
9.012192755403461
 30
0.0
 11
-6.394644075230341
 21
8.858732868955017
 31
0.0
  0
LINE
  5
15C
330
12F
100
AcDbEntity
  8
0
  6
BYBLOCK
 62
     0
100
AcDbLine
 10
-6.219235280103557
 20
8.836783960276678
 30
0.0
 11
-6.175337462746876
 21
9.187601550530244
 31
0.0
  0
LINE
  5
15D
330
12F
100
AcDbEntity
  8
0
  6
BYBLOCK
 62
     0
100
AcDbLine
 10
-5.101961296691908
 20
10.00968201731833
 30
0.0
 11
-4.726961296691908
 21
10.00968201731833
 31
0.0
  0
LINE
  5
15E
330
12F
100
AcDbEntity
  8
0
  6
BYBLOCK
 62
     0
100
AcDbLine
 10
-4.914461296691908
 20
9.822182017318336
 30
0.0
 11
-4.914461296691908
 21
10.19718201731833
 31
0.0
  0
TEXT
  5
15F
330
12F
100
AcDbEntity
  8
0
  6
BYBLOCK
 62
     0
100
AcDbText
 10
-6.98124516566779
 20
8.323437135917004
 30
0.0
 40
0.125
  1
%%c3 1/4
 50
37.86764793271327
 72
     1
 11
-6.756466532206402
 21
8.577389743799541
 31
0.0
100
AcDbText
 73
     2
  0
POINT
  5
160
330
12F
100
AcDbEntity
  8
DEFPOINTS
  6
BYBLOCK
 62
     0
100
AcDbPoint
 10
-6.197286371425216
 20
9.012192755403461
 30
0.0
  0
POINT
  5
161
330
12F
100
AcDbEntity
  8
DEFPOINTS
  6
BYBLOCK
 62
     0
100
AcDbPoint
 10
-3.6316362219586
 20
11.00717127923321
 30
0.0
  0
ENDBLK
  5
162
330
12F
100
AcDbEntity
  8
0
100
AcDbBlockEnd
  0
BLOCK
  5
163
330
130
100
AcDbEntity
  8
0
100
AcDbBlockBegin
  2
*D3
 70
     1
 10
0.0
 20
0.0
 30
0.0
  3
*D3
  1

  0
LINE
  5
164
330
130
100
AcDbEntity
  8
0
  6
BYBLOCK
 62
     0
100
AcDbLine
 10
-10.1647149654744
 20
11.65614295996773
 30
0.0
 11
-10.1647149654744
 21
12.80897379586331
 31
0.0
  0
LINE
  5
165
330
130
100
AcDbEntity
  8
0
  6
BYBLOCK
 62
     0
100
AcDbLine
 10
-7.170699987288375
 20
12.24624027758788
 30
0.0
 11
-7.170699987288375
 21
12.80897379586331
 31
0.0
  0
LINE
  5
166
330
130
100
AcDbEntity
  8
0
  6
BYBLOCK
 62
     0
100
AcDbLine
 10
-10.1647149654744
 20
12.62897379586331
 30
0.0
 11
-8.834374143048053
 21
12.62897379586331
 31
0.0
  0
LINE
  5
167
330
130
100
AcDbEntity
  8
0
  6
BYBLOCK
 62
     0
100
AcDbLine
 10
-7.170699987288375
 20
12.62897379586331
 30
0.0
 11
-8.501040809714721
 21
12.62897379586331
 31
0.0
  0
LINE
  5
168
330
130
100
AcDbEntity
  8
0
  6
BYBLOCK
 62
     0
100
AcDbLine
 10
-10.2897149654744
 20
12.50397379586331
 30
0.0
 11
-10.0397149654744
 21
12.75397379586331
 31
0.0
  0
LINE
  5
169
330
130
100
AcDbEntity
  8
0
  6
BYBLOCK
 62
     0
100
AcDbLine
 10
-7.295699987288375
 20
12.50397379586331
 30
0.0
 11
-7.045699987288375
 21
12.75397379586331
 31
0.0
  0
TEXT
  5
16A
330
130
100
AcDbEntity
  8
0
  6
BYBLOCK
 62
     0
100
AcDbText
 10
-8.709374143048053
 20
12.56647379586331
 30
0.0
 40
0.125
  1
3
 72
     1
 11
-8.667707476381387
 21
12.62897379586331
 31
0.0
100
AcDbText
 73
     2
  0
POINT
  5
16B
330
130
100
AcDbEntity
  8
DEFPOINTS
  6
BYBLOCK
 62
     0
100
AcDbPoint
 10
-10.1647149654744
 20
11.59364295996773
 30
0.0
  0
POINT
  5
16C
330
130
100
AcDbEntity
  8
DEFPOINTS
  6
BYBLOCK
 62
     0
100
AcDbPoint
 10
-7.170699987288375
 20
12.18374027758788
 30
0.0
  0
POINT
  5
16D
330
130
100
AcDbEntity
  8
DEFPOINTS
  6
BYBLOCK
 62
     0
100
AcDbPoint
 10
-7.170699987288375
 20
12.62897379586331
 30
0.0
  0
ENDBLK
  5
16E
330
130
100
AcDbEntity
  8
0
100
AcDbBlockEnd
  0
BLOCK
  5
16F
330
131
100
AcDbEntity
  8
0
100
AcDbBlockBegin
  2
*D4
 70
     1
 10
0.0
 20
0.0
 30
0.0
  3
*D4
  1

  0
LINE
  5
170
330
131
100
AcDbEntity
  8
0
  6
BYBLOCK
 62
     0
100
AcDbLine
 10
-4.76196129669191
 20
10.00968201731833
 30
0.0
 11
-2.544714965474401
 21
10.00968201731833
 31
0.0
  0
LINE
  5
171
330
131
100
AcDbEntity
  8
0
  6
BYBLOCK
 62
     0
100
AcDbLine
 10
-3.887803752851844
 20
12.24386037525957
 30
0.0
 11
-2.544714965474401
 21
12.24386037525957
 31
0.0
  0
LINE
  5
172
330
131
100
AcDbEntity
  8
0
  6
BYBLOCK
 62
     0
100
AcDbLine
 10
-2.724714965474401
 20
10.00968201731833
 30
0.0
 11
-2.724714965474401
 21
10.73093786295562
 31
0.0
  0
LINE
  5
173
330
131
100
AcDbEntity
  8
0
  6
BYBLOCK
 62
     0
100
AcDbLine
 10
-2.724714965474401
 20
12.24386037525957
 30
0.0
 11
-2.724714965474401
 21
11.52260452962228
 31
0.0
  0
LINE
  5
174
330
131
100
AcDbEntity
  8
0
  6
BYBLOCK
 62
     0
100
AcDbLine
 10
-2.599714965474401
 20
9.884682017318336
 30
0.0
 11
-2.849714965474401
 21
10.13468201731833
 31
0.0
  0
LINE
  5
175
330
131
100
AcDbEntity
  8
0
  6
BYBLOCK
 62
     0
100
AcDbLine
 10
-2.599714965474401
 20
12.11886037525957
 30
0.0
 11
-2.849714965474401
 21
12.36886037525957
 31
0.0
  0
TEXT
  5
176
330
131
100
AcDbEntity
  8
0
  6
BYBLOCK
 62
     0
100
AcDbText
 10
-2.662214965474401
 20
10.85593786295562
 30
0.0
 40
0.125
  1
2 1/4
 50
90.0
 72
     1
 11
-2.724714965474401
 21
11.12677119628895
 31
0.0
100
AcDbText
 73
     2
  0
POINT
  5
177
330
131
100
AcDbEntity
  8
DEFPOINTS
  6
BYBLOCK
 62
     0
100
AcDbPoint
 10
-4.82446129669191
 20
10.00968201731833
 30
0.0
  0
POINT
  5
178
330
131
100
AcDbEntity
  8
DEFPOINTS
  6
BYBLOCK
 62
     0
100
AcDbPoint
 10
-3.950303752851844
 20
12.24386037525957
 30
0.0
  0
POINT
  5
179
330
131
100
AcDbEntity
  8
DEFPOINTS
  6
BYBLOCK
 62
     0
100
AcDbPoint
 10
-2.724714965474401
 20
12.24386037525957
 30
0.0
  0
ENDBLK
  5
17A
330
131
100
AcDbEntity
  8
0
100
AcDbBlockEnd
  0
BLOCK
  5
17B
330
132
100
AcDbEntity
  8
0
100
AcDbBlockBegin
  2
*D5
 70
     1
 10
0.0
 20
0.0
 30
0.0
  3
*D5
  1

  0
LINE
  5
17C
330
132
100
AcDbEntity
  8
0
  6
BYBLOCK
 62
     0
100
AcDbLine
 10
-4.80554993123367
 20
9.854074069923681
 30
0.0
 11
-4.64207155893014
 21
9.664931737832242
 31
0.0
  0
LINE
  5
17D
330
132
100
AcDbEntity
  8
0
  6
BYBLOCK
 62
     0
100
AcDbLine
 10
-4.981860283431156
 20
9.866906049817636
 30
0.0
 11
-4.629239579036186
 21
9.841242090029728
 31
0.0
  0
LINE
  5
17E
330
132
100
AcDbEntity
  8
0
  6
BYBLOCK
 62
     0
100
AcDbLine
 10
-5.129921264196145
 20
10.0124324065538
 30
0.0
 11
-4.754921264196145
 21
10.0124324065538
 31
0.0
  0
LINE
  5
17F
330
132
100
AcDbEntity
  8
0
  6
BYBLOCK
 62
     0
100
AcDbLine
 10
-4.942421264196145
 20
9.8249324065538
 30
0.0
 11
-4.942421264196145
 21
10.1999324065538
 31
0.0
  0
TEXT
  5
180
330
132
100
AcDbEntity
  8
0
  6
BYBLOCK
 62
     0
100
AcDbText
 10
-4.607617955801234
 20
9.52949097871064
 30
0.0
 40
0.125
  1
%%c7/16
 50
310.8373162085742
 72
     1
 11
-4.383230802782883
 21
9.365456378687463
 31
0.0
100
AcDbText
 73
     2
  0
POINT
  5
181
330
132
100
AcDbEntity
  8
DEFPOINTS
  6
BYBLOCK
 62
     0
100
AcDbPoint
 10
-4.80554993123367
 20
9.854074069923681
 30
0.0
  0
POINT
  5
182
330
132
100
AcDbEntity
  8
DEFPOINTS
  6
BYBLOCK
 62
     0
100
AcDbPoint
 10
-5.07929259715862
 20
10.17079074318391
 30
0.0
  0
ENDBLK
  5
183
330
132
100
AcDbEntity
  8
0
100
AcDbBlockEnd
  0
ENDSEC
  0
SECTION
  2
ENTITIES
  0
LINE
  5
184
330
18
100
AcDbEntity
  8
ADP2DETAIL
  6
HIDDEN2
100
AcDbLine
 10
-3.950303752851844
 20
12.24386037525957
 30
0.0
 11
-5.946367329268582
 21
12.24386037525957
 31
0.0
  0
LINE
  5
185
330
18
100
AcDbEntity
  8
ADP2DETAIL
  6
HIDDEN2
100
AcDbLine
 10
-5.761546619022469
 20
12.11086135777904
 30
0.0
 11
-5.539761790287455
 21
12.11086135777904
 31
0.0
  0
DIMENSION
  5
186
330
18
100
AcDbEntity
  8
ADPDIM
100
AcDbDimension
  2
*D2
 10
-3.6316362219586
 20
11.00717127923321
 30
0.0
 11
-6.756466532206402
 21
8.577389743799541
 31
0.0
 70
     3
100
AcDbDiametricDimension
 15
-6.197286371425216
 25
9.012192755403461
 35
0.0
 40
0.0
  0
DIMENSION
  5
187
330
18
100
AcDbEntity
  8
ADPDIM
100
AcDbDimension
  2
*D1
 10
-3.944389475987776
 20
12.84586454742056
 30
0.0
 11
-4.942421264196145
 21
12.84586454742056
 31
0.0
100
AcDbAlignedDimension
 13
-5.940453052404514
 23
12.31774872005524
 33
0.0
 14
-3.944389475987776
 24
12.31774872005524
 34
0.0
100
AcDbRotatedDimension
  0
DIMENSION
  5
188
330
18
100
AcDbEntity
  8
ADPDIM
100
AcDbDimension
  2
*D0
 10
-4.259244890150102
 20
12.50374872005524
 30
0.0
 11
-4.936437066244286
 21
12.50374872005524
 31
0.0
100
AcDbAlignedDimension
 13
-5.613629242338468
 23
12.32374872005524
 33
0.0
 14
-4.259244890150102
 24
12.38086454742056
 34
0.0
100
AcDbRotatedDimension
  0
LWPOLYLINE
  5
190
330
18
100
AcDbEntity
  8
ADP1DETAIL
100
AcDbPolyline
 90
       10
 70
     0
 43
0.0
 10
-5.140549079716171
 20
11.97786234029851
 10
-5.105063489212724
 20
10.99514738130534
 42
-0.0995495467782223
 10
-5.223348743770237
 20
10.30798578573648
 42
-0.530312501866907
 10
-5.319455489537896
 20
10.28581927757026
 10
-5.659525596390743
 20
10.47054013168025
 42
0.2280764246741457
 10
-6.110488105830938
 20
10.49270663984646
 42
0.2007657771815652
 10
-6.221380508418285
 20
10.25626393334864
 42
0.0449749975058741
 10
-6.199202023188751
 20
9.79076737216679
 42
0.2573227376079197
 10
-5.504276199784008
 20
8.859774249803081
 42
0.0999220194063038
 10
-4.927635607376457
 20
8.726775232322552
 42
0.0140592629024438
  0
LINE
  5
19C
330
18
100
AcDbEntity
  8
ADP1DETAIL
100
AcDbLine
 10
-5.909250825910843
 20
11.98525117635391
 30
0.0
 11
-3.975591702481446
 21
11.98525117635391
 31
0.0
  0
LINE
  5
19D
330
18
100
AcDbEntity
  8
ADP1DETAIL
100
AcDbLine
 10
-3.944389475987776
 20
12.31774872005524
 30
0.0
 11
-5.940453052404514
 21
12.31774872005524
 31
0.0
  0
ARC
  5
19E
330
18
100
AcDbEntity
  8
ADP1DETAIL
100
AcDbCircle
 10
-4.914461296691909
 20
10.00968201731833
 30
0.0
 40
1.625
100
AcDbArc
 50
101.2304182073896
 51
80.23138308752193
  0
LINE
  5
19F
330
18
100
AcDbEntity
  8
ADP2DETAIL
  6
HIDDEN2
100
AcDbLine
 10
-10.11296516660548
 20
8.667664559637691
 30
0.0
 11
-10.11296516660548
 21
11.31286725289586
 31
0.0
  0
LINE
  5
1A0
330
18
100
AcDbEntity
  8
ADP1DETAIL
100
AcDbLine
 10
-9.874461148077079
 20
8.755914352162822
 30
0.0
 11
-9.874461148077079
 21
10.38090729223674
 31
0.0
  0
LINE
  5
1A1
330
18
100
AcDbEntity
  8
ADP1DETAIL
100
AcDbLine
 10
-10.1647149654744
 20
8.401666508918252
 30
0.0
 11
-10.1647149654744
 21
11.59364295996773
 31
0.0
  0
LINE
  5
1A2
330
18
100
AcDbEntity
  8
ADP1DETAIL
100
AcDbLine
 10
-10.05066520182003
 20
8.403506244676908
 30
0.0
 11
-10.05066520182003
 21
10.69415894333533
 31
0.0
  0
ARC
  5
1A3
330
18
100
AcDbEntity
  8
ADP1DETAIL
100
AcDbCircle
 10
-8.397173468342238
 20
11.66506690676356
 30
0.0
 40
1.365051102529119
100
AcDbArc
 50
280.4745718620436
 51
1.654339586652615
  0
LINE
  5
1A4
330
18
100
AcDbEntity
  8
ADP2DETAIL
  6
HIDDEN2
100
AcDbLine
 10
-10.1647149654744
 20
8.667664559637691
 30
0.0
 11
-10.11296516660548
 21
8.667664559637691
 31
0.0
  0
LINE
  5
1A5
330
18
100
AcDbEntity
  8
ADP1DETAIL
100
AcDbLine
 10
-10.05382253932673
 20
8.401666508918252
 30
0.0
 11
-10.1647149654744
 21
8.401666508918252
 31
0.0
  0
LINE
  5
1A6
330
18
100
AcDbEntity
  8
ADP1DETAIL
100
AcDbLine
 10
-10.05066520182003
 20
8.403506244676908
 30
0.0
 11
-9.874461148077079
 21
8.755914352162822
 31
0.0
  0
LINE
  5
1A7
330
18
100
AcDbEntity
  8
ADP2DETAIL
  6
HIDDEN2
100
AcDbLine
 10
-10.1647149654744
 20
9.8055450442776
 30
0.0
 11
-9.88378750946063
 21
9.8055450442776
 31
0.0
  0
ARC
  5
1A8
330
18
100
AcDbEntity
  8
ADP2DETAIL
  6
HIDDEN2
100
AcDbCircle
 10
-9.651322413823519
 20
8.377199849372681
 30
0.0
 40
2.524739185772091
100
AcDbArc
 50
50.93695110598681
 51
87.27901407747435
  0
DIMENSION
  5
1A9
330
18
100
AcDbEntity
  8
ADPDIM
100
AcDbDimension
  2
*D3
 10
-7.170699987288375
 20
12.62897379586331
 30
0.0
 11
-8.667707476381387
 21
12.62897379586331
 31
0.0
100
AcDbAlignedDimension
 13
-10.1647149654744
 23
11.59364295996773
 33
0.0
 14
-7.170699987288375
 24
12.18374027758788
 34
0.0
100
AcDbRotatedDimension
  0
ARC
  5
1AA
330
18
100
AcDbEntity
  8
ADP1DETAIL
100
AcDbCircle
 10
-8.516226515012437
 20
12.02306085882901
 30
0.0
 40
1.005749354970246
100
AcDbArc
 50
239.3629092445004
 51
303.7957300904952
  0
ARC
  5
1AB
330
18
100
AcDbEntity
  8
ADP1DETAIL
100
AcDbCircle
 10
-8.604664920029318
 20
12.07300804709321
 30
0.0
 40
1.172455949556209
100
AcDbArc
 50
251.9165546169515
 51
323.1345821304941
  0
LINE
  5
1AC
330
18
100
AcDbEntity
  8
ADP1DETAIL
100
AcDbLine
 10
-9.427967627299191
 20
11.39414443374693
 30
0.0
 11
-9.028754893167587
 21
11.15770172724911
 31
0.0
  0
LINE
  5
1AD
330
18
100
AcDbEntity
  8
ADP1DETAIL
100
AcDbLine
 10
-9.448263926494337
 20
11.11509084949905
 30
0.0
 11
-8.968597335749626
 21
10.95846502394976
 31
0.0
  0
ARC
  5
1AE
330
18
100
AcDbEntity
  8
ADP1DETAIL
100
AcDbCircle
 10
-8.595273835561007
 20
12.73657454347185
 30
0.0
 40
2.45471727664685
100
AcDbArc
 50
246.078860777066
 51
280.4745718620437
  0
ARC
  5
1AF
330
18
100
AcDbEntity
  8
ADP2DETAIL
  6
HIDDEN2
100
AcDbCircle
 10
-9.546431752802414
 20
10.58527060686802
 30
0.0
 40
0.3141785100781362
100
AcDbArc
 50
87.26992733563024
 51
136.121479930231
  0
ARC
  5
1B0
330
18
100
AcDbEntity
  8
ADP2DETAIL
  6
HIDDEN2
100
AcDbCircle
 10
-9.152719398630946
 20
10.43890503823228
 30
0.0
 40
0.7191734542571133
100
AcDbArc
 50
149.5809160396714
 51
185.139140160979
  0
ARC
  5
1B1
330
18
100
AcDbEntity
  8
ADP1DETAIL
100
AcDbCircle
 10
-9.52031404232429
 20
10.57668452275497
 30
0.0
 40
0.5432058466816905
100
AcDbArc
 50
82.37790072979093
 51
167.510462533628
  0
ARC
  5
1B2
330
18
100
AcDbEntity
  8
ADP1DETAIL
100
AcDbCircle
 10
-9.653889034171543
 20
10.24114127586728
 30
0.0
 40
0.2594019857134274
100
AcDbArc
 50
75.88064429677444
 51
149.0664280496043
  0
LINE
  5
1B3
330
18
100
AcDbEntity
  8
ADP2DETAIL
  6
HIDDEN2
100
AcDbLine
 10
-10.11296516660548
 20
11.31286725289586
 30
0.0
 11
-10.1647149654744
 21
11.31286725289586
 31
0.0
  0
LINE
  5
1B4
330
18
100
AcDbEntity
  8
ADP2DETAIL
  6
HIDDEN2
100
AcDbLine
 10
-9.88378750946063
 20
10.23409744094081
 30
0.0
 11
-10.1647149654744
 21
10.23409744094081
 31
0.0
  0
ARC
  5
1B5
330
18
100
AcDbEntity
  8
ADP1DETAIL
100
AcDbCircle
 10
-10.18463929705786
 20
10.05991058012718
 30
0.0
 40
1.533861790371086
100
AcDbArc
 50
60.44152936432265
 51
89.25572680518198
  0
ARC
  5
1B6
330
18
100
AcDbEntity
  8
ADP1DETAIL
100
AcDbCircle
 10
-6.365923292496587
 20
11.80782708501718
 30
0.0
 40
0.5752780623039437
100
AcDbArc
 50
137.0868774658745
 51
152.4487575162419
  0
ARC
  5
1B7
330
18
100
AcDbEntity
  8
ADP1DETAIL
100
AcDbCircle
 10
-7.178176635273421
 20
12.8420407789374
 30
0.0
 40
0.6583429579953889
100
AcDbArc
 50
241.0384699641209
 51
300.2629477187347
  0
ARC
  5
1B8
330
18
100
AcDbEntity
  8
ADP1DETAIL
100
AcDbCircle
 10
-8.572590838831388
 20
12.10727045545405
 30
0.0
 40
1.107081448422022
100
AcDbArc
 50
303.7957300904952
 51
343.1169401907345
  0
ARC
  5
1B9
330
18
100
AcDbEntity
  8
ADP1DETAIL
100
AcDbCircle
 10
-7.189519666531624
 20
12.32500511661083
 30
0.0
 40
0.4016997416617139
100
AcDbArc
 50
210.9774156149394
 51
321.3131376158102
  0
ARC
  5
1BA
330
18
100
AcDbEntity
  8
ADP1DETAIL
100
AcDbCircle
 10
-7.538936447960797
 20
12.19018103498308
 30
0.0
 40
0.0866864160821805
100
AcDbArc
 50
61.03846996412078
 51
135.2130746860009
  0
ARC
  5
1BB
330
18
100
AcDbEntity
  8
ADP1DETAIL
100
AcDbCircle
 10
-7.471197838715329
 20
12.23277312939594
 30
0.0
 40
0.1305764479342782
100
AcDbArc
 50
171.8655610995819
 51
241.2893160030049
  0
ARC
  5
1BC
330
18
100
AcDbEntity
  8
ADP1DETAIL
100
AcDbCircle
 10
-7.922384096028125
 20
11.92841557200386
 30
0.0
 40
0.4333171372489892
100
AcDbArc
 50
340.7776847293932
 51
30.41791725583684
  0
ARC
  5
1BD
330
18
100
AcDbEntity
  8
ADP1DETAIL
100
AcDbCircle
 10
-8.251242194101164
 20
11.85623765279136
 30
0.0
 40
0.7606328216036617
100
AcDbArc
 50
320.2253507885743
 51
22.53965559169532
  0
LINE
  5
1BE
330
18
100
AcDbEntity
  8
ADP2DETAIL
  6
HIDDEN2
100
AcDbLine
 10
-7.288483184443533
 20
12.10347252172363
 30
0.0
 11
-7.384589953771512
 21
11.97786234029851
 31
0.0
  0
LINE
  5
1BF
330
18
100
AcDbEntity
  8
ADP2DETAIL
  6
HIDDEN2
100
AcDbLine
 10
-7.074091184118364
 20
12.10347252172363
 30
0.0
 11
-6.948413101151006
 21
11.9704735042431
 31
0.0
  0
LINE
  5
1C0
330
18
100
AcDbEntity
  8
ADP2DETAIL
  6
HIDDEN2
100
AcDbLine
 10
-7.295876012853378
 20
12.10347252172363
 30
0.0
 11
-7.074091184118364
 21
12.10347252172363
 31
0.0
  0
LINE
  5
1C1
330
18
100
AcDbEntity
  8
ADP2DETAIL
  6
HIDDEN2
100
AcDbLine
 10
-7.288483184443533
 20
12.1699720304639
 30
0.0
 11
-7.288483184443533
 21
12.10347252172363
 31
0.0
  0
LINE
  5
1C2
330
18
100
AcDbEntity
  8
ADP2DETAIL
  6
HIDDEN2
100
AcDbLine
 10
-7.074091184118364
 20
12.22908270314876
 30
0.0
 11
-7.074091184118364
 21
12.10347252172363
 31
0.0
  0
ARC
  5
1C3
330
18
100
AcDbEntity
  8
ADP1DETAIL
100
AcDbCircle
 10
-6.873390575047631
 20
11.7196127593923
 30
0.0
 40
0.1600183469650629
100
AcDbArc
 50
143.2713032411706
 51
185.4281375794254
  0
ARC
  5
1C4
330
18
100
AcDbEntity
  8
ADP1DETAIL
100
AcDbCircle
 10
-2.40200999436483
 20
9.739836510814456
 30
0.0
 40
5.046205667409746
100
AcDbArc
 50
152.4487575162419
 51
155.7138849512715
  0
ARC
  5
1C5
330
18
100
AcDbEntity
  8
ADP1DETAIL
100
AcDbCircle
 10
-6.822284089014865
 20
12.23209852527713
 30
0.0
 40
0.0478362383015301
100
AcDbArc
 50
317.0868774658748
 51
120.2629477187347
  0
LINE
  5
1C6
330
18
100
AcDbEntity
  8
ADP2DETAIL
  6
HIDDEN2
100
AcDbLine
 10
-5.754153790612624
 20
12.24386037525957
 30
0.0
 11
-5.754153790612624
 21
12.11086135777904
 31
0.0
  0
LINE
  5
1C7
330
18
100
AcDbEntity
  8
ADP2DETAIL
  6
HIDDEN2
100
AcDbLine
 10
-5.754153790612624
 20
12.11086135777904
 30
0.0
 11
-5.850260559940602
 21
11.98525117635391
 31
0.0
  0
ARC
  5
1C8
330
18
100
AcDbEntity
  8
ADP1DETAIL
100
AcDbCircle
 10
-5.909250825910843
 20
12.01645340284758
 30
0.0
 40
0.0312022264936696
100
AcDbArc
 50
180.0
 51
270.0
  0
LINE
  5
1C9
330
18
100
AcDbEntity
  8
ADP1DETAIL
100
AcDbLine
 10
-5.940453052404514
 20
12.31774872005524
 30
0.0
 11
-5.940453052404514
 21
12.01645340284758
 31
0.0
  0
CIRCLE
  5
1CA
330
18
100
AcDbEntity
  8
ADP1DETAIL
100
AcDbCircle
 10
-4.942421264196145
 20
10.0124324065538
 30
0.0
 40
0.2093110712962469
  0
DIMENSION
  5
1CB
330
18
100
AcDbEntity
  8
ADPDIM
100
AcDbDimension
  2
*D5
 10
-5.07929259715862
 20
10.17079074318391
 30
0.0
 11
-4.383230802782883
 21
9.365456378687463
 31
0.0
 70
     3
100
AcDbDiametricDimension
 15
-4.80554993123367
 25
9.854074069923681
 35
0.0
 40
0.0
  0
DIMENSION
  5
1CC
330
18
100
AcDbEntity
  8
ADPDIM
100
AcDbDimension
  2
*D4
 10
-2.724714965474401
 20
12.24386037525957
 30
0.0
 11
-2.724714965474401
 21
11.12677119628895
 31
0.0
100
AcDbAlignedDimension
 13
-4.82446129669191
 23
10.00968201731833
 33
0.0
 14
-3.950303752851844
 24
12.24386037525957
 34
0.0
 50
90.0
100
AcDbRotatedDimension
  0
LWPOLYLINE
  5
1CD
330
18
100
AcDbEntity
  8
ADP1DETAIL
100
AcDbPolyline
 90
       10
 70
     0
 43
0.0
 10
-4.741336345584567
 20
11.97786234029851
 10
-4.764993382359877
 20
10.99514738130534
 42
0.0995495467782223
 10
-4.646708127802364
 20
10.30798578573648
 42
0.530312501866907
 10
-4.550601382034708
 20
10.28581927757026
 10
-4.210531275181859
 20
10.47054013168025
 42
-0.2280764246741457
 10
-3.759568765741663
 20
10.49270663984646
 42
-0.2007657771815652
 10
-3.648676363154317
 20
10.25626393334864
 42
-0.0449749975058741
 10
-3.67085484838385
 20
9.79076737216679
 42
-0.2573227376079197
 10
-4.365780671788593
 20
8.859774249803081
 42
-0.0999220194063038
 10
-4.942421264196145
 20
8.726775232322552
 42
-0.0140625070251012
  0
LWPOLYLINE
  5
1D9
330
18
100
AcDbEntity
  8
ADP1DETAIL
100
AcDbPolyline
 90
        5
 70
     0
 43
0.0
 10
-4.623051114587376
 20
11.97786234029851
 10
-4.654100956212209
 20
11.29808958078505
 42
0.1110981312721881
 10
-4.594958352493774
 20
10.95820320102832
 42
0.5757162225684706
 10
-4.484065926346106
 20
10.94342552891751
 42
-0.4032437108922223
 10
-3.611712221105095
 20
10.98775854524994
 42
-1.425969847689359
  0
LWPOLYLINE
  5
1E0
330
18
100
AcDbEntity
  8
ADP1DETAIL
100
AcDbPolyline
 90
        3
 70
     0
 43
0.0
 10
-4.9350284357863
 20
10.38187413053215
 42
0.3800457981514723
 10
-5.068099347163503
 20
10.26365276940405
 10
-5.267705690668984
 20
10.26365276940405
  0
LWPOLYLINE
  5
1E5
330
18
100
AcDbEntity
  8
ADP1DETAIL
100
AcDbPolyline
 90
        3
 70
     0
 43
0.0
 10
-4.935028435786302
 20
10.38187413053215
 42
-0.3800457981514723
 10
-4.8019575244091
 20
10.26365276940405
 10
-4.602351180903619
 20
10.26365276940405
  0
LINE
  5
1EA
330
18
100
AcDbEntity
  8
ADP2DETAIL
  6
HIDDEN2
100
AcDbLine
 10
-5.539761790287455
 20
12.11086135777904
 30
0.0
 11
-5.414083707320097
 21
11.97786234029851
 31
0.0
  0
LINE
  5
1EB
330
18
100
AcDbEntity
  8
ADP2DETAIL
  6
HIDDEN2
100
AcDbLine
 10
-5.539761790287455
 20
12.23647153920416
 30
0.0
 11
-5.539761790287455
 21
12.11086135777904
 31
0.0
  0
LINE
  5
1EC
330
18
100
AcDbEntity
  8
ADP1DETAIL
100
AcDbLine
 10
-3.944389475987776
 20
12.01645340284758
 30
0.0
 11
-3.944389475987776
 21
12.31774872005524
 31
0.0
  0
ARC
  5
1ED
330
18
100
AcDbEntity
  8
ADP1DETAIL
100
AcDbCircle
 10
-3.975591702481446
 20
12.01645340284758
 30
0.0
 40
0.0312022264936696
100
AcDbArc
 50
270.0
 51
0.0
  0
LINE
  5
1EE
330
18
100
AcDbEntity
  8
ADP2DETAIL
  6
HIDDEN2
100
AcDbLine
 10
-4.371694948652661
 20
12.11086135777904
 30
0.0
 11
-4.467801717980641
 21
11.98525117635391
 31
0.0
  0
LINE
  5
1EF
330
18
100
AcDbEntity
  8
ADP2DETAIL
  6
HIDDEN2
100
AcDbLine
 10
-4.157302948327492
 20
12.11086135777904
 30
0.0
 11
-4.031624865360134
 21
11.97786234029851
 31
0.0
  0
LINE
  5
1F0
330
18
100
AcDbEntity
  8
ADP2DETAIL
  6
HIDDEN2
100
AcDbLine
 10
-4.379087777062506
 20
12.11086135777904
 30
0.0
 11
-4.157302948327492
 21
12.11086135777904
 31
0.0
  0
LINE
  5
1F1
330
18
100
AcDbEntity
  8
ADP2DETAIL
  6
HIDDEN2
100
AcDbLine
 10
-4.371694948652661
 20
12.24386037525957
 30
0.0
 11
-4.371694948652661
 21
12.11086135777904
 31
0.0
  0
LINE
  5
1F2
330
18
100
AcDbEntity
  8
ADP2DETAIL
  6
HIDDEN2
100
AcDbLine
 10
-4.157302948327492
 20
12.23647153920416
 30
0.0
 11
-4.157302948327492
 21
12.11086135777904
 31
0.0
  0
LWPOLYLINE
  5
1F5
330
18
100
AcDbEntity
  8
ADP1DETAIL
100
AcDbPolyline
 90
        5
 70
     0
 43
0.0
 10
-5.258834310713362
 20
11.97786234029851
 10
-5.215955915360392
 20
11.29808958078505
 42
-0.1110981312721881
 10
-5.275098519078827
 20
10.95820320102832
 42
-0.5757162225684706
 10
-5.385990945226495
 20
10.94342552891751
 42
0.344612494105954
 10
-6.1525864246149
 20
11.06214159735249
 42
1.434512155073616
  0
TEXT
  5
207
330
18
100
AcDbEntity
  8
ADPDIM
100
AcDbText
 10
-13.0792331549931
 20
7.289201006808069
 30
0.0
 40
0.125
  1
J U L I U S  B L U M  &  C O . ,  I N C .      ( 8 0 0 )  5 2 6 - 6 2 9 3        W W W . J U L I U S B L U M . C O M        P A R T  N o .  3 1 6
 41
1.25
  7
ARIAL_WIDE
 72
     1
 11
-6.644525617476048
 21
7.414201006808069
 31
0.0
100
AcDbText
 73
     3
  0
ENDSEC
  0
SECTION
  2
OBJECTS
  0
DICTIONARY
  5
C
330
0
100
AcDbDictionary
  3
ACAD_GROUP
350
D
  3
ACAD_LAYOUT
350
200
  3
ACAD_MLINESTYLE
350
E
  3
ACAD_PLOTSETTINGS
350
201
  3
ACAD_PLOTSTYLENAME
350
1FE
  3
ACDBHEADERROUNDTRIPXREC
350
3AD
  3
ACDBVARIABLEDICTIONARY
350
261
  0
DICTIONARY
  5
25B
330
18
100
AcDbDictionary
280
     1
  3
ACAD_LAYOUTSELFREF
360
3CE
  0
DICTIONARY
  5
259
330
15
100
AcDbDictionary
280
     1
  3
ACAD_LAYOUTSELFREF
360
3CD
  0
DICTIONARY
  5
D
102
{ACAD_REACTORS
330
C
102
}
330
C
100
AcDbDictionary
  0
DICTIONARY
  5
200
102
{ACAD_REACTORS
330
C
102
}
330
C
100
AcDbDictionary
  0
DICTIONARY
  5
E
102
{ACAD_REACTORS
330
C
102
}
330
C
100
AcDbDictionary
  3
STANDARD
350
1B
  0
DICTIONARY
  5
201
102
{ACAD_REACTORS
330
C
102
}
330
C
100
AcDbDictionary
  0
ACDBDICTIONARYWDFLT
  5
1FE
102
{ACAD_REACTORS
330
C
102
}
330
C
100
AcDbDictionary
281
     1
  3
Normal
350
1FF
100
AcDbDictionaryWithDefault
340
1FF
  0
DICTIONARY
  5
3AD
102
{ACAD_REACTORS
330
C
102
}
330
C
100
AcDbDictionary
  3
CEPSNTYPE
350
3B7
  3
FINGERPRINTGUID
350
3B8
  3
HYPERLINKBASE
350
3B0
  3
INSUNITS
350
3B6
  3
LAYOUTDICT
350
3B2
  3
LWETCUNION
350
3B5
  3
PLOTSETDICT
350
3B3
  3
PLOTSTYLNAMDICT
350
3B4
  3
PSVPSCALE
350
3BA
  3
PUCSBASE
350
3BD
  3
PUCSORGBACK
350
3C3
  3
PUCSORGBOTTOM
350
3BF
  3
PUCSORGFRONT
350
3C2
  3
PUCSORGLEFT
350
3C0
  3
PUCSORGRIGHT
350
3C1
  3
PUCSORGTOP
350
3BE
  3
PUCSORTHOREF
350
3BB
  3
PUCSORTHOVIEW
350
3BC
  3
STYLESHEET
350
3B1
  3
TSTACKALIGN
350
3AE
  3
TSTACKSIZE
350
3AF
  3
UCSBASE
350
3C6
  3
UCSORGBACK
350
3CC
  3
UCSORGBOTTOM
350
3C8
  3
UCSORGFRONT
350
3CB
  3
UCSORGLEFT
350
3C9
  3
UCSORGRIGHT
350
3CA
  3
UCSORGTOP
350
3C7
  3
UCSORTHOREF
350
3C4
  3
UCSORTHOVIEW
350
3C5
  3
VERSIONGUID
350
3B9
  0
DICTIONARY
  5
261
102
{ACAD_REACTORS
330
C
102
}
330
C
100
AcDbDictionary
  3
DIMASSOC
350
262
  0
XRECORD
  5
3CE
102
{ACAD_REACTORS
330
25B
102
}
330
25B
100
AcDbXrecord
340
18
  0
XRECORD
  5
3CD
102
{ACAD_REACTORS
330
259
102
}
330
259
100
AcDbXrecord
340
15
  0
MLINESTYLE
  5
1B
102
{ACAD_REACTORS
330
E
102
}
330
E
100
AcDbMlineStyle
  2
STANDARD
 70
     0
  3

 62
     0
 51
90.0
 52
90.0
 71
     2
 49
0.5
 62
   256
  6
BYLAYER
 49
-0.5
 62
   256
  6
BYLAYER
  0
ACDBPLACEHOLDER
  5
1FF
102
{ACAD_REACTORS
330
1FE
102
}
330
1FE
100
AcDbPlaceHolder
280
     0
  0
XRECORD
  5
3B7
102
{ACAD_REACTORS
330
3AD
102
}
330
3AD
100
AcDbXrecord
 90
        0
  0
XRECORD
  5
3B8
102
{ACAD_REACTORS
330
3AD
102
}
330
3AD
100
AcDbXrecord
  1
{BD8190CC-17D8-48E7-A560-967BB1E71AEE}
  0
XRECORD
  5
3B0
102
{ACAD_REACTORS
330
3AD
102
}
330
3AD
100
AcDbXrecord
  1

  0
XRECORD
  5
3B6
102
{ACAD_REACTORS
330
3AD
102
}
330
3AD
100
AcDbXrecord
 90
        0
  0
XRECORD
  5
3B2
102
{ACAD_REACTORS
330
3AD
102
}
330
3AD
100
AcDbXrecord
340
200
  0
XRECORD
  5
3B5
102
{ACAD_REACTORS
330
3AD
102
}
330
3AD
100
AcDbXrecord
 90
    14877
  0
XRECORD
  5
3B3
102
{ACAD_REACTORS
330
3AD
102
}
330
3AD
100
AcDbXrecord
340
201
  0
XRECORD
  5
3B4
102
{ACAD_REACTORS
330
3AD
102
}
330
3AD
100
AcDbXrecord
340
1FE
  0
XRECORD
  5
3BA
102
{ACAD_REACTORS
330
3AD
102
}
330
3AD
100
AcDbXrecord
 40
0.0
  0
XRECORD
  5
3BD
102
{ACAD_REACTORS
330
3AD
102
}
330
3AD
100
AcDbXrecord
340
0
  0
XRECORD
  5
3C3
102
{ACAD_REACTORS
330
3AD
102
}
330
3AD
100
AcDbXrecord
 10
0.0
 20
0.0
 30
0.0
  0
XRECORD
  5
3BF
102
{ACAD_REACTORS
330
3AD
102
}
330
3AD
100
AcDbXrecord
 10
0.0
 20
0.0
 30
0.0
  0
XRECORD
  5
3C2
102
{ACAD_REACTORS
330
3AD
102
}
330
3AD
100
AcDbXrecord
 10
0.0
 20
0.0
 30
0.0
  0
XRECORD
  5
3C0
102
{ACAD_REACTORS
330
3AD
102
}
330
3AD
100
AcDbXrecord
 10
0.0
 20
0.0
 30
0.0
  0
XRECORD
  5
3C1
102
{ACAD_REACTORS
330
3AD
102
}
330
3AD
100
AcDbXrecord
 10
0.0
 20
0.0
 30
0.0
  0
XRECORD
  5
3BE
102
{ACAD_REACTORS
330
3AD
102
}
330
3AD
100
AcDbXrecord
 10
0.0
 20
0.0
 30
0.0
  0
XRECORD
  5
3BB
102
{ACAD_REACTORS
330
3AD
102
}
330
3AD
100
AcDbXrecord
340
0
  0
XRECORD
  5
3BC
102
{ACAD_REACTORS
330
3AD
102
}
330
3AD
100
AcDbXrecord
 70
     0
  0
XRECORD
  5
3B1
102
{ACAD_REACTORS
330
3AD
102
}
330
3AD
100
AcDbXrecord
  1

  0
XRECORD
  5
3AE
102
{ACAD_REACTORS
330
3AD
102
}
330
3AD
100
AcDbXrecord
 90
        1
  0
XRECORD
  5
3AF
102
{ACAD_REACTORS
330
3AD
102
}
330
3AD
100
AcDbXrecord
 90
       70
  0
XRECORD
  5
3C6
102
{ACAD_REACTORS
330
3AD
102
}
330
3AD
100
AcDbXrecord
340
0
  0
XRECORD
  5
3CC
102
{ACAD_REACTORS
330
3AD
102
}
330
3AD
100
AcDbXrecord
 10
0.0
 20
0.0
 30
0.0
  0
XRECORD
  5
3C8
102
{ACAD_REACTORS
330
3AD
102
}
330
3AD
100
AcDbXrecord
 10
0.0
 20
0.0
 30
0.0
  0
XRECORD
  5
3CB
102
{ACAD_REACTORS
330
3AD
102
}
330
3AD
100
AcDbXrecord
 10
0.0
 20
0.0
 30
0.0
  0
XRECORD
  5
3C9
102
{ACAD_REACTORS
330
3AD
102
}
330
3AD
100
AcDbXrecord
 10
0.0
 20
0.0
 30
0.0
  0
XRECORD
  5
3CA
102
{ACAD_REACTORS
330
3AD
102
}
330
3AD
100
AcDbXrecord
 10
0.0
 20
0.0
 30
0.0
  0
XRECORD
  5
3C7
102
{ACAD_REACTORS
330
3AD
102
}
330
3AD
100
AcDbXrecord
 10
0.0
 20
0.0
 30
0.0
  0
XRECORD
  5
3C4
102
{ACAD_REACTORS
330
3AD
102
}
330
3AD
100
AcDbXrecord
340
0
  0
XRECORD
  5
3C5
102
{ACAD_REACTORS
330
3AD
102
}
330
3AD
100
AcDbXrecord
 70
     0
  0
XRECORD
  5
3B9
102
{ACAD_REACTORS
330
3AD
102
}
330
3AD
100
AcDbXrecord
  1
{09F410FA-726C-447D-80BC-DF47E815036B}
  0
DICTIONARYVAR
  5
262
102
{ACAD_REACTORS
330
261
102
}
330
261
100
DictionaryVariables
280
     0
  1
1
  0
ENDSEC
  0
EOF
