  0
SECTION
  2
HEADER
  9
$ACADVER
  1
AC1014
  9
$ACADMAINTVER
 70
     9
  9
$DWGCODEPAGE
  3
ANSI_1252
  9
$INSBASE
 10
20.5725338808186
 20
0.8037683786169914
 30
0.0
  9
$EXTMIN
 10
13.57596646182649
 20
0.0454400867285875
 30
0.0
  9
$EXTMAX
 10
26.62742451093972
 20
5.802456487594943
 30
0.0
  9
$LIMMIN
 10
0.0
 20
0.0
  9
$LIMMAX
 10
36.0
 20
36.0
  9
$ORTHOMODE
 70
     1
  9
$REGENMODE
 70
     1
  9
$FILLMODE
 70
     1
  9
$QTEXTMODE
 70
     0
  9
$MIRRTEXT
 70
     1
  9
$DRAGMODE
 70
     0
  9
$LTSCALE
 40
1.0
  9
$OSMODE
 70
    37
  9
$ATTMODE
 70
     1
  9
$TEXTSIZE
 40
0.2
  9
$TRACEWID
 40
0.05
  9
$TEXTSTYLE
  7
STANDARD
  9
$CLAYER
  8
ADP1DETAIL
  9
$CELTYPE
  6
BYLAYER
  9
$CECOLOR
 62
   256
  9
$CELTSCALE
 40
1.0
  9
$DELOBJ
 70
     1
  9
$DISPSILH
 70
     0
  9
$DIMSCALE
 40
1.0
  9
$DIMASZ
 40
0.125
  9
$DIMEXO
 40
0.0625
  9
$DIMDLI
 40
0.38
  9
$DIMRND
 40
0.0
  9
$DIMDLE
 40
0.0
  9
$DIMEXE
 40
0.18
  9
$DIMTP
 40
0.0
  9
$DIMTM
 40
0.0
  9
$DIMTXT
 40
0.125
  9
$DIMCEN
 40
0.1875
  9
$DIMTSZ
 40
0.125
  9
$DIMTOL
 70
     0
  9
$DIMLIM
 70
     0
  9
$DIMTIH
 70
     0
  9
$DIMTOH
 70
     0
  9
$DIMSE1
 70
     0
  9
$DIMSE2
 70
     0
  9
$DIMTAD
 70
     0
  9
$DIMZIN
 70
     3
  9
$DIMBLK
  1

  9
$DIMASO
 70
     1
  9
$DIMSHO
 70
     1
  9
$DIMPOST
  1

  9
$DIMAPOST
  1

  9
$DIMALT
 70
     0
  9
$DIMALTD
 70
     1
  9
$DIMALTF
 40
25.4
  9
$DIMLFAC
 40
1.0
  9
$DIMTOFL
 70
     0
  9
$DIMTVP
 40
0.0
  9
$DIMTIX
 70
     0
  9
$DIMSOXD
 70
     0
  9
$DIMSAH
 70
     0
  9
$DIMBLK1
  1

  9
$DIMBLK2
  1

  9
$DIMSTYLE
  2
STANDARD
  9
$DIMCLRD
 70
     0
  9
$DIMCLRE
 70
     0
  9
$DIMCLRT
 70
     0
  9
$DIMTFAC
 40
1.0
  9
$DIMGAP
 40
0.125
  9
$DIMJUST
 70
     0
  9
$DIMSD1
 70
     0
  9
$DIMSD2
 70
     0
  9
$DIMTOLJ
 70
     1
  9
$DIMTZIN
 70
     0
  9
$DIMALTZ
 70
     0
  9
$DIMALTTZ
 70
     0
  9
$DIMFIT
 70
     3
  9
$DIMUPT
 70
     0
  9
$DIMUNIT
 70
     2
  9
$DIMDEC
 70
     4
  9
$DIMTDEC
 70
     4
  9
$DIMALTU
 70
     2
  9
$DIMALTTD
 70
     2
  9
$DIMTXSTY
  7
STANDARD
  9
$DIMAUNIT
 70
     0
  9
$LUNITS
 70
     5
  9
$LUPREC
 70
     5
  9
$SKETCHINC
 40
0.1
  9
$FILLETRAD
 40
0.0
  9
$AUNITS
 70
     0
  9
$AUPREC
 70
     0
  9
$MENU
  1
acad
  9
$ELEVATION
 40
0.0
  9
$PELEVATION
 40
0.0
  9
$THICKNESS
 40
0.0
  9
$LIMCHECK
 70
     0
  9
$BLIPMODE
 70
     0
  9
$CHAMFERA
 40
0.03125
  9
$CHAMFERB
 40
0.03125
  9
$CHAMFERC
 40
0.0
  9
$CHAMFERD
 40
0.0
  9
$SKPOLY
 70
     0
  9
$TDCREATE
 40
2450290.696740162
  9
$TDUPDATE
 40
2452297.084360347
  9
$TDINDWG
 40
0.1012942477
  9
$TDUSRTIMER
 40
0.1012942477
  9
$USRTIMER
 70
     1
  9
$ANGBASE
 50
0.0
  9
$ANGDIR
 70
     0
  9
$PDMODE
 70
     0
  9
$PDSIZE
 40
0.0
  9
$PLINEWID
 40
0.0
  9
$COORDS
 70
     2
  9
$SPLFRAME
 70
     0
  9
$SPLINETYPE
 70
     6
  9
$SPLINESEGS
 70
     8
  9
$ATTDIA
 70
     0
  9
$ATTREQ
 70
     1
  9
$HANDLING
 70
 22529
  9
$HANDSEED
  5
203
  9
$SURFTAB1
 70
     6
  9
$SURFTAB2
 70
     6
  9
$SURFTYPE
 70
     6
  9
$SURFU
 70
     6
  9
$SURFV
 70
     6
  9
$UCSNAME
  2

  9
$UCSORG
 10
0.0
 20
0.0
 30
0.0
  9
$UCSXDIR
 10
1.0
 20
0.0
 30
0.0
  9
$UCSYDIR
 10
0.0
 20
1.0
 30
0.0
  9
$PUCSNAME
  2

  9
$PUCSORG
 10
0.0
 20
0.0
 30
0.0
  9
$PUCSXDIR
 10
1.0
 20
0.0
 30
0.0
  9
$PUCSYDIR
 10
0.0
 20
1.0
 30
0.0
  9
$USERI1
 70
     0
  9
$USERI2
 70
     0
  9
$USERI3
 70
     0
  9
$USERI4
 70
     0
  9
$USERI5
 70
     0
  9
$USERR1
 40
0.0
  9
$USERR2
 40
0.0
  9
$USERR3
 40
0.0
  9
$USERR4
 40
0.0
  9
$USERR5
 40
0.0
  9
$WORLDVIEW
 70
     1
  9
$SHADEDGE
 70
     3
  9
$SHADEDIF
 70
    70
  9
$TILEMODE
 70
     1
  9
$MAXACTVP
 70
    15
  9
$PINSBASE
 10
0.1093765497207643
 20
0.0
 30
0.0
  9
$PLIMCHECK
 70
     0
  9
$PEXTMIN
 10
1.000000000000000E+20
 20
1.000000000000000E+20
 30
1.000000000000000E+20
  9
$PEXTMAX
 10
-1.000000000000000E+20
 20
-1.000000000000000E+20
 30
-1.000000000000000E+20
  9
$PLIMMIN
 10
0.0
 20
0.0
  9
$PLIMMAX
 10
12.0
 20
9.0
  9
$UNITMODE
 70
     0
  9
$VISRETAIN
 70
     0
  9
$PLINEGEN
 70
     0
  9
$PSLTSCALE
 70
     1
  9
$TREEDEPTH
 70
  3020
  9
$PICKSTYLE
 70
     1
  9
$CMLSTYLE
  2
STANDARD
  9
$CMLJUST
 70
     0
  9
$CMLSCALE
 40
1.0
  9
$PROXYGRAPHICS
 70
     1
  9
$MEASUREMENT
 70
     0
  0
ENDSEC
  0
SECTION
  2
CLASSES
  0
CLASS
  1
ACDBDICTIONARYWDFLT
  2
AcDbDictionaryWithDefault
  3
AutoCAD 2000
 90
        0
280
     0
281
     0
  0
CLASS
  1
ACDBPLACEHOLDER
  2
AcDbPlaceHolder
  3
AutoCAD 2000
 90
        0
280
     0
281
     0
  0
CLASS
  1
LAYOUT
  2
AcDbLayout
  3
AutoCAD 2000
 90
        0
280
     0
281
     0
  0
CLASS
  1
DICTIONARYVAR
  2
AcDbDictionaryVar
  3
AutoCAD 2000
 90
        0
280
     0
281
     0
  0
CLASS
  1
LONG_TRANSACTION
  2
AcDbLongTransaction
  3
AutoCAD 2000
 90
        0
280
     0
281
     0
  0
CLASS
  1
LWPOLYLINE
  2
AcDbPolyline
  3
AutoCAD 2000
 90
        0
280
     0
281
     1
  0
CLASS
  1
HATCH
  2
AcDbHatch
  3
AutoCAD 2000
 90
        0
280
     0
281
     1
  0
CLASS
  1
XRECORD
  2
AcDbXrecord
  3
AutoCAD 2000
 90
        0
280
     0
281
     0
  0
CLASS
  1
LONG_TRANSACTION
  2
AcDbLongTransaction
  3
AutoCAD 2000
 90
        0
280
     0
281
     0
  0
CLASS
  1
LWPOLYLINE
  2
AcDbPolyline
  3
AutoCAD 2000
 90
        0
280
     0
281
     1
  0
CLASS
  1
HATCH
  2
AcDbHatch
  3
AutoCAD 2000
 90
        0
280
     0
281
     1
  0
CLASS
  1
XRECORD
  2
AcDbXrecord
  3
AutoCAD 2000
 90
        0
280
     0
281
     0
  0
CLASS
  1
LONG_TRANSACTION
  2
AcDbLongTransaction
  3
AutoCAD 2000
 90
        0
280
     0
281
     0
  0
CLASS
  1
LWPOLYLINE
  2
AcDbPolyline
  3
AutoCAD 2000
 90
        0
280
     0
281
     1
  0
CLASS
  1
HATCH
  2
AcDbHatch
  3
AutoCAD 2000
 90
        0
280
     0
281
     1
  0
CLASS
  1
XRECORD
  2
AcDbXrecord
  3
AutoCAD 2000
 90
        0
280
     0
281
     0
  0
CLASS
  1
LONG_TRANSACTION
  2
AcDbLongTransaction
  3
AutoCAD 2000
 90
        0
280
     0
281
     0
  0
CLASS
  1
LWPOLYLINE
  2
AcDbPolyline
  3
AutoCAD 2000
 90
        0
280
     0
281
     1
  0
CLASS
  1
HATCH
  2
AcDbHatch
  3
AutoCAD 2000
 90
        0
280
     0
281
     1
  0
CLASS
  1
XRECORD
  2
AcDbXrecord
  3
AutoCAD 2000
 90
        0
280
     0
281
     0
  0
CLASS
  1
LONG_TRANSACTION
  2
AcDbLongTransaction
  3
AutoCAD 2000
 90
        0
280
     0
281
     0
  0
CLASS
  1
LWPOLYLINE
  2
AcDbPolyline
  3
AutoCAD 2000
 90
        0
280
     0
281
     1
  0
CLASS
  1
HATCH
  2
AcDbHatch
  3
AutoCAD 2000
 90
        0
280
     0
281
     1
  0
CLASS
  1
XRECORD
  2
AcDbXrecord
  3
AutoCAD 2000
 90
        0
280
     0
281
     0
  0
ENDSEC
  0
SECTION
  2
TABLES
  0
TABLE
  2
VPORT
  5
8
330
0
100
AcDbSymbolTable
 70
     2
  0
VPORT
  5
1E0
330
8
100
AcDbSymbolTableRecord
100
AcDbViewportTableRecord
  2
*ACTIVE
 70
     0
 10
0.0
 20
0.0
 11
1.0
 21
1.0
 12
20.11304464605256
 22
2.923756667010652
 13
0.0
 23
0.0
 14
0.5740882589684922
 24
0.5740882589684922
 15
0.5
 25
0.5
 16
0.0
 26
0.0
 36
1.0
 17
0.0
 27
0.0
 37
0.0
 40
8.365595802020571
 41
1.570528967254408
 42
50.0
 43
0.0
 44
0.0
 50
0.0
 51
0.0
 71
     0
 72
   100
 73
     1
 74
     0
 75
     0
 76
     0
 77
     0
 78
     0
  0
ENDTAB
  0
TABLE
  2
LTYPE
  5
5
330
0
100
AcDbSymbolTable
 70
     2
  0
LTYPE
  5
12
330
5
100
AcDbSymbolTableRecord
100
AcDbLinetypeTableRecord
  2
BYBLOCK
 70
     0
  3

 72
    65
 73
     0
 40
0.0
  0
LTYPE
  5
13
330
5
100
AcDbSymbolTableRecord
100
AcDbLinetypeTableRecord
  2
BYLAYER
 70
     0
  3

 72
    65
 73
     0
 40
0.0
  0
LTYPE
  5
14
330
5
100
AcDbSymbolTableRecord
100
AcDbLinetypeTableRecord
  2
CONTINUOUS
 70
     0
  3
Solid line
 72
    65
 73
     0
 40
0.0
  0
LTYPE
  5
2B
330
5
100
AcDbSymbolTableRecord
100
AcDbLinetypeTableRecord
  2
HIDDEN2
 70
     0
  3
_ _ _ _ _ _ _ _ _ _ _ _ _ _ _ _ _ _ _ _ _ _ _ _
 72
    65
 73
     2
 40
0.1875
 49
0.125
 74
     0
 49
-0.0625
 74
     0
  0
ENDTAB
  0
TABLE
  2
LAYER
  5
2
330
0
100
AcDbSymbolTable
 70
     5
  0
LAYER
  5
F
330
2
100
AcDbSymbolTableRecord
100
AcDbLayerTableRecord
  2
0
 70
     0
 62
     7
  6
CONTINUOUS
  0
LAYER
  5
2C
330
2
100
AcDbSymbolTableRecord
100
AcDbLayerTableRecord
  2
ADP2DETAIL
 70
     0
 62
     5
  6
CONTINUOUS
  0
LAYER
  5
2D
330
2
100
AcDbSymbolTableRecord
100
AcDbLayerTableRecord
  2
ADPDIM
 70
     0
 62
     3
  6
CONTINUOUS
  0
LAYER
  5
2E
330
2
100
AcDbSymbolTableRecord
100
AcDbLayerTableRecord
  2
ADP1DETAIL
 70
     0
 62
     7
  6
CONTINUOUS
  0
LAYER
  5
2F
330
2
100
AcDbSymbolTableRecord
100
AcDbLayerTableRecord
  2
DEFPOINTS
 70
     0
 62
     7
  6
CONTINUOUS
  0
ENDTAB
  0
TABLE
  2
STYLE
  5
3
330
0
100
AcDbSymbolTable
 70
     2
  0
STYLE
  5
10
330
3
100
AcDbSymbolTableRecord
100
AcDbTextStyleTableRecord
  2
STANDARD
 70
     0
 40
0.0
 41
1.0
 50
0.0
 71
     0
 42
0.2
  3
txt
  4

  0
STYLE
  5
9C
330
3
100
AcDbSymbolTableRecord
100
AcDbTextStyleTableRecord
  2
ARIAL_WIDE
 70
     0
 40
0.0
 41
1.25
 50
0.0
 71
     0
 42
0.2
  3
ARIAL.TTF
  4

1001
ACAD
1000
Arial
1071
       34
  0
ENDTAB
  0
TABLE
  2
VIEW
  5
6
330
0
100
AcDbSymbolTable
 70
     0
  0
ENDTAB
  0
TABLE
  2
UCS
  5
7
330
0
100
AcDbSymbolTable
 70
     0
  0
ENDTAB
  0
TABLE
  2
APPID
  5
9
330
0
100
AcDbSymbolTable
 70
     1
  0
APPID
  5
11
330
9
100
AcDbSymbolTableRecord
100
AcDbRegAppTableRecord
  2
ACAD
 70
     0
  0
ENDTAB
  0
TABLE
  2
DIMSTYLE
  5
A
330
0
100
AcDbSymbolTable
 70
     1
  0
DIMSTYLE
105
90
330
A
100
AcDbSymbolTableRecord
100
AcDbDimStyleTableRecord
  2
STANDARD
 70
     0
  3

  4

  5

  6

  7

 40
1.0
 41
0.18
 42
0.0625
 43
0.38
 44
0.18
 45
0.0
 46
0.0
 47
0.0
 48
0.0
140
0.18
141
0.09
142
0.0
143
25.4
144
1.0
145
0.0
146
1.0
147
0.09
 71
     0
 72
     0
 73
     1
 74
     1
 75
     0
 76
     0
 77
     0
 78
     0
170
     0
171
     2
172
     0
173
     0
174
     0
175
     0
176
     0
177
     0
178
     0
270
     2
271
     4
272
     4
273
     2
274
     2
340
10
275
     0
280
     0
281
     0
282
     0
283
     1
284
     0
285
     0
286
     0
287
     3
288
     0
  0
ENDTAB
  0
TABLE
  2
BLOCK_RECORD
  5
1
330
0
100
AcDbSymbolTable
 70
     2
  0
BLOCK_RECORD
  5
18
102
{ACAD_XDICTIONARY
360
F1
102
}
330
1
100
AcDbSymbolTableRecord
100
AcDbBlockTableRecord
  2
*MODEL_SPACE
  0
BLOCK_RECORD
  5
15
102
{ACAD_XDICTIONARY
360
EF
102
}
330
1
100
AcDbSymbolTableRecord
100
AcDbBlockTableRecord
  2
*PAPER_SPACE
  0
BLOCK_RECORD
  5
27
330
1
100
AcDbSymbolTableRecord
100
AcDbBlockTableRecord
  2
*D0
  0
BLOCK_RECORD
  5
2A
330
1
100
AcDbSymbolTableRecord
100
AcDbBlockTableRecord
  2
*D1
  0
ENDTAB
  0
ENDSEC
  0
SECTION
  2
BLOCKS
  0
BLOCK
  5
32
330
18
100
AcDbEntity
  8
0
100
AcDbBlockBegin
  2
*MODEL_SPACE
 70
     0
 10
0.0
 20
0.0
 30
0.0
  3
*MODEL_SPACE
  1

  0
ENDBLK
  5
33
330
18
100
AcDbEntity
  8
0
100
AcDbBlockEnd
  0
BLOCK
  5
30
330
15
100
AcDbEntity
 67
     1
  8
0
100
AcDbBlockBegin
  2
*PAPER_SPACE
 70
     0
 10
0.0
 20
0.0
 30
0.0
  3
*PAPER_SPACE
  1

  0
ENDBLK
  5
31
330
15
100
AcDbEntity
 67
     1
  8
0
100
AcDbBlockEnd
  0
BLOCK
  5
35
330
27
100
AcDbEntity
  8
0
100
AcDbBlockBegin
  2
*D0
 70
     1
 10
0.0
 20
0.0
 30
0.0
  3
*D0
  1

  0
LINE
  5
36
330
27
100
AcDbEntity
  8
0
  6
BYBLOCK
 62
     0
100
AcDbLine
 10
16.63733266797041
 20
0.7675041642748221
 30
0.0
 11
16.63733266797041
 21
0.4253413567833898
 31
0.0
  0
LINE
  5
37
330
27
100
AcDbEntity
  8
0
  6
BYBLOCK
 62
     0
100
AcDbLine
 10
17.63733266797041
 20
0.7675041642748221
 30
0.0
 11
17.63733266797041
 21
0.4253413567833898
 31
0.0
  0
LINE
  5
38
330
27
100
AcDbEntity
  8
0
  6
BYBLOCK
 62
     0
100
AcDbLine
 10
16.63733266797041
 20
0.6053413567833898
 30
0.0
 11
16.99149933463708
 21
0.6053413567833898
 31
0.0
  0
LINE
  5
39
330
27
100
AcDbEntity
  8
0
  6
BYBLOCK
 62
     0
100
AcDbLine
 10
17.63733266797041
 20
0.6053413567833898
 30
0.0
 11
17.28316600130374
 21
0.6053413567833898
 31
0.0
  0
LINE
  5
3A
330
27
100
AcDbEntity
  8
0
  6
BYBLOCK
 62
     0
100
AcDbLine
 10
16.51233266797041
 20
0.4803413567833898
 30
0.0
 11
16.76233266797041
 21
0.7303413567833898
 31
0.0
  0
LINE
  5
3B
330
27
100
AcDbEntity
  8
0
  6
BYBLOCK
 62
     0
100
AcDbLine
 10
17.51233266797041
 20
0.4803413567833898
 30
0.0
 11
17.76233266797041
 21
0.7303413567833898
 31
0.0
  0
TEXT
  5
3C
330
27
100
AcDbEntity
  8
0
  6
BYBLOCK
 62
     0
100
AcDbText
 10
17.11649933463708
 20
0.5428413567833898
 30
0.0
 40
0.125
  1
1
 72
     1
 11
17.13733266797041
 21
0.6053413567833898
 31
0.0
100
AcDbText
 73
     2
  0
POINT
  5
3D
330
27
100
AcDbEntity
  8
DEFPOINTS
  6
BYBLOCK
 62
     0
100
AcDbPoint
 10
16.63733266797041
 20
0.8300041642748221
 30
0.0
  0
POINT
  5
3E
330
27
100
AcDbEntity
  8
DEFPOINTS
  6
BYBLOCK
 62
     0
100
AcDbPoint
 10
17.63733266797041
 20
0.8300041642748221
 30
0.0
  0
POINT
  5
3F
330
27
100
AcDbEntity
  8
DEFPOINTS
  6
BYBLOCK
 62
     0
100
AcDbPoint
 10
17.63733266797041
 20
0.6053413567833898
 30
0.0
  0
ENDBLK
  5
40
330
27
100
AcDbEntity
  8
0
100
AcDbBlockEnd
  0
BLOCK
  5
41
330
2A
100
AcDbEntity
  8
0
100
AcDbBlockBegin
  2
*D1
 70
     1
 10
0.0
 20
0.0
 30
0.0
  3
*D1
  1

  0
LINE
  5
42
330
2A
100
AcDbEntity
  8
0
  6
BYBLOCK
 62
     0
100
AcDbLine
 10
17.08661352343085
 20
3.834000738407785
 30
0.0
 11
16.02604316152146
 21
3.834000738407785
 31
0.0
  0
LINE
  5
43
330
2A
100
AcDbEntity
  8
0
  6
BYBLOCK
 62
     0
100
AcDbLine
 10
16.57483266797041
 20
0.8300041642748221
 30
0.0
 11
16.02604316152146
 21
0.8300041642748221
 31
0.0
  0
LINE
  5
44
330
2A
100
AcDbEntity
  8
0
  6
BYBLOCK
 62
     0
100
AcDbLine
 10
16.20604316152146
 20
3.834000738407785
 30
0.0
 11
16.20604316152146
 21
2.49866911800797
 31
0.0
  0
LINE
  5
45
330
2A
100
AcDbEntity
  8
0
  6
BYBLOCK
 62
     0
100
AcDbLine
 10
16.20604316152146
 20
0.8300041642748221
 30
0.0
 11
16.20604316152146
 21
2.165335784674637
 31
0.0
  0
LINE
  5
46
330
2A
100
AcDbEntity
  8
0
  6
BYBLOCK
 62
     0
100
AcDbLine
 10
16.33104316152146
 20
3.709000738407785
 30
0.0
 11
16.08104316152146
 21
3.959000738407785
 31
0.0
  0
LINE
  5
47
330
2A
100
AcDbEntity
  8
0
  6
BYBLOCK
 62
     0
100
AcDbLine
 10
16.33104316152146
 20
0.7050041642748221
 30
0.0
 11
16.08104316152146
 21
0.9550041642748221
 31
0.0
  0
TEXT
  5
48
330
2A
100
AcDbEntity
  8
0
  6
BYBLOCK
 62
     0
100
AcDbText
 10
16.26854316152146
 20
2.290335784674637
 30
0.0
 40
0.125
  1
3
 50
90.0
 72
     1
 11
16.20604316152146
 21
2.332002451341303
 31
0.0
100
AcDbText
 73
     2
  0
POINT
  5
49
330
2A
100
AcDbEntity
  8
DEFPOINTS
  6
BYBLOCK
 62
     0
100
AcDbPoint
 10
17.14911352343085
 20
3.834000738407785
 30
0.0
  0
POINT
  5
4A
330
2A
100
AcDbEntity
  8
DEFPOINTS
  6
BYBLOCK
 62
     0
100
AcDbPoint
 10
16.63733266797041
 20
0.8300041642748221
 30
0.0
  0
POINT
  5
4B
330
2A
100
AcDbEntity
  8
DEFPOINTS
  6
BYBLOCK
 62
     0
100
AcDbPoint
 10
16.20604316152146
 20
0.8300041642748221
 30
0.0
  0
ENDBLK
  5
4C
330
2A
100
AcDbEntity
  8
0
100
AcDbBlockEnd
  0
ENDSEC
  0
SECTION
  2
ENTITIES
  0
LWPOLYLINE
  5
4D
330
18
100
AcDbEntity
  8
ADP1DETAIL
100
AcDbPolyline
 90
        3
 70
     0
 43
0.0
 10
19.9766954863831
 20
3.517504164274821
 42
-0.3985905872213926
 10
19.92886823124298
 20
3.6964355794561
 42
-0.3152224661723982
 10
20.1016954863831
 20
3.830004164274821
 42
-1.048387376421687
  0
LWPOLYLINE
  5
52
330
18
100
AcDbEntity
  8
ADP1DETAIL
100
AcDbPolyline
 90
        3
 70
     0
 43
0.0
 10
20.2266954863831
 20
3.517504164274821
 42
0.3985905872213926
 10
20.27452274152321
 20
3.6964355794561
 42
0.3152224661723982
 10
20.1016954863831
 20
3.830004164274821
 42
1.048387376421687
  0
DIMENSION
  5
57
330
18
100
AcDbEntity
  8
ADPDIM
100
AcDbDimension
  2
*D1
 10
19.17040597993415
 20
0.8300041642748221
 30
0.0
 11
19.17040597993415
 21
2.332002451341303
 31
0.0
 12
2.964362818412691
 22
0.0
 32
0.0
100
AcDbAlignedDimension
 13
20.11347634184355
 23
3.834000738407785
 33
0.0
 14
19.6016954863831
 24
0.8300041642748221
 34
0.0
 50
90.0
100
AcDbRotatedDimension
  0
ARC
  5
58
330
18
100
AcDbEntity
  8
ADP1DETAIL
100
AcDbCircle
 10
20.58794391911522
 20
2.969003302277487
 30
0.0
 40
0.2184884825327406
100
AcDbArc
 50
348.0474948083283
 51
69.5740926776175
  0
DIMENSION
  5
59
330
18
100
AcDbEntity
  8
ADPDIM
100
AcDbDimension
  2
*D0
 10
20.6016954863831
 20
0.6053413567833898
 30
0.0
 11
20.1016954863831
 21
0.6053413567833898
 31
0.0
 12
2.964362818412691
 22
0.0
 32
0.0
100
AcDbAlignedDimension
 13
19.6016954863831
 23
0.8300041642748221
 33
0.0
 14
20.6016954863831
 24
0.8300041642748221
 34
0.0
100
AcDbRotatedDimension
  0
ARC
  5
5A
330
18
100
AcDbEntity
  8
ADP1DETAIL
100
AcDbCircle
 10
19.61544705365098
 20
2.969003302277487
 30
0.0
 40
0.2184884825327406
100
AcDbArc
 50
110.4259073223825
 51
191.9525051916716
  0
LINE
  5
5B
330
18
100
AcDbEntity
  8
ADP1DETAIL
100
AcDbLine
 10
19.4016954863831
 20
2.923754164274821
 30
0.0
 11
20.8016954863831
 21
2.923754164274821
 31
0.0
  0
LWPOLYLINE
  5
5C
330
18
100
AcDbEntity
  8
ADP1DETAIL
100
AcDbPolyline
 90
        4
 70
     0
 43
0.0
 10
20.7266954863831
 20
2.830004164274821
 42
0.1993875791622252
 10
20.52295999866568
 20
2.535329720424598
 42
-0.0060706569737229
 10
20.49671481550463
 20
1.857220448733089
 42
-0.3255014721376946
 10
20.3516954863831
 20
1.692504164274822
 42
0.0459210622339331
  0
LWPOLYLINE
  5
62
330
18
100
AcDbEntity
  8
ADP1DETAIL
100
AcDbPolyline
 90
        4
 70
     0
 43
0.0
 10
19.4766954863831
 20
2.830004164274821
 42
-0.1993875791622252
 10
19.68043097410052
 20
2.535329720424598
 42
0.0060706569737229
 10
19.70667615726157
 20
1.857220448733089
 42
0.3255014721376946
 10
19.8516954863831
 20
1.692504164274822
 42
-0.0459210622339331
  0
LINE
  5
68
330
18
100
AcDbEntity
  8
ADP1DETAIL
100
AcDbLine
 10
19.6016954863831
 20
0.8300041642748221
 30
0.0
 11
20.6016954863831
 21
0.8300041642748221
 31
0.0
  0
LINE
  5
69
330
18
100
AcDbEntity
  8
ADP1DETAIL
100
AcDbLine
 10
19.6016954863831
 20
1.142504164274821
 30
0.0
 11
20.6016954863831
 21
1.142504164274821
 31
0.0
  0
LINE
  5
6A
330
18
100
AcDbEntity
  8
ADP1DETAIL
100
AcDbLine
 10
19.8516954863831
 20
1.630004164274822
 30
0.0
 11
20.3516954863831
 21
1.630004164274821
 31
0.0
  0
LINE
  5
6B
330
18
100
AcDbEntity
  8
ADP1DETAIL
100
AcDbLine
 10
19.8516954863831
 20
1.692504164274822
 30
0.0
 11
20.3516954863831
 21
1.692504164274821
 31
0.0
  0
LINE
  5
6C
330
18
100
AcDbEntity
  8
ADP1DETAIL
100
AcDbLine
 10
19.7891954863831
 20
1.361254164274821
 30
0.0
 11
20.4141954863831
 21
1.361254164274821
 31
0.0
  0
LINE
  5
6D
330
18
100
AcDbEntity
  8
ADP1DETAIL
100
AcDbLine
 10
19.7891954863831
 20
1.330004164274821
 30
0.0
 11
20.4141954863831
 21
1.330004164274821
 31
0.0
  0
ARC
  5
6E
330
18
100
AcDbEntity
  8
ADP1DETAIL
100
AcDbCircle
 10
19.88575606255322
 20
1.09068285079972
 30
0.0
 40
0.2580671152118236
100
AcDbArc
 50
111.9729281765114
 51
168.4159296389577
  0
LINE
  5
6F
330
18
100
AcDbEntity
  8
ADP1DETAIL
100
AcDbLine
 10
19.6016954863831
 20
1.142504164274821
 30
0.0
 11
19.6016954863831
 21
0.8300041642748221
 31
0.0
  0
LINE
  5
70
330
18
100
AcDbEntity
  8
ADP1DETAIL
100
AcDbLine
 10
19.7891954863831
 20
1.330004164274821
 30
0.0
 11
19.7891954863831
 21
1.361254164274821
 31
0.0
  0
LINE
  5
71
330
18
100
AcDbEntity
  8
ADP1DETAIL
100
AcDbLine
 10
19.8516954863831
 20
1.630004164274822
 30
0.0
 11
19.8516954863831
 21
1.692504164274822
 31
0.0
  0
ARC
  5
72
330
18
100
AcDbEntity
  8
ADP1DETAIL
100
AcDbCircle
 10
19.79015038631139
 20
1.502674536384522
 30
0.0
 40
0.141423595914965
100
AcDbArc
 50
269.6131327935546
 51
64.20308107775166
  0
ARC
  5
73
330
18
100
AcDbEntity
  8
ADP1DETAIL
100
AcDbCircle
 10
20.31763491021298
 20
1.09068285079972
 30
0.0
 40
0.2580671152118236
100
AcDbArc
 50
11.58407036104225
 51
68.02707182348853
  0
LINE
  5
74
330
18
100
AcDbEntity
  8
ADP1DETAIL
100
AcDbLine
 10
20.6016954863831
 20
1.142504164274821
 30
0.0
 11
20.6016954863831
 21
0.8300041642748221
 31
0.0
  0
LINE
  5
75
330
18
100
AcDbEntity
  8
ADP1DETAIL
100
AcDbLine
 10
20.3516954863831
 20
1.630004164274822
 30
0.0
 11
20.3516954863831
 21
1.692504164274822
 31
0.0
  0
LINE
  5
76
330
18
100
AcDbEntity
  8
ADP1DETAIL
100
AcDbLine
 10
20.4141954863831
 20
1.330004164274821
 30
0.0
 11
20.4141954863831
 21
1.361254164274821
 31
0.0
  0
ARC
  5
77
330
18
100
AcDbEntity
  8
ADP1DETAIL
100
AcDbCircle
 10
20.41324058645481
 20
1.502674536384522
 30
0.0
 40
0.141423595914965
100
AcDbArc
 50
115.7969189222483
 51
270.3868672064453
  0
LINE
  5
78
330
18
100
AcDbEntity
  8
ADP1DETAIL
100
AcDbLine
 10
19.9766954863831
 20
3.517504164274821
 30
0.0
 11
20.2266954863831
 21
3.517504164274821
 31
0.0
  0
LINE
  5
79
330
18
100
AcDbEntity
  8
ADP1DETAIL
100
AcDbLine
 10
19.93211308647845
 20
3.486254164274821
 30
0.0
 11
20.27127788628774
 21
3.486254164274822
 31
0.0
  0
LINE
  5
7A
330
18
100
AcDbEntity
  8
ADP1DETAIL
100
AcDbLine
 10
19.5391954863831
 20
3.205004164274821
 30
0.0
 11
20.6641954863831
 21
3.205004164274821
 31
0.0
  0
LINE
  5
7B
330
18
100
AcDbEntity
  8
ADP1DETAIL
100
AcDbLine
 10
19.5391954863831
 20
3.173754164274821
 30
0.0
 11
20.6641954863831
 21
3.173754164274821
 31
0.0
  0
LINE
  5
7C
330
18
100
AcDbEntity
  8
ADP1DETAIL
100
AcDbLine
 10
19.4766954863831
 20
2.830004164274821
 30
0.0
 11
20.7266954863831
 21
2.830004164274821
 31
0.0
  0
ARC
  5
7D
330
18
100
AcDbEntity
  8
ADP1DETAIL
100
AcDbCircle
 10
19.55188200808235
 20
3.602366453422267
 30
0.0
 40
0.3975647578311276
100
AcDbArc
 50
268.171348051214
 51
343.0187458899796
  0
LINE
  5
7E
330
18
100
AcDbEntity
  8
ADP1DETAIL
100
AcDbLine
 10
19.4766954863831
 20
2.830004164274821
 30
0.0
 11
19.4766954863831
 21
2.923754164274821
 31
0.0
  0
LINE
  5
7F
330
18
100
AcDbEntity
  8
ADP1DETAIL
100
AcDbLine
 10
19.5391954863831
 20
3.173754164274821
 30
0.0
 11
19.5391954863831
 21
3.205004164274822
 31
0.0
  0
LINE
  5
80
330
18
100
AcDbEntity
  8
ADP1DETAIL
100
AcDbLine
 10
19.9766954863831
 20
3.486254164274822
 30
0.0
 11
19.9766954863831
 21
3.517504164274821
 31
0.0
  0
ARC
  5
81
330
18
100
AcDbEntity
  8
ADP1DETAIL
100
AcDbCircle
 10
20.65150896468385
 20
3.602366453422267
 30
0.0
 40
0.3975647578311276
100
AcDbArc
 50
196.9812541100203
 51
271.8286519487859
  0
LINE
  5
82
330
18
100
AcDbEntity
  8
ADP1DETAIL
100
AcDbLine
 10
20.2266954863831
 20
3.486254164274822
 30
0.0
 11
20.2266954863831
 21
3.517504164274821
 31
0.0
  0
LINE
  5
83
330
18
100
AcDbEntity
  8
ADP1DETAIL
100
AcDbLine
 10
20.6641954863831
 20
3.173754164274821
 30
0.0
 11
20.6641954863831
 21
3.205004164274822
 31
0.0
  0
LINE
  5
84
330
18
100
AcDbEntity
  8
ADP1DETAIL
100
AcDbLine
 10
20.7266954863831
 20
2.830004164274821
 30
0.0
 11
20.7266954863831
 21
2.923754164274821
 31
0.0
  0
CIRCLE
  5
85
330
18
100
AcDbEntity
  8
ADP1DETAIL
100
AcDbCircle
 10
20.1016954863831
 20
5.080200231585239
 30
0.0
 40
0.7222562560097039
  0
CIRCLE
  5
86
330
18
100
AcDbEntity
  8
ADP2DETAIL
  6
HIDDEN2
100
AcDbCircle
 10
20.1016954863831
 20
5.080200231585239
 30
0.0
 40
0.4739878287679673
  0
LINE
  5
87
330
18
100
AcDbEntity
  8
ADP2DETAIL
  6
HIDDEN2
100
AcDbLine
 10
19.5981892303734
 20
5.568387371574551
 30
0.0
 11
19.5981892303734
 21
4.592013091595926
 31
0.0
  0
LINE
  5
88
330
18
100
AcDbEntity
  8
ADP2DETAIL
  6
HIDDEN2
100
AcDbLine
 10
20.5981892303734
 20
4.581795607129518
 30
0.0
 11
20.5981892303734
 21
5.57860485604096
 31
0.0
  0
LINE
  5
89
330
18
100
AcDbEntity
  8
ADP2DETAIL
  6
HIDDEN2
100
AcDbLine
 10
20.5981892303734
 20
4.581795607129518
 30
0.0
 11
20.5981892303734
 21
5.57860485604096
 31
0.0
  0
CIRCLE
  5
8A
330
18
100
AcDbEntity
  8
ADP2DETAIL
  6
HIDDEN2
100
AcDbCircle
 10
20.1016954863831
 20
5.080200231585239
 30
0.0
 40
0.3162837796383719
  0
CIRCLE
  5
8B
330
18
100
AcDbEntity
  8
ADP2DETAIL
  6
HIDDEN2
100
AcDbCircle
 10
20.1016954863831
 20
5.080200231585239
 30
0.0
 40
0.2506708526186081
  0
CIRCLE
  5
8C
330
18
100
AcDbEntity
  8
ADP1DETAIL
100
AcDbCircle
 10
20.1016954863831
 20
5.080200231585239
 30
0.0
 40
0.1850579255988478
  0
CIRCLE
  5
8D
330
18
100
AcDbEntity
  8
ADP1DETAIL
100
AcDbCircle
 10
20.1016954863831
 20
5.080200231585239
 30
0.0
 40
0.5656129270197639
  0
LINE
  5
8E
330
18
100
AcDbEntity
  8
ADP2DETAIL
  6
HIDDEN2
100
AcDbLine
 10
20.59537796106615
 20
4.580438994938988
 30
0.0
 11
19.60801301170006
 21
4.580438994938988
 31
0.0
  0
LINE
  5
8F
330
18
100
AcDbEntity
  8
ADP2DETAIL
  6
HIDDEN2
100
AcDbLine
 10
20.59468224195281
 20
5.580438994938988
 30
0.0
 11
19.60870873081339
 21
5.580438994938988
 31
0.0
  0
TEXT
  5
9D
330
18
100
AcDbEntity
  8
ADPDIM
100
AcDbText
 10
13.57596646182649
 20
0.0824455437545084
 30
0.0
 40
0.125
  1
J U L I U S  B L U M  &  C O . ,  I N C .      ( 8 0 0 )  5 2 6 - 6 2 9 3        W W W . J U L I U S B L U M . C O M        P A R T  N o .  3 1 3 3
 41
1.25
  7
ARIAL_WIDE
 72
     1
 11
20.1016954863831
 21
0.2074455437545084
 31
0.0
100
AcDbText
 73
     3
  0
ENDSEC
  0
SECTION
  2
OBJECTS
  0
DICTIONARY
  5
C
330
0
100
AcDbDictionary
  3
ACAD_GROUP
350
D
  3
ACAD_LAYOUT
350
96
  3
ACAD_MLINESTYLE
350
E
  3
ACAD_PLOTSETTINGS
350
97
  3
ACAD_PLOTSTYLENAME
350
94
  3
ACDBHEADERROUNDTRIPXREC
350
1E1
  3
ACDBVARIABLEDICTIONARY
350
F7
  0
DICTIONARY
  5
F1
330
18
100
AcDbDictionary
280
     1
  3
ACAD_LAYOUTSELFREF
360
202
  0
DICTIONARY
  5
EF
330
15
100
AcDbDictionary
280
     1
  3
ACAD_LAYOUTSELFREF
360
201
  0
DICTIONARY
  5
D
102
{ACAD_REACTORS
330
C
102
}
330
C
100
AcDbDictionary
  0
DICTIONARY
  5
96
102
{ACAD_REACTORS
330
C
102
}
330
C
100
AcDbDictionary
  0
DICTIONARY
  5
E
102
{ACAD_REACTORS
330
C
102
}
330
C
100
AcDbDictionary
  3
STANDARD
350
1B
  0
DICTIONARY
  5
97
102
{ACAD_REACTORS
330
C
102
}
330
C
100
AcDbDictionary
  0
ACDBDICTIONARYWDFLT
  5
94
102
{ACAD_REACTORS
330
C
102
}
330
C
100
AcDbDictionary
281
     1
  3
Normal
350
95
100
AcDbDictionaryWithDefault
340
95
  0
DICTIONARY
  5
1E1
102
{ACAD_REACTORS
330
C
102
}
330
C
100
AcDbDictionary
  3
CEPSNTYPE
350
1EB
  3
FINGERPRINTGUID
350
1EC
  3
HYPERLINKBASE
350
1E4
  3
INSUNITS
350
1EA
  3
LAYOUTDICT
350
1E6
  3
LWETCUNION
350
1E9
  3
PLOTSETDICT
350
1E7
  3
PLOTSTYLNAMDICT
350
1E8
  3
PSVPSCALE
350
1EE
  3
PUCSBASE
350
1F1
  3
PUCSORGBACK
350
1F7
  3
PUCSORGBOTTOM
350
1F3
  3
PUCSORGFRONT
350
1F6
  3
PUCSORGLEFT
350
1F4
  3
PUCSORGRIGHT
350
1F5
  3
PUCSORGTOP
350
1F2
  3
PUCSORTHOREF
350
1EF
  3
PUCSORTHOVIEW
350
1F0
  3
STYLESHEET
350
1E5
  3
TSTACKALIGN
350
1E2
  3
TSTACKSIZE
350
1E3
  3
UCSBASE
350
1FA
  3
UCSORGBACK
350
200
  3
UCSORGBOTTOM
350
1FC
  3
UCSORGFRONT
350
1FF
  3
UCSORGLEFT
350
1FD
  3
UCSORGRIGHT
350
1FE
  3
UCSORGTOP
350
1FB
  3
UCSORTHOREF
350
1F8
  3
UCSORTHOVIEW
350
1F9
  3
VERSIONGUID
350
1ED
  0
DICTIONARY
  5
F7
102
{ACAD_REACTORS
330
C
102
}
330
C
100
AcDbDictionary
  3
DIMASSOC
350
F8
  0
XRECORD
  5
202
102
{ACAD_REACTORS
330
F1
102
}
330
F1
100
AcDbXrecord
340
18
  0
XRECORD
  5
201
102
{ACAD_REACTORS
330
EF
102
}
330
EF
100
AcDbXrecord
340
15
  0
MLINESTYLE
  5
1B
102
{ACAD_REACTORS
330
E
102
}
330
E
100
AcDbMlineStyle
  2
STANDARD
 70
     0
  3

 62
     0
 51
90.0
 52
90.0
 71
     2
 49
0.5
 62
   256
  6
BYLAYER
 49
-0.5
 62
   256
  6
BYLAYER
  0
ACDBPLACEHOLDER
  5
95
102
{ACAD_REACTORS
330
94
102
}
330
94
100
AcDbPlaceHolder
280
     0
  0
XRECORD
  5
1EB
102
{ACAD_REACTORS
330
1E1
102
}
330
1E1
100
AcDbXrecord
 90
        0
  0
XRECORD
  5
1EC
102
{ACAD_REACTORS
330
1E1
102
}
330
1E1
100
AcDbXrecord
  1
{0FA57B3D-D9E5-4D6A-93CD-4040C7483512}
  0
XRECORD
  5
1E4
102
{ACAD_REACTORS
330
1E1
102
}
330
1E1
100
AcDbXrecord
  1

  0
XRECORD
  5
1EA
102
{ACAD_REACTORS
330
1E1
102
}
330
1E1
100
AcDbXrecord
 90
        0
  0
XRECORD
  5
1E6
102
{ACAD_REACTORS
330
1E1
102
}
330
1E1
100
AcDbXrecord
340
96
  0
XRECORD
  5
1E9
102
{ACAD_REACTORS
330
1E1
102
}
330
1E1
100
AcDbXrecord
 90
    14877
  0
XRECORD
  5
1E7
102
{ACAD_REACTORS
330
1E1
102
}
330
1E1
100
AcDbXrecord
340
97
  0
XRECORD
  5
1E8
102
{ACAD_REACTORS
330
1E1
102
}
330
1E1
100
AcDbXrecord
340
94
  0
XRECORD
  5
1EE
102
{ACAD_REACTORS
330
1E1
102
}
330
1E1
100
AcDbXrecord
 40
0.0
  0
XRECORD
  5
1F1
102
{ACAD_REACTORS
330
1E1
102
}
330
1E1
100
AcDbXrecord
340
0
  0
XRECORD
  5
1F7
102
{ACAD_REACTORS
330
1E1
102
}
330
1E1
100
AcDbXrecord
 10
0.0
 20
0.0
 30
0.0
  0
XRECORD
  5
1F3
102
{ACAD_REACTORS
330
1E1
102
}
330
1E1
100
AcDbXrecord
 10
0.0
 20
0.0
 30
0.0
  0
XRECORD
  5
1F6
102
{ACAD_REACTORS
330
1E1
102
}
330
1E1
100
AcDbXrecord
 10
0.0
 20
0.0
 30
0.0
  0
XRECORD
  5
1F4
102
{ACAD_REACTORS
330
1E1
102
}
330
1E1
100
AcDbXrecord
 10
0.0
 20
0.0
 30
0.0
  0
XRECORD
  5
1F5
102
{ACAD_REACTORS
330
1E1
102
}
330
1E1
100
AcDbXrecord
 10
0.0
 20
0.0
 30
0.0
  0
XRECORD
  5
1F2
102
{ACAD_REACTORS
330
1E1
102
}
330
1E1
100
AcDbXrecord
 10
0.0
 20
0.0
 30
0.0
  0
XRECORD
  5
1EF
102
{ACAD_REACTORS
330
1E1
102
}
330
1E1
100
AcDbXrecord
340
0
  0
XRECORD
  5
1F0
102
{ACAD_REACTORS
330
1E1
102
}
330
1E1
100
AcDbXrecord
 70
     0
  0
XRECORD
  5
1E5
102
{ACAD_REACTORS
330
1E1
102
}
330
1E1
100
AcDbXrecord
  1

  0
XRECORD
  5
1E2
102
{ACAD_REACTORS
330
1E1
102
}
330
1E1
100
AcDbXrecord
 90
        1
  0
XRECORD
  5
1E3
102
{ACAD_REACTORS
330
1E1
102
}
330
1E1
100
AcDbXrecord
 90
       70
  0
XRECORD
  5
1FA
102
{ACAD_REACTORS
330
1E1
102
}
330
1E1
100
AcDbXrecord
340
0
  0
XRECORD
  5
200
102
{ACAD_REACTORS
330
1E1
102
}
330
1E1
100
AcDbXrecord
 10
0.0
 20
0.0
 30
0.0
  0
XRECORD
  5
1FC
102
{ACAD_REACTORS
330
1E1
102
}
330
1E1
100
AcDbXrecord
 10
0.0
 20
0.0
 30
0.0
  0
XRECORD
  5
1FF
102
{ACAD_REACTORS
330
1E1
102
}
330
1E1
100
AcDbXrecord
 10
0.0
 20
0.0
 30
0.0
  0
XRECORD
  5
1FD
102
{ACAD_REACTORS
330
1E1
102
}
330
1E1
100
AcDbXrecord
 10
0.0
 20
0.0
 30
0.0
  0
XRECORD
  5
1FE
102
{ACAD_REACTORS
330
1E1
102
}
330
1E1
100
AcDbXrecord
 10
0.0
 20
0.0
 30
0.0
  0
XRECORD
  5
1FB
102
{ACAD_REACTORS
330
1E1
102
}
330
1E1
100
AcDbXrecord
 10
0.0
 20
0.0
 30
0.0
  0
XRECORD
  5
1F8
102
{ACAD_REACTORS
330
1E1
102
}
330
1E1
100
AcDbXrecord
340
0
  0
XRECORD
  5
1F9
102
{ACAD_REACTORS
330
1E1
102
}
330
1E1
100
AcDbXrecord
 70
     0
  0
XRECORD
  5
1ED
102
{ACAD_REACTORS
330
1E1
102
}
330
1E1
100
AcDbXrecord
  1
{6C88B14F-3708-484E-9D8F-38A053BA813E}
  0
DICTIONARYVAR
  5
F8
102
{ACAD_REACTORS
330
F7
102
}
330
F7
100
DictionaryVariables
280
     0
  1
1
  0
ENDSEC
  0
EOF
