  0
SECTION
  2
HEADER
  9
$ACADVER
  1
AC1014
  9
$ACADMAINTVER
 70
     9
  9
$DWGCODEPAGE
  3
ANSI_1252
  9
$INSBASE
 10
42.00350460801211
 20
-4.798689757920266
 30
0.0
  9
$EXTMIN
 10
39.3943574289304
 20
-6.105703499970523
 30
0.0
  9
$EXTMAX
 10
52.26377250396451
 20
-1.087795937010616
 30
0.0
  9
$LIMMIN
 10
0.0
 20
0.0
  9
$LIMMAX
 10
36.0
 20
36.0
  9
$ORTHOMODE
 70
     1
  9
$REGENMODE
 70
     1
  9
$FILLMODE
 70
     1
  9
$QTEXTMODE
 70
     0
  9
$MIRRTEXT
 70
     1
  9
$DRAGMODE
 70
     0
  9
$LTSCALE
 40
1.0
  9
$OSMODE
 70
    37
  9
$ATTMODE
 70
     1
  9
$TEXTSIZE
 40
0.2
  9
$TRACEWID
 40
0.05
  9
$TEXTSTYLE
  7
STANDARD
  9
$CLAYER
  8
ADP1DETAIL
  9
$CELTYPE
  6
BYLAYER
  9
$CECOLOR
 62
   256
  9
$CELTSCALE
 40
1.0
  9
$DELOBJ
 70
     1
  9
$DISPSILH
 70
     0
  9
$DIMSCALE
 40
1.0
  9
$DIMASZ
 40
0.125
  9
$DIMEXO
 40
0.0625
  9
$DIMDLI
 40
0.38
  9
$DIMRND
 40
0.0
  9
$DIMDLE
 40
0.0
  9
$DIMEXE
 40
0.18
  9
$DIMTP
 40
0.0
  9
$DIMTM
 40
0.0
  9
$DIMTXT
 40
0.125
  9
$DIMCEN
 40
0.1875
  9
$DIMTSZ
 40
0.125
  9
$DIMTOL
 70
     0
  9
$DIMLIM
 70
     0
  9
$DIMTIH
 70
     0
  9
$DIMTOH
 70
     0
  9
$DIMSE1
 70
     0
  9
$DIMSE2
 70
     0
  9
$DIMTAD
 70
     0
  9
$DIMZIN
 70
     3
  9
$DIMBLK
  1

  9
$DIMASO
 70
     1
  9
$DIMSHO
 70
     1
  9
$DIMPOST
  1

  9
$DIMAPOST
  1

  9
$DIMALT
 70
     0
  9
$DIMALTD
 70
     1
  9
$DIMALTF
 40
25.4
  9
$DIMLFAC
 40
1.0
  9
$DIMTOFL
 70
     0
  9
$DIMTVP
 40
0.0
  9
$DIMTIX
 70
     0
  9
$DIMSOXD
 70
     0
  9
$DIMSAH
 70
     0
  9
$DIMBLK1
  1

  9
$DIMBLK2
  1

  9
$DIMSTYLE
  2
STANDARD
  9
$DIMCLRD
 70
     0
  9
$DIMCLRE
 70
     0
  9
$DIMCLRT
 70
     0
  9
$DIMTFAC
 40
1.0
  9
$DIMGAP
 40
0.125
  9
$DIMJUST
 70
     0
  9
$DIMSD1
 70
     0
  9
$DIMSD2
 70
     0
  9
$DIMTOLJ
 70
     1
  9
$DIMTZIN
 70
     0
  9
$DIMALTZ
 70
     0
  9
$DIMALTTZ
 70
     0
  9
$DIMFIT
 70
     3
  9
$DIMUPT
 70
     0
  9
$DIMUNIT
 70
     2
  9
$DIMDEC
 70
     4
  9
$DIMTDEC
 70
     4
  9
$DIMALTU
 70
     2
  9
$DIMALTTD
 70
     2
  9
$DIMTXSTY
  7
STANDARD
  9
$DIMAUNIT
 70
     0
  9
$LUNITS
 70
     5
  9
$LUPREC
 70
     4
  9
$SKETCHINC
 40
0.1
  9
$FILLETRAD
 40
0.062
  9
$AUNITS
 70
     0
  9
$AUPREC
 70
     0
  9
$MENU
  1
acad
  9
$ELEVATION
 40
0.0
  9
$PELEVATION
 40
0.0
  9
$THICKNESS
 40
0.0
  9
$LIMCHECK
 70
     0
  9
$BLIPMODE
 70
     0
  9
$CHAMFERA
 40
0.0
  9
$CHAMFERB
 40
0.0
  9
$CHAMFERC
 40
0.0
  9
$CHAMFERD
 40
0.0
  9
$SKPOLY
 70
     0
  9
$TDCREATE
 40
2450382.698877893
  9
$TDUPDATE
 40
2452297.067449722
  9
$TDINDWG
 40
0.0155040509
  9
$TDUSRTIMER
 40
0.0155040509
  9
$USRTIMER
 70
     1
  9
$ANGBASE
 50
0.0
  9
$ANGDIR
 70
     0
  9
$PDMODE
 70
     0
  9
$PDSIZE
 40
0.0
  9
$PLINEWID
 40
0.0
  9
$COORDS
 70
     2
  9
$SPLFRAME
 70
     0
  9
$SPLINETYPE
 70
     6
  9
$SPLINESEGS
 70
     8
  9
$ATTDIA
 70
     0
  9
$ATTREQ
 70
     1
  9
$HANDLING
 70
 22529
  9
$HANDSEED
  5
39E
  9
$SURFTAB1
 70
     6
  9
$SURFTAB2
 70
     6
  9
$SURFTYPE
 70
     6
  9
$SURFU
 70
     6
  9
$SURFV
 70
     6
  9
$UCSNAME
  2

  9
$UCSORG
 10
0.0
 20
0.0
 30
0.0
  9
$UCSXDIR
 10
1.0
 20
0.0
 30
0.0
  9
$UCSYDIR
 10
0.0
 20
1.0
 30
0.0
  9
$PUCSNAME
  2

  9
$PUCSORG
 10
0.0
 20
0.0
 30
0.0
  9
$PUCSXDIR
 10
1.0
 20
0.0
 30
0.0
  9
$PUCSYDIR
 10
0.0
 20
1.0
 30
0.0
  9
$USERI1
 70
     0
  9
$USERI2
 70
     0
  9
$USERI3
 70
     0
  9
$USERI4
 70
     0
  9
$USERI5
 70
     0
  9
$USERR1
 40
0.0
  9
$USERR2
 40
0.0
  9
$USERR3
 40
0.0
  9
$USERR4
 40
0.0
  9
$USERR5
 40
0.0
  9
$WORLDVIEW
 70
     1
  9
$SHADEDGE
 70
     3
  9
$SHADEDIF
 70
    70
  9
$TILEMODE
 70
     1
  9
$MAXACTVP
 70
    15
  9
$PINSBASE
 10
0.0
 20
0.0
 30
0.0
  9
$PLIMCHECK
 70
     0
  9
$PEXTMIN
 10
1.000000000000000E+20
 20
1.000000000000000E+20
 30
1.000000000000000E+20
  9
$PEXTMAX
 10
-1.000000000000000E+20
 20
-1.000000000000000E+20
 30
-1.000000000000000E+20
  9
$PLIMMIN
 10
0.0
 20
0.0
  9
$PLIMMAX
 10
12.0
 20
9.0
  9
$UNITMODE
 70
     0
  9
$VISRETAIN
 70
     0
  9
$PLINEGEN
 70
     0
  9
$PSLTSCALE
 70
     1
  9
$TREEDEPTH
 70
  3020
  9
$PICKSTYLE
 70
     1
  9
$CMLSTYLE
  2
STANDARD
  9
$CMLJUST
 70
     0
  9
$CMLSCALE
 40
1.0
  9
$PROXYGRAPHICS
 70
     1
  9
$MEASUREMENT
 70
     0
  0
ENDSEC
  0
SECTION
  2
CLASSES
  0
CLASS
  1
ACDBDICTIONARYWDFLT
  2
AcDbDictionaryWithDefault
  3
AutoCAD 2000
 90
        0
280
     0
281
     0
  0
CLASS
  1
ACDBPLACEHOLDER
  2
AcDbPlaceHolder
  3
AutoCAD 2000
 90
        0
280
     0
281
     0
  0
CLASS
  1
LAYOUT
  2
AcDbLayout
  3
AutoCAD 2000
 90
        0
280
     0
281
     0
  0
CLASS
  1
DICTIONARYVAR
  2
AcDbDictionaryVar
  3
AutoCAD 2000
 90
        0
280
     0
281
     0
  0
CLASS
  1
LONG_TRANSACTION
  2
AcDbLongTransaction
  3
AutoCAD 2000
 90
        0
280
     0
281
     0
  0
CLASS
  1
LWPOLYLINE
  2
AcDbPolyline
  3
AutoCAD 2000
 90
        0
280
     0
281
     1
  0
CLASS
  1
HATCH
  2
AcDbHatch
  3
AutoCAD 2000
 90
        0
280
     0
281
     1
  0
CLASS
  1
XRECORD
  2
AcDbXrecord
  3
AutoCAD 2000
 90
        0
280
     0
281
     0
  0
CLASS
  1
LONG_TRANSACTION
  2
AcDbLongTransaction
  3
AutoCAD 2000
 90
        0
280
     0
281
     0
  0
CLASS
  1
LWPOLYLINE
  2
AcDbPolyline
  3
AutoCAD 2000
 90
        0
280
     0
281
     1
  0
CLASS
  1
HATCH
  2
AcDbHatch
  3
AutoCAD 2000
 90
        0
280
     0
281
     1
  0
CLASS
  1
XRECORD
  2
AcDbXrecord
  3
AutoCAD 2000
 90
        0
280
     0
281
     0
  0
CLASS
  1
LONG_TRANSACTION
  2
AcDbLongTransaction
  3
AutoCAD 2000
 90
        0
280
     0
281
     0
  0
CLASS
  1
LWPOLYLINE
  2
AcDbPolyline
  3
AutoCAD 2000
 90
        0
280
     0
281
     1
  0
CLASS
  1
HATCH
  2
AcDbHatch
  3
AutoCAD 2000
 90
        0
280
     0
281
     1
  0
CLASS
  1
XRECORD
  2
AcDbXrecord
  3
AutoCAD 2000
 90
        0
280
     0
281
     0
  0
CLASS
  1
LONG_TRANSACTION
  2
AcDbLongTransaction
  3
AutoCAD 2000
 90
        0
280
     0
281
     0
  0
CLASS
  1
LWPOLYLINE
  2
AcDbPolyline
  3
AutoCAD 2000
 90
        0
280
     0
281
     1
  0
CLASS
  1
HATCH
  2
AcDbHatch
  3
AutoCAD 2000
 90
        0
280
     0
281
     1
  0
CLASS
  1
XRECORD
  2
AcDbXrecord
  3
AutoCAD 2000
 90
        0
280
     0
281
     0
  0
CLASS
  1
LONG_TRANSACTION
  2
AcDbLongTransaction
  3
AutoCAD 2000
 90
        0
280
     0
281
     0
  0
CLASS
  1
LWPOLYLINE
  2
AcDbPolyline
  3
AutoCAD 2000
 90
        0
280
     0
281
     1
  0
CLASS
  1
HATCH
  2
AcDbHatch
  3
AutoCAD 2000
 90
        0
280
     0
281
     1
  0
CLASS
  1
XRECORD
  2
AcDbXrecord
  3
AutoCAD 2000
 90
        0
280
     0
281
     0
  0
CLASS
  1
LONG_TRANSACTION
  2
AcDbLongTransaction
  3
AutoCAD 2000
 90
        0
280
     0
281
     0
  0
CLASS
  1
LWPOLYLINE
  2
AcDbPolyline
  3
AutoCAD 2000
 90
        0
280
     0
281
     1
  0
CLASS
  1
HATCH
  2
AcDbHatch
  3
AutoCAD 2000
 90
        0
280
     0
281
     1
  0
CLASS
  1
XRECORD
  2
AcDbXrecord
  3
AutoCAD 2000
 90
        0
280
     0
281
     0
  0
CLASS
  1
LONG_TRANSACTION
  2
AcDbLongTransaction
  3
AutoCAD 2000
 90
        0
280
     0
281
     0
  0
CLASS
  1
LWPOLYLINE
  2
AcDbPolyline
  3
AutoCAD 2000
 90
        0
280
     0
281
     1
  0
CLASS
  1
HATCH
  2
AcDbHatch
  3
AutoCAD 2000
 90
        0
280
     0
281
     1
  0
CLASS
  1
XRECORD
  2
AcDbXrecord
  3
AutoCAD 2000
 90
        0
280
     0
281
     0
  0
CLASS
  1
LONG_TRANSACTION
  2
AcDbLongTransaction
  3
AutoCAD 2000
 90
        0
280
     0
281
     0
  0
CLASS
  1
LWPOLYLINE
  2
AcDbPolyline
  3
AutoCAD 2000
 90
        0
280
     0
281
     1
  0
CLASS
  1
HATCH
  2
AcDbHatch
  3
AutoCAD 2000
 90
        0
280
     0
281
     1
  0
CLASS
  1
XRECORD
  2
AcDbXrecord
  3
AutoCAD 2000
 90
        0
280
     0
281
     0
  0
CLASS
  1
LONG_TRANSACTION
  2
AcDbLongTransaction
  3
AutoCAD 2000
 90
        0
280
     0
281
     0
  0
CLASS
  1
LWPOLYLINE
  2
AcDbPolyline
  3
AutoCAD 2000
 90
        0
280
     0
281
     1
  0
CLASS
  1
HATCH
  2
AcDbHatch
  3
AutoCAD 2000
 90
        0
280
     0
281
     1
  0
CLASS
  1
XRECORD
  2
AcDbXrecord
  3
AutoCAD 2000
 90
        0
280
     0
281
     0
  0
ENDSEC
  0
SECTION
  2
TABLES
  0
TABLE
  2
VPORT
  5
8
330
0
100
AcDbSymbolTable
 70
     2
  0
VPORT
  5
37B
330
8
100
AcDbSymbolTableRecord
100
AcDbViewportTableRecord
  2
*ACTIVE
 70
     0
 10
0.0
 20
0.0
 11
1.0
 21
1.0
 12
45.82838426239469
 22
-3.596718810461021
 13
0.0
 23
0.0
 14
0.5740882589684922
 24
0.5740882589684922
 15
0.5
 25
0.5
 16
0.0
 26
0.0
 36
1.0
 17
0.0
 27
0.0
 37
0.0
 40
8.236317121580571
 41
1.570528967254408
 42
50.0
 43
0.0
 44
0.0
 50
0.0
 51
0.0
 71
     0
 72
   100
 73
     1
 74
     0
 75
     0
 76
     0
 77
     0
 78
     0
  0
ENDTAB
  0
TABLE
  2
LTYPE
  5
5
330
0
100
AcDbSymbolTable
 70
     2
  0
LTYPE
  5
12
330
5
100
AcDbSymbolTableRecord
100
AcDbLinetypeTableRecord
  2
BYBLOCK
 70
     0
  3

 72
    65
 73
     0
 40
0.0
  0
LTYPE
  5
13
330
5
100
AcDbSymbolTableRecord
100
AcDbLinetypeTableRecord
  2
BYLAYER
 70
     0
  3

 72
    65
 73
     0
 40
0.0
  0
LTYPE
  5
14
330
5
100
AcDbSymbolTableRecord
100
AcDbLinetypeTableRecord
  2
CONTINUOUS
 70
     0
  3
Solid line
 72
    65
 73
     0
 40
0.0
  0
LTYPE
  5
D8
330
5
100
AcDbSymbolTableRecord
100
AcDbLinetypeTableRecord
  2
HIDDEN2
 70
     0
  3
_ _ _ _ _ _ _ _ _ _ _ _ _ _ _ _ _ _ _ _ _ _ _ _
 72
    65
 73
     2
 40
0.1875
 49
0.125
 74
     0
 49
-0.0625
 74
     0
  0
ENDTAB
  0
TABLE
  2
LAYER
  5
2
330
0
100
AcDbSymbolTable
 70
     5
  0
LAYER
  5
F
330
2
100
AcDbSymbolTableRecord
100
AcDbLayerTableRecord
  2
0
 70
     0
 62
     7
  6
CONTINUOUS
  0
LAYER
  5
DC
330
2
100
AcDbSymbolTableRecord
100
AcDbLayerTableRecord
  2
ADP1DETAIL
 70
     0
 62
     7
  6
CONTINUOUS
  0
LAYER
  5
DE
330
2
100
AcDbSymbolTableRecord
100
AcDbLayerTableRecord
  2
DEFPOINTS
 70
     0
 62
     7
  6
CONTINUOUS
  0
LAYER
  5
DF
330
2
100
AcDbSymbolTableRecord
100
AcDbLayerTableRecord
  2
ADPDIM
 70
     0
 62
     3
  6
CONTINUOUS
  0
LAYER
  5
E1
330
2
100
AcDbSymbolTableRecord
100
AcDbLayerTableRecord
  2
ADP2DETAIL
 70
     0
 62
     5
  6
CONTINUOUS
  0
ENDTAB
  0
TABLE
  2
STYLE
  5
3
330
0
100
AcDbSymbolTable
 70
     2
  0
STYLE
  5
10
330
3
100
AcDbSymbolTableRecord
100
AcDbTextStyleTableRecord
  2
STANDARD
 70
     0
 40
0.0
 41
1.0
 50
0.0
 71
     0
 42
0.2
  3
txt
  4

  0
STYLE
  5
17B
330
3
100
AcDbSymbolTableRecord
100
AcDbTextStyleTableRecord
  2
ARIAL_WIDE
 70
     0
 40
0.0
 41
1.25
 50
0.0
 71
     0
 42
0.2
  3
ARIAL.TTF
  4

1001
ACAD
1000
Arial
1071
       34
  0
ENDTAB
  0
TABLE
  2
VIEW
  5
6
330
0
100
AcDbSymbolTable
 70
     0
  0
ENDTAB
  0
TABLE
  2
UCS
  5
7
330
0
100
AcDbSymbolTable
 70
     0
  0
ENDTAB
  0
TABLE
  2
APPID
  5
9
330
0
100
AcDbSymbolTable
 70
     1
  0
APPID
  5
11
330
9
100
AcDbSymbolTableRecord
100
AcDbRegAppTableRecord
  2
ACAD
 70
     0
  0
ENDTAB
  0
TABLE
  2
DIMSTYLE
  5
A
330
0
100
AcDbSymbolTable
 70
     1
  0
DIMSTYLE
105
16F
330
A
100
AcDbSymbolTableRecord
100
AcDbDimStyleTableRecord
  2
STANDARD
 70
     0
  3

  4

  5

  6

  7

 40
1.0
 41
0.18
 42
0.0625
 43
0.38
 44
0.18
 45
0.0
 46
0.0
 47
0.0
 48
0.0
140
0.18
141
0.09
142
0.0
143
25.4
144
1.0
145
0.0
146
1.0
147
0.09
 71
     0
 72
     0
 73
     1
 74
     1
 75
     0
 76
     0
 77
     0
 78
     0
170
     0
171
     2
172
     0
173
     0
174
     0
175
     0
176
     0
177
     0
178
     0
270
     2
271
     4
272
     4
273
     2
274
     2
340
10
275
     0
280
     0
281
     0
282
     0
283
     1
284
     0
285
     0
286
     0
287
     3
288
     0
  0
ENDTAB
  0
TABLE
  2
BLOCK_RECORD
  5
1
330
0
100
AcDbSymbolTable
 70
     5
  0
BLOCK_RECORD
  5
18
102
{ACAD_XDICTIONARY
360
1D0
102
}
330
1
100
AcDbSymbolTableRecord
100
AcDbBlockTableRecord
  2
*MODEL_SPACE
  0
BLOCK_RECORD
  5
15
102
{ACAD_XDICTIONARY
360
1CE
102
}
330
1
100
AcDbSymbolTableRecord
100
AcDbBlockTableRecord
  2
*PAPER_SPACE
  0
BLOCK_RECORD
  5
D2
330
1
100
AcDbSymbolTableRecord
100
AcDbBlockTableRecord
  2
*D0
  0
BLOCK_RECORD
  5
D3
330
1
100
AcDbSymbolTableRecord
100
AcDbBlockTableRecord
  2
*D1
  0
BLOCK_RECORD
  5
D4
330
1
100
AcDbSymbolTableRecord
100
AcDbBlockTableRecord
  2
*D2
  0
BLOCK_RECORD
  5
D5
330
1
100
AcDbSymbolTableRecord
100
AcDbBlockTableRecord
  2
*D3
  0
BLOCK_RECORD
  5
D6
330
1
100
AcDbSymbolTableRecord
100
AcDbBlockTableRecord
  2
*D4
  0
ENDTAB
  0
ENDSEC
  0
SECTION
  2
BLOCKS
  0
BLOCK
  5
E4
330
18
100
AcDbEntity
  8
0
100
AcDbBlockBegin
  2
*MODEL_SPACE
 70
     0
 10
0.0
 20
0.0
 30
0.0
  3
*MODEL_SPACE
  1

  0
ENDBLK
  5
E5
330
18
100
AcDbEntity
  8
0
100
AcDbBlockEnd
  0
BLOCK
  5
E2
330
15
100
AcDbEntity
 67
     1
  8
0
100
AcDbBlockBegin
  2
*PAPER_SPACE
 70
     0
 10
0.0
 20
0.0
 30
0.0
  3
*PAPER_SPACE
  1

  0
ENDBLK
  5
E3
330
15
100
AcDbEntity
 67
     1
  8
0
100
AcDbBlockEnd
  0
BLOCK
  5
E7
330
D2
100
AcDbEntity
  8
0
100
AcDbBlockBegin
  2
*D0
 70
     1
 10
0.0
 20
0.0
 30
0.0
  3
*D0
  1

  0
LINE
  5
E8
330
D2
100
AcDbEntity
  8
0
  6
BYBLOCK
 62
     0
100
AcDbLine
 10
42.00350460801211
 20
-1.736189757920266
 30
0.0
 11
42.00350460801211
 21
-1.306189757920266
 31
0.0
  0
LINE
  5
E9
330
D2
100
AcDbEntity
  8
0
  6
BYBLOCK
 62
     0
100
AcDbLine
 10
45.00350460801211
 20
-1.736189757920266
 30
0.0
 11
45.00350460801211
 21
-1.306189757920266
 31
0.0
  0
LINE
  5
EA
330
D2
100
AcDbEntity
  8
0
  6
BYBLOCK
 62
     0
100
AcDbLine
 10
42.00350460801211
 20
-1.486189757920266
 30
0.0
 11
43.33683794134545
 21
-1.486189757920266
 31
0.0
  0
LINE
  5
EB
330
D2
100
AcDbEntity
  8
0
  6
BYBLOCK
 62
     0
100
AcDbLine
 10
45.00350460801211
 20
-1.486189757920266
 30
0.0
 11
43.67017127467877
 21
-1.486189757920266
 31
0.0
  0
LINE
  5
EC
330
D2
100
AcDbEntity
  8
0
  6
BYBLOCK
 62
     0
100
AcDbLine
 10
41.87850460801211
 20
-1.611189757920266
 30
0.0
 11
42.12850460801211
 21
-1.361189757920266
 31
0.0
  0
LINE
  5
ED
330
D2
100
AcDbEntity
  8
0
  6
BYBLOCK
 62
     0
100
AcDbLine
 10
44.87850460801211
 20
-1.611189757920266
 30
0.0
 11
45.12850460801211
 21
-1.361189757920266
 31
0.0
  0
TEXT
  5
EE
330
D2
100
AcDbEntity
  8
0
  6
BYBLOCK
 62
     0
100
AcDbText
 10
43.46183794134545
 20
-1.548689757920266
 30
0.0
 40
0.125
  1
3
 72
     1
 11
43.50350460801212
 21
-1.486189757920266
 31
0.0
100
AcDbText
 73
     2
  0
POINT
  5
EF
330
D2
100
AcDbEntity
  8
DEFPOINTS
  6
BYBLOCK
 62
     0
100
AcDbPoint
 10
42.00350460801211
 20
-1.798689757920266
 30
0.0
  0
POINT
  5
F0
330
D2
100
AcDbEntity
  8
DEFPOINTS
  6
BYBLOCK
 62
     0
100
AcDbPoint
 10
45.00350460801211
 20
-1.798689757920266
 30
0.0
  0
POINT
  5
F1
330
D2
100
AcDbEntity
  8
DEFPOINTS
  6
BYBLOCK
 62
     0
100
AcDbPoint
 10
45.00350460801211
 20
-1.486189757920266
 30
0.0
  0
ENDBLK
  5
F2
330
D2
100
AcDbEntity
  8
0
100
AcDbBlockEnd
  0
BLOCK
  5
F3
330
D3
100
AcDbEntity
  8
0
100
AcDbBlockBegin
  2
*D1
 70
     1
 10
0.0
 20
0.0
 30
0.0
  3
*D1
  1

  0
LINE
  5
F4
330
D3
100
AcDbEntity
  8
0
  6
BYBLOCK
 62
     0
100
AcDbLine
 10
46.72020123971397
 20
-1.929576087962264
 30
0.0
 11
46.72020123971397
 21
-1.368787639332925
 31
0.0
  0
LINE
  5
F5
330
D3
100
AcDbEntity
  8
0
  6
BYBLOCK
 62
     0
100
AcDbLine
 10
48.90720123971397
 20
-1.929576087962264
 30
0.0
 11
48.90720123971397
 21
-1.368787639332925
 31
0.0
  0
LINE
  5
F6
330
D3
100
AcDbEntity
  8
0
  6
BYBLOCK
 62
     0
100
AcDbLine
 10
46.72020123971397
 20
-1.548787639332925
 30
0.0
 11
47.35536790638064
 21
-1.548787639332925
 31
0.0
  0
LINE
  5
F7
330
D3
100
AcDbEntity
  8
0
  6
BYBLOCK
 62
     0
100
AcDbLine
 10
48.90720123971397
 20
-1.548787639332925
 30
0.0
 11
48.2720345730473
 21
-1.548787639332925
 31
0.0
  0
LINE
  5
F8
330
D3
100
AcDbEntity
  8
0
  6
BYBLOCK
 62
     0
100
AcDbLine
 10
46.59520123971397
 20
-1.673787639332925
 30
0.0
 11
46.84520123971397
 21
-1.423787639332925
 31
0.0
  0
LINE
  5
F9
330
D3
100
AcDbEntity
  8
0
  6
BYBLOCK
 62
     0
100
AcDbLine
 10
48.78220123971397
 20
-1.673787639332925
 30
0.0
 11
49.03220123971397
 21
-1.423787639332925
 31
0.0
  0
TEXT
  5
FA
330
D3
100
AcDbEntity
  8
0
  6
BYBLOCK
 62
     0
100
AcDbText
 10
47.48036790638063
 20
-1.611287639332925
 30
0.0
 40
0.125
  1
2 3/16
 72
     1
 11
47.81370123971397
 21
-1.548787639332925
 31
0.0
100
AcDbText
 73
     2
  0
POINT
  5
FB
330
D3
100
AcDbEntity
  8
DEFPOINTS
  6
BYBLOCK
 62
     0
100
AcDbPoint
 10
46.72020123971397
 20
-1.992076087962264
 30
0.0
  0
POINT
  5
FC
330
D3
100
AcDbEntity
  8
DEFPOINTS
  6
BYBLOCK
 62
     0
100
AcDbPoint
 10
48.90720123971397
 20
-1.992076087962264
 30
0.0
  0
POINT
  5
FD
330
D3
100
AcDbEntity
  8
DEFPOINTS
  6
BYBLOCK
 62
     0
100
AcDbPoint
 10
48.90720123971397
 20
-1.548787639332925
 30
0.0
  0
ENDBLK
  5
FE
330
D3
100
AcDbEntity
  8
0
100
AcDbBlockEnd
  0
BLOCK
  5
FF
330
D4
100
AcDbEntity
  8
0
100
AcDbBlockBegin
  2
*D2
 70
     1
 10
0.0
 20
0.0
 30
0.0
  3
*D2
  1

  0
LINE
  5
100
330
D4
100
AcDbEntity
  8
0
  6
BYBLOCK
 62
     0
100
AcDbLine
 10
46.31370123971397
 20
-1.986189757920266
 30
0.0
 11
46.31370123971397
 21
-1.087795937010616
 31
0.0
  0
LINE
  5
101
330
D4
100
AcDbEntity
  8
0
  6
BYBLOCK
 62
     0
100
AcDbLine
 10
49.31370123971397
 20
-1.986189757920266
 30
0.0
 11
49.31370123971397
 21
-1.087795937010616
 31
0.0
  0
LINE
  5
102
330
D4
100
AcDbEntity
  8
0
  6
BYBLOCK
 62
     0
100
AcDbLine
 10
46.31370123971397
 20
-1.267795937010616
 30
0.0
 11
47.6470345730473
 21
-1.267795937010616
 31
0.0
  0
LINE
  5
103
330
D4
100
AcDbEntity
  8
0
  6
BYBLOCK
 62
     0
100
AcDbLine
 10
49.31370123971397
 20
-1.267795937010616
 30
0.0
 11
47.98036790638064
 21
-1.267795937010616
 31
0.0
  0
LINE
  5
104
330
D4
100
AcDbEntity
  8
0
  6
BYBLOCK
 62
     0
100
AcDbLine
 10
46.18870123971396
 20
-1.392795937010616
 30
0.0
 11
46.43870123971397
 21
-1.142795937010616
 31
0.0
  0
LINE
  5
105
330
D4
100
AcDbEntity
  8
0
  6
BYBLOCK
 62
     0
100
AcDbLine
 10
49.18870123971397
 20
-1.392795937010616
 30
0.0
 11
49.43870123971397
 21
-1.142795937010616
 31
0.0
  0
TEXT
  5
106
330
D4
100
AcDbEntity
  8
0
  6
BYBLOCK
 62
     0
100
AcDbText
 10
47.77203457304731
 20
-1.330295937010616
 30
0.0
 40
0.125
  1
3
 72
     1
 11
47.81370123971397
 21
-1.267795937010616
 31
0.0
100
AcDbText
 73
     2
  0
POINT
  5
107
330
D4
100
AcDbEntity
  8
DEFPOINTS
  6
BYBLOCK
 62
     0
100
AcDbPoint
 10
46.31370123971397
 20
-2.048689757920266
 30
0.0
  0
POINT
  5
108
330
D4
100
AcDbEntity
  8
DEFPOINTS
  6
BYBLOCK
 62
     0
100
AcDbPoint
 10
49.31370123971397
 20
-2.048689757920266
 30
0.0
  0
POINT
  5
109
330
D4
100
AcDbEntity
  8
DEFPOINTS
  6
BYBLOCK
 62
     0
100
AcDbPoint
 10
49.31370123971397
 20
-1.267795937010616
 30
0.0
  0
ENDBLK
  5
10A
330
D4
100
AcDbEntity
  8
0
100
AcDbBlockEnd
  0
BLOCK
  5
10B
330
D5
100
AcDbEntity
  8
0
100
AcDbBlockBegin
  2
*D3
 70
     1
 10
0.0
 20
0.0
 30
0.0
  3
*D3
  1

  0
LINE
  5
10C
330
D5
100
AcDbEntity
  8
0
  6
BYBLOCK
 62
     0
100
AcDbLine
 10
46.81843970330286
 20
-4.420943951113843
 30
0.0
 11
46.65256278056766
 21
-4.607986316646106
 31
0.0
  0
LINE
  5
10D
330
D5
100
AcDbEntity
  8
0
  6
BYBLOCK
 62
     0
100
AcDbLine
 10
46.82902242470139
 20
-4.597403595247567
 30
0.0
 11
46.80785698190431
 21
-4.244484306980117
 31
0.0
  0
LINE
  5
10E
330
D5
100
AcDbEntity
  8
0
  6
BYBLOCK
 62
     0
100
AcDbLine
 10
47.62620123971397
 20
-3.298689757920264
 30
0.0
 11
48.00120123971398
 21
-3.298689757920264
 31
0.0
  0
LINE
  5
10F
330
D5
100
AcDbEntity
  8
0
  6
BYBLOCK
 62
     0
100
AcDbLine
 10
47.81370123971398
 20
-3.486189757920264
 30
0.0
 11
47.81370123971398
 21
-3.111189757920264
 31
0.0
  0
TEXT
  5
110
330
D5
100
AcDbEntity
  8
0
  6
BYBLOCK
 62
     0
100
AcDbText
 10
46.47815414163715
 20
-4.898845368039586
 30
0.0
 40
0.125
  1
%%c3
 50
48.4320588866187
 72
     1
 11
46.50050893472708
 21
-4.779441818384014
 31
0.0
100
AcDbText
 73
     2
  0
POINT
  5
111
330
D5
100
AcDbEntity
  8
DEFPOINTS
  6
BYBLOCK
 62
     0
100
AcDbPoint
 10
46.81843970330286
 20
-4.420943951113843
 30
0.0
  0
POINT
  5
112
330
D5
100
AcDbEntity
  8
DEFPOINTS
  6
BYBLOCK
 62
     0
100
AcDbPoint
 10
48.8089627761251
 20
-2.176435564726686
 30
0.0
  0
ENDBLK
  5
113
330
D5
100
AcDbEntity
  8
0
100
AcDbBlockEnd
  0
BLOCK
  5
114
330
D6
100
AcDbEntity
  8
0
100
AcDbBlockBegin
  2
*D4
 70
     1
 10
0.0
 20
0.0
 30
0.0
  3
*D4
  1

  0
LINE
  5
115
330
D6
100
AcDbEntity
  8
0
  6
BYBLOCK
 62
     0
100
AcDbLine
 10
45.50350460801211
 20
-3.298689757920266
 30
0.0
 11
46.05850460801211
 21
-3.298689757920266
 31
0.0
  0
LINE
  5
116
330
D6
100
AcDbEntity
  8
0
  6
BYBLOCK
 62
     0
100
AcDbLine
 10
45.50350460801211
 20
-2.048689757920266
 30
0.0
 11
46.05850460801211
 21
-2.048689757920266
 31
0.0
  0
LINE
  5
117
330
D6
100
AcDbEntity
  8
0
  6
BYBLOCK
 62
     0
100
AcDbLine
 10
45.87850460801211
 20
-3.298689757920266
 30
0.0
 11
45.87850460801211
 21
-3.048689757920266
 31
0.0
  0
LINE
  5
118
330
D6
100
AcDbEntity
  8
0
  6
BYBLOCK
 62
     0
100
AcDbLine
 10
45.87850460801211
 20
-2.048689757920266
 30
0.0
 11
45.87850460801211
 21
-2.298689757920266
 31
0.0
  0
LINE
  5
119
330
D6
100
AcDbEntity
  8
0
  6
BYBLOCK
 62
     0
100
AcDbLine
 10
46.00350460801212
 20
-3.423689757920266
 30
0.0
 11
45.75350460801211
 21
-3.173689757920266
 31
0.0
  0
LINE
  5
11A
330
D6
100
AcDbEntity
  8
0
  6
BYBLOCK
 62
     0
100
AcDbLine
 10
46.00350460801212
 20
-2.173689757920266
 30
0.0
 11
45.75350460801211
 21
-1.923689757920266
 31
0.0
  0
TEXT
  5
11B
330
D6
100
AcDbEntity
  8
0
  6
BYBLOCK
 62
     0
100
AcDbText
 10
45.94100460801211
 20
-2.923689757920266
 30
0.0
 40
0.125
  1
1 1/4
 50
90.0
 72
     1
 11
45.87850460801211
 21
-2.673689757920266
 31
0.0
100
AcDbText
 73
     2
  0
POINT
  5
11C
330
D6
100
AcDbEntity
  8
DEFPOINTS
  6
BYBLOCK
 62
     0
100
AcDbPoint
 10
45.44100460801211
 20
-3.298689757920266
 30
0.0
  0
POINT
  5
11D
330
D6
100
AcDbEntity
  8
DEFPOINTS
  6
BYBLOCK
 62
     0
100
AcDbPoint
 10
45.44100460801211
 20
-2.048689757920266
 30
0.0
  0
POINT
  5
11E
330
D6
100
AcDbEntity
  8
DEFPOINTS
  6
BYBLOCK
 62
     0
100
AcDbPoint
 10
45.87850460801211
 20
-2.048689757920266
 30
0.0
  0
ENDBLK
  5
11F
330
D6
100
AcDbEntity
  8
0
100
AcDbBlockEnd
  0
ENDSEC
  0
SECTION
  2
ENTITIES
  0
ARC
  5
120
330
18
100
AcDbEntity
  8
ADP1DETAIL
100
AcDbCircle
 10
43.696932154768
 20
-5.023139283680437
 30
0.0
 40
1.432542018356796
100
AcDbArc
 50
58.73091208353777
 51
121.2690879164622
  0
ARC
  5
121
330
18
100
AcDbEntity
  8
ADP1DETAIL
100
AcDbCircle
 10
43.69350320358357
 20
-1.601658557456206
 30
0.0
 40
1.410990713329696
100
AcDbArc
 50
238.0339787004003
 51
301.9660212995997
  0
DIMENSION
  5
122
330
18
100
AcDbEntity
  8
ADPDIM
100
AcDbDimension
  2
*D0
 10
45.00350460801211
 20
-1.486189757920266
 30
0.0
 11
43.50350460801212
 21
-1.486189757920266
 31
0.0
100
AcDbAlignedDimension
 13
42.00350460801211
 23
-1.798689757920266
 33
0.0
 14
45.00350460801211
 24
-1.798689757920266
 34
0.0
100
AcDbRotatedDimension
  0
LINE
  5
123
330
18
100
AcDbEntity
  8
ADP1DETAIL
100
AcDbLine
 10
42.25350460801212
 20
-2.476890792283546
 30
0.0
 11
42.25350460801212
 21
-4.736689757920267
 31
0.0
  0
LINE
  5
124
330
18
100
AcDbEntity
  8
ADP1DETAIL
100
AcDbLine
 10
42.00350460801211
 20
-4.798689757920266
 30
0.0
 11
42.00350460801211
 21
-1.798689757920266
 31
0.0
  0
LINE
  5
125
330
18
100
AcDbEntity
  8
ADP1DETAIL
100
AcDbLine
 10
42.29065384030289
 20
-2.533692547047481
 30
0.0
 11
42.75350460801211
 21
-2.736189757920266
 31
0.0
  0
LINE
  5
126
330
18
100
AcDbEntity
  8
ADP1DETAIL
100
AcDbLine
 10
42.94150460801211
 20
-2.798689757920266
 30
0.0
 11
42.94150460801211
 21
-3.798689757920266
 31
0.0
  0
LINE
  5
127
330
18
100
AcDbEntity
  8
ADP1DETAIL
100
AcDbLine
 10
42.75350460801211
 20
-3.798689757920266
 30
0.0
 11
42.75350460801211
 21
-2.798689757920266
 31
0.0
  0
LINE
  5
128
330
18
100
AcDbEntity
  8
ADP1DETAIL
100
AcDbLine
 10
42.75350460801211
 20
-2.736189757920266
 30
0.0
 11
42.75350460801211
 21
-3.861189757920266
 31
0.0
  0
LINE
  5
129
330
18
100
AcDbEntity
  8
ADP1DETAIL
100
AcDbLine
 10
42.75350460801211
 20
-3.861189757920266
 30
0.0
 11
42.29065384030289
 21
-4.063686968793051
 31
0.0
  0
ARC
  5
12A
330
18
100
AcDbEntity
  8
ADP1DETAIL
100
AcDbCircle
 10
42.31550460801211
 20
-4.120488723556986
 30
0.0
 40
0.062
100
AcDbArc
 50
113.6293777306568
 51
180.0
  0
LINE
  5
12B
330
18
100
AcDbEntity
  8
ADP1DETAIL
100
AcDbLine
 10
42.19150460801211
 20
-4.798689757920266
 30
0.0
 11
42.00350460801211
 21
-4.798689757920266
 31
0.0
  0
ARC
  5
12C
330
18
100
AcDbEntity
  8
ADP1DETAIL
100
AcDbCircle
 10
42.19150460801211
 20
-4.736689757920267
 30
0.0
 40
0.062
100
AcDbArc
 50
270.0
 51
0.0
  0
LINE
  5
12D
330
18
100
AcDbEntity
  8
ADP1DETAIL
100
AcDbLine
 10
42.94150460801211
 20
-3.798689757920266
 30
0.0
 11
42.75350460801211
 21
-3.798689757920266
 31
0.0
  0
LINE
  5
12E
330
18
100
AcDbEntity
  8
ADP1DETAIL
100
AcDbLine
 10
42.75350460801211
 20
-2.798689757920266
 30
0.0
 11
42.94150460801211
 21
-2.798689757920266
 31
0.0
  0
LINE
  5
12F
330
18
100
AcDbEntity
  8
ADP1DETAIL
100
AcDbLine
 10
42.25350460801212
 20
-1.860689757920267
 30
0.0
 11
42.25350460801212
 21
-2.476890792283546
 31
0.0
  0
ARC
  5
130
330
18
100
AcDbEntity
  8
ADP1DETAIL
100
AcDbCircle
 10
42.31550460801211
 20
-2.476890792283546
 30
0.0
 40
0.062
100
AcDbArc
 50
180.0
 51
246.3706222693431
  0
LINE
  5
131
330
18
100
AcDbEntity
  8
ADP1DETAIL
100
AcDbLine
 10
42.00350460801211
 20
-1.798689757920266
 30
0.0
 11
42.19150460801211
 21
-1.798689757920266
 31
0.0
  0
ARC
  5
132
330
18
100
AcDbEntity
  8
ADP1DETAIL
100
AcDbCircle
 10
42.19150460801211
 20
-1.860689757920267
 30
0.0
 40
0.062
100
AcDbArc
 50
0.0
 51
90.0
  0
ARC
  5
133
330
18
100
AcDbEntity
  8
ADP1DETAIL
100
AcDbCircle
 10
47.81600460801211
 20
-3.298689757920266
 30
0.0
 40
1.5
100
AcDbArc
 50
135.0905722663077
 51
44.90942773369225
  0
LINE
  5
134
330
18
100
AcDbEntity
  8
ADP1DETAIL
100
AcDbLine
 10
45.37850460801212
 20
-2.119090514554041
 30
0.0
 11
45.37850460801212
 21
-3.798689757920266
 31
0.0
  0
LINE
  5
135
330
18
100
AcDbEntity
  8
ADP1DETAIL
100
AcDbLine
 10
44.62850460801211
 20
-3.798689757920266
 30
0.0
 11
44.62850460801211
 21
-2.119090514554041
 31
0.0
  0
LINE
  5
136
330
18
100
AcDbEntity
  8
ADP1DETAIL
100
AcDbLine
 10
47.50120123971397
 20
-2.908377383020365
 30
0.0
 11
47.50120123971397
 21
-1.94072346997472
 31
0.0
  0
LINE
  5
137
330
18
100
AcDbEntity
  8
ADP1DETAIL
100
AcDbLine
 10
47.31370123971397
 20
-3.366561225585966
 30
0.0
 11
47.31370123971397
 21
-2.364707585575217
 31
0.0
  0
LINE
  5
138
330
18
100
AcDbEntity
  8
ADP1DETAIL
100
AcDbLine
 10
47.50120123971397
 20
-1.995101881537161
 30
0.0
 11
47.50120123971397
 21
-2.908377383020365
 31
0.0
  0
LINE
  5
139
330
18
100
AcDbEntity
  8
ADP1DETAIL
100
AcDbLine
 10
48.12620123971397
 20
-1.94072346997472
 30
0.0
 11
48.12620123971397
 21
-2.908377383020367
 31
0.0
  0
LINE
  5
13A
330
18
100
AcDbEntity
  8
ADP1DETAIL
100
AcDbLine
 10
48.12620123971397
 20
-2.908377383020367
 30
0.0
 11
48.12620123971397
 21
-1.995101881537161
 31
0.0
  0
LINE
  5
13B
330
18
100
AcDbEntity
  8
ADP1DETAIL
100
AcDbLine
 10
48.31370123971397
 20
-2.364707585575215
 30
0.0
 11
48.31370123971397
 21
-3.366561225585966
 31
0.0
  0
DIMENSION
  5
13C
330
18
100
AcDbEntity
  8
ADPDIM
100
AcDbDimension
  2
*D4
 10
45.87850460801211
 20
-2.048689757920266
 30
0.0
 11
45.87850460801211
 21
-2.673689757920266
 31
0.0
100
AcDbAlignedDimension
 13
45.44100460801211
 23
-3.298689757920266
 33
0.0
 14
45.44100460801211
 24
-2.048689757920266
 34
0.0
 50
90.0
100
AcDbRotatedDimension
  0
DIMENSION
  5
13D
330
18
100
AcDbEntity
  8
ADPDIM
100
AcDbDimension
  2
*D3
 10
48.8089627761251
 20
-2.176435564726686
 30
0.0
 11
46.50050893472708
 21
-4.779441818384014
 31
0.0
 70
     3
100
AcDbDiametricDimension
 15
46.81843970330286
 25
-4.420943951113843
 35
0.0
 40
0.0
  0
LINE
  5
13E
330
18
100
AcDbEntity
  8
ADP1DETAIL
100
AcDbLine
 10
44.44050460801212
 20
-3.798689757920266
 30
0.0
 11
44.44050460801212
 21
-2.798689757920266
 31
0.0
  0
LINE
  5
13F
330
18
100
AcDbEntity
  8
ADP1DETAIL
100
AcDbLine
 10
45.43870123971397
 20
-3.798689757920266
 30
0.0
 11
45.43870123971397
 21
-2.798689757920266
 31
0.0
  0
LINE
  5
140
330
18
100
AcDbEntity
  8
ADP1DETAIL
100
AcDbLine
 10
45.56370123971397
 20
-3.673689757920266
 30
0.0
 11
45.43870123971397
 21
-3.798689757920266
 31
0.0
  0
LINE
  5
141
330
18
100
AcDbEntity
  8
ADP1DETAIL
100
AcDbLine
 10
45.37850460801212
 20
-3.798689757920266
 30
0.0
 11
44.62850460801211
 21
-3.798689757920266
 31
0.0
  0
LINE
  5
142
330
18
100
AcDbEntity
  8
ADP1DETAIL
100
AcDbLine
 10
44.62850460801211
 20
-3.798689757920266
 30
0.0
 11
44.44050460801212
 21
-3.798689757920266
 31
0.0
  0
LINE
  5
143
330
18
100
AcDbEntity
  8
ADP1DETAIL
100
AcDbLine
 10
45.43870123971397
 20
-3.798689757920266
 30
0.0
 11
45.37670123971397
 21
-3.798689757920266
 31
0.0
  0
LINE
  5
144
330
18
100
AcDbEntity
  8
ADP1DETAIL
100
AcDbLine
 10
44.44050460801212
 20
-2.798689757920266
 30
0.0
 11
44.62850460801211
 21
-2.798689757920266
 31
0.0
  0
LINE
  5
145
330
18
100
AcDbEntity
  8
ADP1DETAIL
100
AcDbLine
 10
45.56370123971397
 20
-2.923689757920266
 30
0.0
 11
45.56370123971397
 21
-3.673689757920266
 31
0.0
  0
LINE
  5
146
330
18
100
AcDbEntity
  8
ADP1DETAIL
100
AcDbLine
 10
45.37670123971397
 20
-2.798689757920266
 30
0.0
 11
45.43870123971397
 21
-2.798689757920266
 31
0.0
  0
LINE
  5
147
330
18
100
AcDbEntity
  8
ADP1DETAIL
100
AcDbLine
 10
45.43870123971397
 20
-2.798689757920266
 30
0.0
 11
45.56370123971397
 21
-2.923689757920266
 31
0.0
  0
CIRCLE
  5
148
330
18
100
AcDbEntity
  8
ADP1DETAIL
100
AcDbCircle
 10
47.81370123971397
 20
-3.298689757920266
 30
0.0
 40
0.5
  0
ARC
  5
149
330
18
100
AcDbEntity
  8
ADP1DETAIL
100
AcDbCircle
 10
47.81370123971397
 20
-3.298689757920266
 30
0.0
 40
0.5625
100
AcDbArc
 50
152.7339555492668
 51
27.26604445073279
  0
CIRCLE
  5
14A
330
18
100
AcDbEntity
  8
ADP1DETAIL
100
AcDbCircle
 10
47.81370123971397
 20
-3.298689757920266
 30
0.0
 40
0.375
  0
LWPOLYLINE
  5
14B
330
18
100
AcDbEntity
  8
ADP1DETAIL
100
AcDbPolyline
 90
        2
 70
     0
 43
0.0
 10
47.31750978804939
 20
-3.360285563743358
 10
47.31370123971397
 20
-3.366561225585966
  0
LINE
  5
14F
330
18
100
AcDbEntity
  8
ADP1DETAIL
100
AcDbLine
 10
48.31370123971397
 20
-3.366561225585966
 30
0.0
 11
48.30989269137855
 21
-3.360285563743358
 31
0.0
  0
LINE
  5
150
330
18
100
AcDbEntity
  8
ADP2DETAIL
  6
HIDDEN2
100
AcDbLine
 10
46.31370123971397
 20
-2.048689757920266
 30
0.0
 11
47.50120123971397
 21
-2.048689757920266
 31
0.0
  0
LINE
  5
151
330
18
100
AcDbEntity
  8
ADP1DETAIL
100
AcDbLine
 10
47.18870123971397
 20
-2.239707585575217
 30
0.0
 11
46.31370123971397
 21
-2.239707585575217
 31
0.0
  0
LINE
  5
152
330
18
100
AcDbEntity
  8
ADP1DETAIL
100
AcDbLine
 10
46.31370123971397
 20
-1.989707585575217
 30
0.0
 11
47.50120123971397
 21
-1.989707585575217
 31
0.0
  0
DIMENSION
  5
153
330
18
100
AcDbEntity
  8
ADPDIM
100
AcDbDimension
  2
*D2
 10
49.31370123971397
 20
-1.267795937010616
 30
0.0
 11
47.81370123971397
 21
-1.267795937010616
 31
0.0
100
AcDbAlignedDimension
 13
46.31370123971397
 23
-2.048689757920266
 33
0.0
 14
49.31370123971397
 24
-2.048689757920266
 34
0.0
100
AcDbRotatedDimension
  0
DIMENSION
  5
154
330
18
100
AcDbEntity
  8
ADPDIM
100
AcDbDimension
  2
*D1
 10
48.90720123971397
 20
-1.548787639332925
 30
0.0
 11
47.81370123971397
 21
-1.548787639332925
 31
0.0
100
AcDbAlignedDimension
 13
46.72020123971397
 23
-1.992076087962264
 33
0.0
 14
48.90720123971397
 24
-1.992076087962264
 34
0.0
100
AcDbRotatedDimension
  0
LINE
  5
155
330
18
100
AcDbEntity
  8
ADP1DETAIL
100
AcDbLine
 10
44.62850460801211
 20
-2.244090514554041
 30
0.0
 11
45.37850460801212
 21
-2.244090514554041
 31
0.0
  0
ARC
  5
156
330
18
100
AcDbEntity
  8
ADP1DETAIL
100
AcDbCircle
 10
45.00350460801211
 20
-1.221168145384952
 30
0.0
 40
0.8125
100
AcDbArc
 50
252.0708303273486
 51
287.9291696726513
  0
LINE
  5
157
330
18
100
AcDbEntity
  8
ADP2DETAIL
  6
HIDDEN2
100
AcDbLine
 10
44.90950460801211
 20
-2.028212289159071
 30
0.0
 11
44.90950460801211
 21
-2.183093915617215
 31
0.0
  0
LINE
  5
158
330
18
100
AcDbEntity
  8
ADP2DETAIL
  6
HIDDEN2
100
AcDbLine
 10
44.90950460801211
 20
-2.183093915617215
 30
0.0
 11
44.84750460801211
 21
-2.245093915617214
 31
0.0
  0
LINE
  5
159
330
18
100
AcDbEntity
  8
ADP1DETAIL
100
AcDbLine
 10
44.62850460801211
 20
-2.119090514554041
 30
0.0
 11
44.75350460801212
 21
-1.994090514554041
 31
0.0
  0
LINE
  5
15A
330
18
100
AcDbEntity
  8
ADP2DETAIL
  6
HIDDEN2
100
AcDbLine
 10
45.09750460801211
 20
-2.028212289159071
 30
0.0
 11
45.09750460801211
 21
-2.183093915617215
 31
0.0
  0
LINE
  5
15B
330
18
100
AcDbEntity
  8
ADP2DETAIL
  6
HIDDEN2
100
AcDbLine
 10
45.09750460801211
 20
-2.183093915617215
 30
0.0
 11
45.15950460801211
 21
-2.245093915617214
 31
0.0
  0
LINE
  5
15C
330
18
100
AcDbEntity
  8
ADP1DETAIL
100
AcDbLine
 10
45.25350460801211
 20
-1.994090514554041
 30
0.0
 11
45.37850460801212
 21
-2.119090514554041
 31
0.0
  0
LINE
  5
15D
330
18
100
AcDbEntity
  8
ADP2DETAIL
  6
HIDDEN2
100
AcDbLine
 10
46.56500359632798
 20
-2.023076087962263
 30
0.0
 11
46.56500359632798
 21
-2.148076087962263
 31
0.0
  0
LINE
  5
15E
330
18
100
AcDbEntity
  8
ADP2DETAIL
  6
HIDDEN2
100
AcDbLine
 10
46.75300359632799
 20
-2.023076087962263
 30
0.0
 11
46.75300359632799
 21
-2.148076087962263
 31
0.0
  0
LINE
  5
15F
330
18
100
AcDbEntity
  8
ADP2DETAIL
  6
HIDDEN2
100
AcDbLine
 10
46.75300359632799
 20
-2.148076087962263
 30
0.0
 11
46.81500359632798
 21
-2.210076087962263
 31
0.0
  0
LINE
  5
160
330
18
100
AcDbEntity
  8
ADP2DETAIL
  6
HIDDEN2
100
AcDbLine
 10
46.56500359632798
 20
-2.148076087962263
 30
0.0
 11
46.50300359632798
 21
-2.210076087962263
 31
0.0
  0
LINE
  5
161
330
18
100
AcDbEntity
  8
ADP1DETAIL
100
AcDbLine
 10
46.31370123971397
 20
-2.239707585575217
 30
0.0
 11
46.31370123971397
 21
-1.989707585575217
 31
0.0
  0
LINE
  5
162
330
18
100
AcDbEntity
  8
ADP2DETAIL
  6
HIDDEN2
100
AcDbLine
 10
48.12620123971397
 20
-2.048689757920266
 30
0.0
 11
49.31370123971397
 21
-2.048689757920266
 31
0.0
  0
ARC
  5
163
330
18
100
AcDbEntity
  8
ADP1DETAIL
100
AcDbCircle
 10
47.81370123971397
 20
-3.298689757920266
 30
0.0
 40
1.5
100
AcDbArc
 50
60.76862331869187
 51
119.2313766813081
  0
LINE
  5
164
330
18
100
AcDbEntity
  8
ADP1DETAIL
100
AcDbLine
 10
48.12620123971397
 20
-1.989707585575217
 30
0.0
 11
49.31370123971397
 21
-1.989707585575217
 31
0.0
  0
LINE
  5
165
330
18
100
AcDbEntity
  8
ADP2DETAIL
  6
HIDDEN2
100
AcDbLine
 10
47.50120123971397
 20
-2.006081647832738
 30
0.0
 11
48.12620123971397
 21
-2.006081647832738
 31
0.0
  0
LINE
  5
166
330
18
100
AcDbEntity
  8
ADP1DETAIL
100
AcDbLine
 10
47.50120123971397
 20
-1.94072346997472
 30
0.0
 11
48.12620123971397
 21
-1.94072346997472
 31
0.0
  0
ARC
  5
167
330
18
100
AcDbEntity
  8
ADP1DETAIL
100
AcDbCircle
 10
47.18870123971397
 20
-2.364707585575217
 30
0.0
 40
0.125
100
AcDbArc
 50
0.0
 51
90.0
  0
LINE
  5
168
330
18
100
AcDbEntity
  8
ADP1DETAIL
100
AcDbLine
 10
49.31370123971397
 20
-2.239707585575217
 30
0.0
 11
48.43870123971397
 21
-2.239707585575215
 31
0.0
  0
LINE
  5
169
330
18
100
AcDbEntity
  8
ADP2DETAIL
  6
HIDDEN2
100
AcDbLine
 10
48.78291402746996
 20
-2.023076087962263
 30
0.0
 11
48.78291402746996
 21
-2.148076087962263
 31
0.0
  0
LINE
  5
16A
330
18
100
AcDbEntity
  8
ADP2DETAIL
  6
HIDDEN2
100
AcDbLine
 10
48.78291402746996
 20
-2.148076087962263
 30
0.0
 11
48.72091402746996
 21
-2.210076087962263
 31
0.0
  0
ARC
  5
16B
330
18
100
AcDbEntity
  8
ADP1DETAIL
100
AcDbCircle
 10
48.43870123971397
 20
-2.364707585575215
 30
0.0
 40
0.125
100
AcDbArc
 50
89.99999999999991
 51
180.0
  0
LINE
  5
16C
330
18
100
AcDbEntity
  8
ADP2DETAIL
  6
HIDDEN2
100
AcDbLine
 10
48.97091402746997
 20
-2.023076087962263
 30
0.0
 11
48.97091402746997
 21
-2.148076087962263
 31
0.0
  0
LINE
  5
16D
330
18
100
AcDbEntity
  8
ADP2DETAIL
  6
HIDDEN2
100
AcDbLine
 10
48.97091402746997
 20
-2.148076087962263
 30
0.0
 11
49.03291402746996
 21
-2.210076087962263
 31
0.0
  0
LINE
  5
16E
330
18
100
AcDbEntity
  8
ADP1DETAIL
100
AcDbLine
 10
49.31370123971397
 20
-1.989707585575217
 30
0.0
 11
49.31370123971397
 21
-2.239707585575217
 31
0.0
  0
TEXT
  5
17C
330
18
100
AcDbEntity
  8
ADPDIM
100
AcDbText
 10
39.3943574289304
 20
-6.068698042944602
 30
0.0
 40
0.125
  1
J U L I U S  B L U M  &  C O . ,  I N C .      ( 8 0 0 )  5 2 6 - 6 2 9 3        W W W . J U L I U S B L U M . C O M        P A R T  N o .  3 0 8
 41
1.25
  7
ARIAL_WIDE
 72
     1
 11
45.82906496644746
 21
-5.943698042944602
 31
0.0
100
AcDbText
 73
     3
  0
ENDSEC
  0
SECTION
  2
OBJECTS
  0
DICTIONARY
  5
C
330
0
100
AcDbDictionary
  3
ACAD_GROUP
350
D
  3
ACAD_LAYOUT
350
175
  3
ACAD_MLINESTYLE
350
E
  3
ACAD_PLOTSETTINGS
350
176
  3
ACAD_PLOTSTYLENAME
350
173
  3
ACDBHEADERROUNDTRIPXREC
350
37C
  3
ACDBVARIABLEDICTIONARY
350
1D6
  0
DICTIONARY
  5
1D0
330
18
100
AcDbDictionary
280
     1
  3
ACAD_LAYOUTSELFREF
360
39D
  0
DICTIONARY
  5
1CE
330
15
100
AcDbDictionary
280
     1
  3
ACAD_LAYOUTSELFREF
360
39C
  0
DICTIONARY
  5
D
102
{ACAD_REACTORS
330
C
102
}
330
C
100
AcDbDictionary
  0
DICTIONARY
  5
175
102
{ACAD_REACTORS
330
C
102
}
330
C
100
AcDbDictionary
  0
DICTIONARY
  5
E
102
{ACAD_REACTORS
330
C
102
}
330
C
100
AcDbDictionary
  3
STANDARD
350
1B
  0
DICTIONARY
  5
176
102
{ACAD_REACTORS
330
C
102
}
330
C
100
AcDbDictionary
  0
ACDBDICTIONARYWDFLT
  5
173
102
{ACAD_REACTORS
330
C
102
}
330
C
100
AcDbDictionary
281
     1
  3
Normal
350
174
100
AcDbDictionaryWithDefault
340
174
  0
DICTIONARY
  5
37C
102
{ACAD_REACTORS
330
C
102
}
330
C
100
AcDbDictionary
  3
CEPSNTYPE
350
386
  3
FINGERPRINTGUID
350
387
  3
HYPERLINKBASE
350
37F
  3
INSUNITS
350
385
  3
LAYOUTDICT
350
381
  3
LWETCUNION
350
384
  3
PLOTSETDICT
350
382
  3
PLOTSTYLNAMDICT
350
383
  3
PSVPSCALE
350
389
  3
PUCSBASE
350
38C
  3
PUCSORGBACK
350
392
  3
PUCSORGBOTTOM
350
38E
  3
PUCSORGFRONT
350
391
  3
PUCSORGLEFT
350
38F
  3
PUCSORGRIGHT
350
390
  3
PUCSORGTOP
350
38D
  3
PUCSORTHOREF
350
38A
  3
PUCSORTHOVIEW
350
38B
  3
STYLESHEET
350
380
  3
TSTACKALIGN
350
37D
  3
TSTACKSIZE
350
37E
  3
UCSBASE
350
395
  3
UCSORGBACK
350
39B
  3
UCSORGBOTTOM
350
397
  3
UCSORGFRONT
350
39A
  3
UCSORGLEFT
350
398
  3
UCSORGRIGHT
350
399
  3
UCSORGTOP
350
396
  3
UCSORTHOREF
350
393
  3
UCSORTHOVIEW
350
394
  3
VERSIONGUID
350
388
  0
DICTIONARY
  5
1D6
102
{ACAD_REACTORS
330
C
102
}
330
C
100
AcDbDictionary
  3
DIMASSOC
350
1D7
  0
XRECORD
  5
39D
102
{ACAD_REACTORS
330
1D0
102
}
330
1D0
100
AcDbXrecord
340
18
  0
XRECORD
  5
39C
102
{ACAD_REACTORS
330
1CE
102
}
330
1CE
100
AcDbXrecord
340
15
  0
MLINESTYLE
  5
1B
102
{ACAD_REACTORS
330
E
102
}
330
E
100
AcDbMlineStyle
  2
STANDARD
 70
     0
  3

 62
     0
 51
90.0
 52
90.0
 71
     2
 49
0.5
 62
   256
  6
BYLAYER
 49
-0.5
 62
   256
  6
BYLAYER
  0
ACDBPLACEHOLDER
  5
174
102
{ACAD_REACTORS
330
173
102
}
330
173
100
AcDbPlaceHolder
280
     0
  0
XRECORD
  5
386
102
{ACAD_REACTORS
330
37C
102
}
330
37C
100
AcDbXrecord
 90
        0
  0
XRECORD
  5
387
102
{ACAD_REACTORS
330
37C
102
}
330
37C
100
AcDbXrecord
  1
{AA2D9985-75E8-48E6-887F-B34C7D0AF7D9}
  0
XRECORD
  5
37F
102
{ACAD_REACTORS
330
37C
102
}
330
37C
100
AcDbXrecord
  1

  0
XRECORD
  5
385
102
{ACAD_REACTORS
330
37C
102
}
330
37C
100
AcDbXrecord
 90
        0
  0
XRECORD
  5
381
102
{ACAD_REACTORS
330
37C
102
}
330
37C
100
AcDbXrecord
340
175
  0
XRECORD
  5
384
102
{ACAD_REACTORS
330
37C
102
}
330
37C
100
AcDbXrecord
 90
    14877
  0
XRECORD
  5
382
102
{ACAD_REACTORS
330
37C
102
}
330
37C
100
AcDbXrecord
340
176
  0
XRECORD
  5
383
102
{ACAD_REACTORS
330
37C
102
}
330
37C
100
AcDbXrecord
340
173
  0
XRECORD
  5
389
102
{ACAD_REACTORS
330
37C
102
}
330
37C
100
AcDbXrecord
 40
0.0
  0
XRECORD
  5
38C
102
{ACAD_REACTORS
330
37C
102
}
330
37C
100
AcDbXrecord
340
0
  0
XRECORD
  5
392
102
{ACAD_REACTORS
330
37C
102
}
330
37C
100
AcDbXrecord
 10
0.0
 20
0.0
 30
0.0
  0
XRECORD
  5
38E
102
{ACAD_REACTORS
330
37C
102
}
330
37C
100
AcDbXrecord
 10
0.0
 20
0.0
 30
0.0
  0
XRECORD
  5
391
102
{ACAD_REACTORS
330
37C
102
}
330
37C
100
AcDbXrecord
 10
0.0
 20
0.0
 30
0.0
  0
XRECORD
  5
38F
102
{ACAD_REACTORS
330
37C
102
}
330
37C
100
AcDbXrecord
 10
0.0
 20
0.0
 30
0.0
  0
XRECORD
  5
390
102
{ACAD_REACTORS
330
37C
102
}
330
37C
100
AcDbXrecord
 10
0.0
 20
0.0
 30
0.0
  0
XRECORD
  5
38D
102
{ACAD_REACTORS
330
37C
102
}
330
37C
100
AcDbXrecord
 10
0.0
 20
0.0
 30
0.0
  0
XRECORD
  5
38A
102
{ACAD_REACTORS
330
37C
102
}
330
37C
100
AcDbXrecord
340
0
  0
XRECORD
  5
38B
102
{ACAD_REACTORS
330
37C
102
}
330
37C
100
AcDbXrecord
 70
     0
  0
XRECORD
  5
380
102
{ACAD_REACTORS
330
37C
102
}
330
37C
100
AcDbXrecord
  1

  0
XRECORD
  5
37D
102
{ACAD_REACTORS
330
37C
102
}
330
37C
100
AcDbXrecord
 90
        1
  0
XRECORD
  5
37E
102
{ACAD_REACTORS
330
37C
102
}
330
37C
100
AcDbXrecord
 90
       70
  0
XRECORD
  5
395
102
{ACAD_REACTORS
330
37C
102
}
330
37C
100
AcDbXrecord
340
0
  0
XRECORD
  5
39B
102
{ACAD_REACTORS
330
37C
102
}
330
37C
100
AcDbXrecord
 10
0.0
 20
0.0
 30
0.0
  0
XRECORD
  5
397
102
{ACAD_REACTORS
330
37C
102
}
330
37C
100
AcDbXrecord
 10
0.0
 20
0.0
 30
0.0
  0
XRECORD
  5
39A
102
{ACAD_REACTORS
330
37C
102
}
330
37C
100
AcDbXrecord
 10
0.0
 20
0.0
 30
0.0
  0
XRECORD
  5
398
102
{ACAD_REACTORS
330
37C
102
}
330
37C
100
AcDbXrecord
 10
0.0
 20
0.0
 30
0.0
  0
XRECORD
  5
399
102
{ACAD_REACTORS
330
37C
102
}
330
37C
100
AcDbXrecord
 10
0.0
 20
0.0
 30
0.0
  0
XRECORD
  5
396
102
{ACAD_REACTORS
330
37C
102
}
330
37C
100
AcDbXrecord
 10
0.0
 20
0.0
 30
0.0
  0
XRECORD
  5
393
102
{ACAD_REACTORS
330
37C
102
}
330
37C
100
AcDbXrecord
340
0
  0
XRECORD
  5
394
102
{ACAD_REACTORS
330
37C
102
}
330
37C
100
AcDbXrecord
 70
     0
  0
XRECORD
  5
388
102
{ACAD_REACTORS
330
37C
102
}
330
37C
100
AcDbXrecord
  1
{2DF8D301-A531-42EA-AB75-F493E0DF97BE}
  0
DICTIONARYVAR
  5
1D7
102
{ACAD_REACTORS
330
1D6
102
}
330
1D6
100
DictionaryVariables
280
     0
  1
1
  0
ENDSEC
  0
EOF
