  0
SECTION
  2
HEADER
  9
$ACADVER
  1
AC1014
  9
$ACADMAINTVER
 70
     9
  9
$DWGCODEPAGE
  3
ANSI_1252
  9
$INSBASE
 10
53.9973572546048
 20
-4.798689757920266
 30
0.0
  9
$EXTMIN
 10
51.22343395384692
 20
-6.041202723727836
 30
0.0
  9
$EXTMAX
 10
64.09284902888103
 20
-1.091313764665566
 30
0.0
  9
$LIMMIN
 10
0.0
 20
0.0
  9
$LIMMAX
 10
36.0
 20
36.0
  9
$ORTHOMODE
 70
     1
  9
$REGENMODE
 70
     1
  9
$FILLMODE
 70
     1
  9
$QTEXTMODE
 70
     0
  9
$MIRRTEXT
 70
     1
  9
$DRAGMODE
 70
     0
  9
$LTSCALE
 40
1.0
  9
$OSMODE
 70
    37
  9
$ATTMODE
 70
     1
  9
$TEXTSIZE
 40
0.2
  9
$TRACEWID
 40
0.05
  9
$TEXTSTYLE
  7
STANDARD
  9
$CLAYER
  8
ADP1DETAIL
  9
$CELTYPE
  6
BYLAYER
  9
$CECOLOR
 62
   256
  9
$CELTSCALE
 40
1.0
  9
$DELOBJ
 70
     1
  9
$DISPSILH
 70
     0
  9
$DIMSCALE
 40
1.0
  9
$DIMASZ
 40
0.125
  9
$DIMEXO
 40
0.0625
  9
$DIMDLI
 40
0.38
  9
$DIMRND
 40
0.0
  9
$DIMDLE
 40
0.0
  9
$DIMEXE
 40
0.18
  9
$DIMTP
 40
0.0
  9
$DIMTM
 40
0.0
  9
$DIMTXT
 40
0.125
  9
$DIMCEN
 40
0.1875
  9
$DIMTSZ
 40
0.125
  9
$DIMTOL
 70
     0
  9
$DIMLIM
 70
     0
  9
$DIMTIH
 70
     0
  9
$DIMTOH
 70
     0
  9
$DIMSE1
 70
     0
  9
$DIMSE2
 70
     0
  9
$DIMTAD
 70
     0
  9
$DIMZIN
 70
     3
  9
$DIMBLK
  1

  9
$DIMASO
 70
     1
  9
$DIMSHO
 70
     1
  9
$DIMPOST
  1

  9
$DIMAPOST
  1

  9
$DIMALT
 70
     0
  9
$DIMALTD
 70
     1
  9
$DIMALTF
 40
25.4
  9
$DIMLFAC
 40
1.0
  9
$DIMTOFL
 70
     0
  9
$DIMTVP
 40
0.0
  9
$DIMTIX
 70
     0
  9
$DIMSOXD
 70
     0
  9
$DIMSAH
 70
     0
  9
$DIMBLK1
  1

  9
$DIMBLK2
  1

  9
$DIMSTYLE
  2
STANDARD
  9
$DIMCLRD
 70
     0
  9
$DIMCLRE
 70
     0
  9
$DIMCLRT
 70
     0
  9
$DIMTFAC
 40
1.0
  9
$DIMGAP
 40
0.125
  9
$DIMJUST
 70
     0
  9
$DIMSD1
 70
     0
  9
$DIMSD2
 70
     0
  9
$DIMTOLJ
 70
     1
  9
$DIMTZIN
 70
     0
  9
$DIMALTZ
 70
     0
  9
$DIMALTTZ
 70
     0
  9
$DIMFIT
 70
     3
  9
$DIMUPT
 70
     0
  9
$DIMUNIT
 70
     2
  9
$DIMDEC
 70
     4
  9
$DIMTDEC
 70
     4
  9
$DIMALTU
 70
     2
  9
$DIMALTTD
 70
     2
  9
$DIMTXSTY
  7
STANDARD
  9
$DIMAUNIT
 70
     0
  9
$LUNITS
 70
     5
  9
$LUPREC
 70
     4
  9
$SKETCHINC
 40
0.1
  9
$FILLETRAD
 40
0.062
  9
$AUNITS
 70
     0
  9
$AUPREC
 70
     0
  9
$MENU
  1
acad
  9
$ELEVATION
 40
0.0
  9
$PELEVATION
 40
0.0
  9
$THICKNESS
 40
0.0
  9
$LIMCHECK
 70
     0
  9
$BLIPMODE
 70
     0
  9
$CHAMFERA
 40
0.0
  9
$CHAMFERB
 40
0.0
  9
$CHAMFERC
 40
0.0
  9
$CHAMFERD
 40
0.0
  9
$SKPOLY
 70
     0
  9
$TDCREATE
 40
2450382.704668784
  9
$TDUPDATE
 40
2452297.067419340
  9
$TDINDWG
 40
0.0157785185
  9
$TDUSRTIMER
 40
0.0157785185
  9
$USRTIMER
 70
     1
  9
$ANGBASE
 50
0.0
  9
$ANGDIR
 70
     0
  9
$PDMODE
 70
     0
  9
$PDSIZE
 40
0.0
  9
$PLINEWID
 40
0.0
  9
$COORDS
 70
     2
  9
$SPLFRAME
 70
     0
  9
$SPLINETYPE
 70
     6
  9
$SPLINESEGS
 70
     8
  9
$ATTDIA
 70
     0
  9
$ATTREQ
 70
     1
  9
$HANDLING
 70
 22529
  9
$HANDSEED
  5
36E
  9
$SURFTAB1
 70
     6
  9
$SURFTAB2
 70
     6
  9
$SURFTYPE
 70
     6
  9
$SURFU
 70
     6
  9
$SURFV
 70
     6
  9
$UCSNAME
  2

  9
$UCSORG
 10
0.0
 20
0.0
 30
0.0
  9
$UCSXDIR
 10
1.0
 20
0.0
 30
0.0
  9
$UCSYDIR
 10
0.0
 20
1.0
 30
0.0
  9
$PUCSNAME
  2

  9
$PUCSORG
 10
0.0
 20
0.0
 30
0.0
  9
$PUCSXDIR
 10
1.0
 20
0.0
 30
0.0
  9
$PUCSYDIR
 10
0.0
 20
1.0
 30
0.0
  9
$USERI1
 70
     0
  9
$USERI2
 70
     0
  9
$USERI3
 70
     0
  9
$USERI4
 70
     0
  9
$USERI5
 70
     0
  9
$USERR1
 40
0.0
  9
$USERR2
 40
0.0
  9
$USERR3
 40
0.0
  9
$USERR4
 40
0.0
  9
$USERR5
 40
0.0
  9
$WORLDVIEW
 70
     1
  9
$SHADEDGE
 70
     3
  9
$SHADEDIF
 70
    70
  9
$TILEMODE
 70
     1
  9
$MAXACTVP
 70
    15
  9
$PINSBASE
 10
0.0
 20
0.0
 30
0.0
  9
$PLIMCHECK
 70
     0
  9
$PEXTMIN
 10
1.000000000000000E+20
 20
1.000000000000000E+20
 30
1.000000000000000E+20
  9
$PEXTMAX
 10
-1.000000000000000E+20
 20
-1.000000000000000E+20
 30
-1.000000000000000E+20
  9
$PLIMMIN
 10
0.0
 20
0.0
  9
$PLIMMAX
 10
12.0
 20
9.0
  9
$UNITMODE
 70
     0
  9
$VISRETAIN
 70
     0
  9
$PLINEGEN
 70
     0
  9
$PSLTSCALE
 70
     1
  9
$TREEDEPTH
 70
  3020
  9
$PICKSTYLE
 70
     1
  9
$CMLSTYLE
  2
STANDARD
  9
$CMLJUST
 70
     0
  9
$CMLSCALE
 40
1.0
  9
$PROXYGRAPHICS
 70
     1
  9
$MEASUREMENT
 70
     0
  0
ENDSEC
  0
SECTION
  2
CLASSES
  0
CLASS
  1
ACDBDICTIONARYWDFLT
  2
AcDbDictionaryWithDefault
  3
AutoCAD 2000
 90
        0
280
     0
281
     0
  0
CLASS
  1
ACDBPLACEHOLDER
  2
AcDbPlaceHolder
  3
AutoCAD 2000
 90
        0
280
     0
281
     0
  0
CLASS
  1
LAYOUT
  2
AcDbLayout
  3
AutoCAD 2000
 90
        0
280
     0
281
     0
  0
CLASS
  1
DICTIONARYVAR
  2
AcDbDictionaryVar
  3
AutoCAD 2000
 90
        0
280
     0
281
     0
  0
CLASS
  1
LONG_TRANSACTION
  2
AcDbLongTransaction
  3
AutoCAD 2000
 90
        0
280
     0
281
     0
  0
CLASS
  1
LWPOLYLINE
  2
AcDbPolyline
  3
AutoCAD 2000
 90
        0
280
     0
281
     1
  0
CLASS
  1
HATCH
  2
AcDbHatch
  3
AutoCAD 2000
 90
        0
280
     0
281
     1
  0
CLASS
  1
XRECORD
  2
AcDbXrecord
  3
AutoCAD 2000
 90
        0
280
     0
281
     0
  0
CLASS
  1
LONG_TRANSACTION
  2
AcDbLongTransaction
  3
AutoCAD 2000
 90
        0
280
     0
281
     0
  0
CLASS
  1
LWPOLYLINE
  2
AcDbPolyline
  3
AutoCAD 2000
 90
        0
280
     0
281
     1
  0
CLASS
  1
HATCH
  2
AcDbHatch
  3
AutoCAD 2000
 90
        0
280
     0
281
     1
  0
CLASS
  1
XRECORD
  2
AcDbXrecord
  3
AutoCAD 2000
 90
        0
280
     0
281
     0
  0
CLASS
  1
LONG_TRANSACTION
  2
AcDbLongTransaction
  3
AutoCAD 2000
 90
        0
280
     0
281
     0
  0
CLASS
  1
LWPOLYLINE
  2
AcDbPolyline
  3
AutoCAD 2000
 90
        0
280
     0
281
     1
  0
CLASS
  1
HATCH
  2
AcDbHatch
  3
AutoCAD 2000
 90
        0
280
     0
281
     1
  0
CLASS
  1
XRECORD
  2
AcDbXrecord
  3
AutoCAD 2000
 90
        0
280
     0
281
     0
  0
CLASS
  1
LONG_TRANSACTION
  2
AcDbLongTransaction
  3
AutoCAD 2000
 90
        0
280
     0
281
     0
  0
CLASS
  1
LWPOLYLINE
  2
AcDbPolyline
  3
AutoCAD 2000
 90
        0
280
     0
281
     1
  0
CLASS
  1
HATCH
  2
AcDbHatch
  3
AutoCAD 2000
 90
        0
280
     0
281
     1
  0
CLASS
  1
XRECORD
  2
AcDbXrecord
  3
AutoCAD 2000
 90
        0
280
     0
281
     0
  0
CLASS
  1
LONG_TRANSACTION
  2
AcDbLongTransaction
  3
AutoCAD 2000
 90
        0
280
     0
281
     0
  0
CLASS
  1
LWPOLYLINE
  2
AcDbPolyline
  3
AutoCAD 2000
 90
        0
280
     0
281
     1
  0
CLASS
  1
HATCH
  2
AcDbHatch
  3
AutoCAD 2000
 90
        0
280
     0
281
     1
  0
CLASS
  1
XRECORD
  2
AcDbXrecord
  3
AutoCAD 2000
 90
        0
280
     0
281
     0
  0
CLASS
  1
LONG_TRANSACTION
  2
AcDbLongTransaction
  3
AutoCAD 2000
 90
        0
280
     0
281
     0
  0
CLASS
  1
LWPOLYLINE
  2
AcDbPolyline
  3
AutoCAD 2000
 90
        0
280
     0
281
     1
  0
CLASS
  1
HATCH
  2
AcDbHatch
  3
AutoCAD 2000
 90
        0
280
     0
281
     1
  0
CLASS
  1
XRECORD
  2
AcDbXrecord
  3
AutoCAD 2000
 90
        0
280
     0
281
     0
  0
CLASS
  1
LONG_TRANSACTION
  2
AcDbLongTransaction
  3
AutoCAD 2000
 90
        0
280
     0
281
     0
  0
CLASS
  1
LWPOLYLINE
  2
AcDbPolyline
  3
AutoCAD 2000
 90
        0
280
     0
281
     1
  0
CLASS
  1
HATCH
  2
AcDbHatch
  3
AutoCAD 2000
 90
        0
280
     0
281
     1
  0
CLASS
  1
XRECORD
  2
AcDbXrecord
  3
AutoCAD 2000
 90
        0
280
     0
281
     0
  0
CLASS
  1
LONG_TRANSACTION
  2
AcDbLongTransaction
  3
AutoCAD 2000
 90
        0
280
     0
281
     0
  0
CLASS
  1
LWPOLYLINE
  2
AcDbPolyline
  3
AutoCAD 2000
 90
        0
280
     0
281
     1
  0
CLASS
  1
HATCH
  2
AcDbHatch
  3
AutoCAD 2000
 90
        0
280
     0
281
     1
  0
CLASS
  1
XRECORD
  2
AcDbXrecord
  3
AutoCAD 2000
 90
        0
280
     0
281
     0
  0
CLASS
  1
LONG_TRANSACTION
  2
AcDbLongTransaction
  3
AutoCAD 2000
 90
        0
280
     0
281
     0
  0
CLASS
  1
LWPOLYLINE
  2
AcDbPolyline
  3
AutoCAD 2000
 90
        0
280
     0
281
     1
  0
CLASS
  1
HATCH
  2
AcDbHatch
  3
AutoCAD 2000
 90
        0
280
     0
281
     1
  0
CLASS
  1
XRECORD
  2
AcDbXrecord
  3
AutoCAD 2000
 90
        0
280
     0
281
     0
  0
ENDSEC
  0
SECTION
  2
TABLES
  0
TABLE
  2
VPORT
  5
8
330
0
100
AcDbSymbolTable
 70
     2
  0
VPORT
  5
34B
330
8
100
AcDbSymbolTableRecord
100
AcDbViewportTableRecord
  2
*ACTIVE
 70
     0
 10
0.0
 20
0.0
 11
1.0
 21
1.0
 12
57.65759505993653
 22
-3.566163379852416
 13
0.0
 23
0.0
 14
0.5740882589684922
 24
0.5740882589684922
 15
0.5
 25
0.5
 16
0.0
 26
0.0
 36
1.0
 17
0.0
 27
0.0
 37
0.0
 40
8.23460079413549
 41
1.570528967254408
 42
50.0
 43
0.0
 44
0.0
 50
0.0
 51
0.0
 71
     0
 72
   100
 73
     1
 74
     0
 75
     0
 76
     0
 77
     0
 78
     0
  0
ENDTAB
  0
TABLE
  2
LTYPE
  5
5
330
0
100
AcDbSymbolTable
 70
     2
  0
LTYPE
  5
12
330
5
100
AcDbSymbolTableRecord
100
AcDbLinetypeTableRecord
  2
BYBLOCK
 70
     0
  3

 72
    65
 73
     0
 40
0.0
  0
LTYPE
  5
13
330
5
100
AcDbSymbolTableRecord
100
AcDbLinetypeTableRecord
  2
BYLAYER
 70
     0
  3

 72
    65
 73
     0
 40
0.0
  0
LTYPE
  5
14
330
5
100
AcDbSymbolTableRecord
100
AcDbLinetypeTableRecord
  2
CONTINUOUS
 70
     0
  3
Solid line
 72
    65
 73
     0
 40
0.0
  0
LTYPE
  5
D3
330
5
100
AcDbSymbolTableRecord
100
AcDbLinetypeTableRecord
  2
HIDDEN2
 70
     0
  3
_ _ _ _ _ _ _ _ _ _ _ _ _ _ _ _ _ _ _ _ _ _ _ _
 72
    65
 73
     2
 40
0.1875
 49
0.125
 74
     0
 49
-0.0625
 74
     0
  0
ENDTAB
  0
TABLE
  2
LAYER
  5
2
330
0
100
AcDbSymbolTable
 70
     5
  0
LAYER
  5
F
330
2
100
AcDbSymbolTableRecord
100
AcDbLayerTableRecord
  2
0
 70
     0
 62
     7
  6
CONTINUOUS
  0
LAYER
  5
D7
330
2
100
AcDbSymbolTableRecord
100
AcDbLayerTableRecord
  2
ADP1DETAIL
 70
     0
 62
     7
  6
CONTINUOUS
  0
LAYER
  5
D9
330
2
100
AcDbSymbolTableRecord
100
AcDbLayerTableRecord
  2
DEFPOINTS
 70
     0
 62
     7
  6
CONTINUOUS
  0
LAYER
  5
DA
330
2
100
AcDbSymbolTableRecord
100
AcDbLayerTableRecord
  2
ADPDIM
 70
     0
 62
     3
  6
CONTINUOUS
  0
LAYER
  5
DC
330
2
100
AcDbSymbolTableRecord
100
AcDbLayerTableRecord
  2
ADP2DETAIL
 70
     0
 62
     5
  6
CONTINUOUS
  0
ENDTAB
  0
TABLE
  2
STYLE
  5
3
330
0
100
AcDbSymbolTable
 70
     2
  0
STYLE
  5
10
330
3
100
AcDbSymbolTableRecord
100
AcDbTextStyleTableRecord
  2
STANDARD
 70
     0
 40
0.0
 41
1.0
 50
0.0
 71
     0
 42
0.2
  3
txt
  4

  0
STYLE
  5
176
330
3
100
AcDbSymbolTableRecord
100
AcDbTextStyleTableRecord
  2
ARIAL_WIDE
 70
     0
 40
0.0
 41
1.25
 50
0.0
 71
     0
 42
0.2
  3
ARIAL.TTF
  4

1001
ACAD
1000
Arial
1071
       34
  0
ENDTAB
  0
TABLE
  2
VIEW
  5
6
330
0
100
AcDbSymbolTable
 70
     0
  0
ENDTAB
  0
TABLE
  2
UCS
  5
7
330
0
100
AcDbSymbolTable
 70
     0
  0
ENDTAB
  0
TABLE
  2
APPID
  5
9
330
0
100
AcDbSymbolTable
 70
     1
  0
APPID
  5
11
330
9
100
AcDbSymbolTableRecord
100
AcDbRegAppTableRecord
  2
ACAD
 70
     0
  0
ENDTAB
  0
TABLE
  2
DIMSTYLE
  5
A
330
0
100
AcDbSymbolTable
 70
     1
  0
DIMSTYLE
105
16A
330
A
100
AcDbSymbolTableRecord
100
AcDbDimStyleTableRecord
  2
STANDARD
 70
     0
  3

  4

  5

  6

  7

 40
1.0
 41
0.18
 42
0.0625
 43
0.38
 44
0.18
 45
0.0
 46
0.0
 47
0.0
 48
0.0
140
0.18
141
0.09
142
0.0
143
25.4
144
1.0
145
0.0
146
1.0
147
0.09
 71
     0
 72
     0
 73
     1
 74
     1
 75
     0
 76
     0
 77
     0
 78
     0
170
     0
171
     2
172
     0
173
     0
174
     0
175
     0
176
     0
177
     0
178
     0
270
     2
271
     4
272
     4
273
     2
274
     2
340
10
275
     0
280
     0
281
     0
282
     0
283
     1
284
     0
285
     0
286
     0
287
     3
288
     0
  0
ENDTAB
  0
TABLE
  2
BLOCK_RECORD
  5
1
330
0
100
AcDbSymbolTable
 70
     5
  0
BLOCK_RECORD
  5
18
102
{ACAD_XDICTIONARY
360
1CB
102
}
330
1
100
AcDbSymbolTableRecord
100
AcDbBlockTableRecord
  2
*MODEL_SPACE
  0
BLOCK_RECORD
  5
15
102
{ACAD_XDICTIONARY
360
1C9
102
}
330
1
100
AcDbSymbolTableRecord
100
AcDbBlockTableRecord
  2
*PAPER_SPACE
  0
BLOCK_RECORD
  5
CD
330
1
100
AcDbSymbolTableRecord
100
AcDbBlockTableRecord
  2
*D0
  0
BLOCK_RECORD
  5
CE
330
1
100
AcDbSymbolTableRecord
100
AcDbBlockTableRecord
  2
*D1
  0
BLOCK_RECORD
  5
CF
330
1
100
AcDbSymbolTableRecord
100
AcDbBlockTableRecord
  2
*D2
  0
BLOCK_RECORD
  5
D0
330
1
100
AcDbSymbolTableRecord
100
AcDbBlockTableRecord
  2
*D3
  0
BLOCK_RECORD
  5
D1
330
1
100
AcDbSymbolTableRecord
100
AcDbBlockTableRecord
  2
*D4
  0
ENDTAB
  0
ENDSEC
  0
SECTION
  2
BLOCKS
  0
BLOCK
  5
DF
330
18
100
AcDbEntity
  8
0
100
AcDbBlockBegin
  2
*MODEL_SPACE
 70
     0
 10
0.0
 20
0.0
 30
0.0
  3
*MODEL_SPACE
  1

  0
ENDBLK
  5
E0
330
18
100
AcDbEntity
  8
0
100
AcDbBlockEnd
  0
BLOCK
  5
DD
330
15
100
AcDbEntity
 67
     1
  8
0
100
AcDbBlockBegin
  2
*PAPER_SPACE
 70
     0
 10
0.0
 20
0.0
 30
0.0
  3
*PAPER_SPACE
  1

  0
ENDBLK
  5
DE
330
15
100
AcDbEntity
 67
     1
  8
0
100
AcDbBlockEnd
  0
BLOCK
  5
E2
330
CD
100
AcDbEntity
  8
0
100
AcDbBlockBegin
  2
*D0
 70
     1
 10
0.0
 20
0.0
 30
0.0
  3
*D0
  1

  0
LINE
  5
E3
330
CD
100
AcDbEntity
  8
0
  6
BYBLOCK
 62
     0
100
AcDbLine
 10
53.9973572546048
 20
-1.736189757920266
 30
0.0
 11
53.9973572546048
 21
-1.368689757920266
 31
0.0
  0
LINE
  5
E4
330
CD
100
AcDbEntity
  8
0
  6
BYBLOCK
 62
     0
100
AcDbLine
 10
56.4973572546048
 20
-1.736189757920266
 30
0.0
 11
56.4973572546048
 21
-1.368689757920266
 31
0.0
  0
LINE
  5
E5
330
CD
100
AcDbEntity
  8
0
  6
BYBLOCK
 62
     0
100
AcDbLine
 10
53.9973572546048
 20
-1.548689757920266
 30
0.0
 11
54.85152392127147
 21
-1.548689757920266
 31
0.0
  0
LINE
  5
E6
330
CD
100
AcDbEntity
  8
0
  6
BYBLOCK
 62
     0
100
AcDbLine
 10
56.4973572546048
 20
-1.548689757920266
 30
0.0
 11
55.64319058793813
 21
-1.548689757920266
 31
0.0
  0
LINE
  5
E7
330
CD
100
AcDbEntity
  8
0
  6
BYBLOCK
 62
     0
100
AcDbLine
 10
53.8723572546048
 20
-1.673689757920266
 30
0.0
 11
54.1223572546048
 21
-1.423689757920266
 31
0.0
  0
LINE
  5
E8
330
CD
100
AcDbEntity
  8
0
  6
BYBLOCK
 62
     0
100
AcDbLine
 10
56.3723572546048
 20
-1.673689757920266
 30
0.0
 11
56.6223572546048
 21
-1.423689757920266
 31
0.0
  0
TEXT
  5
E9
330
CD
100
AcDbEntity
  8
0
  6
BYBLOCK
 62
     0
100
AcDbText
 10
54.97652392127147
 20
-1.611189757920266
 30
0.0
 40
0.125
  1
2 1/2
 72
     1
 11
55.2473572546048
 21
-1.548689757920266
 31
0.0
100
AcDbText
 73
     2
  0
POINT
  5
EA
330
CD
100
AcDbEntity
  8
DEFPOINTS
  6
BYBLOCK
 62
     0
100
AcDbPoint
 10
53.9973572546048
 20
-1.798689757920266
 30
0.0
  0
POINT
  5
EB
330
CD
100
AcDbEntity
  8
DEFPOINTS
  6
BYBLOCK
 62
     0
100
AcDbPoint
 10
56.4973572546048
 20
-1.798689757920266
 30
0.0
  0
POINT
  5
EC
330
CD
100
AcDbEntity
  8
DEFPOINTS
  6
BYBLOCK
 62
     0
100
AcDbPoint
 10
56.4973572546048
 20
-1.548689757920266
 30
0.0
  0
ENDBLK
  5
ED
330
CD
100
AcDbEntity
  8
0
100
AcDbBlockEnd
  0
BLOCK
  5
EE
330
CE
100
AcDbEntity
  8
0
100
AcDbBlockBegin
  2
*D1
 70
     1
 10
0.0
 20
0.0
 30
0.0
  3
*D1
  1

  0
LINE
  5
EF
330
CE
100
AcDbEntity
  8
0
  6
BYBLOCK
 62
     0
100
AcDbLine
 10
58.81229234989555
 20
-4.420943951113843
 30
0.0
 11
58.64641542716036
 21
-4.607986316646106
 31
0.0
  0
LINE
  5
F0
330
CE
100
AcDbEntity
  8
0
  6
BYBLOCK
 62
     0
100
AcDbLine
 10
58.82287507129409
 20
-4.597403595247568
 30
0.0
 11
58.80170962849701
 21
-4.244484306980118
 31
0.0
  0
LINE
  5
F1
330
CE
100
AcDbEntity
  8
0
  6
BYBLOCK
 62
     0
100
AcDbLine
 10
59.62005388630668
 20
-3.298689757920265
 30
0.0
 11
59.99505388630668
 21
-3.298689757920265
 31
0.0
  0
LINE
  5
F2
330
CE
100
AcDbEntity
  8
0
  6
BYBLOCK
 62
     0
100
AcDbLine
 10
59.80755388630668
 20
-3.486189757920265
 30
0.0
 11
59.80755388630668
 21
-3.111189757920265
 31
0.0
  0
TEXT
  5
F3
330
CE
100
AcDbEntity
  8
0
  6
BYBLOCK
 62
     0
100
AcDbText
 10
58.47200678822985
 20
-4.898845368039585
 30
0.0
 40
0.125
  1
%%c3
 50
48.43205888661871
 72
     1
 11
58.49436158131978
 21
-4.779441818384012
 31
0.0
100
AcDbText
 73
     2
  0
POINT
  5
F4
330
CE
100
AcDbEntity
  8
DEFPOINTS
  6
BYBLOCK
 62
     0
100
AcDbPoint
 10
58.81229234989555
 20
-4.420943951113843
 30
0.0
  0
POINT
  5
F5
330
CE
100
AcDbEntity
  8
DEFPOINTS
  6
BYBLOCK
 62
     0
100
AcDbPoint
 10
60.8028154227178
 20
-2.176435564726687
 30
0.0
  0
ENDBLK
  5
F6
330
CE
100
AcDbEntity
  8
0
100
AcDbBlockEnd
  0
BLOCK
  5
F7
330
CF
100
AcDbEntity
  8
0
100
AcDbBlockBegin
  2
*D2
 70
     1
 10
0.0
 20
0.0
 30
0.0
  3
*D2
  1

  0
LINE
  5
F8
330
CF
100
AcDbEntity
  8
0
  6
BYBLOCK
 62
     0
100
AcDbLine
 10
57.1848572546048
 20
-3.298689757920266
 30
0.0
 11
57.7398572546048
 21
-3.298689757920266
 31
0.0
  0
LINE
  5
F9
330
CF
100
AcDbEntity
  8
0
  6
BYBLOCK
 62
     0
100
AcDbLine
 10
56.9348572546048
 20
-2.048689757920266
 30
0.0
 11
57.7398572546048
 21
-2.048689757920266
 31
0.0
  0
LINE
  5
FA
330
CF
100
AcDbEntity
  8
0
  6
BYBLOCK
 62
     0
100
AcDbLine
 10
57.5598572546048
 20
-3.298689757920266
 30
0.0
 11
57.5598572546048
 21
-3.048689757920266
 31
0.0
  0
LINE
  5
FB
330
CF
100
AcDbEntity
  8
0
  6
BYBLOCK
 62
     0
100
AcDbLine
 10
57.5598572546048
 20
-2.048689757920266
 30
0.0
 11
57.5598572546048
 21
-2.298689757920266
 31
0.0
  0
LINE
  5
FC
330
CF
100
AcDbEntity
  8
0
  6
BYBLOCK
 62
     0
100
AcDbLine
 10
57.6848572546048
 20
-3.423689757920266
 30
0.0
 11
57.4348572546048
 21
-3.173689757920266
 31
0.0
  0
LINE
  5
FD
330
CF
100
AcDbEntity
  8
0
  6
BYBLOCK
 62
     0
100
AcDbLine
 10
57.6848572546048
 20
-2.173689757920266
 30
0.0
 11
57.4348572546048
 21
-1.923689757920266
 31
0.0
  0
TEXT
  5
FE
330
CF
100
AcDbEntity
  8
0
  6
BYBLOCK
 62
     0
100
AcDbText
 10
57.6223572546048
 20
-2.923689757920266
 30
0.0
 40
0.125
  1
1 1/4
 50
90.0
 72
     1
 11
57.5598572546048
 21
-2.673689757920266
 31
0.0
100
AcDbText
 73
     2
  0
POINT
  5
FF
330
CF
100
AcDbEntity
  8
DEFPOINTS
  6
BYBLOCK
 62
     0
100
AcDbPoint
 10
57.1223572546048
 20
-3.298689757920266
 30
0.0
  0
POINT
  5
100
330
CF
100
AcDbEntity
  8
DEFPOINTS
  6
BYBLOCK
 62
     0
100
AcDbPoint
 10
56.8723572546048
 20
-2.048689757920266
 30
0.0
  0
POINT
  5
101
330
CF
100
AcDbEntity
  8
DEFPOINTS
  6
BYBLOCK
 62
     0
100
AcDbPoint
 10
57.5598572546048
 20
-2.048689757920266
 30
0.0
  0
ENDBLK
  5
102
330
CF
100
AcDbEntity
  8
0
100
AcDbBlockEnd
  0
BLOCK
  5
103
330
D0
100
AcDbEntity
  8
0
100
AcDbBlockBegin
  2
*D3
 70
     1
 10
0.0
 20
0.0
 30
0.0
  3
*D3
  1

  0
LINE
  5
104
330
D0
100
AcDbEntity
  8
0
  6
BYBLOCK
 62
     0
100
AcDbLine
 10
58.30755388630666
 20
-1.989707585575217
 30
0.0
 11
58.30755388630666
 21
-1.091313764665566
 31
0.0
  0
LINE
  5
105
330
D0
100
AcDbEntity
  8
0
  6
BYBLOCK
 62
     0
100
AcDbLine
 10
61.30755388630666
 20
-1.989707585575217
 30
0.0
 11
61.30755388630666
 21
-1.091313764665566
 31
0.0
  0
LINE
  5
106
330
D0
100
AcDbEntity
  8
0
  6
BYBLOCK
 62
     0
100
AcDbLine
 10
58.30755388630666
 20
-1.271313764665566
 30
0.0
 11
59.64088721963999
 21
-1.271313764665566
 31
0.0
  0
LINE
  5
107
330
D0
100
AcDbEntity
  8
0
  6
BYBLOCK
 62
     0
100
AcDbLine
 10
61.30755388630666
 20
-1.271313764665566
 30
0.0
 11
59.97422055297332
 21
-1.271313764665566
 31
0.0
  0
LINE
  5
108
330
D0
100
AcDbEntity
  8
0
  6
BYBLOCK
 62
     0
100
AcDbLine
 10
58.18255388630666
 20
-1.396313764665566
 30
0.0
 11
58.43255388630666
 21
-1.146313764665566
 31
0.0
  0
LINE
  5
109
330
D0
100
AcDbEntity
  8
0
  6
BYBLOCK
 62
     0
100
AcDbLine
 10
61.18255388630665
 20
-1.396313764665566
 30
0.0
 11
61.43255388630666
 21
-1.146313764665566
 31
0.0
  0
TEXT
  5
10A
330
D0
100
AcDbEntity
  8
0
  6
BYBLOCK
 62
     0
100
AcDbText
 10
59.76588721963999
 20
-1.333813764665566
 30
0.0
 40
0.125
  1
3
 72
     1
 11
59.80755388630665
 21
-1.271313764665566
 31
0.0
100
AcDbText
 73
     2
  0
POINT
  5
10B
330
D0
100
AcDbEntity
  8
DEFPOINTS
  6
BYBLOCK
 62
     0
100
AcDbPoint
 10
58.30755388630666
 20
-2.052207585575217
 30
0.0
  0
POINT
  5
10C
330
D0
100
AcDbEntity
  8
DEFPOINTS
  6
BYBLOCK
 62
     0
100
AcDbPoint
 10
61.30755388630666
 20
-2.052207585575217
 30
0.0
  0
POINT
  5
10D
330
D0
100
AcDbEntity
  8
DEFPOINTS
  6
BYBLOCK
 62
     0
100
AcDbPoint
 10
61.30755388630666
 20
-1.271313764665566
 30
0.0
  0
ENDBLK
  5
10E
330
D0
100
AcDbEntity
  8
0
100
AcDbBlockEnd
  0
BLOCK
  5
10F
330
D1
100
AcDbEntity
  8
0
100
AcDbBlockBegin
  2
*D4
 70
     1
 10
0.0
 20
0.0
 30
0.0
  3
*D4
  1

  0
LINE
  5
110
330
D1
100
AcDbEntity
  8
0
  6
BYBLOCK
 62
     0
100
AcDbLine
 10
58.71405388630666
 20
-1.933093915617215
 30
0.0
 11
58.71405388630666
 21
-1.372305466987876
 31
0.0
  0
LINE
  5
111
330
D1
100
AcDbEntity
  8
0
  6
BYBLOCK
 62
     0
100
AcDbLine
 10
60.90105388630665
 20
-1.933093915617215
 30
0.0
 11
60.90105388630665
 21
-1.372305466987876
 31
0.0
  0
LINE
  5
112
330
D1
100
AcDbEntity
  8
0
  6
BYBLOCK
 62
     0
100
AcDbLine
 10
58.71405388630666
 20
-1.552305466987876
 30
0.0
 11
59.34922055297332
 21
-1.552305466987876
 31
0.0
  0
LINE
  5
113
330
D1
100
AcDbEntity
  8
0
  6
BYBLOCK
 62
     0
100
AcDbLine
 10
60.90105388630665
 20
-1.552305466987876
 30
0.0
 11
60.26588721963999
 21
-1.552305466987876
 31
0.0
  0
LINE
  5
114
330
D1
100
AcDbEntity
  8
0
  6
BYBLOCK
 62
     0
100
AcDbLine
 10
58.58905388630666
 20
-1.677305466987876
 30
0.0
 11
58.83905388630665
 21
-1.427305466987876
 31
0.0
  0
LINE
  5
115
330
D1
100
AcDbEntity
  8
0
  6
BYBLOCK
 62
     0
100
AcDbLine
 10
60.77605388630665
 20
-1.677305466987876
 30
0.0
 11
61.02605388630665
 21
-1.427305466987876
 31
0.0
  0
TEXT
  5
116
330
D1
100
AcDbEntity
  8
0
  6
BYBLOCK
 62
     0
100
AcDbText
 10
59.47422055297332
 20
-1.614805466987876
 30
0.0
 40
0.125
  1
2 3/16
 72
     1
 11
59.80755388630665
 21
-1.552305466987876
 31
0.0
100
AcDbText
 73
     2
  0
POINT
  5
117
330
D1
100
AcDbEntity
  8
DEFPOINTS
  6
BYBLOCK
 62
     0
100
AcDbPoint
 10
58.71405388630666
 20
-1.995593915617215
 30
0.0
  0
POINT
  5
118
330
D1
100
AcDbEntity
  8
DEFPOINTS
  6
BYBLOCK
 62
     0
100
AcDbPoint
 10
60.90105388630665
 20
-1.995593915617215
 30
0.0
  0
POINT
  5
119
330
D1
100
AcDbEntity
  8
DEFPOINTS
  6
BYBLOCK
 62
     0
100
AcDbPoint
 10
60.90105388630665
 20
-1.552305466987876
 30
0.0
  0
ENDBLK
  5
11A
330
D1
100
AcDbEntity
  8
0
100
AcDbBlockEnd
  0
ENDSEC
  0
SECTION
  2
ENTITIES
  0
LINE
  5
11B
330
18
100
AcDbEntity
  8
ADP1DETAIL
100
AcDbLine
 10
54.7473572546048
 20
-2.798689757920266
 30
0.0
 11
54.9353572546048
 21
-2.798689757920266
 31
0.0
  0
LINE
  5
11C
330
18
100
AcDbEntity
  8
ADP1DETAIL
100
AcDbLine
 10
54.9353572546048
 20
-3.798689757920266
 30
0.0
 11
54.7473572546048
 21
-3.798689757920266
 31
0.0
  0
DIMENSION
  5
11D
330
18
100
AcDbEntity
  8
ADPDIM
100
AcDbDimension
  2
*D0
 10
56.4973572546048
 20
-1.548689757920266
 30
0.0
 11
55.2473572546048
 21
-1.548689757920266
 31
0.0
100
AcDbAlignedDimension
 13
53.9973572546048
 23
-1.798689757920266
 33
0.0
 14
56.4973572546048
 24
-1.798689757920266
 34
0.0
100
AcDbRotatedDimension
  0
LINE
  5
11E
330
18
100
AcDbEntity
  8
ADP1DETAIL
100
AcDbLine
 10
53.9973572546048
 20
-4.798689757920266
 30
0.0
 11
53.9973572546048
 21
-1.798689757920266
 31
0.0
  0
LINE
  5
11F
330
18
100
AcDbEntity
  8
ADP1DETAIL
100
AcDbLine
 10
54.2473572546048
 20
-2.476890792283546
 30
0.0
 11
54.2473572546048
 21
-4.736689757920267
 31
0.0
  0
LINE
  5
120
330
18
100
AcDbEntity
  8
ADP1DETAIL
100
AcDbLine
 10
54.28450648689558
 20
-2.533692547047481
 30
0.0
 11
54.7473572546048
 21
-2.736189757920266
 31
0.0
  0
LINE
  5
121
330
18
100
AcDbEntity
  8
ADP1DETAIL
100
AcDbLine
 10
54.7473572546048
 20
-3.798689757920266
 30
0.0
 11
54.7473572546048
 21
-2.798689757920266
 31
0.0
  0
LINE
  5
122
330
18
100
AcDbEntity
  8
ADP1DETAIL
100
AcDbLine
 10
54.7473572546048
 20
-2.736189757920266
 30
0.0
 11
54.7473572546048
 21
-3.861189757920266
 31
0.0
  0
ARC
  5
123
330
18
100
AcDbEntity
  8
ADP1DETAIL
100
AcDbCircle
 10
54.18535725460479
 20
-4.736689757920267
 30
0.0
 40
0.062
100
AcDbArc
 50
270.0
 51
0.0
  0
LINE
  5
124
330
18
100
AcDbEntity
  8
ADP1DETAIL
100
AcDbLine
 10
54.18535725460479
 20
-4.798689757920266
 30
0.0
 11
53.9973572546048
 21
-4.798689757920266
 31
0.0
  0
ARC
  5
125
330
18
100
AcDbEntity
  8
ADP1DETAIL
100
AcDbCircle
 10
54.3093572546048
 20
-4.120488723556986
 30
0.0
 40
0.062
100
AcDbArc
 50
113.6293777306568
 51
180.0
  0
LINE
  5
126
330
18
100
AcDbEntity
  8
ADP1DETAIL
100
AcDbLine
 10
54.7473572546048
 20
-3.861189757920266
 30
0.0
 11
54.28450648689558
 21
-4.063686968793051
 31
0.0
  0
ARC
  5
127
330
18
100
AcDbEntity
  8
ADP1DETAIL
100
AcDbCircle
 10
54.18535725460479
 20
-1.860689757920267
 30
0.0
 40
0.062
100
AcDbArc
 50
0.0
 51
90.0
  0
LINE
  5
128
330
18
100
AcDbEntity
  8
ADP1DETAIL
100
AcDbLine
 10
53.9973572546048
 20
-1.798689757920266
 30
0.0
 11
54.18535725460479
 21
-1.798689757920266
 31
0.0
  0
LINE
  5
129
330
18
100
AcDbEntity
  8
ADP1DETAIL
100
AcDbLine
 10
54.2473572546048
 20
-1.860689757920267
 30
0.0
 11
54.2473572546048
 21
-2.476890792283546
 31
0.0
  0
ARC
  5
12A
330
18
100
AcDbEntity
  8
ADP1DETAIL
100
AcDbCircle
 10
54.3093572546048
 20
-2.476890792283546
 30
0.0
 40
0.062
100
AcDbArc
 50
180.0
 51
246.3706222693431
  0
LINE
  5
12B
330
18
100
AcDbEntity
  8
ADP1DETAIL
100
AcDbLine
 10
56.12335725460479
 20
-3.798689757920266
 30
0.0
 11
56.12335725460479
 21
-2.119090514554041
 31
0.0
  0
LINE
  5
12C
330
18
100
AcDbEntity
  8
ADP1DETAIL
100
AcDbLine
 10
60.12005388630665
 20
-1.94072346997472
 30
0.0
 11
60.12005388630665
 21
-2.908377383020367
 31
0.0
  0
LINE
  5
12D
330
18
100
AcDbEntity
  8
ADP1DETAIL
100
AcDbLine
 10
60.12005388630665
 20
-2.908377383020367
 30
0.0
 11
60.12005388630665
 21
-1.995101881537161
 31
0.0
  0
LINE
  5
12E
330
18
100
AcDbEntity
  8
ADP1DETAIL
100
AcDbLine
 10
59.49505388630665
 20
-2.908377383020365
 30
0.0
 11
59.49505388630665
 21
-1.94072346997472
 31
0.0
  0
LINE
  5
12F
330
18
100
AcDbEntity
  8
ADP1DETAIL
100
AcDbLine
 10
59.49505388630665
 20
-1.995101881537161
 30
0.0
 11
59.49505388630665
 21
-2.908377383020365
 31
0.0
  0
ARC
  5
130
330
18
100
AcDbEntity
  8
ADP1DETAIL
100
AcDbCircle
 10
59.8098572546048
 20
-3.298689757920266
 30
0.0
 40
1.5
100
AcDbArc
 50
135.0905722663077
 51
44.90942773369225
  0
LINE
  5
131
330
18
100
AcDbEntity
  8
ADP1DETAIL
100
AcDbLine
 10
56.8733572546048
 20
-2.119090514554041
 30
0.0
 11
56.8733572546048
 21
-3.798689757920266
 31
0.0
  0
LINE
  5
132
330
18
100
AcDbEntity
  8
ADP1DETAIL
100
AcDbLine
 10
59.30755388630665
 20
-3.366561225585966
 30
0.0
 11
59.30755388630665
 21
-2.364707585575217
 31
0.0
  0
LINE
  5
133
330
18
100
AcDbEntity
  8
ADP1DETAIL
100
AcDbLine
 10
60.30755388630666
 20
-2.364707585575215
 30
0.0
 11
60.30755388630666
 21
-3.366561225585966
 31
0.0
  0
DIMENSION
  5
134
330
18
100
AcDbEntity
  8
ADPDIM
100
AcDbDimension
  2
*D2
 10
57.5598572546048
 20
-2.048689757920266
 30
0.0
 11
57.5598572546048
 21
-2.673689757920266
 31
0.0
100
AcDbAlignedDimension
 13
57.1223572546048
 23
-3.298689757920266
 33
0.0
 14
56.8723572546048
 24
-2.048689757920266
 34
0.0
 50
90.0
100
AcDbRotatedDimension
  0
DIMENSION
  5
135
330
18
100
AcDbEntity
  8
ADPDIM
100
AcDbDimension
  2
*D1
 10
60.8028154227178
 20
-2.176435564726687
 30
0.0
 11
58.49436158131978
 21
-4.779441818384012
 31
0.0
 70
     3
100
AcDbDiametricDimension
 15
58.81229234989555
 25
-4.420943951113843
 35
0.0
 40
0.0
  0
ARC
  5
136
330
18
100
AcDbEntity
  8
ADP1DETAIL
100
AcDbCircle
 10
59.80755388630665
 20
-3.298689757920266
 30
0.0
 40
0.5625
100
AcDbArc
 50
152.7339555492668
 51
27.26604445073279
  0
CIRCLE
  5
137
330
18
100
AcDbEntity
  8
ADP1DETAIL
100
AcDbCircle
 10
59.80755388630665
 20
-3.298689757920266
 30
0.0
 40
0.5
  0
CIRCLE
  5
138
330
18
100
AcDbEntity
  8
ADP1DETAIL
100
AcDbCircle
 10
59.80755388630665
 20
-3.298689757920266
 30
0.0
 40
0.375
  0
LINE
  5
139
330
18
100
AcDbEntity
  8
ADP1DETAIL
100
AcDbLine
 10
56.8733572546048
 20
-3.798689757920266
 30
0.0
 11
56.12335725460479
 21
-3.798689757920266
 31
0.0
  0
ARC
  5
13A
330
18
100
AcDbEntity
  8
ADP1DETAIL
100
AcDbCircle
 10
55.43702905207436
 20
-4.352870124181302
 30
0.0
 40
0.7396190112654466
100
AcDbArc
 50
48.52788786121649
 51
131.4721121387835
  0
LINE
  5
13B
330
18
100
AcDbEntity
  8
ADP1DETAIL
100
AcDbLine
 10
54.9353572546048
 20
-2.798689757920266
 30
0.0
 11
54.9353572546048
 21
-3.798689757920266
 31
0.0
  0
LINE
  5
13C
330
18
100
AcDbEntity
  8
ADP1DETAIL
100
AcDbLine
 10
55.9353572546048
 20
-3.798689757920266
 30
0.0
 11
55.9353572546048
 21
-2.798689757920266
 31
0.0
  0
LINE
  5
13D
330
18
100
AcDbEntity
  8
ADP1DETAIL
100
AcDbLine
 10
56.12335725460479
 20
-3.798689757920266
 30
0.0
 11
55.9353572546048
 21
-3.798689757920266
 31
0.0
  0
ARC
  5
13E
330
18
100
AcDbEntity
  8
ADP1DETAIL
100
AcDbCircle
 10
55.43702905207436
 20
-2.250647225578534
 30
0.0
 40
0.7396190112654466
100
AcDbArc
 50
227.814921740964
 51
312.1850782590358
  0
LINE
  5
13F
330
18
100
AcDbEntity
  8
ADP1DETAIL
100
AcDbLine
 10
55.9353572546048
 20
-2.798689757920266
 30
0.0
 11
56.12335725460479
 21
-2.798689757920266
 31
0.0
  0
LINE
  5
140
330
18
100
AcDbEntity
  8
ADP1DETAIL
100
AcDbLine
 10
57.05855388630666
 20
-3.673689757920266
 30
0.0
 11
56.93355388630666
 21
-3.798689757920266
 31
0.0
  0
LINE
  5
141
330
18
100
AcDbEntity
  8
ADP1DETAIL
100
AcDbLine
 10
56.93355388630666
 20
-3.798689757920266
 30
0.0
 11
56.93355388630666
 21
-2.798689757920266
 31
0.0
  0
LINE
  5
142
330
18
100
AcDbEntity
  8
ADP1DETAIL
100
AcDbLine
 10
56.93355388630666
 20
-3.798689757920266
 30
0.0
 11
56.87155388630666
 21
-3.798689757920266
 31
0.0
  0
LINE
  5
143
330
18
100
AcDbEntity
  8
ADP1DETAIL
100
AcDbLine
 10
56.93355388630666
 20
-2.798689757920266
 30
0.0
 11
57.05855388630666
 21
-2.923689757920266
 31
0.0
  0
LINE
  5
144
330
18
100
AcDbEntity
  8
ADP1DETAIL
100
AcDbLine
 10
56.87155388630666
 20
-2.798689757920266
 30
0.0
 11
56.93355388630666
 21
-2.798689757920266
 31
0.0
  0
LINE
  5
145
330
18
100
AcDbEntity
  8
ADP1DETAIL
100
AcDbLine
 10
57.05855388630666
 20
-2.923689757920266
 30
0.0
 11
57.05855388630666
 21
-3.673689757920266
 31
0.0
  0
LWPOLYLINE
  5
146
330
18
100
AcDbEntity
  8
ADP1DETAIL
100
AcDbPolyline
 90
        2
 70
     0
 43
0.0
 10
59.31136243464208
 20
-3.360285563743358
 10
59.30755388630665
 20
-3.366561225585966
  0
LINE
  5
14A
330
18
100
AcDbEntity
  8
ADP1DETAIL
100
AcDbLine
 10
60.30755388630666
 20
-3.366561225585966
 30
0.0
 11
60.30374533797124
 21
-3.360285563743358
 31
0.0
  0
LINE
  5
14B
330
18
100
AcDbEntity
  8
ADP2DETAIL
  6
HIDDEN2
100
AcDbLine
 10
60.12005388630665
 20
-2.048689757920266
 30
0.0
 11
61.30755388630666
 21
-2.048689757920266
 31
0.0
  0
LINE
  5
14C
330
18
100
AcDbEntity
  8
ADP1DETAIL
100
AcDbLine
 10
60.12005388630665
 20
-1.989707585575217
 30
0.0
 11
61.30755388630666
 21
-1.989707585575217
 31
0.0
  0
ARC
  5
14D
330
18
100
AcDbEntity
  8
ADP1DETAIL
100
AcDbCircle
 10
59.80755388630665
 20
-3.298689757920266
 30
0.0
 40
1.5
100
AcDbArc
 50
60.76862331869187
 51
119.2313766813081
  0
DIMENSION
  5
14E
330
18
100
AcDbEntity
  8
ADPDIM
100
AcDbDimension
  2
*D4
 10
60.90105388630665
 20
-1.552305466987876
 30
0.0
 11
59.80755388630665
 21
-1.552305466987876
 31
0.0
100
AcDbAlignedDimension
 13
58.71405388630666
 23
-1.995593915617215
 33
0.0
 14
60.90105388630665
 24
-1.995593915617215
 34
0.0
100
AcDbRotatedDimension
  0
DIMENSION
  5
14F
330
18
100
AcDbEntity
  8
ADPDIM
100
AcDbDimension
  2
*D3
 10
61.30755388630666
 20
-1.271313764665566
 30
0.0
 11
59.80755388630665
 21
-1.271313764665566
 31
0.0
100
AcDbAlignedDimension
 13
58.30755388630666
 23
-2.052207585575217
 33
0.0
 14
61.30755388630666
 24
-2.052207585575217
 34
0.0
100
AcDbRotatedDimension
  0
LINE
  5
150
330
18
100
AcDbEntity
  8
ADP1DETAIL
100
AcDbLine
 10
56.12335725460479
 20
-2.119090514554041
 30
0.0
 11
56.2483572546048
 21
-1.994090514554041
 31
0.0
  0
LINE
  5
151
330
18
100
AcDbEntity
  8
ADP1DETAIL
100
AcDbLine
 10
56.12335725460479
 20
-2.244090514554041
 30
0.0
 11
56.8733572546048
 21
-2.244090514554041
 31
0.0
  0
LINE
  5
152
330
18
100
AcDbEntity
  8
ADP1DETAIL
100
AcDbLine
 10
56.74835725460479
 20
-1.994090514554041
 30
0.0
 11
56.8733572546048
 21
-2.119090514554041
 31
0.0
  0
LINE
  5
153
330
18
100
AcDbEntity
  8
ADP2DETAIL
  6
HIDDEN2
100
AcDbLine
 10
56.5923572546048
 20
-2.028212289158916
 30
0.0
 11
56.5923572546048
 21
-2.183093915617215
 31
0.0
  0
LINE
  5
154
330
18
100
AcDbEntity
  8
ADP2DETAIL
  6
HIDDEN2
100
AcDbLine
 10
56.40435725460481
 20
-2.028212289158917
 30
0.0
 11
56.40435725460481
 21
-2.183093915617215
 31
0.0
  0
LINE
  5
155
330
18
100
AcDbEntity
  8
ADP2DETAIL
  6
HIDDEN2
100
AcDbLine
 10
56.40435725460481
 20
-2.183093915617215
 30
0.0
 11
56.34235725460481
 21
-2.245093915617214
 31
0.0
  0
LINE
  5
156
330
18
100
AcDbEntity
  8
ADP2DETAIL
  6
HIDDEN2
100
AcDbLine
 10
56.5923572546048
 20
-2.183093915617215
 30
0.0
 11
56.6543572546048
 21
-2.245093915617214
 31
0.0
  0
ARC
  5
157
330
18
100
AcDbEntity
  8
ADP1DETAIL
100
AcDbCircle
 10
56.4983572546048
 20
-1.221168145384952
 30
0.0
 40
0.8125
100
AcDbArc
 50
252.0708303273486
 51
287.9291696726513
  0
LINE
  5
158
330
18
100
AcDbEntity
  8
ADP2DETAIL
  6
HIDDEN2
100
AcDbLine
 10
58.30755388630666
 20
-2.048689757920266
 30
0.0
 11
59.49505388630665
 21
-2.048689757920266
 31
0.0
  0
LINE
  5
159
330
18
100
AcDbEntity
  8
ADP2DETAIL
  6
HIDDEN2
100
AcDbLine
 10
58.74685624292067
 20
-2.151593915617215
 30
0.0
 11
58.80885624292067
 21
-2.213593915617214
 31
0.0
  0
LINE
  5
15A
330
18
100
AcDbEntity
  8
ADP1DETAIL
100
AcDbLine
 10
59.18255388630665
 20
-2.239707585575217
 30
0.0
 11
58.30755388630666
 21
-2.239707585575217
 31
0.0
  0
LINE
  5
15B
330
18
100
AcDbEntity
  8
ADP1DETAIL
100
AcDbLine
 10
58.30755388630666
 20
-1.989707585575217
 30
0.0
 11
59.49505388630665
 21
-1.989707585575217
 31
0.0
  0
LINE
  5
15C
330
18
100
AcDbEntity
  8
ADP2DETAIL
  6
HIDDEN2
100
AcDbLine
 10
58.55885624292067
 20
-2.026593915617215
 30
0.0
 11
58.55885624292067
 21
-2.151593915617215
 31
0.0
  0
LINE
  5
15D
330
18
100
AcDbEntity
  8
ADP2DETAIL
  6
HIDDEN2
100
AcDbLine
 10
58.55885624292067
 20
-2.151593915617215
 30
0.0
 11
58.49685624292067
 21
-2.213593915617214
 31
0.0
  0
LINE
  5
15E
330
18
100
AcDbEntity
  8
ADP2DETAIL
  6
HIDDEN2
100
AcDbLine
 10
58.74685624292067
 20
-2.026593915617215
 30
0.0
 11
58.74685624292067
 21
-2.151593915617215
 31
0.0
  0
LINE
  5
15F
330
18
100
AcDbEntity
  8
ADP1DETAIL
100
AcDbLine
 10
58.30755388630666
 20
-2.239707585575217
 30
0.0
 11
58.30755388630666
 21
-1.989707585575217
 31
0.0
  0
ARC
  5
160
330
18
100
AcDbEntity
  8
ADP1DETAIL
100
AcDbCircle
 10
59.18255388630665
 20
-2.364707585575217
 30
0.0
 40
0.125
100
AcDbArc
 50
0.0
 51
90.0
  0
LINE
  5
161
330
18
100
AcDbEntity
  8
ADP2DETAIL
  6
HIDDEN2
100
AcDbLine
 10
59.49505388630665
 20
-2.006081647832738
 30
0.0
 11
60.12005388630665
 21
-2.006081647832738
 31
0.0
  0
LINE
  5
162
330
18
100
AcDbEntity
  8
ADP1DETAIL
100
AcDbLine
 10
59.49505388630665
 20
-1.94072346997472
 30
0.0
 11
60.12005388630665
 21
-1.94072346997472
 31
0.0
  0
LINE
  5
163
330
18
100
AcDbEntity
  8
ADP1DETAIL
100
AcDbLine
 10
61.30755388630666
 20
-2.239707585575217
 30
0.0
 11
60.43255388630665
 21
-2.239707585575215
 31
0.0
  0
LINE
  5
164
330
18
100
AcDbEntity
  8
ADP2DETAIL
  6
HIDDEN2
100
AcDbLine
 10
60.77676667406265
 20
-2.026593915617215
 30
0.0
 11
60.77676667406265
 21
-2.151593915617215
 31
0.0
  0
LINE
  5
165
330
18
100
AcDbEntity
  8
ADP2DETAIL
  6
HIDDEN2
100
AcDbLine
 10
60.77676667406265
 20
-2.151593915617215
 30
0.0
 11
60.71476667406265
 21
-2.213593915617214
 31
0.0
  0
ARC
  5
166
330
18
100
AcDbEntity
  8
ADP1DETAIL
100
AcDbCircle
 10
60.43255388630665
 20
-2.364707585575215
 30
0.0
 40
0.125
100
AcDbArc
 50
89.99999999999991
 51
180.0
  0
LINE
  5
167
330
18
100
AcDbEntity
  8
ADP2DETAIL
  6
HIDDEN2
100
AcDbLine
 10
60.96476667406265
 20
-2.026593915617215
 30
0.0
 11
60.96476667406265
 21
-2.151593915617215
 31
0.0
  0
LINE
  5
168
330
18
100
AcDbEntity
  8
ADP2DETAIL
  6
HIDDEN2
100
AcDbLine
 10
60.96476667406265
 20
-2.151593915617215
 30
0.0
 11
61.02676667406265
 21
-2.213593915617214
 31
0.0
  0
LINE
  5
169
330
18
100
AcDbEntity
  8
ADP1DETAIL
100
AcDbLine
 10
61.30755388630666
 20
-1.989707585575217
 30
0.0
 11
61.30755388630666
 21
-2.239707585575217
 31
0.0
  0
TEXT
  5
177
330
18
100
AcDbEntity
  8
ADPDIM
100
AcDbText
 10
51.22343395384692
 20
-6.004197266701916
 30
0.0
 40
0.125
  1
J U L I U S  B L U M  &  C O . ,  I N C .      ( 8 0 0 )  5 2 6 - 6 2 9 3        W W W . J U L I U S B L U M . C O M        P A R T  N o .  3 0 7
 41
1.25
  7
ARIAL_WIDE
 72
     1
 11
57.65814149136398
 21
-5.879197266701916
 31
0.0
100
AcDbText
 73
     3
  0
ENDSEC
  0
SECTION
  2
OBJECTS
  0
DICTIONARY
  5
C
330
0
100
AcDbDictionary
  3
ACAD_GROUP
350
D
  3
ACAD_LAYOUT
350
170
  3
ACAD_MLINESTYLE
350
E
  3
ACAD_PLOTSETTINGS
350
171
  3
ACAD_PLOTSTYLENAME
350
16E
  3
ACDBHEADERROUNDTRIPXREC
350
34C
  3
ACDBVARIABLEDICTIONARY
350
1D1
  0
DICTIONARY
  5
1CB
330
18
100
AcDbDictionary
280
     1
  3
ACAD_LAYOUTSELFREF
360
36D
  0
DICTIONARY
  5
1C9
330
15
100
AcDbDictionary
280
     1
  3
ACAD_LAYOUTSELFREF
360
36C
  0
DICTIONARY
  5
D
102
{ACAD_REACTORS
330
C
102
}
330
C
100
AcDbDictionary
  0
DICTIONARY
  5
170
102
{ACAD_REACTORS
330
C
102
}
330
C
100
AcDbDictionary
  0
DICTIONARY
  5
E
102
{ACAD_REACTORS
330
C
102
}
330
C
100
AcDbDictionary
  3
STANDARD
350
1B
  0
DICTIONARY
  5
171
102
{ACAD_REACTORS
330
C
102
}
330
C
100
AcDbDictionary
  0
ACDBDICTIONARYWDFLT
  5
16E
102
{ACAD_REACTORS
330
C
102
}
330
C
100
AcDbDictionary
281
     1
  3
Normal
350
16F
100
AcDbDictionaryWithDefault
340
16F
  0
DICTIONARY
  5
34C
102
{ACAD_REACTORS
330
C
102
}
330
C
100
AcDbDictionary
  3
CEPSNTYPE
350
356
  3
FINGERPRINTGUID
350
357
  3
HYPERLINKBASE
350
34F
  3
INSUNITS
350
355
  3
LAYOUTDICT
350
351
  3
LWETCUNION
350
354
  3
PLOTSETDICT
350
352
  3
PLOTSTYLNAMDICT
350
353
  3
PSVPSCALE
350
359
  3
PUCSBASE
350
35C
  3
PUCSORGBACK
350
362
  3
PUCSORGBOTTOM
350
35E
  3
PUCSORGFRONT
350
361
  3
PUCSORGLEFT
350
35F
  3
PUCSORGRIGHT
350
360
  3
PUCSORGTOP
350
35D
  3
PUCSORTHOREF
350
35A
  3
PUCSORTHOVIEW
350
35B
  3
STYLESHEET
350
350
  3
TSTACKALIGN
350
34D
  3
TSTACKSIZE
350
34E
  3
UCSBASE
350
365
  3
UCSORGBACK
350
36B
  3
UCSORGBOTTOM
350
367
  3
UCSORGFRONT
350
36A
  3
UCSORGLEFT
350
368
  3
UCSORGRIGHT
350
369
  3
UCSORGTOP
350
366
  3
UCSORTHOREF
350
363
  3
UCSORTHOVIEW
350
364
  3
VERSIONGUID
350
358
  0
DICTIONARY
  5
1D1
102
{ACAD_REACTORS
330
C
102
}
330
C
100
AcDbDictionary
  3
DIMASSOC
350
1D2
  0
XRECORD
  5
36D
102
{ACAD_REACTORS
330
1CB
102
}
330
1CB
100
AcDbXrecord
340
18
  0
XRECORD
  5
36C
102
{ACAD_REACTORS
330
1C9
102
}
330
1C9
100
AcDbXrecord
340
15
  0
MLINESTYLE
  5
1B
102
{ACAD_REACTORS
330
E
102
}
330
E
100
AcDbMlineStyle
  2
STANDARD
 70
     0
  3

 62
     0
 51
90.0
 52
90.0
 71
     2
 49
0.5
 62
   256
  6
BYLAYER
 49
-0.5
 62
   256
  6
BYLAYER
  0
ACDBPLACEHOLDER
  5
16F
102
{ACAD_REACTORS
330
16E
102
}
330
16E
100
AcDbPlaceHolder
280
     0
  0
XRECORD
  5
356
102
{ACAD_REACTORS
330
34C
102
}
330
34C
100
AcDbXrecord
 90
        0
  0
XRECORD
  5
357
102
{ACAD_REACTORS
330
34C
102
}
330
34C
100
AcDbXrecord
  1
{5F65EB77-3FF1-4C98-BEA8-175AF38D3413}
  0
XRECORD
  5
34F
102
{ACAD_REACTORS
330
34C
102
}
330
34C
100
AcDbXrecord
  1

  0
XRECORD
  5
355
102
{ACAD_REACTORS
330
34C
102
}
330
34C
100
AcDbXrecord
 90
        0
  0
XRECORD
  5
351
102
{ACAD_REACTORS
330
34C
102
}
330
34C
100
AcDbXrecord
340
170
  0
XRECORD
  5
354
102
{ACAD_REACTORS
330
34C
102
}
330
34C
100
AcDbXrecord
 90
    14877
  0
XRECORD
  5
352
102
{ACAD_REACTORS
330
34C
102
}
330
34C
100
AcDbXrecord
340
171
  0
XRECORD
  5
353
102
{ACAD_REACTORS
330
34C
102
}
330
34C
100
AcDbXrecord
340
16E
  0
XRECORD
  5
359
102
{ACAD_REACTORS
330
34C
102
}
330
34C
100
AcDbXrecord
 40
0.0
  0
XRECORD
  5
35C
102
{ACAD_REACTORS
330
34C
102
}
330
34C
100
AcDbXrecord
340
0
  0
XRECORD
  5
362
102
{ACAD_REACTORS
330
34C
102
}
330
34C
100
AcDbXrecord
 10
0.0
 20
0.0
 30
0.0
  0
XRECORD
  5
35E
102
{ACAD_REACTORS
330
34C
102
}
330
34C
100
AcDbXrecord
 10
0.0
 20
0.0
 30
0.0
  0
XRECORD
  5
361
102
{ACAD_REACTORS
330
34C
102
}
330
34C
100
AcDbXrecord
 10
0.0
 20
0.0
 30
0.0
  0
XRECORD
  5
35F
102
{ACAD_REACTORS
330
34C
102
}
330
34C
100
AcDbXrecord
 10
0.0
 20
0.0
 30
0.0
  0
XRECORD
  5
360
102
{ACAD_REACTORS
330
34C
102
}
330
34C
100
AcDbXrecord
 10
0.0
 20
0.0
 30
0.0
  0
XRECORD
  5
35D
102
{ACAD_REACTORS
330
34C
102
}
330
34C
100
AcDbXrecord
 10
0.0
 20
0.0
 30
0.0
  0
XRECORD
  5
35A
102
{ACAD_REACTORS
330
34C
102
}
330
34C
100
AcDbXrecord
340
0
  0
XRECORD
  5
35B
102
{ACAD_REACTORS
330
34C
102
}
330
34C
100
AcDbXrecord
 70
     0
  0
XRECORD
  5
350
102
{ACAD_REACTORS
330
34C
102
}
330
34C
100
AcDbXrecord
  1

  0
XRECORD
  5
34D
102
{ACAD_REACTORS
330
34C
102
}
330
34C
100
AcDbXrecord
 90
        1
  0
XRECORD
  5
34E
102
{ACAD_REACTORS
330
34C
102
}
330
34C
100
AcDbXrecord
 90
       70
  0
XRECORD
  5
365
102
{ACAD_REACTORS
330
34C
102
}
330
34C
100
AcDbXrecord
340
0
  0
XRECORD
  5
36B
102
{ACAD_REACTORS
330
34C
102
}
330
34C
100
AcDbXrecord
 10
0.0
 20
0.0
 30
0.0
  0
XRECORD
  5
367
102
{ACAD_REACTORS
330
34C
102
}
330
34C
100
AcDbXrecord
 10
0.0
 20
0.0
 30
0.0
  0
XRECORD
  5
36A
102
{ACAD_REACTORS
330
34C
102
}
330
34C
100
AcDbXrecord
 10
0.0
 20
0.0
 30
0.0
  0
XRECORD
  5
368
102
{ACAD_REACTORS
330
34C
102
}
330
34C
100
AcDbXrecord
 10
0.0
 20
0.0
 30
0.0
  0
XRECORD
  5
369
102
{ACAD_REACTORS
330
34C
102
}
330
34C
100
AcDbXrecord
 10
0.0
 20
0.0
 30
0.0
  0
XRECORD
  5
366
102
{ACAD_REACTORS
330
34C
102
}
330
34C
100
AcDbXrecord
 10
0.0
 20
0.0
 30
0.0
  0
XRECORD
  5
363
102
{ACAD_REACTORS
330
34C
102
}
330
34C
100
AcDbXrecord
340
0
  0
XRECORD
  5
364
102
{ACAD_REACTORS
330
34C
102
}
330
34C
100
AcDbXrecord
 70
     0
  0
XRECORD
  5
358
102
{ACAD_REACTORS
330
34C
102
}
330
34C
100
AcDbXrecord
  1
{C6D4261D-A428-48E4-AA86-59AE5B85359E}
  0
DICTIONARYVAR
  5
1D2
102
{ACAD_REACTORS
330
1D1
102
}
330
1D1
100
DictionaryVariables
280
     0
  1
1
  0
ENDSEC
  0
EOF
