  0
SECTION
  2
HEADER
  9
$ACADVER
  1
AC1014
  9
$ACADMAINTVER
 70
     9
  9
$DWGCODEPAGE
  3
ANSI_1252
  9
$INSBASE
 10
2.7015873015873
 20
-4.192454063772725
 30
0.0
  9
$EXTMIN
 10
-4.185064184957225
 20
-4.623228039032898
 30
0.0
  9
$EXTMAX
 10
8.866393864156007
 20
-0.2585520055102228
 30
0.0
  9
$LIMMIN
 10
0.0
 20
0.0
  9
$LIMMAX
 10
36.0
 20
36.0
  9
$ORTHOMODE
 70
     1
  9
$REGENMODE
 70
     1
  9
$FILLMODE
 70
     1
  9
$QTEXTMODE
 70
     0
  9
$MIRRTEXT
 70
     1
  9
$DRAGMODE
 70
     0
  9
$LTSCALE
 40
1.0
  9
$OSMODE
 70
    37
  9
$ATTMODE
 70
     1
  9
$TEXTSIZE
 40
0.2
  9
$TRACEWID
 40
0.05
  9
$TEXTSTYLE
  7
STANDARD
  9
$CLAYER
  8
ADP1DETAIL
  9
$CELTYPE
  6
BYLAYER
  9
$CECOLOR
 62
   256
  9
$CELTSCALE
 40
1.0
  9
$DELOBJ
 70
     1
  9
$DISPSILH
 70
     0
  9
$DIMSCALE
 40
1.0
  9
$DIMASZ
 40
0.125
  9
$DIMEXO
 40
0.0625
  9
$DIMDLI
 40
0.38
  9
$DIMRND
 40
0.0
  9
$DIMDLE
 40
0.0
  9
$DIMEXE
 40
0.18
  9
$DIMTP
 40
0.0
  9
$DIMTM
 40
0.0
  9
$DIMTXT
 40
0.125
  9
$DIMCEN
 40
0.1875
  9
$DIMTSZ
 40
0.125
  9
$DIMTOL
 70
     0
  9
$DIMLIM
 70
     0
  9
$DIMTIH
 70
     0
  9
$DIMTOH
 70
     0
  9
$DIMSE1
 70
     0
  9
$DIMSE2
 70
     0
  9
$DIMTAD
 70
     0
  9
$DIMZIN
 70
     3
  9
$DIMBLK
  1

  9
$DIMASO
 70
     1
  9
$DIMSHO
 70
     1
  9
$DIMPOST
  1

  9
$DIMAPOST
  1

  9
$DIMALT
 70
     0
  9
$DIMALTD
 70
     1
  9
$DIMALTF
 40
25.4
  9
$DIMLFAC
 40
1.0
  9
$DIMTOFL
 70
     0
  9
$DIMTVP
 40
0.0
  9
$DIMTIX
 70
     0
  9
$DIMSOXD
 70
     0
  9
$DIMSAH
 70
     0
  9
$DIMBLK1
  1

  9
$DIMBLK2
  1

  9
$DIMSTYLE
  2
STANDARD
  9
$DIMCLRD
 70
     0
  9
$DIMCLRE
 70
     0
  9
$DIMCLRT
 70
     0
  9
$DIMTFAC
 40
1.0
  9
$DIMGAP
 40
0.125
  9
$DIMJUST
 70
     0
  9
$DIMSD1
 70
     0
  9
$DIMSD2
 70
     0
  9
$DIMTOLJ
 70
     1
  9
$DIMTZIN
 70
     0
  9
$DIMALTZ
 70
     0
  9
$DIMALTTZ
 70
     0
  9
$DIMFIT
 70
     3
  9
$DIMUPT
 70
     0
  9
$DIMUNIT
 70
     2
  9
$DIMDEC
 70
     4
  9
$DIMTDEC
 70
     4
  9
$DIMALTU
 70
     2
  9
$DIMALTTD
 70
     2
  9
$DIMTXSTY
  7
STANDARD
  9
$DIMAUNIT
 70
     0
  9
$LUNITS
 70
     5
  9
$LUPREC
 70
     5
  9
$SKETCHINC
 40
0.1
  9
$FILLETRAD
 40
0.0
  9
$AUNITS
 70
     0
  9
$AUPREC
 70
     0
  9
$MENU
  1
acad
  9
$ELEVATION
 40
0.0
  9
$PELEVATION
 40
0.0
  9
$THICKNESS
 40
0.0
  9
$LIMCHECK
 70
     0
  9
$BLIPMODE
 70
     0
  9
$CHAMFERA
 40
0.0
  9
$CHAMFERB
 40
0.0
  9
$CHAMFERC
 40
0.0
  9
$CHAMFERD
 40
0.0
  9
$SKPOLY
 70
     0
  9
$TDCREATE
 40
2450415.655220289
  9
$TDUPDATE
 40
2452297.083885081
  9
$TDINDWG
 40
0.0091720949
  9
$TDUSRTIMER
 40
0.0091720949
  9
$USRTIMER
 70
     1
  9
$ANGBASE
 50
0.0
  9
$ANGDIR
 70
     0
  9
$PDMODE
 70
     0
  9
$PDSIZE
 40
0.0
  9
$PLINEWID
 40
0.0
  9
$COORDS
 70
     2
  9
$SPLFRAME
 70
     0
  9
$SPLINETYPE
 70
     6
  9
$SPLINESEGS
 70
     8
  9
$ATTDIA
 70
     0
  9
$ATTREQ
 70
     1
  9
$HANDLING
 70
 22529
  9
$HANDSEED
  5
228
  9
$SURFTAB1
 70
     6
  9
$SURFTAB2
 70
     6
  9
$SURFTYPE
 70
     6
  9
$SURFU
 70
     6
  9
$SURFV
 70
     6
  9
$UCSNAME
  2

  9
$UCSORG
 10
0.0
 20
0.0
 30
0.0
  9
$UCSXDIR
 10
1.0
 20
0.0
 30
0.0
  9
$UCSYDIR
 10
0.0
 20
1.0
 30
0.0
  9
$PUCSNAME
  2

  9
$PUCSORG
 10
0.0
 20
0.0
 30
0.0
  9
$PUCSXDIR
 10
1.0
 20
0.0
 30
0.0
  9
$PUCSYDIR
 10
0.0
 20
1.0
 30
0.0
  9
$USERI1
 70
     0
  9
$USERI2
 70
     0
  9
$USERI3
 70
     0
  9
$USERI4
 70
     0
  9
$USERI5
 70
     0
  9
$USERR1
 40
0.0
  9
$USERR2
 40
0.0
  9
$USERR3
 40
0.0
  9
$USERR4
 40
0.0
  9
$USERR5
 40
0.0
  9
$WORLDVIEW
 70
     1
  9
$SHADEDGE
 70
     3
  9
$SHADEDIF
 70
    70
  9
$TILEMODE
 70
     1
  9
$MAXACTVP
 70
    15
  9
$PINSBASE
 10
0.0546881854534149
 20
80.01812949427586
 30
0.0
  9
$PLIMCHECK
 70
     0
  9
$PEXTMIN
 10
1.000000000000000E+20
 20
1.000000000000000E+20
 30
1.000000000000000E+20
  9
$PEXTMAX
 10
-1.000000000000000E+20
 20
-1.000000000000000E+20
 30
-1.000000000000000E+20
  9
$PLIMMIN
 10
0.0
 20
0.0
  9
$PLIMMAX
 10
12.0
 20
9.0
  9
$UNITMODE
 70
     0
  9
$VISRETAIN
 70
     0
  9
$PLINEGEN
 70
     0
  9
$PSLTSCALE
 70
     1
  9
$TREEDEPTH
 70
  3020
  9
$PICKSTYLE
 70
     1
  9
$CMLSTYLE
  2
STANDARD
  9
$CMLJUST
 70
     0
  9
$CMLSCALE
 40
1.0
  9
$PROXYGRAPHICS
 70
     1
  9
$MEASUREMENT
 70
     0
  0
ENDSEC
  0
SECTION
  2
CLASSES
  0
CLASS
  1
ACDBDICTIONARYWDFLT
  2
AcDbDictionaryWithDefault
  3
AutoCAD 2000
 90
        0
280
     0
281
     0
  0
CLASS
  1
ACDBPLACEHOLDER
  2
AcDbPlaceHolder
  3
AutoCAD 2000
 90
        0
280
     0
281
     0
  0
CLASS
  1
LAYOUT
  2
AcDbLayout
  3
AutoCAD 2000
 90
        0
280
     0
281
     0
  0
CLASS
  1
DICTIONARYVAR
  2
AcDbDictionaryVar
  3
AutoCAD 2000
 90
        0
280
     0
281
     0
  0
CLASS
  1
LONG_TRANSACTION
  2
AcDbLongTransaction
  3
AutoCAD 2000
 90
        0
280
     0
281
     0
  0
CLASS
  1
LWPOLYLINE
  2
AcDbPolyline
  3
AutoCAD 2000
 90
        0
280
     0
281
     1
  0
CLASS
  1
HATCH
  2
AcDbHatch
  3
AutoCAD 2000
 90
        0
280
     0
281
     1
  0
CLASS
  1
XRECORD
  2
AcDbXrecord
  3
AutoCAD 2000
 90
        0
280
     0
281
     0
  0
CLASS
  1
LONG_TRANSACTION
  2
AcDbLongTransaction
  3
AutoCAD 2000
 90
        0
280
     0
281
     0
  0
CLASS
  1
LWPOLYLINE
  2
AcDbPolyline
  3
AutoCAD 2000
 90
        0
280
     0
281
     1
  0
CLASS
  1
HATCH
  2
AcDbHatch
  3
AutoCAD 2000
 90
        0
280
     0
281
     1
  0
CLASS
  1
XRECORD
  2
AcDbXrecord
  3
AutoCAD 2000
 90
        0
280
     0
281
     0
  0
CLASS
  1
LONG_TRANSACTION
  2
AcDbLongTransaction
  3
AutoCAD 2000
 90
        0
280
     0
281
     0
  0
CLASS
  1
LWPOLYLINE
  2
AcDbPolyline
  3
AutoCAD 2000
 90
        0
280
     0
281
     1
  0
CLASS
  1
HATCH
  2
AcDbHatch
  3
AutoCAD 2000
 90
        0
280
     0
281
     1
  0
CLASS
  1
XRECORD
  2
AcDbXrecord
  3
AutoCAD 2000
 90
        0
280
     0
281
     0
  0
CLASS
  1
LONG_TRANSACTION
  2
AcDbLongTransaction
  3
AutoCAD 2000
 90
        0
280
     0
281
     0
  0
CLASS
  1
LWPOLYLINE
  2
AcDbPolyline
  3
AutoCAD 2000
 90
        0
280
     0
281
     1
  0
CLASS
  1
HATCH
  2
AcDbHatch
  3
AutoCAD 2000
 90
        0
280
     0
281
     1
  0
CLASS
  1
XRECORD
  2
AcDbXrecord
  3
AutoCAD 2000
 90
        0
280
     0
281
     0
  0
CLASS
  1
LONG_TRANSACTION
  2
AcDbLongTransaction
  3
AutoCAD 2000
 90
        0
280
     0
281
     0
  0
CLASS
  1
LWPOLYLINE
  2
AcDbPolyline
  3
AutoCAD 2000
 90
        0
280
     0
281
     1
  0
CLASS
  1
HATCH
  2
AcDbHatch
  3
AutoCAD 2000
 90
        0
280
     0
281
     1
  0
CLASS
  1
XRECORD
  2
AcDbXrecord
  3
AutoCAD 2000
 90
        0
280
     0
281
     0
  0
CLASS
  1
LONG_TRANSACTION
  2
AcDbLongTransaction
  3
AutoCAD 2000
 90
        0
280
     0
281
     0
  0
CLASS
  1
LWPOLYLINE
  2
AcDbPolyline
  3
AutoCAD 2000
 90
        0
280
     0
281
     1
  0
CLASS
  1
HATCH
  2
AcDbHatch
  3
AutoCAD 2000
 90
        0
280
     0
281
     1
  0
CLASS
  1
XRECORD
  2
AcDbXrecord
  3
AutoCAD 2000
 90
        0
280
     0
281
     0
  0
ENDSEC
  0
SECTION
  2
TABLES
  0
TABLE
  2
VPORT
  5
13
330
0
100
AcDbSymbolTable
 70
     2
  0
VPORT
  5
205
330
13
100
AcDbSymbolTableRecord
100
AcDbViewportTableRecord
  2
*ACTIVE
 70
     0
 10
0.0
 20
0.0
 11
1.0
 21
1.0
 12
2.352095636739744
 22
-2.440968475575862
 13
0.0
 23
0.0
 14
0.5740882589684922
 24
0.5740882589684922
 15
0.5
 25
0.5
 16
0.0
 26
0.0
 36
1.0
 17
0.0
 27
0.0
 37
0.0
 40
8.365522230354708
 41
1.570528967254408
 42
50.0
 43
0.0
 44
0.0
 50
0.0
 51
0.0
 71
     0
 72
   100
 73
     1
 74
     0
 75
     0
 76
     0
 77
     0
 78
     0
  0
ENDTAB
  0
TABLE
  2
LTYPE
  5
F
330
0
100
AcDbSymbolTable
 70
     1
  0
LTYPE
  5
10
330
F
100
AcDbSymbolTableRecord
100
AcDbLinetypeTableRecord
  2
BYBLOCK
 70
     0
  3

 72
    65
 73
     0
 40
0.0
  0
LTYPE
  5
6
330
F
100
AcDbSymbolTableRecord
100
AcDbLinetypeTableRecord
  2
BYLAYER
 70
     0
  3

 72
    65
 73
     0
 40
0.0
  0
LTYPE
  5
5
330
F
100
AcDbSymbolTableRecord
100
AcDbLinetypeTableRecord
  2
CONTINUOUS
 70
     0
  3
Solid line
 72
    65
 73
     0
 40
0.0
  0
ENDTAB
  0
TABLE
  2
LAYER
  5
B
330
0
100
AcDbSymbolTable
 70
     4
  0
LAYER
  5
C
330
B
100
AcDbSymbolTableRecord
100
AcDbLayerTableRecord
  2
0
 70
     0
 62
     7
  6
CONTINUOUS
  0
LAYER
  5
47
330
B
100
AcDbSymbolTableRecord
100
AcDbLayerTableRecord
  2
ADPDIM
 70
     0
 62
     3
  6
CONTINUOUS
  0
LAYER
  5
4
330
B
100
AcDbSymbolTableRecord
100
AcDbLayerTableRecord
  2
ADP1DETAIL
 70
     0
 62
     7
  6
CONTINUOUS
  0
LAYER
  5
51
330
B
100
AcDbSymbolTableRecord
100
AcDbLayerTableRecord
  2
DEFPOINTS
 70
     0
 62
     7
  6
CONTINUOUS
  0
ENDTAB
  0
TABLE
  2
STYLE
  5
D
330
0
100
AcDbSymbolTable
 70
     2
  0
STYLE
  5
E
330
D
100
AcDbSymbolTableRecord
100
AcDbTextStyleTableRecord
  2
STANDARD
 70
     0
 40
0.0
 41
1.0
 50
0.0
 71
     0
 42
0.2
  3
txt
  4

  0
STYLE
  5
92
330
D
100
AcDbSymbolTableRecord
100
AcDbTextStyleTableRecord
  2
ARIAL_WIDE
 70
     0
 40
0.0
 41
1.25
 50
0.0
 71
     0
 42
0.2
  3
ARIAL.TTF
  4

1001
ACAD
1000
Arial
1071
       34
  0
ENDTAB
  0
TABLE
  2
VIEW
  5
11
330
0
100
AcDbSymbolTable
 70
     0
  0
ENDTAB
  0
TABLE
  2
UCS
  5
12
330
0
100
AcDbSymbolTable
 70
     0
  0
ENDTAB
  0
TABLE
  2
APPID
  5
15
330
0
100
AcDbSymbolTable
 70
     1
  0
APPID
  5
16
330
15
100
AcDbSymbolTableRecord
100
AcDbRegAppTableRecord
  2
ACAD
 70
     0
  0
ENDTAB
  0
TABLE
  2
DIMSTYLE
  5
17
330
0
100
AcDbSymbolTable
 70
     1
  0
DIMSTYLE
105
1D
330
17
100
AcDbSymbolTableRecord
100
AcDbDimStyleTableRecord
  2
STANDARD
 70
     0
  3

  4

  5

  6

  7

 40
1.0
 41
0.18
 42
0.0625
 43
0.38
 44
0.18
 45
0.0
 46
0.0
 47
0.0
 48
0.0
140
0.18
141
0.09
142
0.0
143
25.4
144
1.0
145
0.0
146
1.0
147
0.09
 71
     0
 72
     0
 73
     1
 74
     1
 75
     0
 76
     0
 77
     0
 78
     0
170
     0
171
     2
172
     0
173
     0
174
     0
175
     0
176
     0
177
     0
178
     0
270
     2
271
     4
272
     4
273
     2
274
     2
340
E
275
     0
280
     0
281
     0
282
     0
283
     1
284
     0
285
     0
286
     0
287
     3
288
     0
  0
ENDTAB
  0
TABLE
  2
BLOCK_RECORD
  5
1
330
0
100
AcDbSymbolTable
 70
     1
  0
BLOCK_RECORD
  5
2
102
{ACAD_XDICTIONARY
360
E5
102
}
330
1
100
AcDbSymbolTableRecord
100
AcDbBlockTableRecord
  2
*MODEL_SPACE
  0
BLOCK_RECORD
  5
8
102
{ACAD_XDICTIONARY
360
E7
102
}
330
1
100
AcDbSymbolTableRecord
100
AcDbBlockTableRecord
  2
*PAPER_SPACE
  0
BLOCK_RECORD
  5
48
330
1
100
AcDbSymbolTableRecord
100
AcDbBlockTableRecord
  2
*D0
  0
ENDTAB
  0
ENDSEC
  0
SECTION
  2
BLOCKS
  0
BLOCK
  5
3
330
2
100
AcDbEntity
  8
0
100
AcDbBlockBegin
  2
*MODEL_SPACE
 70
     0
 10
0.0
 20
0.0
 30
0.0
  3
*MODEL_SPACE
  1

  0
ENDBLK
  5
7
330
2
100
AcDbEntity
  8
0
100
AcDbBlockEnd
  0
BLOCK
  5
9
330
8
100
AcDbEntity
 67
     1
  8
0
100
AcDbBlockBegin
  2
*PAPER_SPACE
 70
     0
 10
0.0
 20
0.0
 30
0.0
  3
*PAPER_SPACE
  1

  0
ENDBLK
  5
A
330
8
100
AcDbEntity
 67
     1
  8
0
100
AcDbBlockEnd
  0
BLOCK
  5
54
330
48
100
AcDbEntity
  8
0
100
AcDbBlockBegin
  2
*D0
 70
     1
 10
0.0
 20
0.0
 30
0.0
  3
*D0
  1
*U
  0
LINE
  5
49
330
48
100
AcDbEntity
  8
0
  6
BYBLOCK
 62
     0
100
AcDbLine
 10
0.5815873015872999
 20
-2.756620730439391
 30
0.0
 11
0.5815873015872999
 21
-0.2585520055102228
 31
0.0
  0
LINE
  5
4A
330
48
100
AcDbEntity
  8
0
  6
BYBLOCK
 62
     0
100
AcDbLine
 10
4.581587301587299
 20
-2.71662073043939
 30
0.0
 11
4.581587301587299
 21
-0.2585520055102228
 31
0.0
  0
LINE
  5
4B
330
48
100
AcDbEntity
  8
0
  6
BYBLOCK
 62
     0
100
AcDbLine
 10
0.5815873015872999
 20
-0.4385520055102228
 30
0.0
 11
2.414920634920633
 21
-0.4385520055102228
 31
0.0
  0
LINE
  5
4C
330
48
100
AcDbEntity
  8
0
  6
BYBLOCK
 62
     0
100
AcDbLine
 10
4.581587301587299
 20
-0.4385520055102228
 30
0.0
 11
2.748253968253966
 21
-0.4385520055102228
 31
0.0
  0
LINE
  5
4D
330
48
100
AcDbEntity
  8
0
  6
BYBLOCK
 62
     0
100
AcDbLine
 10
0.4565873015872999
 20
-0.5635520055102229
 30
0.0
 11
0.7065873015872999
 21
-0.3135520055102227
 31
0.0
  0
LINE
  5
4E
330
48
100
AcDbEntity
  8
0
  6
BYBLOCK
 62
     0
100
AcDbLine
 10
4.456587301587299
 20
-0.5635520055102229
 30
0.0
 11
4.706587301587299
 21
-0.3135520055102227
 31
0.0
  0
TEXT
  5
4F
330
48
100
AcDbEntity
  8
0
  6
BYBLOCK
 62
     0
100
AcDbText
 10
2.539920634920633
 20
-0.5010520055102229
 30
0.0
 40
0.125
  1
4
 72
     1
 11
2.581587301587299
 21
-0.4385520055102228
 31
0.0
100
AcDbText
 73
     2
  0
POINT
  5
50
330
48
100
AcDbEntity
  8
DEFPOINTS
  6
BYBLOCK
 62
     0
100
AcDbPoint
 10
0.5815873015872999
 20
-2.81912073043939
 30
0.0
  0
POINT
  5
52
330
48
100
AcDbEntity
  8
DEFPOINTS
  6
BYBLOCK
 62
     0
100
AcDbPoint
 10
4.581587301587299
 20
-2.77912073043939
 30
0.0
  0
POINT
  5
53
330
48
100
AcDbEntity
  8
DEFPOINTS
  6
BYBLOCK
 62
     0
100
AcDbPoint
 10
4.581587301587299
 20
-0.4385520055102228
 30
0.0
  0
ENDBLK
  5
55
330
48
100
AcDbEntity
  8
0
100
AcDbBlockEnd
  0
ENDSEC
  0
SECTION
  2
ENTITIES
  0
ARC
  5
1E
330
2
100
AcDbEntity
  8
ADP1DETAIL
100
AcDbCircle
 10
3.479614914999531
 20
-3.77833177580432
 30
0.0
 40
0.7279815763329523
100
AcDbArc
 50
68.90832260187396
 51
104.1552188802923
  0
LINE
  5
1F
330
2
100
AcDbEntity
  8
ADP1DETAIL
100
AcDbLine
 10
3.154920634920634
 20
-3.005787397106058
 30
0.0
 11
3.261587301587301
 21
-2.765787397106059
 31
0.0
  0
ARC
  5
20
330
2
100
AcDbEntity
  8
ADP1DETAIL
100
AcDbCircle
 10
5.244920634920682
 20
-4.569471607632407
 30
0.0
 40
2.796333670086627
100
AcDbArc
 50
140.8972483962395
 51
158.9655859600354
  0
LWPOLYLINE
  5
21
330
2
100
AcDbEntity
  8
ADP1DETAIL
100
AcDbPolyline
 90
        8
 70
     0
 43
0.0
 10
2.7015873015873
 20
-4.192454063772725
 10
2.768253968253969
 20
-3.979120730439394
 42
-0.2628899182573888
 10
2.968253968253968
 20
-3.925787397106059
 42
0.0542260449430759
 10
3.2815873015873
 20
-3.999120730439393
 42
0.4181504428216524
 10
3.488253968253967
 20
-3.672454063772725
 42
0.5092245917032257
 10
3.674920634920635
 20
-3.432454063772727
 42
0.1231056256176692
 10
3.661587301587301
 20
-3.312454063772729
 42
0.5260304899342041
 10
3.768253968253969
 20
-3.20578739710606
 42
0.1544847856479043
  0
ARC
  5
2B
330
2
100
AcDbEntity
  8
ADP1DETAIL
100
AcDbCircle
 10
3.341111111111105
 20
-4.043882635201285
 30
0.0
 40
0.7985566628387445
100
AcDbArc
 50
66.33932058665017
 51
120.0203396530776
  0
ARC
  5
2C
330
2
100
AcDbEntity
  8
ADP1DETAIL
100
AcDbCircle
 10
3.110671271052951
 20
-4.266169076495384
 30
0.0
 40
0.703609415484089
100
AcDbArc
 50
57.54501737851784
 51
120.3717292694625
  0
ARC
  5
2D
330
2
100
AcDbEntity
  8
ADP1DETAIL
100
AcDbCircle
 10
4.630572808833776
 20
-3.619410585511933
 30
0.0
 40
1.42112279627791
100
AcDbArc
 50
133.7273371499602
 51
148.2906747650291
  0
ARC
  5
2E
330
2
100
AcDbEntity
  8
ADP1DETAIL
100
AcDbCircle
 10
3.843382173382175
 20
-3.042197653516311
 30
0.0
 40
0.1995268894627233
100
AcDbArc
 50
26.72969376848414
 51
100.1402038773594
  0
LINE
  5
2F
330
2
100
AcDbEntity
  8
ADP1DETAIL
100
AcDbLine
 10
2.283301302949642
 20
-1.997039214040247
 30
0.0
 11
2.208253968253968
 21
-1.792454063772726
 31
0.0
  0
ARC
  5
30
330
2
100
AcDbEntity
  8
ADP1DETAIL
100
AcDbCircle
 10
4.381363143078267
 20
-1.649247170557973
 30
0.0
 40
2.282752617313081
100
AcDbArc
 50
182.9263648795286
 51
200.2131846477757
  0
ARC
  5
31
330
2
100
AcDbEntity
  8
ADP1DETAIL
100
AcDbCircle
 10
0.0807792207791356
 20
-4.821342952661664
 30
0.0
 40
2.431489588339356
100
AcDbArc
 50
31.45687113162763
 51
42.91254177483803
  0
LINE
  5
32
330
2
100
AcDbEntity
  8
ADP1DETAIL
100
AcDbLine
 10
2.034920634920634
 20
-3.059120730439396
 30
0.0
 11
2.208253968253968
 21
-3.512454063772725
 31
0.0
  0
ARC
  5
33
330
2
100
AcDbEntity
  8
ADP1DETAIL
100
AcDbCircle
 10
0.225337301587376
 20
-4.153287397105989
 30
0.0
 40
1.84950842755872
100
AcDbArc
 50
30.33727148893288
 51
48.60764820775432
  0
ARC
  5
34
330
2
100
AcDbEntity
  8
ADP1DETAIL
100
AcDbCircle
 10
1.536971916971916
 20
-4.22783867915733
 30
0.0
 40
0.6962376584576231
100
AcDbArc
 50
60.96179188831652
 51
123.2804009050065
  0
ARC
  5
35
330
2
100
AcDbEntity
  8
ADP1DETAIL
100
AcDbCircle
 10
1.806815067313981
 20
-4.225339096310691
 30
0.0
 40
0.4090568498459667
100
AcDbArc
 50
56.10740624528983
 51
132.9205706707125
  0
ARC
  5
36
330
2
100
AcDbEntity
  8
ADP1DETAIL
100
AcDbCircle
 10
0.7435011124033207
 20
-3.132924598679388
 30
0.0
 40
1.528089351944018
100
AcDbArc
 50
14.88755960098987
 51
36.72709315901737
  0
ARC
  5
37
330
2
100
AcDbEntity
  8
ADP1DETAIL
100
AcDbCircle
 10
-0.5781096681094433
 20
-4.221848003166519
 30
0.0
 40
3.006930623121613
100
AcDbArc
 50
22.74822803071426
 51
36.2035499757766
  0
LINE
  5
38
330
2
100
AcDbEntity
  8
ADP1DETAIL
100
AcDbLine
 10
1.048253968253968
 20
-2.765787397106059
 30
0.0
 11
0.941587301587301
 21
-2.645787397106062
 31
0.0
  0
ARC
  5
39
330
2
100
AcDbEntity
  8
ADP1DETAIL
100
AcDbCircle
 10
0.3327554384491158
 20
-4.79042252140436
 30
0.0
 40
2.08971579482259
100
AcDbArc
 50
21.65975953622728
 51
77.22272284263829
  0
ARC
  5
3A
330
2
100
AcDbEntity
  8
ADP1DETAIL
100
AcDbCircle
 10
1.008253968253968
 20
-3.759120730439263
 30
0.0
 40
0.7543945327949555
100
AcDbArc
 50
78.7893668711215
 51
93.03939956892747
  0
ARC
  5
3B
330
2
100
AcDbEntity
  8
ADP1DETAIL
100
AcDbCircle
 10
1.226290402805213
 20
-4.249255623899981
 30
0.0
 40
0.9953711247204406
100
AcDbArc
 50
60.512329807256
 51
101.084687990948
  0
LWPOLYLINE
  5
3C
330
2
100
AcDbEntity
  8
ADP1DETAIL
100
AcDbPolyline
 90
        4
 70
     0
 43
0.0
 10
2.394920634920636
 20
-3.979120730439394
 42
-0.0088504627521951
 10
2.301587301587302
 20
-2.579120730439395
 42
-0.0291812177760452
 10
2.368253968253966
 20
-1.88578739710606
 42
0.0574680293809357
 10
2.568253968253968
 20
-0.9924540637727297
 42
-18.95074730985576
  0
ARC
  5
42
330
2
100
AcDbEntity
  8
ADP1DETAIL
100
AcDbCircle
 10
4.278671619948212
 20
-4.581907176459884
 30
0.0
 40
1.842790263574642
100
AcDbArc
 50
90.11662518722443
 51
161.7819314584079
  0
ARC
  5
43
330
2
100
AcDbEntity
  8
ADP1DETAIL
100
AcDbCircle
 10
5.888528418799805
 20
-4.340796172525174
 30
0.0
 40
3.489059120432064
100
AcDbArc
 50
158.4915563173455
 51
168.0627938083246
  0
ARC
  5
44
330
2
100
AcDbEntity
  8
ADP1DETAIL
100
AcDbCircle
 10
3.413399382124207
 20
-3.010082699119473
 30
0.0
 40
1.038766349536846
100
AcDbArc
 50
125.6309162162513
 51
168.6576398828831
  0
ARC
  5
45
330
2
100
AcDbEntity
  8
ADP1DETAIL
100
AcDbCircle
 10
3.575946275946299
 20
-2.595018166336841
 30
0.0
 40
1.195403205258682
100
AcDbArc
 50
136.0776454582232
 51
167.6391520772533
  0
DIMENSION
  5
46
330
2
100
AcDbEntity
  8
ADPDIM
100
AcDbDimension
  2
*D0
 10
4.581587301587299
 20
-0.4385520055102228
 30
0.0
 11
2.581587301587299
 21
-0.4385520055102228
 31
0.0
100
AcDbAlignedDimension
 13
0.5815873015872999
 23
-2.81912073043939
 33
0.0
 14
4.581587301587299
 24
-2.77912073043939
 34
0.0
100
AcDbRotatedDimension
  0
LWPOLYLINE
  5
56
330
2
100
AcDbEntity
  8
ADP1DETAIL
100
AcDbPolyline
 90
       49
 70
     0
 43
0.0
 10
3.768253968253969
 20
-3.20578739710606
 10
3.7415873015873
 20
-3.099120730439391
 42
0.3497098088286152
 10
4.021587301587301
 20
-2.939120730439395
 42
0.0421514617925361
 10
4.341587301587301
 20
-2.845787397106061
 42
-0.0784613538904605
 10
4.581587301587301
 20
-2.779120730439395
 42
0.2392072857859658
 10
3.908253968253968
 20
-2.572454063772729
 42
0.031547518549681
 10
3.648253968253968
 20
-2.592454063772727
 42
0.2953142483015046
 10
3.468253968253967
 20
-2.565787397106062
 42
0.1758086049198202
 10
3.261587301587301
 20
-2.672454063772725
 42
0.2781470762053639
 10
3.034920634920634
 20
-2.712454063772728
 42
0.0365365273963152
 10
2.781587301587301
 20
-2.945787397106061
 42
-0.7385746545181196
 10
2.6215873015873
 20
-2.88578739710606
 42
-0.1097722286464374
 10
2.774920634920634
 20
-2.64578739710606
 42
0.3436495037377111
 10
2.808253968253968
 20
-2.165787397106058
 42
0.5661903789690532
 10
2.714920634920634
 20
-1.765787397106059
 42
0.1387767155871525
 10
2.601587301587301
 20
-0.8191207304393941
 42
1.085685827712545
 10
2.4615873015873
 20
-0.8391207304393937
 42
0.1400549446402618
 10
2.448253968253967
 20
-1.019120730439393
 10
2.3815873015873
 20
-1.019120730439393
 10
2.368253968253966
 20
-1.245787397106063
 42
0.1058083887005963
 10
2.181587301587301
 20
-1.579120730439395
 42
-0.9754535256460673
 10
2.134920634920634
 20
-1.672454063772729
 42
0.4371901498326888
 10
1.994920634920633
 20
-1.899120730439395
 10
2.021587301587302
 20
-2.059120730439396
 10
1.934920634920634
 20
-2.092454063772727
 42
0.84012584220057
 10
1.905265899593022
 20
-2.230102918887426
 42
-0.2187416641862208
 10
1.914920634920633
 20
-2.405787397106063
 42
0.3251838135919328
 10
1.808253968253968
 20
-2.512454063772725
 10
1.994920634920634
 20
-2.852454063772727
 42
-0.3267847727840699
 10
1.928253968253967
 20
-3.052454063772728
 42
-0.3801993223490587
 10
1.794920634920634
 20
-3.019120730439393
 10
1.6215873015873
 20
-2.792454063772726
 42
0.2929975715040593
 10
1.448253968253967
 20
-2.765787397106059
 42
0.2883630848440773
 10
1.168253968253968
 20
-2.632454063772726
 42
-0.1420732046552668
 10
0.9749206349206346
 20
-2.632454063772728
 42
0.1643988872015856
 10
0.7882539682539687
 20
-2.639120730439394
 42
0.2769839649484289
 10
0.7415873015873009
 20
-2.72578739710606
 42
0.2668128830759038
 10
0.5815873015872999
 20
-2.756620730439391
 42
0.3700567590525232
 10
0.7015873015873022
 20
-2.905787397106061
 42
0.0710678118654735
 10
0.9149206349206346
 20
-2.965787397106062
 42
-0.6882514543059881
 10
0.9549206349206347
 20
-3.052454063772728
 42
0.4595813388731389
 10
1.034920634920634
 20
-3.272454063772727
 42
0.4305005769514543
 10
1.001587301587302
 20
-3.48578739710606
 42
0.0237960416286273
 10
1.154920634920634
 20
-3.645787397106062
 42
0.442369886119869
 10
1.248253968253968
 20
-3.819120730439394
 42
0.0487163788364313
 10
1.528253968253967
 20
-3.925787397106059
 42
0.3304573100537899
 10
1.914920634920633
 20
-3.965787397106062
 42
-0.2912006872007789
 10
1.994920634920633
 20
-4.139120730439394
 42
0.0749020796762189
 10
2.7015873015873
 20
-4.192454063772725
 42
0.9284263457778962
  0
TEXT
  5
93
330
2
100
AcDbEntity
  8
ADPDIM
100
AcDbText
 10
-4.185064184957225
 20
-4.586222582006977
 30
0.0
 40
0.125
  1
J U L I U S  B L U M  &  C O . ,  I N C .      ( 8 0 0 )  5 2 6 - 6 2 9 3        W W W . J U L I U S B L U M . C O M        P A R T  N o .  2 9 6 2
 41
1.25
  7
ARIAL_WIDE
 72
     1
 11
2.340664839599391
 21
-4.461222582006977
 31
0.0
100
AcDbText
 73
     3
  0
ENDSEC
  0
SECTION
  2
OBJECTS
  0
DICTIONARY
  5
1B
330
0
100
AcDbDictionary
  3
ACAD_GROUP
350
19
  3
ACAD_LAYOUT
350
8C
  3
ACAD_MLINESTYLE
350
1A
  3
ACAD_PLOTSETTINGS
350
8D
  3
ACAD_PLOTSTYLENAME
350
8A
  3
ACDBHEADERROUNDTRIPXREC
350
206
  3
ACDBVARIABLEDICTIONARY
350
ED
  0
DICTIONARY
  5
E5
330
2
100
AcDbDictionary
280
     1
  3
ACAD_LAYOUTSELFREF
360
226
  0
DICTIONARY
  5
E7
330
8
100
AcDbDictionary
280
     1
  3
ACAD_LAYOUTSELFREF
360
227
  0
DICTIONARY
  5
19
102
{ACAD_REACTORS
330
1B
102
}
330
1B
100
AcDbDictionary
  0
DICTIONARY
  5
8C
102
{ACAD_REACTORS
330
1B
102
}
330
1B
100
AcDbDictionary
  0
DICTIONARY
  5
1A
102
{ACAD_REACTORS
330
1B
102
}
330
1B
100
AcDbDictionary
  3
STANDARD
350
1C
  0
DICTIONARY
  5
8D
102
{ACAD_REACTORS
330
1B
102
}
330
1B
100
AcDbDictionary
  0
ACDBDICTIONARYWDFLT
  5
8A
102
{ACAD_REACTORS
330
1B
102
}
330
1B
100
AcDbDictionary
281
     1
  3
Normal
350
8B
100
AcDbDictionaryWithDefault
340
8B
  0
DICTIONARY
  5
206
102
{ACAD_REACTORS
330
1B
102
}
330
1B
100
AcDbDictionary
  3
CEPSNTYPE
350
210
  3
FINGERPRINTGUID
350
211
  3
HYPERLINKBASE
350
209
  3
INSUNITS
350
20F
  3
LAYOUTDICT
350
20B
  3
LWETCUNION
350
20E
  3
PLOTSETDICT
350
20C
  3
PLOTSTYLNAMDICT
350
20D
  3
PSVPSCALE
350
213
  3
PUCSBASE
350
216
  3
PUCSORGBACK
350
21C
  3
PUCSORGBOTTOM
350
218
  3
PUCSORGFRONT
350
21B
  3
PUCSORGLEFT
350
219
  3
PUCSORGRIGHT
350
21A
  3
PUCSORGTOP
350
217
  3
PUCSORTHOREF
350
214
  3
PUCSORTHOVIEW
350
215
  3
STYLESHEET
350
20A
  3
TSTACKALIGN
350
207
  3
TSTACKSIZE
350
208
  3
UCSBASE
350
21F
  3
UCSORGBACK
350
225
  3
UCSORGBOTTOM
350
221
  3
UCSORGFRONT
350
224
  3
UCSORGLEFT
350
222
  3
UCSORGRIGHT
350
223
  3
UCSORGTOP
350
220
  3
UCSORTHOREF
350
21D
  3
UCSORTHOVIEW
350
21E
  3
VERSIONGUID
350
212
  0
DICTIONARY
  5
ED
102
{ACAD_REACTORS
330
1B
102
}
330
1B
100
AcDbDictionary
  3
DIMASSOC
350
EE
  0
XRECORD
  5
226
102
{ACAD_REACTORS
330
E5
102
}
330
E5
100
AcDbXrecord
340
2
  0
XRECORD
  5
227
102
{ACAD_REACTORS
330
E7
102
}
330
E7
100
AcDbXrecord
340
8
  0
MLINESTYLE
  5
1C
102
{ACAD_REACTORS
330
1A
102
}
330
1A
100
AcDbMlineStyle
  2
STANDARD
 70
     0
  3

 62
     0
 51
90.0
 52
90.0
 71
     2
 49
0.5
 62
   256
  6
BYLAYER
 49
-0.5
 62
   256
  6
BYLAYER
  0
ACDBPLACEHOLDER
  5
8B
102
{ACAD_REACTORS
330
8A
102
}
330
8A
100
AcDbPlaceHolder
280
     0
  0
XRECORD
  5
210
102
{ACAD_REACTORS
330
206
102
}
330
206
100
AcDbXrecord
 90
        0
  0
XRECORD
  5
211
102
{ACAD_REACTORS
330
206
102
}
330
206
100
AcDbXrecord
  1
{24D28006-F10E-4196-8CB9-E4583B148134}
  0
XRECORD
  5
209
102
{ACAD_REACTORS
330
206
102
}
330
206
100
AcDbXrecord
  1

  0
XRECORD
  5
20F
102
{ACAD_REACTORS
330
206
102
}
330
206
100
AcDbXrecord
 90
        0
  0
XRECORD
  5
20B
102
{ACAD_REACTORS
330
206
102
}
330
206
100
AcDbXrecord
340
8C
  0
XRECORD
  5
20E
102
{ACAD_REACTORS
330
206
102
}
330
206
100
AcDbXrecord
 90
    14877
  0
XRECORD
  5
20C
102
{ACAD_REACTORS
330
206
102
}
330
206
100
AcDbXrecord
340
8D
  0
XRECORD
  5
20D
102
{ACAD_REACTORS
330
206
102
}
330
206
100
AcDbXrecord
340
8A
  0
XRECORD
  5
213
102
{ACAD_REACTORS
330
206
102
}
330
206
100
AcDbXrecord
 40
0.0
  0
XRECORD
  5
216
102
{ACAD_REACTORS
330
206
102
}
330
206
100
AcDbXrecord
340
0
  0
XRECORD
  5
21C
102
{ACAD_REACTORS
330
206
102
}
330
206
100
AcDbXrecord
 10
0.0
 20
0.0
 30
0.0
  0
XRECORD
  5
218
102
{ACAD_REACTORS
330
206
102
}
330
206
100
AcDbXrecord
 10
0.0
 20
0.0
 30
0.0
  0
XRECORD
  5
21B
102
{ACAD_REACTORS
330
206
102
}
330
206
100
AcDbXrecord
 10
0.0
 20
0.0
 30
0.0
  0
XRECORD
  5
219
102
{ACAD_REACTORS
330
206
102
}
330
206
100
AcDbXrecord
 10
0.0
 20
0.0
 30
0.0
  0
XRECORD
  5
21A
102
{ACAD_REACTORS
330
206
102
}
330
206
100
AcDbXrecord
 10
0.0
 20
0.0
 30
0.0
  0
XRECORD
  5
217
102
{ACAD_REACTORS
330
206
102
}
330
206
100
AcDbXrecord
 10
0.0
 20
0.0
 30
0.0
  0
XRECORD
  5
214
102
{ACAD_REACTORS
330
206
102
}
330
206
100
AcDbXrecord
340
0
  0
XRECORD
  5
215
102
{ACAD_REACTORS
330
206
102
}
330
206
100
AcDbXrecord
 70
     0
  0
XRECORD
  5
20A
102
{ACAD_REACTORS
330
206
102
}
330
206
100
AcDbXrecord
  1

  0
XRECORD
  5
207
102
{ACAD_REACTORS
330
206
102
}
330
206
100
AcDbXrecord
 90
        1
  0
XRECORD
  5
208
102
{ACAD_REACTORS
330
206
102
}
330
206
100
AcDbXrecord
 90
       70
  0
XRECORD
  5
21F
102
{ACAD_REACTORS
330
206
102
}
330
206
100
AcDbXrecord
340
0
  0
XRECORD
  5
225
102
{ACAD_REACTORS
330
206
102
}
330
206
100
AcDbXrecord
 10
0.0
 20
0.0
 30
0.0
  0
XRECORD
  5
221
102
{ACAD_REACTORS
330
206
102
}
330
206
100
AcDbXrecord
 10
0.0
 20
0.0
 30
0.0
  0
XRECORD
  5
224
102
{ACAD_REACTORS
330
206
102
}
330
206
100
AcDbXrecord
 10
0.0
 20
0.0
 30
0.0
  0
XRECORD
  5
222
102
{ACAD_REACTORS
330
206
102
}
330
206
100
AcDbXrecord
 10
0.0
 20
0.0
 30
0.0
  0
XRECORD
  5
223
102
{ACAD_REACTORS
330
206
102
}
330
206
100
AcDbXrecord
 10
0.0
 20
0.0
 30
0.0
  0
XRECORD
  5
220
102
{ACAD_REACTORS
330
206
102
}
330
206
100
AcDbXrecord
 10
0.0
 20
0.0
 30
0.0
  0
XRECORD
  5
21D
102
{ACAD_REACTORS
330
206
102
}
330
206
100
AcDbXrecord
340
0
  0
XRECORD
  5
21E
102
{ACAD_REACTORS
330
206
102
}
330
206
100
AcDbXrecord
 70
     0
  0
XRECORD
  5
212
102
{ACAD_REACTORS
330
206
102
}
330
206
100
AcDbXrecord
  1
{2EF602A0-45CB-4F2B-9C45-0E672E8C7A5D}
  0
DICTIONARYVAR
  5
EE
102
{ACAD_REACTORS
330
ED
102
}
330
ED
100
DictionaryVariables
280
     0
  1
1
  0
ENDSEC
  0
EOF
