  0
SECTION
  2
HEADER
  9
$ACADVER
  1
AC1014
  9
$ACADMAINTVER
 70
     9
  9
$DWGCODEPAGE
  3
ANSI_1252
  9
$INSBASE
 10
22.14290370324293
 20
6.643816504486701
 30
0.0
  9
$EXTMIN
 10
17.72890548201687
 20
5.599941781506169
 30
0.0
  9
$EXTMAX
 10
27.41725814231701
 20
8.479957922166988
 30
0.0
  9
$LIMMIN
 10
0.0
 20
0.0
  9
$LIMMAX
 10
36.0
 20
36.0
  9
$ORTHOMODE
 70
     1
  9
$REGENMODE
 70
     1
  9
$FILLMODE
 70
     1
  9
$QTEXTMODE
 70
     0
  9
$MIRRTEXT
 70
     1
  9
$DRAGMODE
 70
     0
  9
$LTSCALE
 40
1.0
  9
$OSMODE
 70
    37
  9
$ATTMODE
 70
     1
  9
$TEXTSIZE
 40
0.2
  9
$TRACEWID
 40
0.05
  9
$TEXTSTYLE
  7
STANDARD
  9
$CLAYER
  8
ADP1DETAIL
  9
$CELTYPE
  6
BYLAYER
  9
$CECOLOR
 62
   256
  9
$CELTSCALE
 40
1.0
  9
$DELOBJ
 70
     1
  9
$DISPSILH
 70
     0
  9
$DIMSCALE
 40
1.0
  9
$DIMASZ
 40
0.125
  9
$DIMEXO
 40
0.0625
  9
$DIMDLI
 40
0.38
  9
$DIMRND
 40
0.0
  9
$DIMDLE
 40
0.0
  9
$DIMEXE
 40
0.18
  9
$DIMTP
 40
0.0
  9
$DIMTM
 40
0.0
  9
$DIMTXT
 40
0.125
  9
$DIMCEN
 40
0.1875
  9
$DIMTSZ
 40
0.125
  9
$DIMTOL
 70
     0
  9
$DIMLIM
 70
     0
  9
$DIMTIH
 70
     0
  9
$DIMTOH
 70
     0
  9
$DIMSE1
 70
     0
  9
$DIMSE2
 70
     0
  9
$DIMTAD
 70
     0
  9
$DIMZIN
 70
     3
  9
$DIMBLK
  1

  9
$DIMASO
 70
     1
  9
$DIMSHO
 70
     1
  9
$DIMPOST
  1

  9
$DIMAPOST
  1

  9
$DIMALT
 70
     0
  9
$DIMALTD
 70
     1
  9
$DIMALTF
 40
25.4
  9
$DIMLFAC
 40
1.0
  9
$DIMTOFL
 70
     0
  9
$DIMTVP
 40
0.0
  9
$DIMTIX
 70
     0
  9
$DIMSOXD
 70
     0
  9
$DIMSAH
 70
     0
  9
$DIMBLK1
  1

  9
$DIMBLK2
  1

  9
$DIMSTYLE
  2
STANDARD
  9
$DIMCLRD
 70
     0
  9
$DIMCLRE
 70
     0
  9
$DIMCLRT
 70
     0
  9
$DIMTFAC
 40
1.0
  9
$DIMGAP
 40
0.125
  9
$DIMJUST
 70
     0
  9
$DIMSD1
 70
     0
  9
$DIMSD2
 70
     0
  9
$DIMTOLJ
 70
     1
  9
$DIMTZIN
 70
     3
  9
$DIMALTZ
 70
     3
  9
$DIMALTTZ
 70
     3
  9
$DIMFIT
 70
     5
  9
$DIMUPT
 70
     0
  9
$DIMUNIT
 70
     5
  9
$DIMDEC
 70
     4
  9
$DIMTDEC
 70
     4
  9
$DIMALTU
 70
     5
  9
$DIMALTTD
 70
     1
  9
$DIMTXSTY
  7
STANDARD
  9
$DIMAUNIT
 70
     0
  9
$LUNITS
 70
     5
  9
$LUPREC
 70
     4
  9
$SKETCHINC
 40
0.1
  9
$FILLETRAD
 40
0.0
  9
$AUNITS
 70
     0
  9
$AUPREC
 70
     0
  9
$MENU
  1
acad
  9
$ELEVATION
 40
0.0
  9
$PELEVATION
 40
0.0
  9
$THICKNESS
 40
0.0
  9
$LIMCHECK
 70
     0
  9
$BLIPMODE
 70
     0
  9
$CHAMFERA
 40
0.0
  9
$CHAMFERB
 40
0.0
  9
$CHAMFERC
 40
0.0
  9
$CHAMFERD
 40
0.0
  9
$SKPOLY
 70
     0
  9
$TDCREATE
 40
2450350.963146215
  9
$TDUPDATE
 40
2452297.067056747
  9
$TDINDWG
 40
0.0049972222
  9
$TDUSRTIMER
 40
0.0049972222
  9
$USRTIMER
 70
     1
  9
$ANGBASE
 50
0.0
  9
$ANGDIR
 70
     0
  9
$PDMODE
 70
     0
  9
$PDSIZE
 40
0.0
  9
$PLINEWID
 40
0.0
  9
$COORDS
 70
     2
  9
$SPLFRAME
 70
     0
  9
$SPLINETYPE
 70
     6
  9
$SPLINESEGS
 70
     8
  9
$ATTDIA
 70
     0
  9
$ATTREQ
 70
     1
  9
$HANDLING
 70
 22529
  9
$HANDSEED
  5
236
  9
$SURFTAB1
 70
     6
  9
$SURFTAB2
 70
     6
  9
$SURFTYPE
 70
     6
  9
$SURFU
 70
     6
  9
$SURFV
 70
     6
  9
$UCSNAME
  2

  9
$UCSORG
 10
0.0
 20
0.0
 30
0.0
  9
$UCSXDIR
 10
1.0
 20
0.0
 30
0.0
  9
$UCSYDIR
 10
0.0
 20
1.0
 30
0.0
  9
$PUCSNAME
  2

  9
$PUCSORG
 10
0.0
 20
0.0
 30
0.0
  9
$PUCSXDIR
 10
1.0
 20
0.0
 30
0.0
  9
$PUCSYDIR
 10
0.0
 20
1.0
 30
0.0
  9
$USERI1
 70
     0
  9
$USERI2
 70
     0
  9
$USERI3
 70
     0
  9
$USERI4
 70
     0
  9
$USERI5
 70
     0
  9
$USERR1
 40
0.0
  9
$USERR2
 40
0.0
  9
$USERR3
 40
0.0
  9
$USERR4
 40
0.0
  9
$USERR5
 40
0.0
  9
$WORLDVIEW
 70
     1
  9
$SHADEDGE
 70
     3
  9
$SHADEDIF
 70
    70
  9
$TILEMODE
 70
     1
  9
$MAXACTVP
 70
    15
  9
$PINSBASE
 10
0.0
 20
0.0
 30
0.0
  9
$PLIMCHECK
 70
     0
  9
$PEXTMIN
 10
1.000000000000000E+20
 20
1.000000000000000E+20
 30
1.000000000000000E+20
  9
$PEXTMAX
 10
-1.000000000000000E+20
 20
-1.000000000000000E+20
 30
-1.000000000000000E+20
  9
$PLIMMIN
 10
0.0
 20
0.0
  9
$PLIMMAX
 10
12.0
 20
9.0
  9
$UNITMODE
 70
     0
  9
$VISRETAIN
 70
     0
  9
$PLINEGEN
 70
     0
  9
$PSLTSCALE
 70
     1
  9
$TREEDEPTH
 70
  3020
  9
$PICKSTYLE
 70
     1
  9
$CMLSTYLE
  2
STANDARD
  9
$CMLJUST
 70
     0
  9
$CMLSCALE
 40
1.0
  9
$PROXYGRAPHICS
 70
     1
  9
$MEASUREMENT
 70
     0
  0
ENDSEC
  0
SECTION
  2
CLASSES
  0
CLASS
  1
ACDBDICTIONARYWDFLT
  2
AcDbDictionaryWithDefault
  3
AutoCAD 2000
 90
        0
280
     0
281
     0
  0
CLASS
  1
ACDBPLACEHOLDER
  2
AcDbPlaceHolder
  3
AutoCAD 2000
 90
        0
280
     0
281
     0
  0
CLASS
  1
LAYOUT
  2
AcDbLayout
  3
AutoCAD 2000
 90
        0
280
     0
281
     0
  0
CLASS
  1
DICTIONARYVAR
  2
AcDbDictionaryVar
  3
AutoCAD 2000
 90
        0
280
     0
281
     0
  0
CLASS
  1
LONG_TRANSACTION
  2
AcDbLongTransaction
  3
AutoCAD 2000
 90
        0
280
     0
281
     0
  0
CLASS
  1
LWPOLYLINE
  2
AcDbPolyline
  3
AutoCAD 2000
 90
        0
280
     0
281
     1
  0
CLASS
  1
HATCH
  2
AcDbHatch
  3
AutoCAD 2000
 90
        0
280
     0
281
     1
  0
CLASS
  1
XRECORD
  2
AcDbXrecord
  3
AutoCAD 2000
 90
        0
280
     0
281
     0
  0
CLASS
  1
LONG_TRANSACTION
  2
AcDbLongTransaction
  3
AutoCAD 2000
 90
        0
280
     0
281
     0
  0
CLASS
  1
LWPOLYLINE
  2
AcDbPolyline
  3
AutoCAD 2000
 90
        0
280
     0
281
     1
  0
CLASS
  1
HATCH
  2
AcDbHatch
  3
AutoCAD 2000
 90
        0
280
     0
281
     1
  0
CLASS
  1
XRECORD
  2
AcDbXrecord
  3
AutoCAD 2000
 90
        0
280
     0
281
     0
  0
CLASS
  1
LONG_TRANSACTION
  2
AcDbLongTransaction
  3
AutoCAD 2000
 90
        0
280
     0
281
     0
  0
CLASS
  1
LWPOLYLINE
  2
AcDbPolyline
  3
AutoCAD 2000
 90
        0
280
     0
281
     1
  0
CLASS
  1
HATCH
  2
AcDbHatch
  3
AutoCAD 2000
 90
        0
280
     0
281
     1
  0
CLASS
  1
XRECORD
  2
AcDbXrecord
  3
AutoCAD 2000
 90
        0
280
     0
281
     0
  0
CLASS
  1
LONG_TRANSACTION
  2
AcDbLongTransaction
  3
AutoCAD 2000
 90
        0
280
     0
281
     0
  0
CLASS
  1
LWPOLYLINE
  2
AcDbPolyline
  3
AutoCAD 2000
 90
        0
280
     0
281
     1
  0
CLASS
  1
HATCH
  2
AcDbHatch
  3
AutoCAD 2000
 90
        0
280
     0
281
     1
  0
CLASS
  1
XRECORD
  2
AcDbXrecord
  3
AutoCAD 2000
 90
        0
280
     0
281
     0
  0
CLASS
  1
LONG_TRANSACTION
  2
AcDbLongTransaction
  3
AutoCAD 2000
 90
        0
280
     0
281
     0
  0
CLASS
  1
LWPOLYLINE
  2
AcDbPolyline
  3
AutoCAD 2000
 90
        0
280
     0
281
     1
  0
CLASS
  1
HATCH
  2
AcDbHatch
  3
AutoCAD 2000
 90
        0
280
     0
281
     1
  0
CLASS
  1
XRECORD
  2
AcDbXrecord
  3
AutoCAD 2000
 90
        0
280
     0
281
     0
  0
CLASS
  1
LONG_TRANSACTION
  2
AcDbLongTransaction
  3
AutoCAD 2000
 90
        0
280
     0
281
     0
  0
CLASS
  1
LWPOLYLINE
  2
AcDbPolyline
  3
AutoCAD 2000
 90
        0
280
     0
281
     1
  0
CLASS
  1
HATCH
  2
AcDbHatch
  3
AutoCAD 2000
 90
        0
280
     0
281
     1
  0
CLASS
  1
XRECORD
  2
AcDbXrecord
  3
AutoCAD 2000
 90
        0
280
     0
281
     0
  0
ENDSEC
  0
SECTION
  2
TABLES
  0
TABLE
  2
VPORT
  5
8
330
0
100
AcDbSymbolTable
 70
     2
  0
VPORT
  5
212
330
8
100
AcDbSymbolTableRecord
100
AcDbViewportTableRecord
  2
*ACTIVE
 70
     0
 10
0.0
 20
0.0
 11
1.0
 21
1.0
 12
22.57305917117402
 22
7.039764475356516
 13
0.0
 23
0.0
 14
0.5740882589684922
 24
0.5740882589684922
 15
0.5
 25
0.5
 16
0.0
 26
0.0
 36
1.0
 17
0.0
 27
0.0
 37
0.0
 40
6.199507648601396
 41
1.570528967254408
 42
50.0
 43
0.0
 44
0.0
 50
0.0
 51
0.0
 71
     0
 72
   100
 73
     1
 74
     1
 75
     0
 76
     0
 77
     0
 78
     0
  0
ENDTAB
  0
TABLE
  2
LTYPE
  5
5
330
0
100
AcDbSymbolTable
 70
     2
  0
LTYPE
  5
13
330
5
100
AcDbSymbolTableRecord
100
AcDbLinetypeTableRecord
  2
BYBLOCK
 70
     0
  3

 72
    65
 73
     0
 40
0.0
  0
LTYPE
  5
14
330
5
100
AcDbSymbolTableRecord
100
AcDbLinetypeTableRecord
  2
BYLAYER
 70
     0
  3

 72
    65
 73
     0
 40
0.0
  0
LTYPE
  5
15
330
5
100
AcDbSymbolTableRecord
100
AcDbLinetypeTableRecord
  2
CONTINUOUS
 70
     0
  3
Solid line
 72
    65
 73
     0
 40
0.0
  0
LTYPE
  5
24
330
5
100
AcDbSymbolTableRecord
100
AcDbLinetypeTableRecord
  2
HIDDEN2
 70
     0
  3
_ _ _ _ _ _ _ _ _ _ _ _ _ _ _ _ _ _ _ _ _ _ _ _
 72
    65
 73
     2
 40
0.1875
 49
0.125
 74
     0
 49
-0.0625
 74
     0
  0
ENDTAB
  0
TABLE
  2
LAYER
  5
2
330
0
100
AcDbSymbolTable
 70
     5
  0
LAYER
  5
10
330
2
100
AcDbSymbolTableRecord
100
AcDbLayerTableRecord
  2
0
 70
     0
 62
     7
  6
CONTINUOUS
  0
LAYER
  5
26
330
2
100
AcDbSymbolTableRecord
100
AcDbLayerTableRecord
  2
ADP2DETAIL
 70
     0
 62
     5
  6
CONTINUOUS
  0
LAYER
  5
27
330
2
100
AcDbSymbolTableRecord
100
AcDbLayerTableRecord
  2
ADPDIM
 70
     0
 62
     3
  6
CONTINUOUS
  0
LAYER
  5
28
330
2
100
AcDbSymbolTableRecord
100
AcDbLayerTableRecord
  2
ADP1DETAIL
 70
     0
 62
     7
  6
CONTINUOUS
  0
LAYER
  5
29
330
2
100
AcDbSymbolTableRecord
100
AcDbLayerTableRecord
  2
DEFPOINTS
 70
     0
 62
     7
  6
CONTINUOUS
  0
ENDTAB
  0
TABLE
  2
STYLE
  5
3
330
0
100
AcDbSymbolTable
 70
     2
  0
STYLE
  5
11
330
3
100
AcDbSymbolTableRecord
100
AcDbTextStyleTableRecord
  2
STANDARD
 70
     0
 40
0.0
 41
1.0
 50
0.0
 71
     0
 42
0.2
  3
txt
  4

  0
STYLE
  5
76
330
3
100
AcDbSymbolTableRecord
100
AcDbTextStyleTableRecord
  2
ARIAL_WIDE
 70
     0
 40
0.0
 41
1.25
 50
0.0
 71
     0
 42
0.2
  3
ARIAL.TTF
  4

1001
ACAD
1000
Arial
1071
       34
  0
ENDTAB
  0
TABLE
  2
VIEW
  5
6
330
0
100
AcDbSymbolTable
 70
     0
  0
ENDTAB
  0
TABLE
  2
UCS
  5
7
330
0
100
AcDbSymbolTable
 70
     0
  0
ENDTAB
  0
TABLE
  2
APPID
  5
9
330
0
100
AcDbSymbolTable
 70
     1
  0
APPID
  5
12
330
9
100
AcDbSymbolTableRecord
100
AcDbRegAppTableRecord
  2
ACAD
 70
     0
  0
ENDTAB
  0
TABLE
  2
DIMSTYLE
  5
A
330
0
100
AcDbSymbolTable
 70
     1
  0
DIMSTYLE
105
74
330
A
100
AcDbSymbolTableRecord
100
AcDbDimStyleTableRecord
  2
STANDARD
 70
     0
  3

  4

  5

  6

  7

 40
1.0
 41
0.18
 42
0.0625
 43
0.38
 44
0.18
 45
0.0
 46
0.0
 47
0.0
 48
0.0
140
0.18
141
0.09
142
0.0
143
25.4
144
1.0
145
0.0
146
1.0
147
0.09
 71
     0
 72
     0
 73
     1
 74
     1
 75
     0
 76
     0
 77
     0
 78
     0
170
     0
171
     2
172
     0
173
     0
174
     0
175
     0
176
     0
177
     0
178
     0
270
     2
271
     4
272
     4
273
     2
274
     2
340
11
275
     0
280
     0
281
     0
282
     0
283
     1
284
     0
285
     0
286
     0
287
     3
288
     0
  0
ENDTAB
  0
TABLE
  2
BLOCK_RECORD
  5
1
330
0
100
AcDbSymbolTable
 70
     2
  0
BLOCK_RECORD
  5
1E
102
{ACAD_XDICTIONARY
360
B7
102
}
330
1
100
AcDbSymbolTableRecord
100
AcDbBlockTableRecord
  2
*MODEL_SPACE
  0
BLOCK_RECORD
  5
1A
102
{ACAD_XDICTIONARY
360
B9
102
}
330
1
100
AcDbSymbolTableRecord
100
AcDbBlockTableRecord
  2
*PAPER_SPACE
  0
BLOCK_RECORD
  5
22
330
1
100
AcDbSymbolTableRecord
100
AcDbBlockTableRecord
  2
*D0
  0
BLOCK_RECORD
  5
23
330
1
100
AcDbSymbolTableRecord
100
AcDbBlockTableRecord
  2
*D1
  0
ENDTAB
  0
ENDSEC
  0
SECTION
  2
BLOCKS
  0
BLOCK
  5
2C
330
1E
100
AcDbEntity
  8
0
100
AcDbBlockBegin
  2
*MODEL_SPACE
 70
     0
 10
0.0
 20
0.0
 30
0.0
  3
*MODEL_SPACE
  1

  0
ENDBLK
  5
2D
330
1E
100
AcDbEntity
  8
0
100
AcDbBlockEnd
  0
BLOCK
  5
2A
330
1A
100
AcDbEntity
 67
     1
  8
0
100
AcDbBlockBegin
  2
*PAPER_SPACE
 70
     0
 10
0.0
 20
0.0
 30
0.0
  3
*PAPER_SPACE
  1

  0
ENDBLK
  5
2B
330
1A
100
AcDbEntity
 67
     1
  8
0
100
AcDbBlockEnd
  0
BLOCK
  5
2E
330
22
100
AcDbEntity
  8
0
100
AcDbBlockBegin
  2
*D0
 70
     1
 10
0.0
 20
0.0
 30
0.0
  3
*D0
  1
C:\DWGS\CATALOG\WEDGE3.DWG
  0
LINE
  5
2F
330
22
100
AcDbEntity
  8
0
  6
BYBLOCK
 62
     0
100
AcDbLine
 10
21.33040370324292
 20
6.643816504486701
 30
0.0
 11
21.01028714797805
 21
6.643816504486701
 31
0.0
  0
LINE
  5
30
330
22
100
AcDbEntity
  8
0
  6
BYBLOCK
 62
     0
100
AcDbLine
 10
21.33040370324292
 20
8.071316504486702
 30
0.0
 11
21.01028714797805
 21
8.071316504486702
 31
0.0
  0
LINE
  5
31
330
22
100
AcDbEntity
  8
0
  6
BYBLOCK
 62
     0
100
AcDbLine
 10
21.19028714797805
 20
6.643816504486701
 30
0.0
 11
21.19028714797805
 21
6.920066504486702
 31
0.0
  0
LINE
  5
32
330
22
100
AcDbEntity
  8
0
  6
BYBLOCK
 62
     0
100
AcDbLine
 10
21.19028714797805
 20
8.071316504486702
 30
0.0
 11
21.19028714797805
 21
7.795066504486702
 31
0.0
  0
LINE
  5
33
330
22
100
AcDbEntity
  8
0
  6
BYBLOCK
 62
     0
100
AcDbLine
 10
21.31528714797805
 20
6.518816504486701
 30
0.0
 11
21.06528714797805
 21
6.768816504486701
 31
0.0
  0
LINE
  5
34
330
22
100
AcDbEntity
  8
0
  6
BYBLOCK
 62
     0
100
AcDbLine
 10
21.31528714797805
 20
7.946316504486703
 30
0.0
 11
21.06528714797805
 21
8.196316504486702
 31
0.0
  0
TEXT
  5
35
330
22
100
AcDbEntity
  8
0
  6
BYBLOCK
 62
     0
100
AcDbText
 10
21.25278714797806
 20
7.045066504486702
 30
0.0
 40
0.125
  1
1 7/16
 50
90.0
 72
     1
 11
21.19028714797805
 21
7.357566504486702
 31
0.0
100
AcDbText
 73
     2
  0
POINT
  5
37
330
22
100
AcDbEntity
  8
DEFPOINTS
  6
BYBLOCK
 62
     0
100
AcDbPoint
 10
21.39290370324292
 20
6.643816504486701
 30
0.0
  0
POINT
  5
38
330
22
100
AcDbEntity
  8
DEFPOINTS
  6
BYBLOCK
 62
     0
100
AcDbPoint
 10
21.39290370324292
 20
8.071316504486702
 30
0.0
  0
POINT
  5
39
330
22
100
AcDbEntity
  8
DEFPOINTS
  6
BYBLOCK
 62
     0
100
AcDbPoint
 10
21.19028714797805
 20
8.071316504486702
 30
0.0
  0
ENDBLK
  5
3A
330
22
100
AcDbEntity
  8
0
100
AcDbBlockEnd
  0
BLOCK
  5
3B
330
23
100
AcDbEntity
  8
0
100
AcDbBlockBegin
  2
*D1
 70
     1
 10
0.0
 20
0.0
 30
0.0
  3
*D1
  1
C:\DWGS\CATALOG\WEDGE3.DWG
  0
LINE
  5
3C
330
23
100
AcDbEntity
  8
0
  6
BYBLOCK
 62
     0
100
AcDbLine
 10
21.39290370324292
 20
8.133816504486702
 30
0.0
 11
21.39290370324292
 21
8.479957922166988
 31
0.0
  0
LINE
  5
3D
330
23
100
AcDbEntity
  8
0
  6
BYBLOCK
 62
     0
100
AcDbLine
 10
22.14290370324293
 20
8.133816504486702
 30
0.0
 11
22.14290370324293
 21
8.479957922166988
 31
0.0
  0
LINE
  5
3E
330
23
100
AcDbEntity
  8
0
  6
BYBLOCK
 62
     0
100
AcDbLine
 10
21.39290370324292
 20
8.299957922166989
 30
0.0
 11
21.14290370324292
 21
8.299957922166989
 31
0.0
  0
LINE
  5
3F
330
23
100
AcDbEntity
  8
0
  6
BYBLOCK
 62
     0
100
AcDbLine
 10
22.14290370324293
 20
8.299957922166989
 30
0.0
 11
22.39290370324293
 21
8.299957922166989
 31
0.0
  0
LINE
  5
40
330
23
100
AcDbEntity
  8
0
  6
BYBLOCK
 62
     0
100
AcDbLine
 10
21.26790370324292
 20
8.174957922166989
 30
0.0
 11
21.51790370324292
 21
8.424957922166989
 31
0.0
  0
LINE
  5
41
330
23
100
AcDbEntity
  8
0
  6
BYBLOCK
 62
     0
100
AcDbLine
 10
22.01790370324292
 20
8.174957922166989
 30
0.0
 11
22.26790370324292
 21
8.424957922166989
 31
0.0
  0
TEXT
  5
42
330
23
100
AcDbEntity
  8
0
  6
BYBLOCK
 62
     0
100
AcDbText
 10
22.51790370324293
 20
8.237457922166989
 30
0.0
 40
0.125
  1
3/4
 72
     1
 11
22.68457036990959
 21
8.299957922166989
 31
0.0
100
AcDbText
 73
     2
  0
POINT
  5
43
330
23
100
AcDbEntity
  8
DEFPOINTS
  6
BYBLOCK
 62
     0
100
AcDbPoint
 10
21.39290370324292
 20
8.071316504486702
 30
0.0
  0
POINT
  5
44
330
23
100
AcDbEntity
  8
DEFPOINTS
  6
BYBLOCK
 62
     0
100
AcDbPoint
 10
22.14290370324293
 20
8.071316504486702
 30
0.0
  0
POINT
  5
45
330
23
100
AcDbEntity
  8
DEFPOINTS
  6
BYBLOCK
 62
     0
100
AcDbPoint
 10
22.14290370324293
 20
8.299957922166989
 30
0.0
  0
ENDBLK
  5
46
330
23
100
AcDbEntity
  8
0
100
AcDbBlockEnd
  0
ENDSEC
  0
SECTION
  2
ENTITIES
  0
ARC
  5
47
330
1E
100
AcDbEntity
  8
ADP1DETAIL
100
AcDbCircle
 10
23.46947156894959
 20
7.357566504486701
 30
0.0
 40
0.6539500000000018
100
AcDbArc
 50
198.8986230063312
 51
161.1013769936683
  0
ARC
  5
48
330
1E
100
AcDbEntity
  8
ADP1DETAIL
100
AcDbCircle
 10
23.46947156894959
 20
7.357566504486701
 30
0.0
 40
0.713750000000001
100
AcDbArc
 50
198.331169580657
 51
161.6688304193428
  0
ARC
  5
49
330
1E
100
AcDbEntity
  8
ADP1DETAIL
100
AcDbCircle
 10
23.46947156894959
 20
7.357566504486701
 30
0.0
 40
0.7699625460170872
100
AcDbArc
 50
203.1490133103358
 51
156.8509866896643
  0
LINE
  5
4A
330
1E
100
AcDbEntity
  8
ADP1DETAIL
100
AcDbLine
 10
21.7039308344119
 20
7.150155978170911
 30
0.0
 11
21.7039308344119
 21
6.640448374499652
 31
0.0
  0
LINE
  5
4B
330
1E
100
AcDbEntity
  8
ADP1DETAIL
100
AcDbLine
 10
21.83187657207394
 20
6.640448374499652
 30
0.0
 11
21.83187657207394
 21
7.150155978170911
 31
0.0
  0
DIMENSION
  5
4C
330
1E
100
AcDbEntity
  8
ADPDIM
100
AcDbDimension
  2
*D0
 10
21.19028714797805
 20
8.071316504486702
 30
0.0
 11
21.19028714797805
 21
7.357566504486702
 31
0.0
100
AcDbAlignedDimension
 13
21.39290370324292
 23
6.643816504486701
 33
0.0
 14
21.39290370324292
 24
8.071316504486702
 34
0.0
 50
90.0
100
AcDbRotatedDimension
  0
LINE
  5
4D
330
1E
100
AcDbEntity
  8
ADP1DETAIL
100
AcDbLine
 10
22.14290370324293
 20
6.643816504486701
 30
0.0
 11
22.14290370324293
 21
8.071316504486702
 31
0.0
  0
LINE
  5
4E
330
1E
100
AcDbEntity
  8
ADP1DETAIL
100
AcDbLine
 10
21.39290370324292
 20
8.071316504486702
 30
0.0
 11
21.39290370324292
 21
6.643816504486701
 31
0.0
  0
LINE
  5
4F
330
1E
100
AcDbEntity
  8
ADP1DETAIL
100
AcDbLine
 10
21.69445984713487
 20
6.643816504486701
 30
0.0
 11
21.39290370324292
 21
6.643816504486701
 31
0.0
  0
LINE
  5
50
330
1E
100
AcDbEntity
  8
ADP2DETAIL
  6
HIDDEN2
100
AcDbLine
 10
21.69445984713497
 20
6.703616504486702
 30
0.0
 11
21.39290370324292
 21
6.703616504486702
 31
0.0
  0
LINE
  5
51
330
1E
100
AcDbEntity
  8
ADP1DETAIL
100
AcDbLine
 10
22.14290370324293
 20
6.643816504486701
 30
0.0
 11
21.84134755935098
 21
6.643816504486701
 31
0.0
  0
LINE
  5
52
330
1E
100
AcDbEntity
  8
ADP2DETAIL
  6
HIDDEN2
100
AcDbLine
 10
22.14290370324293
 20
6.7036165044867
 30
0.0
 11
21.84134755935087
 21
6.703616504486702
 31
0.0
  0
ARC
  5
53
330
1E
100
AcDbEntity
  8
ADP1DETAIL
100
AcDbCircle
 10
21.84134755935098
 20
6.628816504486702
 30
0.0
 40
0.015
100
AcDbArc
 50
90.0
 51
168.3068500389557
  0
ARC
  5
54
330
1E
100
AcDbEntity
  8
ADP1DETAIL
100
AcDbCircle
 10
21.84134755935087
 20
6.688616504486701
 30
0.0
 40
0.015
100
AcDbArc
 50
90.0
 51
168.3068500389396
  0
ARC
  5
55
330
1E
100
AcDbEntity
  8
ADP1DETAIL
100
AcDbCircle
 10
21.69445984713487
 20
6.628816504486702
 30
0.0
 40
0.015
100
AcDbArc
 50
11.69314996104433
 51
90.0
  0
ARC
  5
56
330
1E
100
AcDbEntity
  8
ADP1DETAIL
100
AcDbCircle
 10
21.69445984713497
 20
6.688616504486701
 30
0.0
 40
0.015
100
AcDbArc
 50
11.69314996106036
 51
90.0
  0
ARC
  5
57
330
1E
100
AcDbEntity
  8
ADP1DETAIL
100
AcDbCircle
 10
21.76790370324293
 20
6.644016838934859
 30
0.0
 40
0.0600003344481593
100
AcDbArc
 50
191.6931499610437
 51
348.3068500389562
  0
ARC
  5
58
330
1E
100
AcDbEntity
  8
ADP2DETAIL
  6
HIDDEN2
100
AcDbCircle
 10
21.76790370324293
 20
6.70381683893486
 30
0.0
 40
0.0600003344481593
100
AcDbArc
 50
191.693149961061
 51
348.3068500389389
  0
DIMENSION
  5
59
330
1E
100
AcDbEntity
  8
ADPDIM
100
AcDbDimension
  2
*D1
 10
22.14290370324293
 20
8.299957922166989
 30
0.0
 11
22.68457036990959
 21
8.299957922166989
 31
0.0
100
AcDbAlignedDimension
 13
21.39290370324292
 23
8.071316504486702
 33
0.0
 14
22.14290370324293
 24
8.071316504486702
 34
0.0
100
AcDbRotatedDimension
  0
LINE
  5
5A
330
1E
100
AcDbEntity
  8
ADP1DETAIL
100
AcDbLine
 10
21.7039308344119
 20
7.137566504486702
 30
0.0
 11
21.39290370324292
 21
7.137566504486702
 31
0.0
  0
LINE
  5
5B
330
1E
100
AcDbEntity
  8
ADP1DETAIL
100
AcDbLine
 10
21.7039308344119
 20
7.150155978170911
 30
0.0
 11
21.39290370324292
 21
7.150155978170911
 31
0.0
  0
LINE
  5
5C
330
1E
100
AcDbEntity
  8
ADP1DETAIL
100
AcDbLine
 10
21.7039308344119
 20
7.564977030802491
 30
0.0
 11
21.39290370324292
 21
7.564977030802491
 31
0.0
  0
LINE
  5
5D
330
1E
100
AcDbEntity
  8
ADP1DETAIL
100
AcDbLine
 10
21.7039308344119
 20
7.577566504486703
 30
0.0
 11
21.39290370324292
 21
7.577566504486702
 31
0.0
  0
LINE
  5
5E
330
1E
100
AcDbEntity
  8
ADP2DETAIL
  6
HIDDEN2
100
AcDbLine
 10
21.69445984713497
 20
8.011516504486699
 30
0.0
 11
21.39290370324292
 21
8.011516504486699
 31
0.0
  0
LINE
  5
5F
330
1E
100
AcDbEntity
  8
ADP1DETAIL
100
AcDbLine
 10
21.69445984713487
 20
8.071316504486702
 30
0.0
 11
21.39290370324292
 21
8.071316504486702
 31
0.0
  0
LINE
  5
60
330
1E
100
AcDbEntity
  8
ADP1DETAIL
100
AcDbLine
 10
22.14290370324293
 20
7.137566504486702
 30
0.0
 11
21.83187657207394
 21
7.137566504486702
 31
0.0
  0
LINE
  5
61
330
1E
100
AcDbEntity
  8
ADP1DETAIL
100
AcDbLine
 10
22.14290370324293
 20
7.150155978170911
 30
0.0
 11
21.83187657207394
 21
7.150155978170911
 31
0.0
  0
LINE
  5
62
330
1E
100
AcDbEntity
  8
ADP1DETAIL
100
AcDbLine
 10
21.83187657207394
 20
7.0575665044867
 30
0.0
 11
21.7039308344119
 21
7.0575665044867
 31
0.0
  0
LINE
  5
63
330
1E
100
AcDbEntity
  8
ADP1DETAIL
100
AcDbLine
 10
22.14290370324293
 20
7.577566504486702
 30
0.0
 11
21.83187657207394
 21
7.577566504486703
 31
0.0
  0
LINE
  5
64
330
1E
100
AcDbEntity
  8
ADP1DETAIL
100
AcDbLine
 10
22.14290370324293
 20
7.564977030802491
 30
0.0
 11
21.83187657207394
 21
7.564977030802491
 31
0.0
  0
LINE
  5
65
330
1E
100
AcDbEntity
  8
ADP2DETAIL
  6
HIDDEN2
100
AcDbLine
 10
22.14290370324293
 20
8.011516504486703
 30
0.0
 11
21.84134755935087
 21
8.011516504486699
 31
0.0
  0
LINE
  5
66
330
1E
100
AcDbEntity
  8
ADP1DETAIL
100
AcDbLine
 10
22.14290370324293
 20
8.071316504486702
 30
0.0
 11
21.84134755935098
 21
8.071316504486702
 31
0.0
  0
LINE
  5
67
330
1E
100
AcDbEntity
  8
ADP1DETAIL
100
AcDbLine
 10
21.83187657207394
 20
7.6575665044867
 30
0.0
 11
21.7039308344119
 21
7.6575665044867
 31
0.0
  0
LINE
  5
68
330
1E
100
AcDbEntity
  8
ADP1DETAIL
100
AcDbLine
 10
21.7039308344119
 20
8.074684634473751
 30
0.0
 11
21.7039308344119
 21
7.564977030802491
 31
0.0
  0
LINE
  5
69
330
1E
100
AcDbEntity
  8
ADP1DETAIL
100
AcDbLine
 10
21.83187657207394
 20
7.564977030802491
 30
0.0
 11
21.83187657207394
 21
8.074684634473751
 31
0.0
  0
ARC
  5
6A
330
1E
100
AcDbEntity
  8
ADP2DETAIL
  6
HIDDEN2
100
AcDbCircle
 10
21.76790370324293
 20
8.011316170038544
 30
0.0
 40
0.0600003344481593
100
AcDbArc
 50
11.69314996106108
 51
168.3068500389389
  0
ARC
  5
6B
330
1E
100
AcDbEntity
  8
ADP1DETAIL
100
AcDbCircle
 10
21.84134755935087
 20
8.0265165044867
 30
0.0
 40
0.015
100
AcDbArc
 50
191.6931499610603
 51
270.0
  0
ARC
  5
6C
330
1E
100
AcDbEntity
  8
ADP1DETAIL
100
AcDbCircle
 10
21.69445984713497
 20
8.0265165044867
 30
0.0
 40
0.015
100
AcDbArc
 50
270.0
 51
348.3068500389396
  0
ARC
  5
6D
330
1E
100
AcDbEntity
  8
ADP1DETAIL
100
AcDbCircle
 10
21.69445984713487
 20
8.086316504486699
 30
0.0
 40
0.015
100
AcDbArc
 50
270.0
 51
348.3068500389556
  0
ARC
  5
6E
330
1E
100
AcDbEntity
  8
ADP1DETAIL
100
AcDbCircle
 10
21.84134755935098
 20
8.086316504486699
 30
0.0
 40
0.015
100
AcDbArc
 50
191.6931499610443
 51
270.0
  0
ARC
  5
6F
330
1E
100
AcDbEntity
  8
ADP1DETAIL
100
AcDbCircle
 10
21.76790370324293
 20
8.071116170038543
 30
0.0
 40
0.0600003344481593
100
AcDbArc
 50
11.69314996104379
 51
168.3068500389561
  0
LINE
  5
70
330
1E
100
AcDbEntity
  8
ADP1DETAIL
100
AcDbLine
 10
22.85077395789815
 20
7.145755577999894
 30
0.0
 11
22.79194115418926
 21
7.133085771294211
 31
0.0
  0
LINE
  5
71
330
1E
100
AcDbEntity
  8
ADP1DETAIL
100
AcDbLine
 10
22.81741637296423
 20
7.070651716283018
 30
0.0
 11
22.76150214268848
 21
7.054875880666545
 31
0.0
  0
LINE
  5
72
330
1E
100
AcDbEntity
  8
ADP1DETAIL
100
AcDbLine
 10
22.81741637296425
 20
7.644481292690377
 30
0.0
 11
22.76150214268848
 21
7.660257128306855
 31
0.0
  0
LINE
  5
73
330
1E
100
AcDbEntity
  8
ADP1DETAIL
100
AcDbLine
 10
22.85077395789815
 20
7.569377430973511
 30
0.0
 11
22.79194115418926
 21
7.582047237679192
 31
0.0
  0
TEXT
  5
12D
330
1E
100
AcDbEntity
  8
ADPDIM
100
AcDbText
 10
17.72890548201687
 20
5.62769587427561
 30
0.0
 40
0.09375
  1
J U L I U S  B L U M  &  C O . ,  I N C .      ( 8 0 0 )  5 2 6 - 6 2 9 3        W W W . J U L I U S B L U M . C O M        P A R T  N O .  2 9 2
 41
1.25
  7
ARIAL_WIDE
 72
     1
 11
22.57308181216694
 21
5.72144587427561
 31
0.0
100
AcDbText
 73
     3
  0
ENDSEC
  0
SECTION
  2
OBJECTS
  0
DICTIONARY
  5
C
330
0
100
AcDbDictionary
  3
ACAD_GROUP
350
D
  3
ACAD_LAYOUT
350
19
  3
ACAD_MLINESTYLE
350
16
  3
ACAD_PLOTSETTINGS
350
18
  3
ACAD_PLOTSTYLENAME
350
E
  3
ACDBHEADERROUNDTRIPXREC
350
213
  3
ACDBVARIABLEDICTIONARY
350
EC
  0
DICTIONARY
  5
B7
330
1E
100
AcDbDictionary
280
     1
  3
ACAD_LAYOUTSELFREF
360
235
  0
DICTIONARY
  5
B9
330
1A
100
AcDbDictionary
280
     1
  3
ACAD_LAYOUTSELFREF
360
234
  0
DICTIONARY
  5
D
102
{ACAD_REACTORS
330
C
102
}
330
C
100
AcDbDictionary
  0
DICTIONARY
  5
19
102
{ACAD_REACTORS
330
C
102
}
330
C
100
AcDbDictionary
  0
DICTIONARY
  5
16
102
{ACAD_REACTORS
330
C
102
}
330
C
100
AcDbDictionary
  3
STANDARD
350
17
  0
DICTIONARY
  5
18
102
{ACAD_REACTORS
330
C
102
}
330
C
100
AcDbDictionary
  0
ACDBDICTIONARYWDFLT
  5
E
102
{ACAD_REACTORS
330
C
102
}
330
C
100
AcDbDictionary
281
     1
  3
Normal
350
F
100
AcDbDictionaryWithDefault
340
F
  0
DICTIONARY
  5
213
102
{ACAD_REACTORS
330
C
102
}
330
C
100
AcDbDictionary
  3
CEPSNTYPE
350
21D
  3
DIMSTYLEDATA
350
221
  3
FINGERPRINTGUID
350
21E
  3
HYPERLINKBASE
350
216
  3
INSUNITS
350
21C
  3
LAYOUTDICT
350
218
  3
LWETCUNION
350
21B
  3
PLOTSETDICT
350
219
  3
PLOTSTYLNAMDICT
350
21A
  3
PSVPSCALE
350
220
  3
PUCSBASE
350
224
  3
PUCSORGBACK
350
22A
  3
PUCSORGBOTTOM
350
226
  3
PUCSORGFRONT
350
229
  3
PUCSORGLEFT
350
227
  3
PUCSORGRIGHT
350
228
  3
PUCSORGTOP
350
225
  3
PUCSORTHOREF
350
222
  3
PUCSORTHOVIEW
350
223
  3
STYLESHEET
350
217
  3
TSTACKALIGN
350
214
  3
TSTACKSIZE
350
215
  3
UCSBASE
350
22D
  3
UCSORGBACK
350
233
  3
UCSORGBOTTOM
350
22F
  3
UCSORGFRONT
350
232
  3
UCSORGLEFT
350
230
  3
UCSORGRIGHT
350
231
  3
UCSORGTOP
350
22E
  3
UCSORTHOREF
350
22B
  3
UCSORTHOVIEW
350
22C
  3
VERSIONGUID
350
21F
  0
DICTIONARY
  5
EC
102
{ACAD_REACTORS
330
C
102
}
330
C
100
AcDbDictionary
  3
DIMASSOC
350
EE
  3
HIDETEXT
350
ED
  0
XRECORD
  5
235
102
{ACAD_REACTORS
330
B7
102
}
330
B7
100
AcDbXrecord
340
1E
  0
XRECORD
  5
234
102
{ACAD_REACTORS
330
B9
102
}
330
B9
100
AcDbXrecord
340
1A
  0
MLINESTYLE
  5
17
102
{ACAD_REACTORS
330
16
102
}
330
16
100
AcDbMlineStyle
  2
STANDARD
 70
     0
  3

 62
   256
 51
90.0
 52
90.0
 71
     2
 49
0.5
 62
   256
  6
BYLAYER
 49
-0.5
 62
   256
  6
BYLAYER
  0
ACDBPLACEHOLDER
  5
F
102
{ACAD_REACTORS
330
E
102
}
330
E
100
AcDbPlaceHolder
280
     0
  0
XRECORD
  5
21D
102
{ACAD_REACTORS
330
213
102
}
330
213
100
AcDbXrecord
 90
        0
  0
XRECORD
  5
221
102
{ACAD_REACTORS
330
213
102
}
330
213
100
AcDbXrecord
1000
DSTYLE
1002
{
1070
   277
 70
     5
1070
   279
 70
     2
1002
}
  0
XRECORD
  5
21E
102
{ACAD_REACTORS
330
213
102
}
330
213
100
AcDbXrecord
  1
{94330AE3-6F32-4C7E-B60D-5A7BF0C33B51}
  0
XRECORD
  5
216
102
{ACAD_REACTORS
330
213
102
}
330
213
100
AcDbXrecord
  1

  0
XRECORD
  5
21C
102
{ACAD_REACTORS
330
213
102
}
330
213
100
AcDbXrecord
 90
        0
  0
XRECORD
  5
218
102
{ACAD_REACTORS
330
213
102
}
330
213
100
AcDbXrecord
340
19
  0
XRECORD
  5
21B
102
{ACAD_REACTORS
330
213
102
}
330
213
100
AcDbXrecord
 90
    14877
  0
XRECORD
  5
219
102
{ACAD_REACTORS
330
213
102
}
330
213
100
AcDbXrecord
340
18
  0
XRECORD
  5
21A
102
{ACAD_REACTORS
330
213
102
}
330
213
100
AcDbXrecord
340
E
  0
XRECORD
  5
220
102
{ACAD_REACTORS
330
213
102
}
330
213
100
AcDbXrecord
 40
0.0
  0
XRECORD
  5
224
102
{ACAD_REACTORS
330
213
102
}
330
213
100
AcDbXrecord
340
0
  0
XRECORD
  5
22A
102
{ACAD_REACTORS
330
213
102
}
330
213
100
AcDbXrecord
 10
0.0
 20
0.0
 30
0.0
  0
XRECORD
  5
226
102
{ACAD_REACTORS
330
213
102
}
330
213
100
AcDbXrecord
 10
0.0
 20
0.0
 30
0.0
  0
XRECORD
  5
229
102
{ACAD_REACTORS
330
213
102
}
330
213
100
AcDbXrecord
 10
0.0
 20
0.0
 30
0.0
  0
XRECORD
  5
227
102
{ACAD_REACTORS
330
213
102
}
330
213
100
AcDbXrecord
 10
0.0
 20
0.0
 30
0.0
  0
XRECORD
  5
228
102
{ACAD_REACTORS
330
213
102
}
330
213
100
AcDbXrecord
 10
0.0
 20
0.0
 30
0.0
  0
XRECORD
  5
225
102
{ACAD_REACTORS
330
213
102
}
330
213
100
AcDbXrecord
 10
0.0
 20
0.0
 30
0.0
  0
XRECORD
  5
222
102
{ACAD_REACTORS
330
213
102
}
330
213
100
AcDbXrecord
340
0
  0
XRECORD
  5
223
102
{ACAD_REACTORS
330
213
102
}
330
213
100
AcDbXrecord
 70
     0
  0
XRECORD
  5
217
102
{ACAD_REACTORS
330
213
102
}
330
213
100
AcDbXrecord
  1

  0
XRECORD
  5
214
102
{ACAD_REACTORS
330
213
102
}
330
213
100
AcDbXrecord
 90
        1
  0
XRECORD
  5
215
102
{ACAD_REACTORS
330
213
102
}
330
213
100
AcDbXrecord
 90
       70
  0
XRECORD
  5
22D
102
{ACAD_REACTORS
330
213
102
}
330
213
100
AcDbXrecord
340
0
  0
XRECORD
  5
233
102
{ACAD_REACTORS
330
213
102
}
330
213
100
AcDbXrecord
 10
0.0
 20
0.0
 30
0.0
  0
XRECORD
  5
22F
102
{ACAD_REACTORS
330
213
102
}
330
213
100
AcDbXrecord
 10
0.0
 20
0.0
 30
0.0
  0
XRECORD
  5
232
102
{ACAD_REACTORS
330
213
102
}
330
213
100
AcDbXrecord
 10
0.0
 20
0.0
 30
0.0
  0
XRECORD
  5
230
102
{ACAD_REACTORS
330
213
102
}
330
213
100
AcDbXrecord
 10
0.0
 20
0.0
 30
0.0
  0
XRECORD
  5
231
102
{ACAD_REACTORS
330
213
102
}
330
213
100
AcDbXrecord
 10
0.0
 20
0.0
 30
0.0
  0
XRECORD
  5
22E
102
{ACAD_REACTORS
330
213
102
}
330
213
100
AcDbXrecord
 10
0.0
 20
0.0
 30
0.0
  0
XRECORD
  5
22B
102
{ACAD_REACTORS
330
213
102
}
330
213
100
AcDbXrecord
340
0
  0
XRECORD
  5
22C
102
{ACAD_REACTORS
330
213
102
}
330
213
100
AcDbXrecord
 70
     0
  0
XRECORD
  5
21F
102
{ACAD_REACTORS
330
213
102
}
330
213
100
AcDbXrecord
  1
{4EC0D977-D017-493A-B4B8-81A730C3D40D}
  0
DICTIONARYVAR
  5
EE
102
{ACAD_REACTORS
330
EC
102
}
330
EC
100
DictionaryVariables
280
     0
  1
2
  0
DICTIONARYVAR
  5
ED
102
{ACAD_REACTORS
330
EC
102
}
330
EC
100
DictionaryVariables
280
     0
  1
1
  0
ENDSEC
  0
EOF
