  0
SECTION
  2
HEADER
  9
$ACADVER
  1
AC1014
  9
$ACADMAINTVER
 70
     9
  9
$DWGCODEPAGE
  3
ANSI_1252
  9
$INSBASE
 10
12.92767195261075
 20
2.830546216591787
 30
0.0
  9
$EXTMIN
 10
8.034094555895062
 20
1.249022221338147
 30
0.0
  9
$EXTMAX
 10
17.82268809272999
 20
4.290949078772865
 30
0.0
  9
$LIMMIN
 10
0.0
 20
0.0
  9
$LIMMAX
 10
36.0
 20
36.0
  9
$ORTHOMODE
 70
     1
  9
$REGENMODE
 70
     1
  9
$FILLMODE
 70
     1
  9
$QTEXTMODE
 70
     0
  9
$MIRRTEXT
 70
     1
  9
$DRAGMODE
 70
     0
  9
$LTSCALE
 40
1.0
  9
$OSMODE
 70
    37
  9
$ATTMODE
 70
     1
  9
$TEXTSIZE
 40
0.2
  9
$TRACEWID
 40
0.05
  9
$TEXTSTYLE
  7
STANDARD
  9
$CLAYER
  8
ADPDIM
  9
$CELTYPE
  6
BYLAYER
  9
$CECOLOR
 62
   256
  9
$CELTSCALE
 40
1.0
  9
$DELOBJ
 70
     1
  9
$DISPSILH
 70
     0
  9
$DIMSCALE
 40
1.0
  9
$DIMASZ
 40
0.125
  9
$DIMEXO
 40
0.0625
  9
$DIMDLI
 40
0.38
  9
$DIMRND
 40
0.0
  9
$DIMDLE
 40
0.0
  9
$DIMEXE
 40
0.18
  9
$DIMTP
 40
0.0
  9
$DIMTM
 40
0.0
  9
$DIMTXT
 40
0.125
  9
$DIMCEN
 40
0.1875
  9
$DIMTSZ
 40
0.125
  9
$DIMTOL
 70
     0
  9
$DIMLIM
 70
     0
  9
$DIMTIH
 70
     0
  9
$DIMTOH
 70
     0
  9
$DIMSE1
 70
     0
  9
$DIMSE2
 70
     0
  9
$DIMTAD
 70
     0
  9
$DIMZIN
 70
     3
  9
$DIMBLK
  1

  9
$DIMASO
 70
     1
  9
$DIMSHO
 70
     1
  9
$DIMPOST
  1

  9
$DIMAPOST
  1

  9
$DIMALT
 70
     0
  9
$DIMALTD
 70
     1
  9
$DIMALTF
 40
25.4
  9
$DIMLFAC
 40
1.0
  9
$DIMTOFL
 70
     0
  9
$DIMTVP
 40
0.0
  9
$DIMTIX
 70
     0
  9
$DIMSOXD
 70
     0
  9
$DIMSAH
 70
     0
  9
$DIMBLK1
  1

  9
$DIMBLK2
  1

  9
$DIMSTYLE
  2
STANDARD
  9
$DIMCLRD
 70
     0
  9
$DIMCLRE
 70
     0
  9
$DIMCLRT
 70
     0
  9
$DIMTFAC
 40
1.0
  9
$DIMGAP
 40
0.125
  9
$DIMJUST
 70
     0
  9
$DIMSD1
 70
     0
  9
$DIMSD2
 70
     0
  9
$DIMTOLJ
 70
     1
  9
$DIMTZIN
 70
     0
  9
$DIMALTZ
 70
     0
  9
$DIMALTTZ
 70
     0
  9
$DIMFIT
 70
     3
  9
$DIMUPT
 70
     0
  9
$DIMUNIT
 70
     2
  9
$DIMDEC
 70
     4
  9
$DIMTDEC
 70
     4
  9
$DIMALTU
 70
     2
  9
$DIMALTTD
 70
     2
  9
$DIMTXSTY
  7
STANDARD
  9
$DIMAUNIT
 70
     0
  9
$LUNITS
 70
     5
  9
$LUPREC
 70
     4
  9
$SKETCHINC
 40
0.1
  9
$FILLETRAD
 40
0.062
  9
$AUNITS
 70
     0
  9
$AUPREC
 70
     0
  9
$MENU
  1
acad
  9
$ELEVATION
 40
0.0
  9
$PELEVATION
 40
0.0
  9
$THICKNESS
 40
0.0
  9
$LIMCHECK
 70
     0
  9
$BLIPMODE
 70
     0
  9
$CHAMFERA
 40
0.0
  9
$CHAMFERB
 40
0.0
  9
$CHAMFERC
 40
0.0
  9
$CHAMFERD
 40
0.0
  9
$SKPOLY
 70
     0
  9
$TDCREATE
 40
2450367.518305359
  9
$TDUPDATE
 40
2452297.083523032
  9
$TDINDWG
 40
0.0157138079
  9
$TDUSRTIMER
 40
0.0157138079
  9
$USRTIMER
 70
     1
  9
$ANGBASE
 50
0.0
  9
$ANGDIR
 70
     0
  9
$PDMODE
 70
     0
  9
$PDSIZE
 40
0.0
  9
$PLINEWID
 40
0.0
  9
$COORDS
 70
     2
  9
$SPLFRAME
 70
     0
  9
$SPLINETYPE
 70
     6
  9
$SPLINESEGS
 70
     8
  9
$ATTDIA
 70
     0
  9
$ATTREQ
 70
     1
  9
$HANDLING
 70
 22529
  9
$HANDSEED
  5
356
  9
$SURFTAB1
 70
     6
  9
$SURFTAB2
 70
     6
  9
$SURFTYPE
 70
     6
  9
$SURFU
 70
     6
  9
$SURFV
 70
     6
  9
$UCSNAME
  2

  9
$UCSORG
 10
0.0
 20
0.0
 30
0.0
  9
$UCSXDIR
 10
1.0
 20
0.0
 30
0.0
  9
$UCSYDIR
 10
0.0
 20
1.0
 30
0.0
  9
$PUCSNAME
  2

  9
$PUCSORG
 10
0.0
 20
0.0
 30
0.0
  9
$PUCSXDIR
 10
1.0
 20
0.0
 30
0.0
  9
$PUCSYDIR
 10
0.0
 20
1.0
 30
0.0
  9
$USERI1
 70
     0
  9
$USERI2
 70
     0
  9
$USERI3
 70
     0
  9
$USERI4
 70
     0
  9
$USERI5
 70
     0
  9
$USERR1
 40
0.0
  9
$USERR2
 40
0.0
  9
$USERR3
 40
0.0
  9
$USERR4
 40
0.0
  9
$USERR5
 40
0.0
  9
$WORLDVIEW
 70
     1
  9
$SHADEDGE
 70
     3
  9
$SHADEDIF
 70
    70
  9
$TILEMODE
 70
     1
  9
$MAXACTVP
 70
    15
  9
$PINSBASE
 10
0.109376907348633
 20
0.0
 30
0.0
  9
$PLIMCHECK
 70
     0
  9
$PEXTMIN
 10
1.000000000000000E+20
 20
1.000000000000000E+20
 30
1.000000000000000E+20
  9
$PEXTMAX
 10
-1.000000000000000E+20
 20
-1.000000000000000E+20
 30
-1.000000000000000E+20
  9
$PLIMMIN
 10
0.0
 20
0.0
  9
$PLIMMAX
 10
12.0
 20
9.0
  9
$UNITMODE
 70
     0
  9
$VISRETAIN
 70
     0
  9
$PLINEGEN
 70
     0
  9
$PSLTSCALE
 70
     1
  9
$TREEDEPTH
 70
  3020
  9
$PICKSTYLE
 70
     1
  9
$CMLSTYLE
  2
STANDARD
  9
$CMLJUST
 70
     0
  9
$CMLSCALE
 40
1.0
  9
$PROXYGRAPHICS
 70
     1
  9
$MEASUREMENT
 70
     0
  0
ENDSEC
  0
SECTION
  2
CLASSES
  0
CLASS
  1
ACDBDICTIONARYWDFLT
  2
AcDbDictionaryWithDefault
  3
AutoCAD 2000
 90
        0
280
     0
281
     0
  0
CLASS
  1
ACDBPLACEHOLDER
  2
AcDbPlaceHolder
  3
AutoCAD 2000
 90
        0
280
     0
281
     0
  0
CLASS
  1
LAYOUT
  2
AcDbLayout
  3
AutoCAD 2000
 90
        0
280
     0
281
     0
  0
CLASS
  1
DICTIONARYVAR
  2
AcDbDictionaryVar
  3
AutoCAD 2000
 90
        0
280
     0
281
     0
  0
CLASS
  1
LONG_TRANSACTION
  2
AcDbLongTransaction
  3
AutoCAD 2000
 90
        0
280
     0
281
     0
  0
CLASS
  1
LWPOLYLINE
  2
AcDbPolyline
  3
AutoCAD 2000
 90
        0
280
     0
281
     1
  0
CLASS
  1
HATCH
  2
AcDbHatch
  3
AutoCAD 2000
 90
        0
280
     0
281
     1
  0
CLASS
  1
XRECORD
  2
AcDbXrecord
  3
AutoCAD 2000
 90
        0
280
     0
281
     0
  0
CLASS
  1
LONG_TRANSACTION
  2
AcDbLongTransaction
  3
AutoCAD 2000
 90
        0
280
     0
281
     0
  0
CLASS
  1
LWPOLYLINE
  2
AcDbPolyline
  3
AutoCAD 2000
 90
        0
280
     0
281
     1
  0
CLASS
  1
HATCH
  2
AcDbHatch
  3
AutoCAD 2000
 90
        0
280
     0
281
     1
  0
CLASS
  1
XRECORD
  2
AcDbXrecord
  3
AutoCAD 2000
 90
        0
280
     0
281
     0
  0
CLASS
  1
LONG_TRANSACTION
  2
AcDbLongTransaction
  3
AutoCAD 2000
 90
        0
280
     0
281
     0
  0
CLASS
  1
LWPOLYLINE
  2
AcDbPolyline
  3
AutoCAD 2000
 90
        0
280
     0
281
     1
  0
CLASS
  1
HATCH
  2
AcDbHatch
  3
AutoCAD 2000
 90
        0
280
     0
281
     1
  0
CLASS
  1
XRECORD
  2
AcDbXrecord
  3
AutoCAD 2000
 90
        0
280
     0
281
     0
  0
CLASS
  1
LONG_TRANSACTION
  2
AcDbLongTransaction
  3
AutoCAD 2000
 90
        0
280
     0
281
     0
  0
CLASS
  1
LWPOLYLINE
  2
AcDbPolyline
  3
AutoCAD 2000
 90
        0
280
     0
281
     1
  0
CLASS
  1
HATCH
  2
AcDbHatch
  3
AutoCAD 2000
 90
        0
280
     0
281
     1
  0
CLASS
  1
XRECORD
  2
AcDbXrecord
  3
AutoCAD 2000
 90
        0
280
     0
281
     0
  0
CLASS
  1
LONG_TRANSACTION
  2
AcDbLongTransaction
  3
AutoCAD 2000
 90
        0
280
     0
281
     0
  0
CLASS
  1
LWPOLYLINE
  2
AcDbPolyline
  3
AutoCAD 2000
 90
        0
280
     0
281
     1
  0
CLASS
  1
HATCH
  2
AcDbHatch
  3
AutoCAD 2000
 90
        0
280
     0
281
     1
  0
CLASS
  1
XRECORD
  2
AcDbXrecord
  3
AutoCAD 2000
 90
        0
280
     0
281
     0
  0
CLASS
  1
LONG_TRANSACTION
  2
AcDbLongTransaction
  3
AutoCAD 2000
 90
        0
280
     0
281
     0
  0
CLASS
  1
LWPOLYLINE
  2
AcDbPolyline
  3
AutoCAD 2000
 90
        0
280
     0
281
     1
  0
CLASS
  1
HATCH
  2
AcDbHatch
  3
AutoCAD 2000
 90
        0
280
     0
281
     1
  0
CLASS
  1
XRECORD
  2
AcDbXrecord
  3
AutoCAD 2000
 90
        0
280
     0
281
     0
  0
ENDSEC
  0
SECTION
  2
TABLES
  0
TABLE
  2
VPORT
  5
8
330
0
100
AcDbSymbolTable
 70
     2
  0
VPORT
  5
333
330
8
100
AcDbSymbolTableRecord
100
AcDbViewportTableRecord
  2
*ACTIVE
 70
     0
 10
0.0
 20
0.0
 11
1.0
 21
1.0
 12
12.93633892252847
 22
2.770202702807967
 13
0.0
 23
0.0
 14
0.5740882589684922
 24
0.5740882589684922
 15
0.5
 25
0.5
 16
0.0
 26
0.0
 36
1.0
 17
0.0
 27
0.0
 37
0.0
 40
6.274636861413388
 41
1.570528967254408
 42
50.0
 43
0.0
 44
0.0
 50
0.0
 51
0.0
 71
     0
 72
   100
 73
     1
 74
     0
 75
     0
 76
     0
 77
     0
 78
     0
  0
ENDTAB
  0
TABLE
  2
LTYPE
  5
5
330
0
100
AcDbSymbolTable
 70
     1
  0
LTYPE
  5
12
330
5
100
AcDbSymbolTableRecord
100
AcDbLinetypeTableRecord
  2
BYBLOCK
 70
     0
  3

 72
    65
 73
     0
 40
0.0
  0
LTYPE
  5
13
330
5
100
AcDbSymbolTableRecord
100
AcDbLinetypeTableRecord
  2
BYLAYER
 70
     0
  3

 72
    65
 73
     0
 40
0.0
  0
LTYPE
  5
14
330
5
100
AcDbSymbolTableRecord
100
AcDbLinetypeTableRecord
  2
CONTINUOUS
 70
     0
  3
Solid line
 72
    65
 73
     0
 40
0.0
  0
ENDTAB
  0
TABLE
  2
LAYER
  5
2
330
0
100
AcDbSymbolTable
 70
     4
  0
LAYER
  5
F
330
2
100
AcDbSymbolTableRecord
100
AcDbLayerTableRecord
  2
0
 70
     0
 62
     7
  6
CONTINUOUS
  0
LAYER
  5
41
330
2
100
AcDbSymbolTableRecord
100
AcDbLayerTableRecord
  2
ADPDIM
 70
     0
 62
     3
  6
CONTINUOUS
  0
LAYER
  5
43
330
2
100
AcDbSymbolTableRecord
100
AcDbLayerTableRecord
  2
ADP1DETAIL
 70
     0
 62
     7
  6
CONTINUOUS
  0
LAYER
  5
45
330
2
100
AcDbSymbolTableRecord
100
AcDbLayerTableRecord
  2
DEFPOINTS
 70
     0
 62
     7
  6
CONTINUOUS
  0
ENDTAB
  0
TABLE
  2
STYLE
  5
3
330
0
100
AcDbSymbolTable
 70
     2
  0
STYLE
  5
10
330
3
100
AcDbSymbolTableRecord
100
AcDbTextStyleTableRecord
  2
STANDARD
 70
     0
 40
0.0
 41
1.0
 50
0.0
 71
     0
 42
0.2
  3
txt
  4

  0
STYLE
  5
195
330
3
100
AcDbSymbolTableRecord
100
AcDbTextStyleTableRecord
  2
ARIAL_WIDE
 70
     0
 40
0.0
 41
1.25
 50
0.0
 71
     0
 42
0.2
  3
ARIAL.TTF
  4

1001
ACAD
1000
Arial
1071
       34
  0
ENDTAB
  0
TABLE
  2
VIEW
  5
6
330
0
100
AcDbSymbolTable
 70
     0
  0
ENDTAB
  0
TABLE
  2
UCS
  5
7
330
0
100
AcDbSymbolTable
 70
     0
  0
ENDTAB
  0
TABLE
  2
APPID
  5
9
330
0
100
AcDbSymbolTable
 70
     1
  0
APPID
  5
11
330
9
100
AcDbSymbolTableRecord
100
AcDbRegAppTableRecord
  2
ACAD
 70
     0
  0
ENDTAB
  0
TABLE
  2
DIMSTYLE
  5
A
330
0
100
AcDbSymbolTable
 70
     1
  0
DIMSTYLE
105
189
330
A
100
AcDbSymbolTableRecord
100
AcDbDimStyleTableRecord
  2
STANDARD
 70
     0
  3

  4

  5

  6

  7

 40
1.0
 41
0.18
 42
0.0625
 43
0.38
 44
0.18
 45
0.0
 46
0.0
 47
0.0
 48
0.0
140
0.18
141
0.09
142
0.0
143
25.4
144
1.0
145
0.0
146
1.0
147
0.09
 71
     0
 72
     0
 73
     1
 74
     1
 75
     0
 76
     0
 77
     0
 78
     0
170
     0
171
     2
172
     0
173
     0
174
     0
175
     0
176
     0
177
     0
178
     0
270
     2
271
     4
272
     4
273
     2
274
     2
340
10
275
     0
280
     0
281
     0
282
     0
283
     1
284
     0
285
     0
286
     0
287
     3
288
     0
  0
ENDTAB
  0
TABLE
  2
BLOCK_RECORD
  5
1
330
0
100
AcDbSymbolTable
 70
     1
  0
BLOCK_RECORD
  5
18
102
{ACAD_XDICTIONARY
360
1EA
102
}
330
1
100
AcDbSymbolTableRecord
100
AcDbBlockTableRecord
  2
*MODEL_SPACE
  0
BLOCK_RECORD
  5
15
102
{ACAD_XDICTIONARY
360
1E8
102
}
330
1
100
AcDbSymbolTableRecord
100
AcDbBlockTableRecord
  2
*PAPER_SPACE
  0
BLOCK_RECORD
  5
3F
330
1
100
AcDbSymbolTableRecord
100
AcDbBlockTableRecord
  2
*D0
  0
ENDTAB
  0
ENDSEC
  0
SECTION
  2
BLOCKS
  0
BLOCK
  5
48
330
18
100
AcDbEntity
  8
0
100
AcDbBlockBegin
  2
*MODEL_SPACE
 70
     0
 10
0.0
 20
0.0
 30
0.0
  3
*MODEL_SPACE
  1

  0
ENDBLK
  5
49
330
18
100
AcDbEntity
  8
0
100
AcDbBlockEnd
  0
BLOCK
  5
46
330
15
100
AcDbEntity
 67
     1
  8
0
100
AcDbBlockBegin
  2
*PAPER_SPACE
 70
     0
 10
0.0
 20
0.0
 30
0.0
  3
*PAPER_SPACE
  1

  0
ENDBLK
  5
47
330
15
100
AcDbEntity
 67
     1
  8
0
100
AcDbBlockEnd
  0
BLOCK
  5
4B
330
3F
100
AcDbEntity
  8
0
100
AcDbBlockBegin
  2
*D0
 70
     1
 10
0.0
 20
0.0
 30
0.0
  3
*D0
  1
*U
  0
LINE
  5
4C
330
3F
100
AcDbEntity
  8
0
  6
BYBLOCK
 62
     0
100
AcDbLine
 10
11.73698930550396
 20
2.896462256415537
 30
0.0
 11
11.73698930550396
 21
4.290949078772865
 31
0.0
  0
LINE
  5
4D
330
3F
100
AcDbEntity
  8
0
  6
BYBLOCK
 62
     0
100
AcDbLine
 10
14.11198930550396
 20
2.886977406813337
 30
0.0
 11
14.11198930550396
 21
4.290949078772865
 31
0.0
  0
LINE
  5
4E
330
3F
100
AcDbEntity
  8
0
  6
BYBLOCK
 62
     0
100
AcDbLine
 10
11.73698930550396
 20
4.110949078772865
 30
0.0
 11
12.50782263883729
 21
4.110949078772865
 31
0.0
  0
LINE
  5
4F
330
3F
100
AcDbEntity
  8
0
  6
BYBLOCK
 62
     0
100
AcDbLine
 10
14.11198930550396
 20
4.110949078772865
 30
0.0
 11
13.34115597217062
 21
4.110949078772865
 31
0.0
  0
LINE
  5
50
330
3F
100
AcDbEntity
  8
0
  6
BYBLOCK
 62
     0
100
AcDbLine
 10
11.61198930550396
 20
3.985949078772865
 30
0.0
 11
11.86198930550396
 21
4.235949078772865
 31
0.0
  0
LINE
  5
51
330
3F
100
AcDbEntity
  8
0
  6
BYBLOCK
 62
     0
100
AcDbLine
 10
13.98698930550396
 20
3.985949078772865
 30
0.0
 11
14.23698930550396
 21
4.235949078772865
 31
0.0
  0
TEXT
  5
52
330
3F
100
AcDbEntity
  8
0
  6
BYBLOCK
 62
     0
100
AcDbText
 10
12.63282263883729
 20
4.048449078772865
 30
0.0
 40
0.125
  1
2 3/8
 72
     1
 11
12.92448930550396
 21
4.110949078772865
 31
0.0
100
AcDbText
 73
     2
  0
POINT
  5
53
330
3F
100
AcDbEntity
  8
DEFPOINTS
  6
BYBLOCK
 62
     0
100
AcDbPoint
 10
11.73698930550396
 20
2.833962256415537
 30
0.0
  0
POINT
  5
54
330
3F
100
AcDbEntity
  8
DEFPOINTS
  6
BYBLOCK
 62
     0
100
AcDbPoint
 10
14.11198930550396
 20
2.824477406813337
 30
0.0
  0
POINT
  5
55
330
3F
100
AcDbEntity
  8
DEFPOINTS
  6
BYBLOCK
 62
     0
100
AcDbPoint
 10
14.11198930550396
 20
4.110949078772865
 30
0.0
  0
ENDBLK
  5
56
330
3F
100
AcDbEntity
  8
0
100
AcDbBlockEnd
  0
ENDSEC
  0
SECTION
  2
ENTITIES
  0
LWPOLYLINE
  5
57
330
18
100
AcDbEntity
  8
ADP1DETAIL
100
AcDbPolyline
 90
        3
 70
     0
 43
0.0
 10
12.49675306641568
 20
3.819228041167445
 42
0.9701946666664845
 10
12.28919928632663
 20
3.699396810361704
 42
-1.280776406404416
 10
12.25587315558119
 20
3.673237500468474
 42
2.816579086776098
  0
LWPOLYLINE
  5
5C
330
18
100
AcDbEntity
  8
ADP1DETAIL
100
AcDbPolyline
 90
        5
 70
     0
 43
0.0
 10
12.79738909165295
 20
2.827453285496622
 42
0.2059336222034713
 10
12.70418226816222
 20
3.047760322838362
 10
12.1957814127582
 20
3.573107873422511
 42
0.7440306508910428
 10
12.15341467480787
 20
3.513794440292043
 10
12.70418226816222
 20
3.047760322838362
  0
LWPOLYLINE
  5
63
330
18
100
AcDbEntity
  8
ADP1DETAIL
100
AcDbPolyline
 90
        5
 70
     0
 43
0.0
 10
12.91601595791389
 20
3.039286975248296
 42
-0.236067977499789
 10
12.74654900611255
 20
3.140967146329098
 10
12.35677501696947
 20
3.691734739683449
 42
-0.8198039027185494
 10
12.41608845009994
 20
3.734101477633784
 10
12.74654900611255
 20
3.140967146329098
  0
LWPOLYLINE
  5
6A
330
18
100
AcDbEntity
  8
ADP1DETAIL
100
AcDbPolyline
 90
        3
 70
     0
 43
0.0
 10
12.28098516562004
 20
1.963785277668269
 42
0.9701946666664845
 10
12.4885389457091
 20
1.843954046862529
 42
-1.280776406404416
 10
12.52785663799483
 20
1.828172425973751
 42
2.816579086776098
  0
LWPOLYLINE
  5
6F
330
18
100
AcDbEntity
  8
ADP1DETAIL
100
AcDbPolyline
 90
        5
 70
     0
 43
0.0
 10
12.91601595791389
 20
2.619152687980576
 42
0.236067977499789
 10
12.74654900611255
 20
2.517472516899773
 10
12.35677501696947
 20
1.966704923545422
 42
0.8198039027185494
 10
12.41608845009994
 20
1.924338185595087
 10
12.74654900611255
 20
2.517472516899773
  0
LWPOLYLINE
  5
76
330
18
100
AcDbEntity
  8
ADP1DETAIL
100
AcDbPolyline
 90
        5
 70
     0
 43
0.0
 10
12.79738909165295
 20
2.83098637773225
 42
-0.2059336222034713
 10
12.70418226816222
 20
2.61067934039051
 10
12.1957814127582
 20
2.08533178980636
 42
-0.7440306508910428
 10
12.15341467480787
 20
2.144645222936829
 10
12.70418226816222
 20
2.61067934039051
  0
DIMENSION
  5
7D
330
18
100
AcDbEntity
  8
ADPDIM
100
AcDbDimension
  2
*D0
 10
14.11198930550396
 20
4.110949078772865
 30
0.0
 11
12.92448930550396
 21
4.110949078772865
 31
0.0
100
AcDbAlignedDimension
 13
11.73698930550396
 23
2.833962256415537
 33
0.0
 14
14.11198930550396
 24
2.824477406813337
 34
0.0
100
AcDbRotatedDimension
  0
LWPOLYLINE
  5
7E
330
18
100
AcDbEntity
  8
ADP1DETAIL
100
AcDbPolyline
 90
        5
 70
     0
 43
0.0
 10
12.72112896334235
 20
2.822513030142182
 42
-0.3507810593582015
 10
12.61944879226155
 20
2.653046078340843
 10
12.03478780854693
 20
2.305638827148101
 42
-0.7920146586219388
 10
12.00089441818666
 20
2.364952260278568
 10
12.61944879226155
 20
2.653046078340843
  0
LWPOLYLINE
  5
85
330
18
100
AcDbEntity
  8
ADP1DETAIL
100
AcDbPolyline
 90
        4
 70
     0
 43
0.0
 10
12.43303514528008
 20
2.703886163881245
 42
-0.1201283533691503
 10
11.92463428987606
 20
2.55136590726004
 42
-0.8770404156177214
 10
11.91616094228599
 20
2.619152687980576
 42
0.0723017574442163
 10
12.39914175491981
 20
2.703886163881245
 42
-0.1603656485483489
  0
LWPOLYLINE
  5
8B
330
18
100
AcDbEntity
  8
ADP1DETAIL
100
AcDbPolyline
 90
        4
 70
     0
 43
0.0
 10
12.43303514528008
 20
2.954553499347627
 42
0.1201283533691503
 10
11.92463428987606
 20
3.107073755968832
 42
0.8770404156177214
 10
11.91616094228599
 20
3.039286975248296
 42
-0.0723017574442163
 10
12.39914175491981
 20
2.954553499347627
 42
0.1603656485483489
  0
LWPOLYLINE
  5
91
330
18
100
AcDbEntity
  8
ADP1DETAIL
100
AcDbPolyline
 90
        5
 70
     0
 43
0.0
 10
12.72112896334235
 20
2.835926633086689
 42
0.3507810593582015
 10
12.61944879226155
 20
3.005393584888028
 10
12.03478780854693
 20
3.352800836080771
 42
0.7920146586219388
 10
12.00089441818666
 20
3.293487402950304
 10
12.61944879226155
 20
3.005393584888028
  0
LWPOLYLINE
  5
98
330
18
100
AcDbEntity
  8
ADP1DETAIL
100
AcDbPolyline
 90
        3
 70
     0
 43
0.0
 10
12.0178411133668
 20
2.818979937906555
 10
12.39914175491981
 20
2.700353071645617
 42
0.3907830174443493
 10
12.56860870672115
 20
2.827453285496623
 42
-10.94510652785252
  0
LWPOLYLINE
  5
9D
330
18
100
AcDbEntity
  8
ADP1DETAIL
100
AcDbPolyline
 90
        3
 70
     0
 43
0.0
 10
12.0178411133668
 20
2.835926633086689
 10
12.39914175491981
 20
2.954553499347627
 42
-0.3907830174443493
 10
12.56860870672115
 20
2.827453285496623
 42
10.94510652785252
  0
LWPOLYLINE
  5
A2
330
18
100
AcDbEntity
  8
ADP1DETAIL
100
AcDbPolyline
 90
        3
 70
     0
 43
0.0
 10
11.85750852270194
 20
2.672291330879479
 42
0.9701946666664845
 10
11.91953773216314
 20
2.440795169616937
 42
-1.280776406404416
 10
11.93618024785041
 20
2.401834071632523
 42
2.816579086776098
  0
LWPOLYLINE
  5
A7
330
18
100
AcDbEntity
  8
ADP1DETAIL
100
AcDbPolyline
 90
        3
 70
     0
 43
0.0
 10
11.93448109595095
 20
2.401483592526159
 42
0.9701946666664845
 10
12.05431232675669
 20
2.193929812437104
 42
-1.280776406404416
 10
12.08047163664992
 20
2.160603681691664
 42
2.816579086776098
  0
LWPOLYLINE
  5
AC
330
18
100
AcDbEntity
  8
ADP1DETAIL
100
AcDbPolyline
 90
        3
 70
     0
 43
0.0
 10
12.07892109261508
 20
2.159825371999148
 42
0.9701946666664845
 10
12.24838804441642
 20
1.99035842019781
 42
-1.280776406404416
 10
12.28228143477668
 20
1.964938377427609
 42
2.816579086776098
  0
LWPOLYLINE
  5
B1
330
18
100
AcDbEntity
  8
ADP1DETAIL
100
AcDbPolyline
 90
        3
 70
     0
 43
0.0
 10
12.05905475155779
 20
3.47272397149835
 42
0.9701946666664845
 10
11.93922352075205
 20
3.265170191409294
 42
-1.280776406404416
 10
11.92344189986327
 20
3.225852499123567
 42
2.816579086776098
  0
LWPOLYLINE
  5
B6
330
18
100
AcDbEntity
  8
ADP1DETAIL
100
AcDbPolyline
 90
        3
 70
     0
 43
0.0
 10
11.92199259188012
 20
3.226806154801169
 42
0.9701946666664845
 10
11.85996338241892
 20
2.995309993538627
 42
-1.280776406404416
 10
11.85489567479477
 20
2.953247435081153
 42
2.816579086776098
  0
LWPOLYLINE
  5
BB
330
18
100
AcDbEntity
  8
ADP1DETAIL
100
AcDbPolyline
 90
        3
 70
     0
 43
0.0
 10
11.85324892653177
 20
2.953793487221278
 42
0.9701946666664845
 10
11.85324892653177
 20
2.714131025609797
 42
-1.280776406404416
 10
11.85924048807205
 20
2.672190094827788
 42
2.816579086776098
  0
LWPOLYLINE
  5
C0
330
18
100
AcDbEntity
  8
ADP1DETAIL
100
AcDbPolyline
 90
        3
 70
     0
 43
0.0
 10
12.25509484588867
 20
3.674788044503315
 42
0.9701946666664845
 10
12.08562789408733
 20
3.505321092701975
 42
-1.280776406404416
 10
12.06020785131713
 20
3.471427702341708
 42
2.816579086776098
  0
LWPOLYLINE
  5
C5
330
18
100
AcDbEntity
  8
ADP1DETAIL
100
AcDbPolyline
 90
        3
 70
     0
 43
0.0
 10
12.767560804769
 20
3.896200614416457
 42
0.9701946666664845
 10
12.53606464350646
 20
3.834171404955254
 42
-1.280776406404416
 10
12.49710354552205
 20
3.817528889267981
 42
2.816579086776098
  0
LWPOLYLINE
  5
CA
330
18
100
AcDbEntity
  8
ADP1DETAIL
100
AcDbPolyline
 90
        3
 70
     0
 43
0.0
 10
13.0490629611108
 20
3.900460210586627
 42
0.9701946666664845
 10
12.80940049949932
 20
3.900460210586627
 42
-1.280776406404416
 10
12.76745956871731
 20
3.89446864904634
 42
2.816579086776098
  0
LWPOLYLINE
  5
CF
330
18
100
AcDbEntity
  8
ADP1DETAIL
100
AcDbPolyline
 90
        3
 70
     0
 43
0.0
 10
13.32207562869069
 20
3.83171654523827
 42
0.9701946666664845
 10
13.09057946742815
 20
3.893745754699473
 42
-1.280776406404416
 10
13.04851690897067
 20
3.89881346232362
 42
2.816579086776098
  0
LWPOLYLINE
  5
D4
330
18
100
AcDbEntity
  8
ADP1DETAIL
100
AcDbPolyline
 90
        3
 70
     0
 43
0.0
 10
13.83113749764112
 20
2.839459725322317
 10
13.44983685608811
 20
2.958086591583255
 42
0.3907830174443493
 10
13.28036990428677
 20
2.83098637773225
 42
-10.94510652785252
  0
LWPOLYLINE
  5
D9
330
18
100
AcDbEntity
  8
ADP1DETAIL
100
AcDbPolyline
 90
        3
 70
     0
 43
0.0
 10
13.83113749764112
 20
2.822513030142182
 10
13.44983685608811
 20
2.703886163881244
 42
-0.3907830174443493
 10
13.28036990428677
 20
2.83098637773225
 42
10.94510652785252
  0
LWPOLYLINE
  5
DE
330
18
100
AcDbEntity
  8
ADP1DETAIL
100
AcDbPolyline
 90
        4
 70
     0
 43
0.0
 10
13.41594346572784
 20
2.703886163881245
 42
0.1201283533691503
 10
13.92434432113185
 20
2.55136590726004
 42
0.8770404156177214
 10
13.93281766872192
 20
2.619152687980576
 42
-0.0723017574442163
 10
13.44983685608811
 20
2.703886163881245
 42
0.1603656485483489
  0
LWPOLYLINE
  5
E4
330
18
100
AcDbEntity
  8
ADP1DETAIL
100
AcDbPolyline
 90
        5
 70
     0
 43
0.0
 10
13.12784964766556
 20
2.835926633086689
 42
-0.3507810593582015
 10
13.22952981874637
 20
3.005393584888028
 10
13.81419080246098
 20
3.352800836080771
 42
-0.7920146586219388
 10
13.84808419282125
 20
3.293487402950304
 10
13.22952981874637
 20
3.005393584888028
  0
LWPOLYLINE
  5
EB
330
18
100
AcDbEntity
  8
ADP1DETAIL
100
AcDbPolyline
 90
        4
 70
     0
 43
0.0
 10
13.41594346572784
 20
2.954553499347627
 42
-0.1201283533691503
 10
13.92434432113185
 20
3.107073755968832
 42
-0.8770404156177214
 10
13.93281766872192
 20
3.039286975248296
 42
0.0723017574442163
 10
13.44983685608811
 20
2.954553499347627
 42
-0.1603656485483489
  0
LWPOLYLINE
  5
F1
330
18
100
AcDbEntity
  8
ADP1DETAIL
100
AcDbPolyline
 90
        3
 70
     0
 43
0.0
 10
13.77005751839283
 20
3.498614291229723
 42
0.9701946666664845
 10
13.6005905665915
 20
3.668081243031062
 42
-1.280776406404416
 10
13.56669717623123
 20
3.693501285801263
 42
2.816579086776098
  0
LWPOLYLINE
  5
F6
330
18
100
AcDbEntity
  8
ADP1DETAIL
100
AcDbPolyline
 90
        3
 70
     0
 43
0.0
 10
13.91449751505696
 20
3.256956070702711
 42
0.9701946666664845
 10
13.79466628425122
 20
3.464509850791766
 42
-1.280776406404416
 10
13.76850697435799
 20
3.497835981537207
 42
2.816579086776098
  0
LWPOLYLINE
  5
FB
330
18
100
AcDbEntity
  8
ADP1DETAIL
100
AcDbPolyline
 90
        3
 70
     0
 43
0.0
 10
13.59388376511925
 20
1.983651618725557
 42
0.9701946666664845
 10
13.76335071692058
 20
2.153118570526896
 42
-1.280776406404416
 10
13.78877075969078
 20
2.187011960887163
 42
2.816579086776098
  0
LWPOLYLINE
  5
100
330
18
100
AcDbEntity
  8
ADP1DETAIL
100
AcDbPolyline
 90
        5
 70
     0
 43
0.0
 10
13.12784964766556
 20
2.822513030142182
 42
0.3507810593582015
 10
13.22952981874637
 20
2.653046078340843
 10
13.81419080246098
 20
2.305638827148101
 42
0.7920146586219388
 10
13.84808419282125
 20
2.364952260278568
 10
13.22952981874637
 20
2.653046078340843
  0
LWPOLYLINE
  5
107
330
18
100
AcDbEntity
  8
ADP1DETAIL
100
AcDbPolyline
 90
        5
 70
     0
 43
0.0
 10
13.05158951935496
 20
2.83098637773225
 42
0.2059336222034713
 10
13.1447963428457
 20
2.61067934039051
 10
13.65319719824971
 20
2.08533178980636
 42
0.7440306508910428
 10
13.69556393620005
 20
2.144645222936829
 10
13.1447963428457
 20
2.61067934039051
  0
LWPOLYLINE
  5
10E
330
18
100
AcDbEntity
  8
ADP1DETAIL
100
AcDbPolyline
 90
        5
 70
     0
 43
0.0
 10
12.93296265309402
 20
2.619152687980576
 42
-0.236067977499789
 10
13.10242960489536
 20
2.517472516899773
 10
13.49220359403844
 20
1.966704923545422
 42
-0.8198039027185494
 10
13.43289016090797
 20
1.924338185595087
 10
13.10242960489536
 20
2.517472516899773
  0
LWPOLYLINE
  5
115
330
18
100
AcDbEntity
  8
ADP1DETAIL
100
AcDbPolyline
 90
        3
 70
     0
 43
0.0
 10
12.79991564989711
 20
1.757979452642244
 42
0.9701946666664845
 10
13.03957811150859
 20
1.757979452642245
 42
-1.280776406404416
 10
13.08151904229061
 20
1.763971014182532
 42
2.816579086776098
  0
LWPOLYLINE
  5
11A
330
18
100
AcDbEntity
  8
ADP1DETAIL
100
AcDbPolyline
 90
        4
 70
     0
 43
0.0
 10
13.06006286694503
 20
2.381898955458702
 42
-0.0391191483895823
 10
13.23800316633643
 20
1.848078057284486
 42
-0.7047191962370077
 10
13.1702163856159
 20
1.814184666924219
 42
0.0964956419880474
 10
13.06006286694503
 20
2.381898955458702
 42
5.143570036993959
  0
LWPOLYLINE
  5
120
330
18
100
AcDbEntity
  8
ADP1DETAIL
100
AcDbPolyline
 90
        3
 70
     0
 43
0.0
 10
12.93472919921184
 20
1.922571639477274
 10
13.05335606547278
 20
2.303872281030286
 42
0.3907830174443493
 10
12.92625585162177
 20
2.473339232831624
 42
-10.94510652785252
  0
LWPOLYLINE
  5
125
330
18
100
AcDbEntity
  8
ADP1DETAIL
100
AcDbPolyline
 90
        4
 70
     0
 43
0.0
 10
12.90754261032382
 20
1.983651618725556
 10
12.88212256755362
 20
1.797237971744086
 42
0.9018882577319679
 10
12.94990934827416
 20
1.788764624154019
 10
12.91601595791389
 20
1.932811533185154
  0
LWPOLYLINE
  5
12B
330
18
100
AcDbEntity
  8
ADP1DETAIL
100
AcDbPolyline
 90
        4
 70
     0
 43
0.0
 10
12.78891574406289
 20
2.381898955458702
 42
0.0391191483895823
 10
12.61097544467148
 20
1.848078057284486
 42
0.7047191962370077
 10
12.67876222539202
 20
1.814184666924219
 42
-0.0964956419880474
 10
12.78891574406289
 20
2.381898955458702
 42
-5.143570036993959
  0
LWPOLYLINE
  5
131
330
18
100
AcDbEntity
  8
ADP1DETAIL
100
AcDbPolyline
 90
        3
 70
     0
 43
0.0
 10
12.52690298231722
 20
1.826723117990601
 42
0.9701946666664845
 10
12.75839914357977
 20
1.764693908529398
 42
-1.280776406404416
 10
12.80046170203724
 20
1.759626200905251
 42
2.816579086776098
  0
LWPOLYLINE
  5
136
330
18
100
AcDbEntity
  8
ADP1DETAIL
100
AcDbPolyline
 90
        3
 70
     0
 43
0.0
 10
12.9177825040317
 20
1.922571639477274
 10
12.79915563777077
 20
2.303872281030286
 42
-0.3907830174443493
 10
12.92625585162177
 20
2.473339232831624
 42
10.94510652785252
  0
LWPOLYLINE
  5
13B
330
18
100
AcDbEntity
  8
ADP1DETAIL
100
AcDbPolyline
 90
        3
 70
     0
 43
0.0
 10
13.08141780623891
 20
1.762239048812414
 42
0.9701946666664845
 10
13.31291396750146
 20
1.824268258273617
 42
-1.280776406404416
 10
13.35187506548587
 20
1.840910773960891
 42
2.816579086776098
  0
LWPOLYLINE
  5
140
330
18
100
AcDbEntity
  8
ADP1DETAIL
100
AcDbPolyline
 90
        3
 70
     0
 43
0.0
 10
13.35222554459223
 20
1.839211622061428
 42
0.9701946666664845
 10
13.55977932468129
 20
1.959042852867169
 42
-1.280776406404416
 10
13.59310545542673
 20
1.985202162760399
 42
2.816579086776098
  0
LWPOLYLINE
  5
145
330
18
100
AcDbEntity
  8
ADP1DETAIL
100
AcDbPolyline
 90
        4
 70
     0
 43
0.0
 10
13.06006286694503
 20
3.276540707770169
 42
0.0391191483895823
 10
13.23800316633643
 20
3.810361605944385
 42
0.7047191962370077
 10
13.1702163856159
 20
3.844254996304652
 42
-0.0964956419880474
 10
13.06006286694503
 20
3.276540707770169
 42
-5.143570036993959
  0
LWPOLYLINE
  5
14B
330
18
100
AcDbEntity
  8
ADP1DETAIL
100
AcDbPolyline
 90
        5
 70
     0
 43
0.0
 10
13.05158951935496
 20
2.827453285496622
 42
-0.2059336222034713
 10
13.1447963428457
 20
3.047760322838362
 10
13.65319719824971
 20
3.573107873422511
 42
-0.7440306508910428
 10
13.69556393620005
 20
3.513794440292043
 10
13.1447963428457
 20
3.047760322838362
  0
LWPOLYLINE
  5
152
330
18
100
AcDbEntity
  8
ADP1DETAIL
100
AcDbPolyline
 90
        5
 70
     0
 43
0.0
 10
12.93296265309402
 20
3.039286975248296
 42
0.236067977499789
 10
13.10242960489536
 20
3.140967146329098
 10
13.49220359403844
 20
3.691734739683449
 42
0.8198039027185494
 10
13.43289016090797
 20
3.734101477633784
 10
13.10242960489536
 20
3.140967146329098
  0
LWPOLYLINE
  5
159
330
18
100
AcDbEntity
  8
ADP1DETAIL
100
AcDbPolyline
 90
        3
 70
     0
 43
0.0
 10
12.93119610697621
 20
3.735868023751597
 10
13.04982297323715
 20
3.354567382198585
 42
-0.3907830174443493
 10
12.92272275938614
 20
3.185100430397247
 42
10.94510652785252
  0
LWPOLYLINE
  5
15E
330
18
100
AcDbEntity
  8
ADP1DETAIL
100
AcDbPolyline
 90
        3
 70
     0
 43
0.0
 10
12.91424941179608
 20
3.735868023751597
 10
12.79562254553514
 20
3.354567382198585
 42
0.3907830174443493
 10
12.92272275938614
 20
3.185100430397247
 42
-10.94510652785252
  0
CIRCLE
  5
163
330
18
100
AcDbEntity
  8
ADP1DETAIL
100
AcDbCircle
 10
12.92839132431252
 20
2.829219831614436
 30
0.0
 40
0.0911701946462356
  0
LWPOLYLINE
  5
164
330
18
100
AcDbEntity
  8
ADP1DETAIL
100
AcDbPolyline
 90
        4
 70
     0
 43
0.0
 10
12.78891574406289
 20
3.276540707770169
 42
-0.0391191483895823
 10
12.61097544467148
 20
3.810361605944385
 42
-0.7047191962370077
 10
12.67876222539202
 20
3.844254996304652
 42
0.0964956419880474
 10
12.78891574406289
 20
3.276540707770169
 42
5.143570036993959
  0
LWPOLYLINE
  5
16A
330
18
100
AcDbEntity
  8
ADP1DETAIL
100
AcDbPolyline
 90
        4
 70
     0
 43
0.0
 10
12.90754261032382
 20
3.674788044503315
 10
12.88212256755362
 20
3.861201691484785
 42
-0.9018882577319679
 10
12.94990934827416
 20
3.869675039074852
 10
12.91601595791389
 20
3.725628130043717
  0
LWPOLYLINE
  5
170
330
18
100
AcDbEntity
  8
ADP1DETAIL
100
AcDbPolyline
 90
        3
 70
     0
 43
0.0
 10
13.56799344538787
 20
3.694654385560601
 42
0.9701946666664845
 10
13.36043966529882
 20
3.81448561636634
 42
-1.280776406404416
 10
13.32112197301309
 20
3.830267237255119
 42
2.816579086776098
  0
LWPOLYLINE
  5
175
330
18
100
AcDbEntity
  8
ADP1DETAIL
100
AcDbPolyline
 90
        3
 70
     0
 43
0.0
 10
13.92698601912779
 20
2.431633508427703
 42
0.9701946666664845
 10
13.989015228589
 20
2.663129669690245
 42
-1.280776406404416
 10
13.99408293621314
 20
2.705192228147719
 42
2.816579086776098
  0
LWPOLYLINE
  5
17A
330
18
100
AcDbEntity
  8
ADP1DETAIL
100
AcDbPolyline
 90
        3
 70
     0
 43
0.0
 10
13.78992385945013
 20
2.185715691730521
 42
0.9701946666664845
 10
13.90975509025587
 20
2.393269471819577
 42
-1.280776406404416
 10
13.92553671114464
 20
2.432587164105305
 42
2.816579086776098
  0
LWPOLYLINE
  5
17F
330
18
100
AcDbEntity
  8
ADP1DETAIL
100
AcDbPolyline
 90
        3
 70
     0
 43
0.0
 10
13.99147008830598
 20
2.986148332349391
 42
0.9701946666664845
 10
13.92944087884477
 20
3.217644493611933
 42
-1.280776406404416
 10
13.9127983631575
 20
3.256605591596347
 42
2.816579086776098
  0
LWPOLYLINE
  5
184
330
18
100
AcDbEntity
  8
ADP1DETAIL
100
AcDbPolyline
 90
        3
 70
     0
 43
0.0
 10
13.99572968447615
 20
2.704646176007595
 42
0.9701946666664845
 10
13.99572968447615
 20
2.944308637619077
 42
-1.280776406404416
 10
13.98973812293586
 20
2.986249568401085
 42
2.816579086776098
  0
TEXT
  5
196
330
18
100
AcDbEntity
  8
ADPDIM
100
AcDbText
 10
8.034094555895062
 20
1.276776314107587
 30
0.0
 40
0.09375
  1
J U L I U S  B L U M  &  C O . ,  I N C .      ( 8 0 0 )  5 2 6 - 6 2 9 3        W W W . J U L I U S B L U M . C O M        P A R T  N o .  2 6 1 1
 41
1.25
  7
ARIAL_WIDE
 72
     1
 11
12.92839132431252
 21
1.370526314107587
 31
0.0
100
AcDbText
 73
     3
  0
ENDSEC
  0
SECTION
  2
OBJECTS
  0
DICTIONARY
  5
C
330
0
100
AcDbDictionary
  3
ACAD_GROUP
350
D
  3
ACAD_LAYOUT
350
18F
  3
ACAD_MLINESTYLE
350
E
  3
ACAD_PLOTSETTINGS
350
190
  3
ACAD_PLOTSTYLENAME
350
18D
  3
ACDBHEADERROUNDTRIPXREC
350
334
  3
ACDBVARIABLEDICTIONARY
350
1F0
  0
DICTIONARY
  5
1EA
330
18
100
AcDbDictionary
280
     1
  3
ACAD_LAYOUTSELFREF
360
355
  0
DICTIONARY
  5
1E8
330
15
100
AcDbDictionary
280
     1
  3
ACAD_LAYOUTSELFREF
360
354
  0
DICTIONARY
  5
D
102
{ACAD_REACTORS
330
C
102
}
330
C
100
AcDbDictionary
  0
DICTIONARY
  5
18F
102
{ACAD_REACTORS
330
C
102
}
330
C
100
AcDbDictionary
  0
DICTIONARY
  5
E
102
{ACAD_REACTORS
330
C
102
}
330
C
100
AcDbDictionary
  3
STANDARD
350
1B
  0
DICTIONARY
  5
190
102
{ACAD_REACTORS
330
C
102
}
330
C
100
AcDbDictionary
  0
ACDBDICTIONARYWDFLT
  5
18D
102
{ACAD_REACTORS
330
C
102
}
330
C
100
AcDbDictionary
281
     1
  3
Normal
350
18E
100
AcDbDictionaryWithDefault
340
18E
  0
DICTIONARY
  5
334
102
{ACAD_REACTORS
330
C
102
}
330
C
100
AcDbDictionary
  3
CEPSNTYPE
350
33E
  3
FINGERPRINTGUID
350
33F
  3
HYPERLINKBASE
350
337
  3
INSUNITS
350
33D
  3
LAYOUTDICT
350
339
  3
LWETCUNION
350
33C
  3
PLOTSETDICT
350
33A
  3
PLOTSTYLNAMDICT
350
33B
  3
PSVPSCALE
350
341
  3
PUCSBASE
350
344
  3
PUCSORGBACK
350
34A
  3
PUCSORGBOTTOM
350
346
  3
PUCSORGFRONT
350
349
  3
PUCSORGLEFT
350
347
  3
PUCSORGRIGHT
350
348
  3
PUCSORGTOP
350
345
  3
PUCSORTHOREF
350
342
  3
PUCSORTHOVIEW
350
343
  3
STYLESHEET
350
338
  3
TSTACKALIGN
350
335
  3
TSTACKSIZE
350
336
  3
UCSBASE
350
34D
  3
UCSORGBACK
350
353
  3
UCSORGBOTTOM
350
34F
  3
UCSORGFRONT
350
352
  3
UCSORGLEFT
350
350
  3
UCSORGRIGHT
350
351
  3
UCSORGTOP
350
34E
  3
UCSORTHOREF
350
34B
  3
UCSORTHOVIEW
350
34C
  3
VERSIONGUID
350
340
  0
DICTIONARY
  5
1F0
102
{ACAD_REACTORS
330
C
102
}
330
C
100
AcDbDictionary
  3
DIMASSOC
350
1F1
  0
XRECORD
  5
355
102
{ACAD_REACTORS
330
1EA
102
}
330
1EA
100
AcDbXrecord
340
18
  0
XRECORD
  5
354
102
{ACAD_REACTORS
330
1E8
102
}
330
1E8
100
AcDbXrecord
340
15
  0
MLINESTYLE
  5
1B
102
{ACAD_REACTORS
330
E
102
}
330
E
100
AcDbMlineStyle
  2
STANDARD
 70
     0
  3

 62
     0
 51
90.0
 52
90.0
 71
     2
 49
0.5
 62
   256
  6
BYLAYER
 49
-0.5
 62
   256
  6
BYLAYER
  0
ACDBPLACEHOLDER
  5
18E
102
{ACAD_REACTORS
330
18D
102
}
330
18D
100
AcDbPlaceHolder
280
     0
  0
XRECORD
  5
33E
102
{ACAD_REACTORS
330
334
102
}
330
334
100
AcDbXrecord
 90
        0
  0
XRECORD
  5
33F
102
{ACAD_REACTORS
330
334
102
}
330
334
100
AcDbXrecord
  1
{6D541CDE-F8C5-46D6-821A-AB8B726E5C3C}
  0
XRECORD
  5
337
102
{ACAD_REACTORS
330
334
102
}
330
334
100
AcDbXrecord
  1

  0
XRECORD
  5
33D
102
{ACAD_REACTORS
330
334
102
}
330
334
100
AcDbXrecord
 90
        0
  0
XRECORD
  5
339
102
{ACAD_REACTORS
330
334
102
}
330
334
100
AcDbXrecord
340
18F
  0
XRECORD
  5
33C
102
{ACAD_REACTORS
330
334
102
}
330
334
100
AcDbXrecord
 90
    14877
  0
XRECORD
  5
33A
102
{ACAD_REACTORS
330
334
102
}
330
334
100
AcDbXrecord
340
190
  0
XRECORD
  5
33B
102
{ACAD_REACTORS
330
334
102
}
330
334
100
AcDbXrecord
340
18D
  0
XRECORD
  5
341
102
{ACAD_REACTORS
330
334
102
}
330
334
100
AcDbXrecord
 40
0.0
  0
XRECORD
  5
344
102
{ACAD_REACTORS
330
334
102
}
330
334
100
AcDbXrecord
340
0
  0
XRECORD
  5
34A
102
{ACAD_REACTORS
330
334
102
}
330
334
100
AcDbXrecord
 10
0.0
 20
0.0
 30
0.0
  0
XRECORD
  5
346
102
{ACAD_REACTORS
330
334
102
}
330
334
100
AcDbXrecord
 10
0.0
 20
0.0
 30
0.0
  0
XRECORD
  5
349
102
{ACAD_REACTORS
330
334
102
}
330
334
100
AcDbXrecord
 10
0.0
 20
0.0
 30
0.0
  0
XRECORD
  5
347
102
{ACAD_REACTORS
330
334
102
}
330
334
100
AcDbXrecord
 10
0.0
 20
0.0
 30
0.0
  0
XRECORD
  5
348
102
{ACAD_REACTORS
330
334
102
}
330
334
100
AcDbXrecord
 10
0.0
 20
0.0
 30
0.0
  0
XRECORD
  5
345
102
{ACAD_REACTORS
330
334
102
}
330
334
100
AcDbXrecord
 10
0.0
 20
0.0
 30
0.0
  0
XRECORD
  5
342
102
{ACAD_REACTORS
330
334
102
}
330
334
100
AcDbXrecord
340
0
  0
XRECORD
  5
343
102
{ACAD_REACTORS
330
334
102
}
330
334
100
AcDbXrecord
 70
     0
  0
XRECORD
  5
338
102
{ACAD_REACTORS
330
334
102
}
330
334
100
AcDbXrecord
  1

  0
XRECORD
  5
335
102
{ACAD_REACTORS
330
334
102
}
330
334
100
AcDbXrecord
 90
        1
  0
XRECORD
  5
336
102
{ACAD_REACTORS
330
334
102
}
330
334
100
AcDbXrecord
 90
       70
  0
XRECORD
  5
34D
102
{ACAD_REACTORS
330
334
102
}
330
334
100
AcDbXrecord
340
0
  0
XRECORD
  5
353
102
{ACAD_REACTORS
330
334
102
}
330
334
100
AcDbXrecord
 10
0.0
 20
0.0
 30
0.0
  0
XRECORD
  5
34F
102
{ACAD_REACTORS
330
334
102
}
330
334
100
AcDbXrecord
 10
0.0
 20
0.0
 30
0.0
  0
XRECORD
  5
352
102
{ACAD_REACTORS
330
334
102
}
330
334
100
AcDbXrecord
 10
0.0
 20
0.0
 30
0.0
  0
XRECORD
  5
350
102
{ACAD_REACTORS
330
334
102
}
330
334
100
AcDbXrecord
 10
0.0
 20
0.0
 30
0.0
  0
XRECORD
  5
351
102
{ACAD_REACTORS
330
334
102
}
330
334
100
AcDbXrecord
 10
0.0
 20
0.0
 30
0.0
  0
XRECORD
  5
34E
102
{ACAD_REACTORS
330
334
102
}
330
334
100
AcDbXrecord
 10
0.0
 20
0.0
 30
0.0
  0
XRECORD
  5
34B
102
{ACAD_REACTORS
330
334
102
}
330
334
100
AcDbXrecord
340
0
  0
XRECORD
  5
34C
102
{ACAD_REACTORS
330
334
102
}
330
334
100
AcDbXrecord
 70
     0
  0
XRECORD
  5
340
102
{ACAD_REACTORS
330
334
102
}
330
334
100
AcDbXrecord
  1
{C52B01B2-0369-453E-9C23-DC87DD64F626}
  0
DICTIONARYVAR
  5
1F1
102
{ACAD_REACTORS
330
1F0
102
}
330
1F0
100
DictionaryVariables
280
     0
  1
1
  0
ENDSEC
  0
EOF
