  0
SECTION
  2
HEADER
  9
$ACADVER
  1
AC1014
  9
$ACADMAINTVER
 70
     9
  9
$DWGCODEPAGE
  3
ANSI_1252
  9
$INSBASE
 10
1.067026814695848
 20
0.0209587843010127
 30
0.0
  9
$EXTMIN
 10
-3.827269953721613
 20
-0.4732330693370397
 30
0.0
  9
$EXTMAX
 10
5.961323583113311
 20
3.647863247392092
 30
0.0
  9
$LIMMIN
 10
0.0
 20
0.0
  9
$LIMMAX
 10
36.0
 20
36.0
  9
$ORTHOMODE
 70
     1
  9
$REGENMODE
 70
     1
  9
$FILLMODE
 70
     1
  9
$QTEXTMODE
 70
     0
  9
$MIRRTEXT
 70
     1
  9
$DRAGMODE
 70
     0
  9
$LTSCALE
 40
1.0
  9
$OSMODE
 70
    37
  9
$ATTMODE
 70
     1
  9
$TEXTSIZE
 40
0.2
  9
$TRACEWID
 40
0.05
  9
$TEXTSTYLE
  7
STANDARD
  9
$CLAYER
  8
ADPDIM
  9
$CELTYPE
  6
BYLAYER
  9
$CECOLOR
 62
   256
  9
$CELTSCALE
 40
1.0
  9
$DELOBJ
 70
     1
  9
$DISPSILH
 70
     0
  9
$DIMSCALE
 40
1.0
  9
$DIMASZ
 40
0.125
  9
$DIMEXO
 40
0.0625
  9
$DIMDLI
 40
0.38
  9
$DIMRND
 40
0.0
  9
$DIMDLE
 40
0.0
  9
$DIMEXE
 40
0.18
  9
$DIMTP
 40
0.0
  9
$DIMTM
 40
0.0
  9
$DIMTXT
 40
0.125
  9
$DIMCEN
 40
0.1875
  9
$DIMTSZ
 40
0.125
  9
$DIMTOL
 70
     0
  9
$DIMLIM
 70
     0
  9
$DIMTIH
 70
     0
  9
$DIMTOH
 70
     0
  9
$DIMSE1
 70
     0
  9
$DIMSE2
 70
     0
  9
$DIMTAD
 70
     0
  9
$DIMZIN
 70
     3
  9
$DIMBLK
  1

  9
$DIMASO
 70
     1
  9
$DIMSHO
 70
     1
  9
$DIMPOST
  1

  9
$DIMAPOST
  1

  9
$DIMALT
 70
     0
  9
$DIMALTD
 70
     1
  9
$DIMALTF
 40
25.4
  9
$DIMLFAC
 40
1.0
  9
$DIMTOFL
 70
     0
  9
$DIMTVP
 40
0.0
  9
$DIMTIX
 70
     0
  9
$DIMSOXD
 70
     0
  9
$DIMSAH
 70
     0
  9
$DIMBLK1
  1

  9
$DIMBLK2
  1

  9
$DIMSTYLE
  2
STANDARD
  9
$DIMCLRD
 70
     0
  9
$DIMCLRE
 70
     0
  9
$DIMCLRT
 70
     0
  9
$DIMTFAC
 40
1.0
  9
$DIMGAP
 40
0.125
  9
$DIMJUST
 70
     0
  9
$DIMSD1
 70
     0
  9
$DIMSD2
 70
     0
  9
$DIMTOLJ
 70
     1
  9
$DIMTZIN
 70
     3
  9
$DIMALTZ
 70
     3
  9
$DIMALTTZ
 70
     3
  9
$DIMFIT
 70
     5
  9
$DIMUPT
 70
     0
  9
$DIMUNIT
 70
     5
  9
$DIMDEC
 70
     5
  9
$DIMTDEC
 70
     5
  9
$DIMALTU
 70
     5
  9
$DIMALTTD
 70
     1
  9
$DIMTXSTY
  7
STANDARD
  9
$DIMAUNIT
 70
     0
  9
$LUNITS
 70
     5
  9
$LUPREC
 70
     5
  9
$SKETCHINC
 40
0.1
  9
$FILLETRAD
 40
0.0
  9
$AUNITS
 70
     0
  9
$AUPREC
 70
     0
  9
$MENU
  1
acad
  9
$ELEVATION
 40
0.0
  9
$PELEVATION
 40
0.0
  9
$THICKNESS
 40
0.0
  9
$LIMCHECK
 70
     0
  9
$BLIPMODE
 70
     0
  9
$CHAMFERA
 40
0.0
  9
$CHAMFERB
 40
0.0
  9
$CHAMFERC
 40
0.0
  9
$CHAMFERD
 40
0.0
  9
$SKPOLY
 70
     0
  9
$TDCREATE
 40
2450414.662840856
  9
$TDUPDATE
 40
2452297.083442558
  9
$TDINDWG
 40
0.0163895949
  9
$TDUSRTIMER
 40
0.0163895949
  9
$USRTIMER
 70
     1
  9
$ANGBASE
 50
0.0
  9
$ANGDIR
 70
     0
  9
$PDMODE
 70
     0
  9
$PDSIZE
 40
0.0
  9
$PLINEWID
 40
0.0
  9
$COORDS
 70
     2
  9
$SPLFRAME
 70
     0
  9
$SPLINETYPE
 70
     6
  9
$SPLINESEGS
 70
     8
  9
$ATTDIA
 70
     0
  9
$ATTREQ
 70
     1
  9
$HANDLING
 70
 22529
  9
$HANDSEED
  5
2D5
  9
$SURFTAB1
 70
     6
  9
$SURFTAB2
 70
     6
  9
$SURFTYPE
 70
     6
  9
$SURFU
 70
     6
  9
$SURFV
 70
     6
  9
$UCSNAME
  2

  9
$UCSORG
 10
0.0
 20
0.0
 30
0.0
  9
$UCSXDIR
 10
1.0
 20
0.0
 30
0.0
  9
$UCSYDIR
 10
0.0
 20
1.0
 30
0.0
  9
$PUCSNAME
  2

  9
$PUCSORG
 10
0.0
 20
0.0
 30
0.0
  9
$PUCSXDIR
 10
1.0
 20
0.0
 30
0.0
  9
$PUCSYDIR
 10
0.0
 20
1.0
 30
0.0
  9
$USERI1
 70
     0
  9
$USERI2
 70
     0
  9
$USERI3
 70
     0
  9
$USERI4
 70
     0
  9
$USERI5
 70
     0
  9
$USERR1
 40
0.0
  9
$USERR2
 40
0.0
  9
$USERR3
 40
0.0
  9
$USERR4
 40
0.0
  9
$USERR5
 40
0.0
  9
$WORLDVIEW
 70
     1
  9
$SHADEDGE
 70
     3
  9
$SHADEDIF
 70
    70
  9
$TILEMODE
 70
     1
  9
$MAXACTVP
 70
    15
  9
$PINSBASE
 10
0.0781263709068299
 20
112.0181290174387
 30
0.0
  9
$PLIMCHECK
 70
     0
  9
$PEXTMIN
 10
1.000000000000000E+20
 20
1.000000000000000E+20
 30
1.000000000000000E+20
  9
$PEXTMAX
 10
-1.000000000000000E+20
 20
-1.000000000000000E+20
 30
-1.000000000000000E+20
  9
$PLIMMIN
 10
0.0
 20
0.0
  9
$PLIMMAX
 10
12.0
 20
9.0
  9
$UNITMODE
 70
     0
  9
$VISRETAIN
 70
     0
  9
$PLINEGEN
 70
     0
  9
$PSLTSCALE
 70
     1
  9
$TREEDEPTH
 70
  3020
  9
$PICKSTYLE
 70
     1
  9
$CMLSTYLE
  2
STANDARD
  9
$CMLJUST
 70
     0
  9
$CMLSCALE
 40
1.0
  9
$PROXYGRAPHICS
 70
     1
  9
$MEASUREMENT
 70
     0
  0
ENDSEC
  0
SECTION
  2
CLASSES
  0
CLASS
  1
ACDBDICTIONARYWDFLT
  2
AcDbDictionaryWithDefault
  3
AutoCAD 2000
 90
        0
280
     0
281
     0
  0
CLASS
  1
ACDBPLACEHOLDER
  2
AcDbPlaceHolder
  3
AutoCAD 2000
 90
        0
280
     0
281
     0
  0
CLASS
  1
LAYOUT
  2
AcDbLayout
  3
AutoCAD 2000
 90
        0
280
     0
281
     0
  0
CLASS
  1
DICTIONARYVAR
  2
AcDbDictionaryVar
  3
AutoCAD 2000
 90
        0
280
     0
281
     0
  0
CLASS
  1
LONG_TRANSACTION
  2
AcDbLongTransaction
  3
AutoCAD 2000
 90
        0
280
     0
281
     0
  0
CLASS
  1
LWPOLYLINE
  2
AcDbPolyline
  3
AutoCAD 2000
 90
        0
280
     0
281
     1
  0
CLASS
  1
HATCH
  2
AcDbHatch
  3
AutoCAD 2000
 90
        0
280
     0
281
     1
  0
CLASS
  1
XRECORD
  2
AcDbXrecord
  3
AutoCAD 2000
 90
        0
280
     0
281
     0
  0
CLASS
  1
LONG_TRANSACTION
  2
AcDbLongTransaction
  3
AutoCAD 2000
 90
        0
280
     0
281
     0
  0
CLASS
  1
LWPOLYLINE
  2
AcDbPolyline
  3
AutoCAD 2000
 90
        0
280
     0
281
     1
  0
CLASS
  1
HATCH
  2
AcDbHatch
  3
AutoCAD 2000
 90
        0
280
     0
281
     1
  0
CLASS
  1
XRECORD
  2
AcDbXrecord
  3
AutoCAD 2000
 90
        0
280
     0
281
     0
  0
CLASS
  1
LONG_TRANSACTION
  2
AcDbLongTransaction
  3
AutoCAD 2000
 90
        0
280
     0
281
     0
  0
CLASS
  1
LWPOLYLINE
  2
AcDbPolyline
  3
AutoCAD 2000
 90
        0
280
     0
281
     1
  0
CLASS
  1
HATCH
  2
AcDbHatch
  3
AutoCAD 2000
 90
        0
280
     0
281
     1
  0
CLASS
  1
XRECORD
  2
AcDbXrecord
  3
AutoCAD 2000
 90
        0
280
     0
281
     0
  0
CLASS
  1
LONG_TRANSACTION
  2
AcDbLongTransaction
  3
AutoCAD 2000
 90
        0
280
     0
281
     0
  0
CLASS
  1
LWPOLYLINE
  2
AcDbPolyline
  3
AutoCAD 2000
 90
        0
280
     0
281
     1
  0
CLASS
  1
HATCH
  2
AcDbHatch
  3
AutoCAD 2000
 90
        0
280
     0
281
     1
  0
CLASS
  1
XRECORD
  2
AcDbXrecord
  3
AutoCAD 2000
 90
        0
280
     0
281
     0
  0
CLASS
  1
LONG_TRANSACTION
  2
AcDbLongTransaction
  3
AutoCAD 2000
 90
        0
280
     0
281
     0
  0
CLASS
  1
LWPOLYLINE
  2
AcDbPolyline
  3
AutoCAD 2000
 90
        0
280
     0
281
     1
  0
CLASS
  1
HATCH
  2
AcDbHatch
  3
AutoCAD 2000
 90
        0
280
     0
281
     1
  0
CLASS
  1
XRECORD
  2
AcDbXrecord
  3
AutoCAD 2000
 90
        0
280
     0
281
     0
  0
CLASS
  1
LONG_TRANSACTION
  2
AcDbLongTransaction
  3
AutoCAD 2000
 90
        0
280
     0
281
     0
  0
CLASS
  1
LWPOLYLINE
  2
AcDbPolyline
  3
AutoCAD 2000
 90
        0
280
     0
281
     1
  0
CLASS
  1
HATCH
  2
AcDbHatch
  3
AutoCAD 2000
 90
        0
280
     0
281
     1
  0
CLASS
  1
XRECORD
  2
AcDbXrecord
  3
AutoCAD 2000
 90
        0
280
     0
281
     0
  0
ENDSEC
  0
SECTION
  2
TABLES
  0
TABLE
  2
VPORT
  5
8
330
0
100
AcDbSymbolTable
 70
     2
  0
VPORT
  5
2B1
330
8
100
AcDbSymbolTableRecord
100
AcDbViewportTableRecord
  2
*ACTIVE
 70
     0
 10
0.0
 20
0.0
 11
1.0
 21
1.0
 12
1.075325318926597
 22
1.587401562138909
 13
0.0
 23
0.0
 14
0.5740882589684922
 24
0.5740882589684922
 15
0.5
 25
0.5
 16
0.0
 26
0.0
 36
1.0
 17
0.0
 27
0.0
 37
0.0
 40
6.274238203197913
 41
1.570528967254408
 42
50.0
 43
0.0
 44
0.0
 50
0.0
 51
0.0
 71
     0
 72
   100
 73
     1
 74
     0
 75
     0
 76
     0
 77
     0
 78
     0
  0
ENDTAB
  0
TABLE
  2
LTYPE
  5
5
330
0
100
AcDbSymbolTable
 70
     1
  0
LTYPE
  5
13
330
5
100
AcDbSymbolTableRecord
100
AcDbLinetypeTableRecord
  2
BYBLOCK
 70
     0
  3

 72
    65
 73
     0
 40
0.0
  0
LTYPE
  5
14
330
5
100
AcDbSymbolTableRecord
100
AcDbLinetypeTableRecord
  2
BYLAYER
 70
     0
  3

 72
    65
 73
     0
 40
0.0
  0
LTYPE
  5
15
330
5
100
AcDbSymbolTableRecord
100
AcDbLinetypeTableRecord
  2
CONTINUOUS
 70
     0
  3
Solid line
 72
    65
 73
     0
 40
0.0
  0
ENDTAB
  0
TABLE
  2
LAYER
  5
2
330
0
100
AcDbSymbolTable
 70
     4
  0
LAYER
  5
10
330
2
100
AcDbSymbolTableRecord
100
AcDbLayerTableRecord
  2
0
 70
     0
 62
     7
  6
CONTINUOUS
  0
LAYER
  5
5C
330
2
100
AcDbSymbolTableRecord
100
AcDbLayerTableRecord
  2
ADPDIM
 70
     0
 62
     3
  6
CONTINUOUS
  0
LAYER
  5
5E
330
2
100
AcDbSymbolTableRecord
100
AcDbLayerTableRecord
  2
ADP1DETAIL
 70
     0
 62
     7
  6
CONTINUOUS
  0
LAYER
  5
60
330
2
100
AcDbSymbolTableRecord
100
AcDbLayerTableRecord
  2
DEFPOINTS
 70
     0
 62
     7
  6
CONTINUOUS
  0
ENDTAB
  0
TABLE
  2
STYLE
  5
3
330
0
100
AcDbSymbolTable
 70
     2
  0
STYLE
  5
11
330
3
100
AcDbSymbolTableRecord
100
AcDbTextStyleTableRecord
  2
STANDARD
 70
     0
 40
0.0
 41
1.0
 50
0.0
 71
     0
 42
0.2
  3
txt
  4

  0
STYLE
  5
E4
330
3
100
AcDbSymbolTableRecord
100
AcDbTextStyleTableRecord
  2
ARIAL_WIDE
 70
     0
 40
0.0
 41
1.25
 50
0.0
 71
     0
 42
0.2
  3
ARIAL.TTF
  4

1001
ACAD
1000
Arial
1071
       34
  0
ENDTAB
  0
TABLE
  2
VIEW
  5
6
330
0
100
AcDbSymbolTable
 70
     0
  0
ENDTAB
  0
TABLE
  2
UCS
  5
7
330
0
100
AcDbSymbolTable
 70
     0
  0
ENDTAB
  0
TABLE
  2
APPID
  5
9
330
0
100
AcDbSymbolTable
 70
     1
  0
APPID
  5
12
330
9
100
AcDbSymbolTableRecord
100
AcDbRegAppTableRecord
  2
ACAD
 70
     0
  0
ENDTAB
  0
TABLE
  2
DIMSTYLE
  5
A
330
0
100
AcDbSymbolTable
 70
     1
  0
DIMSTYLE
105
E2
330
A
100
AcDbSymbolTableRecord
100
AcDbDimStyleTableRecord
  2
STANDARD
 70
     0
  3

  4

  5

  6

  7

 40
1.0
 41
0.18
 42
0.0625
 43
0.38
 44
0.18
 45
0.0
 46
0.0
 47
0.0
 48
0.0
140
0.18
141
0.09
142
0.0
143
25.4
144
1.0
145
0.0
146
1.0
147
0.09
 71
     0
 72
     0
 73
     1
 74
     1
 75
     0
 76
     0
 77
     0
 78
     0
170
     0
171
     2
172
     0
173
     0
174
     0
175
     0
176
     0
177
     0
178
     0
270
     2
271
     4
272
     4
273
     2
274
     2
340
11
275
     0
280
     0
281
     0
282
     0
283
     1
284
     0
285
     0
286
     0
287
     3
288
     0
  0
ENDTAB
  0
TABLE
  2
BLOCK_RECORD
  5
1
330
0
100
AcDbSymbolTable
 70
     1
  0
BLOCK_RECORD
  5
1E
102
{ACAD_XDICTIONARY
360
121
102
}
330
1
100
AcDbSymbolTableRecord
100
AcDbBlockTableRecord
  2
*MODEL_SPACE
  0
BLOCK_RECORD
  5
1A
102
{ACAD_XDICTIONARY
360
123
102
}
330
1
100
AcDbSymbolTableRecord
100
AcDbBlockTableRecord
  2
*PAPER_SPACE
  0
BLOCK_RECORD
  5
5A
330
1
100
AcDbSymbolTableRecord
100
AcDbBlockTableRecord
  2
*D0
  0
ENDTAB
  0
ENDSEC
  0
SECTION
  2
BLOCKS
  0
BLOCK
  5
63
330
1E
100
AcDbEntity
  8
0
100
AcDbBlockBegin
  2
*MODEL_SPACE
 70
     0
 10
0.0
 20
0.0
 30
0.0
  3
*MODEL_SPACE
  1

  0
ENDBLK
  5
64
330
1E
100
AcDbEntity
  8
0
100
AcDbBlockEnd
  0
BLOCK
  5
61
330
1A
100
AcDbEntity
 67
     1
  8
0
100
AcDbBlockBegin
  2
*PAPER_SPACE
 70
     0
 10
0.0
 20
0.0
 30
0.0
  3
*PAPER_SPACE
  1

  0
ENDBLK
  5
62
330
1A
100
AcDbEntity
 67
     1
  8
0
100
AcDbBlockEnd
  0
BLOCK
  5
66
330
5A
100
AcDbEntity
  8
0
100
AcDbBlockBegin
  2
*D0
 70
     1
 10
0.0
 20
0.0
 30
0.0
  3
*D0
  1
*U
  0
LINE
  5
67
330
5A
100
AcDbEntity
  8
0
  6
BYBLOCK
 62
     0
100
AcDbLine
 10
1.208703166141009
 20
0.0228632473920918
 30
0.0
 11
2.525907551000292
 21
0.0228632473920917
 31
0.0
  0
LINE
  5
68
330
5A
100
AcDbEntity
  8
0
  6
BYBLOCK
 62
     0
100
AcDbLine
 10
1.208703166141009
 20
3.522863247392092
 30
0.0
 11
2.525907551000292
 21
3.522863247392092
 31
0.0
  0
LINE
  5
69
330
5A
100
AcDbEntity
  8
0
  6
BYBLOCK
 62
     0
100
AcDbLine
 10
2.345907551000292
 20
0.0228632473920918
 30
0.0
 11
2.345907551000292
 21
1.377029914058758
 31
0.0
  0
LINE
  5
6A
330
5A
100
AcDbEntity
  8
0
  6
BYBLOCK
 62
     0
100
AcDbLine
 10
2.345907551000292
 20
3.522863247392092
 30
0.0
 11
2.345907551000292
 21
2.168696580725425
 31
0.0
  0
LINE
  5
6B
330
5A
100
AcDbEntity
  8
0
  6
BYBLOCK
 62
     0
100
AcDbLine
 10
2.470907551000292
 20
-0.1021367526079083
 30
0.0
 11
2.220907551000292
 21
0.1478632473920917
 31
0.0
  0
LINE
  5
6C
330
5A
100
AcDbEntity
  8
0
  6
BYBLOCK
 62
     0
100
AcDbLine
 10
2.470907551000292
 20
3.397863247392092
 30
0.0
 11
2.220907551000293
 21
3.647863247392092
 31
0.0
  0
TEXT
  5
6D
330
5A
100
AcDbEntity
  8
0
  6
BYBLOCK
 62
     0
100
AcDbText
 10
2.408407551000292
 20
1.502029914058758
 30
0.0
 40
0.125
  1
3 1/2
 50
90.0
 72
     1
 11
2.345907551000292
 21
1.772863247392091
 31
0.0
100
AcDbText
 73
     2
  0
POINT
  5
6F
330
5A
100
AcDbEntity
  8
DEFPOINTS
  6
BYBLOCK
 62
     0
100
AcDbPoint
 10
1.146203166141009
 20
0.0228632473920918
 30
0.0
  0
POINT
  5
70
330
5A
100
AcDbEntity
  8
DEFPOINTS
  6
BYBLOCK
 62
     0
100
AcDbPoint
 10
1.146203166141009
 20
3.522863247392092
 30
0.0
  0
POINT
  5
71
330
5A
100
AcDbEntity
  8
DEFPOINTS
  6
BYBLOCK
 62
     0
100
AcDbPoint
 10
2.345907551000292
 20
3.522863247392092
 30
0.0
  0
ENDBLK
  5
72
330
5A
100
AcDbEntity
  8
0
100
AcDbBlockEnd
  0
ENDSEC
  0
SECTION
  2
ENTITIES
  0
LWPOLYLINE
  5
73
330
1E
100
AcDbEntity
  8
ADP1DETAIL
100
AcDbPolyline
 90
        7
 70
     0
 43
0.0
 10
0.3420404026508437
 20
1.611133249557776
 42
0.2921747272429609
 10
0.2544858963140868
 20
1.492309276672178
 42
0.0950579867158086
 10
0.3295326160313068
 20
0.9357127721027984
 42
0.3333333333333237
 10
0.5359110952536613
 20
0.7731115460488219
 10
0.5921961350415761
 20
0.4916863471092498
 10
0.7610512544053199
 20
0.5167019203483223
 42
0.4944813440103915
 10
1.067492026583967
 20
0.2352767214087483
 42
-0.0880138454383881
  0
LINE
  5
7C
330
1E
100
AcDbEntity
  8
ADP1DETAIL
100
AcDbLine
 10
0.9122572626970093
 20
1.355854959836245
 30
0.0
 11
0.5921961350415761
 21
0.4916863471092498
 31
0.0
  0
LINE
  5
7D
330
1E
100
AcDbEntity
  8
ADP1DETAIL
100
AcDbLine
 10
0.9568400453896961
 20
1.321056634134416
 30
0.0
 11
0.7610512544053199
 21
0.5167019203483223
 31
0.0
  0
LINE
  5
7E
330
1E
100
AcDbEntity
  8
ADP1DETAIL
100
AcDbLine
 10
0.9568400453896961
 20
2.22641231708909
 30
0.0
 11
0.7610512544053199
 21
3.030767030875185
 31
0.0
  0
LINE
  5
7F
330
1E
100
AcDbEntity
  8
ADP1DETAIL
100
AcDbLine
 10
0.9122572626970093
 20
2.191613991387261
 30
0.0
 11
0.5921961350415761
 21
3.055782604114257
 31
0.0
  0
LWPOLYLINE
  5
80
330
1E
100
AcDbEntity
  8
ADP1DETAIL
100
AcDbPolyline
 90
        7
 70
     0
 43
0.0
 10
0.3420404026508437
 20
1.936335701665731
 42
-0.2921747272429609
 10
0.2544858963140868
 20
2.055159674551328
 42
-0.0950579867158086
 10
0.3295326160313068
 20
2.611756179120708
 42
-0.3333333333333237
 10
0.5359110952536613
 20
2.774357405174685
 10
0.5921961350415761
 20
3.055782604114257
 10
0.7610512544053199
 20
3.030767030875185
 42
-0.4944813440103915
 10
1.067492026583967
 20
3.312192229814758
 42
0.0880138454383881
  0
LWPOLYLINE
  5
89
330
1E
100
AcDbEntity
  8
ADP1DETAIL
100
AcDbPolyline
 90
       16
 70
     1
 43
0.0
 10
-0.0201096061290802
 20
1.773734475611753
 42
0.0629509836301794
 10
0.0684714094663048
 20
1.07295126837954
 42
0.0760699304009064
 10
0.2983052794556691
 20
0.5343348983869901
 42
0.1071121116501177
 10
0.6817335266410682
 20
0.1377856666806605
 42
0.1482745817750753
 10
1.067026814695848
 20
0.0209587843010127
 42
0.1482745817750753
 10
1.452320102750628
 20
0.1377856666806602
 42
0.1071121116501178
 10
1.835748349936027
 20
0.5343348983869899
 42
0.0760699304009065
 10
2.065582219925392
 20
1.07295126837954
 42
0.0629509836301794
 10
2.154163235520777
 20
1.773734475611753
 42
0.0629509836301792
 10
2.065582219925392
 20
2.474517682843967
 42
0.0760699304009062
 10
1.835748349936028
 20
3.013134052836516
 42
0.1071121116501174
 10
1.452320102750629
 20
3.409683284542846
 42
0.1482745817750753
 10
1.067026814695849
 20
3.526510166922494
 42
0.1482745817750754
 10
0.6817335266410691
 20
3.409683284542846
 42
0.1071121116501178
 10
0.2983052794556698
 20
3.013134052836517
 42
0.0760699304009064
 10
0.068471409466305
 20
2.474517682843967
 42
0.0629509836301794
  0
LWPOLYLINE
  5
9B
330
1E
100
AcDbEntity
  8
ADP1DETAIL
100
AcDbPolyline
 90
       16
 70
     1
 43
0.0
 10
0.1471421366301155
 20
1.773734475611753
 42
0.0592108391140624
 10
0.2225241494345471
 20
1.139410335297461
 42
0.0727600335052074
 10
0.4165701209259643
 20
0.6561531109106365
 42
0.1066968199743871
 10
0.745137777538147
 20
0.2960834953958158
 42
0.155874914553993
 10
1.067026814695848
 20
0.1932357525960011
 42
0.1558749145539929
 10
1.38891585185355
 20
0.2960834953958157
 42
0.106696819974387
 10
1.717483508465732
 20
0.6561531109106362
 42
0.0727600335052072
 10
1.911529479957149
 20
1.139410335297461
 42
0.0592108391140622
 10
1.986911492761581
 20
1.773734475611753
 42
0.059210839114062
 10
1.91152947995715
 20
2.408058615926045
 42
0.0727600335052069
 10
1.717483508465733
 20
2.89131584031287
 42
0.106696819974387
 10
1.38891585185355
 20
3.251385455827691
 42
0.1558749145539928
 10
1.067026814695849
 20
3.354233198627506
 42
0.1558749145539924
 10
0.7451377775381476
 20
3.251385455827692
 42
0.1066968199743869
 10
0.4165701209259647
 20
2.89131584031287
 42
0.0727600335052073
 10
0.2225241494345473
 20
2.408058615926046
 42
0.0592108391140624
  0
LWPOLYLINE
  5
AD
330
1E
100
AcDbEntity
  8
ADP1DETAIL
100
AcDbPolyline
 90
       16
 70
     1
 43
0.0
 10
0.7603985731922452
 20
1.773734475611753
 42
0.0639878458336133
 10
0.7853421725710326
 20
1.57962363413859
 42
0.0769546296384256
 10
0.8502079058253443
 20
1.430057142439429
 42
0.1071582444818389
 10
0.9579932262728497
 20
1.320296351819421
 42
0.1462742541209092
 10
1.067026814695848
 20
1.287701329959236
 42
0.1462742541209097
 10
1.176060403118847
 20
1.320296351819421
 42
0.1071582444818393
 10
1.283845723566352
 20
1.430057142439429
 42
0.0769546296384258
 10
1.348711456820664
 20
1.57962363413859
 42
0.0639878458336135
 10
1.373655056199452
 20
1.773734475611753
 42
0.0639878458336133
 10
1.348711456820664
 20
1.967845317084917
 42
0.0769546296384254
 10
1.283845723566352
 20
2.117411808784077
 42
0.1071582444818397
 10
1.176060403118846
 20
2.227172599404085
 42
0.1462742541209095
 10
1.067026814695848
 20
2.25976762126427
 42
0.1462742541209097
 10
0.9579932262728497
 20
2.227172599404085
 42
0.1071582444818393
 10
0.8502079058253444
 20
2.117411808784077
 42
0.0769546296384252
 10
0.7853421725710326
 20
1.967845317084917
 42
0.0639878458336133
  0
LINE
  5
BF
330
1E
100
AcDbEntity
  8
ADP1DETAIL
100
AcDbLine
 10
0.8697568924643721
 20
1.402077602595028
 30
0.0
 11
0.5359110952536613
 21
0.7731115460488219
 31
0.0
  0
LINE
  5
C0
330
1E
100
AcDbEntity
  8
ADP1DETAIL
100
AcDbLine
 10
0.8697568924643721
 20
2.145391348628478
 30
0.0
 11
0.5359110952536613
 21
2.774357405174685
 31
0.0
  0
LINE
  5
C1
330
1E
100
AcDbEntity
  8
ADP1DETAIL
100
AcDbLine
 10
0.7634241101182951
 20
1.705641927699904
 30
0.0
 11
0.3420404026508437
 21
1.611133249557776
 31
0.0
  0
LINE
  5
C2
330
1E
100
AcDbEntity
  8
ADP1DETAIL
100
AcDbLine
 10
0.7634241101182951
 20
1.841827023523602
 30
0.0
 11
0.3420404026508437
 21
1.936335701665731
 31
0.0
  0
LINE
  5
C3
330
1E
100
AcDbEntity
  8
ADP1DETAIL
100
AcDbLine
 10
0.3420404026508437
 20
1.611133249557776
 30
0.0
 11
0.1919469632164039
 21
1.773734475611753
 31
0.0
  0
LINE
  5
C4
330
1E
100
AcDbEntity
  8
ADP1DETAIL
100
AcDbLine
 10
0.3420404026508437
 20
1.936335701665731
 30
0.0
 11
0.1919469632164039
 21
1.773734475611753
 31
0.0
  0
DIMENSION
  5
C5
330
1E
100
AcDbEntity
  8
ADPDIM
100
AcDbDimension
  2
*D0
 10
2.345907551000292
 20
3.522863247392092
 30
0.0
 11
2.345907551000292
 21
1.772863247392091
 31
0.0
100
AcDbAlignedDimension
 13
1.146203166141009
 23
0.0228632473920918
 33
0.0
 14
1.146203166141009
 24
3.522863247392092
 34
0.0
 50
90.0
100
AcDbRotatedDimension
  0
LINE
  5
C6
330
1E
100
AcDbEntity
  8
ADP1DETAIL
100
AcDbLine
 10
1.177213584002
 20
1.321056634134416
 30
0.0
 11
1.373002374986376
 21
0.5167019203483223
 31
0.0
  0
LINE
  5
C7
330
1E
100
AcDbEntity
  8
ADP1DETAIL
100
AcDbLine
 10
1.221796366694687
 20
1.355854959836245
 30
0.0
 11
1.54185749435012
 21
0.4916863471092498
 31
0.0
  0
LWPOLYLINE
  5
C8
330
1E
100
AcDbEntity
  8
ADP1DETAIL
100
AcDbPolyline
 90
        7
 70
     0
 43
0.0
 10
1.792013226740853
 20
1.611133249557776
 42
-0.2921747272429609
 10
1.879567733077609
 20
1.492309276672178
 42
-0.0950579867158086
 10
1.804521013360389
 20
0.9357127721027984
 42
-0.3333333333333237
 10
1.598142534138035
 20
0.7731115460488219
 10
1.54185749435012
 20
0.4916863471092498
 10
1.373002374986376
 20
0.5167019203483223
 42
-0.4944813440103915
 10
1.066561602807729
 20
0.2352767214087483
 42
0.0880138454383881
  0
LINE
  5
D1
330
1E
100
AcDbEntity
  8
ADP1DETAIL
100
AcDbLine
 10
1.264296736927324
 20
1.402077602595028
 30
0.0
 11
1.598142534138035
 21
0.7731115460488219
 31
0.0
  0
LINE
  5
D2
330
1E
100
AcDbEntity
  8
ADP1DETAIL
100
AcDbLine
 10
1.264296736927324
 20
2.145391348628478
 30
0.0
 11
1.598142534138035
 21
2.774357405174685
 31
0.0
  0
LWPOLYLINE
  5
D3
330
1E
100
AcDbEntity
  8
ADP1DETAIL
100
AcDbPolyline
 90
        7
 70
     0
 43
0.0
 10
1.792013226740853
 20
1.936335701665731
 42
0.2921747272429609
 10
1.879567733077609
 20
2.055159674551328
 42
0.0950579867158086
 10
1.804521013360389
 20
2.611756179120708
 42
0.3333333333333237
 10
1.598142534138035
 20
2.774357405174685
 10
1.54185749435012
 20
3.055782604114257
 10
1.373002374986376
 20
3.030767030875185
 42
0.4944813440103915
 10
1.066561602807729
 20
3.312192229814758
 42
-0.0880138454383881
  0
LINE
  5
DC
330
1E
100
AcDbEntity
  8
ADP1DETAIL
100
AcDbLine
 10
1.221796366694687
 20
2.191613991387261
 30
0.0
 11
1.54185749435012
 21
3.055782604114257
 31
0.0
  0
LINE
  5
DD
330
1E
100
AcDbEntity
  8
ADP1DETAIL
100
AcDbLine
 10
1.177213584002
 20
2.22641231708909
 30
0.0
 11
1.373002374986376
 21
3.030767030875185
 31
0.0
  0
LINE
  5
DE
330
1E
100
AcDbEntity
  8
ADP1DETAIL
100
AcDbLine
 10
1.370629519273401
 20
1.705641927699904
 30
0.0
 11
1.792013226740853
 21
1.611133249557776
 31
0.0
  0
LINE
  5
DF
330
1E
100
AcDbEntity
  8
ADP1DETAIL
100
AcDbLine
 10
1.370629519273401
 20
1.841827023523602
 30
0.0
 11
1.792013226740853
 21
1.936335701665731
 31
0.0
  0
LINE
  5
E0
330
1E
100
AcDbEntity
  8
ADP1DETAIL
100
AcDbLine
 10
1.792013226740853
 20
1.611133249557776
 30
0.0
 11
1.942106666175292
 21
1.773734475611753
 31
0.0
  0
LINE
  5
E1
330
1E
100
AcDbEntity
  8
ADP1DETAIL
100
AcDbLine
 10
1.792013226740853
 20
1.936335701665731
 30
0.0
 11
1.942106666175292
 21
1.773734475611753
 31
0.0
  0
TEXT
  5
E5
330
1E
100
AcDbEntity
  8
ADPDIM
100
AcDbText
 10
-3.827269953721613
 20
-0.445478976567599
 30
0.0
 40
0.09375
  1
J U L I U S  B L U M  &  C O . ,  I N C .      ( 8 0 0 )  5 2 6 - 6 2 9 3        W W W . J U L I U S B L U M . C O M        P A R T  N o .  2 5 5 3
 41
1.25
  7
ARIAL_WIDE
 72
     1
 11
1.067026814695848
 21
-0.351728976567599
 31
0.0
100
AcDbText
 73
     3
  0
ENDSEC
  0
SECTION
  2
OBJECTS
  0
DICTIONARY
  5
C
330
0
100
AcDbDictionary
  3
ACAD_GROUP
350
D
  3
ACAD_LAYOUT
350
19
  3
ACAD_MLINESTYLE
350
16
  3
ACAD_PLOTSETTINGS
350
18
  3
ACAD_PLOTSTYLENAME
350
E
  3
ACDBHEADERROUNDTRIPXREC
350
2B2
  3
ACDBVARIABLEDICTIONARY
350
156
  0
DICTIONARY
  5
121
330
1E
100
AcDbDictionary
280
     1
  3
ACAD_LAYOUTSELFREF
360
2D4
  0
DICTIONARY
  5
123
330
1A
100
AcDbDictionary
280
     1
  3
ACAD_LAYOUTSELFREF
360
2D3
  0
DICTIONARY
  5
D
102
{ACAD_REACTORS
330
C
102
}
330
C
100
AcDbDictionary
  0
DICTIONARY
  5
19
102
{ACAD_REACTORS
330
C
102
}
330
C
100
AcDbDictionary
  0
DICTIONARY
  5
16
102
{ACAD_REACTORS
330
C
102
}
330
C
100
AcDbDictionary
  3
STANDARD
350
17
  0
DICTIONARY
  5
18
102
{ACAD_REACTORS
330
C
102
}
330
C
100
AcDbDictionary
  0
ACDBDICTIONARYWDFLT
  5
E
102
{ACAD_REACTORS
330
C
102
}
330
C
100
AcDbDictionary
281
     1
  3
Normal
350
F
100
AcDbDictionaryWithDefault
340
F
  0
DICTIONARY
  5
2B2
102
{ACAD_REACTORS
330
C
102
}
330
C
100
AcDbDictionary
  3
CEPSNTYPE
350
2BC
  3
DIMSTYLEDATA
350
2C0
  3
FINGERPRINTGUID
350
2BD
  3
HYPERLINKBASE
350
2B5
  3
INSUNITS
350
2BB
  3
LAYOUTDICT
350
2B7
  3
LWETCUNION
350
2BA
  3
PLOTSETDICT
350
2B8
  3
PLOTSTYLNAMDICT
350
2B9
  3
PSVPSCALE
350
2BF
  3
PUCSBASE
350
2C3
  3
PUCSORGBACK
350
2C9
  3
PUCSORGBOTTOM
350
2C5
  3
PUCSORGFRONT
350
2C8
  3
PUCSORGLEFT
350
2C6
  3
PUCSORGRIGHT
350
2C7
  3
PUCSORGTOP
350
2C4
  3
PUCSORTHOREF
350
2C1
  3
PUCSORTHOVIEW
350
2C2
  3
STYLESHEET
350
2B6
  3
TSTACKALIGN
350
2B3
  3
TSTACKSIZE
350
2B4
  3
UCSBASE
350
2CC
  3
UCSORGBACK
350
2D2
  3
UCSORGBOTTOM
350
2CE
  3
UCSORGFRONT
350
2D1
  3
UCSORGLEFT
350
2CF
  3
UCSORGRIGHT
350
2D0
  3
UCSORGTOP
350
2CD
  3
UCSORTHOREF
350
2CA
  3
UCSORTHOVIEW
350
2CB
  3
VERSIONGUID
350
2BE
  0
DICTIONARY
  5
156
102
{ACAD_REACTORS
330
C
102
}
330
C
100
AcDbDictionary
  3
DIMASSOC
350
158
  3
HIDETEXT
350
157
  0
XRECORD
  5
2D4
102
{ACAD_REACTORS
330
121
102
}
330
121
100
AcDbXrecord
340
1E
  0
XRECORD
  5
2D3
102
{ACAD_REACTORS
330
123
102
}
330
123
100
AcDbXrecord
340
1A
  0
MLINESTYLE
  5
17
102
{ACAD_REACTORS
330
16
102
}
330
16
100
AcDbMlineStyle
  2
STANDARD
 70
     0
  3

 62
   256
 51
90.0
 52
90.0
 71
     2
 49
0.5
 62
   256
  6
BYLAYER
 49
-0.5
 62
   256
  6
BYLAYER
  0
ACDBPLACEHOLDER
  5
F
102
{ACAD_REACTORS
330
E
102
}
330
E
100
AcDbPlaceHolder
280
     0
  0
XRECORD
  5
2BC
102
{ACAD_REACTORS
330
2B2
102
}
330
2B2
100
AcDbXrecord
 90
        0
  0
XRECORD
  5
2C0
102
{ACAD_REACTORS
330
2B2
102
}
330
2B2
100
AcDbXrecord
1000
DSTYLE
1002
{
1070
   277
 70
     5
1070
   279
 70
     2
1002
}
  0
XRECORD
  5
2BD
102
{ACAD_REACTORS
330
2B2
102
}
330
2B2
100
AcDbXrecord
  1
{F7B3CB07-FBEC-4AC5-A41D-E88B09276188}
  0
XRECORD
  5
2B5
102
{ACAD_REACTORS
330
2B2
102
}
330
2B2
100
AcDbXrecord
  1

  0
XRECORD
  5
2BB
102
{ACAD_REACTORS
330
2B2
102
}
330
2B2
100
AcDbXrecord
 90
        0
  0
XRECORD
  5
2B7
102
{ACAD_REACTORS
330
2B2
102
}
330
2B2
100
AcDbXrecord
340
19
  0
XRECORD
  5
2BA
102
{ACAD_REACTORS
330
2B2
102
}
330
2B2
100
AcDbXrecord
 90
    14877
  0
XRECORD
  5
2B8
102
{ACAD_REACTORS
330
2B2
102
}
330
2B2
100
AcDbXrecord
340
18
  0
XRECORD
  5
2B9
102
{ACAD_REACTORS
330
2B2
102
}
330
2B2
100
AcDbXrecord
340
E
  0
XRECORD
  5
2BF
102
{ACAD_REACTORS
330
2B2
102
}
330
2B2
100
AcDbXrecord
 40
0.0
  0
XRECORD
  5
2C3
102
{ACAD_REACTORS
330
2B2
102
}
330
2B2
100
AcDbXrecord
340
0
  0
XRECORD
  5
2C9
102
{ACAD_REACTORS
330
2B2
102
}
330
2B2
100
AcDbXrecord
 10
0.0
 20
0.0
 30
0.0
  0
XRECORD
  5
2C5
102
{ACAD_REACTORS
330
2B2
102
}
330
2B2
100
AcDbXrecord
 10
0.0
 20
0.0
 30
0.0
  0
XRECORD
  5
2C8
102
{ACAD_REACTORS
330
2B2
102
}
330
2B2
100
AcDbXrecord
 10
0.0
 20
0.0
 30
0.0
  0
XRECORD
  5
2C6
102
{ACAD_REACTORS
330
2B2
102
}
330
2B2
100
AcDbXrecord
 10
0.0
 20
0.0
 30
0.0
  0
XRECORD
  5
2C7
102
{ACAD_REACTORS
330
2B2
102
}
330
2B2
100
AcDbXrecord
 10
0.0
 20
0.0
 30
0.0
  0
XRECORD
  5
2C4
102
{ACAD_REACTORS
330
2B2
102
}
330
2B2
100
AcDbXrecord
 10
0.0
 20
0.0
 30
0.0
  0
XRECORD
  5
2C1
102
{ACAD_REACTORS
330
2B2
102
}
330
2B2
100
AcDbXrecord
340
0
  0
XRECORD
  5
2C2
102
{ACAD_REACTORS
330
2B2
102
}
330
2B2
100
AcDbXrecord
 70
     0
  0
XRECORD
  5
2B6
102
{ACAD_REACTORS
330
2B2
102
}
330
2B2
100
AcDbXrecord
  1

  0
XRECORD
  5
2B3
102
{ACAD_REACTORS
330
2B2
102
}
330
2B2
100
AcDbXrecord
 90
        1
  0
XRECORD
  5
2B4
102
{ACAD_REACTORS
330
2B2
102
}
330
2B2
100
AcDbXrecord
 90
       70
  0
XRECORD
  5
2CC
102
{ACAD_REACTORS
330
2B2
102
}
330
2B2
100
AcDbXrecord
340
0
  0
XRECORD
  5
2D2
102
{ACAD_REACTORS
330
2B2
102
}
330
2B2
100
AcDbXrecord
 10
0.0
 20
0.0
 30
0.0
  0
XRECORD
  5
2CE
102
{ACAD_REACTORS
330
2B2
102
}
330
2B2
100
AcDbXrecord
 10
0.0
 20
0.0
 30
0.0
  0
XRECORD
  5
2D1
102
{ACAD_REACTORS
330
2B2
102
}
330
2B2
100
AcDbXrecord
 10
0.0
 20
0.0
 30
0.0
  0
XRECORD
  5
2CF
102
{ACAD_REACTORS
330
2B2
102
}
330
2B2
100
AcDbXrecord
 10
0.0
 20
0.0
 30
0.0
  0
XRECORD
  5
2D0
102
{ACAD_REACTORS
330
2B2
102
}
330
2B2
100
AcDbXrecord
 10
0.0
 20
0.0
 30
0.0
  0
XRECORD
  5
2CD
102
{ACAD_REACTORS
330
2B2
102
}
330
2B2
100
AcDbXrecord
 10
0.0
 20
0.0
 30
0.0
  0
XRECORD
  5
2CA
102
{ACAD_REACTORS
330
2B2
102
}
330
2B2
100
AcDbXrecord
340
0
  0
XRECORD
  5
2CB
102
{ACAD_REACTORS
330
2B2
102
}
330
2B2
100
AcDbXrecord
 70
     0
  0
XRECORD
  5
2BE
102
{ACAD_REACTORS
330
2B2
102
}
330
2B2
100
AcDbXrecord
  1
{ED0A1EB1-2E35-47DF-897C-0E3F8DE46929}
  0
DICTIONARYVAR
  5
158
102
{ACAD_REACTORS
330
156
102
}
330
156
100
DictionaryVariables
280
     0
  1
2
  0
DICTIONARYVAR
  5
157
102
{ACAD_REACTORS
330
156
102
}
330
156
100
DictionaryVariables
280
     0
  1
1
  0
ENDSEC
  0
EOF
