  0
SECTION
  2
HEADER
  9
$ACADVER
  1
AC1014
  9
$ACADMAINTVER
 70
     9
  9
$DWGCODEPAGE
  3
ANSI_1252
  9
$INSBASE
 10
-12.40109658000282
 20
20.99742627282002
 30
0.0
  9
$EXTMIN
 10
-18.7475877249677
 20
19.65987485591784
 30
0.0
  9
$EXTMAX
 10
-9.059235064667568
 20
22.32885692582984
 30
0.0
  9
$LIMMIN
 10
0.0
 20
0.0
  9
$LIMMAX
 10
36.0
 20
36.0
  9
$ORTHOMODE
 70
     1
  9
$REGENMODE
 70
     1
  9
$FILLMODE
 70
     1
  9
$QTEXTMODE
 70
     0
  9
$MIRRTEXT
 70
     1
  9
$DRAGMODE
 70
     0
  9
$LTSCALE
 40
1.0
  9
$OSMODE
 70
    37
  9
$ATTMODE
 70
     1
  9
$TEXTSIZE
 40
0.2
  9
$TRACEWID
 40
0.05
  9
$TEXTSTYLE
  7
STANDARD
  9
$CLAYER
  8
ADP1DETAIL
  9
$CELTYPE
  6
BYLAYER
  9
$CECOLOR
 62
   256
  9
$CELTSCALE
 40
1.0
  9
$DELOBJ
 70
     1
  9
$DISPSILH
 70
     0
  9
$DIMSCALE
 40
1.0
  9
$DIMASZ
 40
0.125
  9
$DIMEXO
 40
0.0625
  9
$DIMDLI
 40
0.38
  9
$DIMRND
 40
0.0
  9
$DIMDLE
 40
0.0
  9
$DIMEXE
 40
0.18
  9
$DIMTP
 40
0.0
  9
$DIMTM
 40
0.0
  9
$DIMTXT
 40
0.125
  9
$DIMCEN
 40
0.1875
  9
$DIMTSZ
 40
0.125
  9
$DIMTOL
 70
     0
  9
$DIMLIM
 70
     0
  9
$DIMTIH
 70
     0
  9
$DIMTOH
 70
     0
  9
$DIMSE1
 70
     0
  9
$DIMSE2
 70
     0
  9
$DIMTAD
 70
     0
  9
$DIMZIN
 70
     3
  9
$DIMBLK
  1

  9
$DIMASO
 70
     1
  9
$DIMSHO
 70
     1
  9
$DIMPOST
  1

  9
$DIMAPOST
  1

  9
$DIMALT
 70
     0
  9
$DIMALTD
 70
     1
  9
$DIMALTF
 40
25.4
  9
$DIMLFAC
 40
1.0
  9
$DIMTOFL
 70
     0
  9
$DIMTVP
 40
0.0
  9
$DIMTIX
 70
     0
  9
$DIMSOXD
 70
     0
  9
$DIMSAH
 70
     0
  9
$DIMBLK1
  1

  9
$DIMBLK2
  1

  9
$DIMSTYLE
  2
STANDARD
  9
$DIMCLRD
 70
     0
  9
$DIMCLRE
 70
     0
  9
$DIMCLRT
 70
     0
  9
$DIMTFAC
 40
1.0
  9
$DIMGAP
 40
0.125
  9
$DIMJUST
 70
     0
  9
$DIMSD1
 70
     0
  9
$DIMSD2
 70
     0
  9
$DIMTOLJ
 70
     1
  9
$DIMTZIN
 70
     3
  9
$DIMALTZ
 70
     3
  9
$DIMALTTZ
 70
     3
  9
$DIMFIT
 70
     5
  9
$DIMUPT
 70
     0
  9
$DIMUNIT
 70
     5
  9
$DIMDEC
 70
     4
  9
$DIMTDEC
 70
     4
  9
$DIMALTU
 70
     5
  9
$DIMALTTD
 70
     1
  9
$DIMTXSTY
  7
STANDARD
  9
$DIMAUNIT
 70
     0
  9
$LUNITS
 70
     5
  9
$LUPREC
 70
     4
  9
$SKETCHINC
 40
0.1
  9
$FILLETRAD
 40
0.062
  9
$AUNITS
 70
     0
  9
$AUPREC
 70
     0
  9
$MENU
  1
acad
  9
$ELEVATION
 40
0.0
  9
$PELEVATION
 40
0.0
  9
$THICKNESS
 40
0.0
  9
$LIMCHECK
 70
     0
  9
$BLIPMODE
 70
     0
  9
$CHAMFERA
 40
0.0
  9
$CHAMFERB
 40
0.0
  9
$CHAMFERC
 40
0.0
  9
$CHAMFERD
 40
0.0
  9
$SKPOLY
 70
     0
  9
$TDCREATE
 40
2450382.648073102
  9
$TDUPDATE
 40
2452297.065934965
  9
$TDINDWG
 40
0.0174426505
  9
$TDUSRTIMER
 40
0.0174426505
  9
$USRTIMER
 70
     1
  9
$ANGBASE
 50
0.0
  9
$ANGDIR
 70
     0
  9
$PDMODE
 70
     0
  9
$PDSIZE
 40
0.0
  9
$PLINEWID
 40
0.0
  9
$COORDS
 70
     2
  9
$SPLFRAME
 70
     0
  9
$SPLINETYPE
 70
     6
  9
$SPLINESEGS
 70
     8
  9
$ATTDIA
 70
     0
  9
$ATTREQ
 70
     1
  9
$HANDLING
 70
 22529
  9
$HANDSEED
  5
296
  9
$SURFTAB1
 70
     6
  9
$SURFTAB2
 70
     6
  9
$SURFTYPE
 70
     6
  9
$SURFU
 70
     6
  9
$SURFV
 70
     6
  9
$UCSNAME
  2

  9
$UCSORG
 10
0.0
 20
0.0
 30
0.0
  9
$UCSXDIR
 10
1.0
 20
0.0
 30
0.0
  9
$UCSYDIR
 10
0.0
 20
1.0
 30
0.0
  9
$PUCSNAME
  2

  9
$PUCSORG
 10
0.0
 20
0.0
 30
0.0
  9
$PUCSXDIR
 10
1.0
 20
0.0
 30
0.0
  9
$PUCSYDIR
 10
0.0
 20
1.0
 30
0.0
  9
$USERI1
 70
     0
  9
$USERI2
 70
     0
  9
$USERI3
 70
     0
  9
$USERI4
 70
     0
  9
$USERI5
 70
     0
  9
$USERR1
 40
0.0
  9
$USERR2
 40
0.0
  9
$USERR3
 40
0.0
  9
$USERR4
 40
0.0
  9
$USERR5
 40
0.0
  9
$WORLDVIEW
 70
     1
  9
$SHADEDGE
 70
     3
  9
$SHADEDIF
 70
    70
  9
$TILEMODE
 70
     1
  9
$MAXACTVP
 70
    15
  9
$PINSBASE
 10
0.0
 20
0.0
 30
0.0
  9
$PLIMCHECK
 70
     0
  9
$PEXTMIN
 10
1.000000000000000E+20
 20
1.000000000000000E+20
 30
1.000000000000000E+20
  9
$PEXTMAX
 10
-1.000000000000000E+20
 20
-1.000000000000000E+20
 30
-1.000000000000000E+20
  9
$PLIMMIN
 10
0.0
 20
0.0
  9
$PLIMMAX
 10
12.0
 20
9.0
  9
$UNITMODE
 70
     0
  9
$VISRETAIN
 70
     0
  9
$PLINEGEN
 70
     0
  9
$PSLTSCALE
 70
     1
  9
$TREEDEPTH
 70
  3020
  9
$PICKSTYLE
 70
     1
  9
$CMLSTYLE
  2
STANDARD
  9
$CMLJUST
 70
     0
  9
$CMLSCALE
 40
1.0
  9
$PROXYGRAPHICS
 70
     1
  9
$MEASUREMENT
 70
     0
  0
ENDSEC
  0
SECTION
  2
CLASSES
  0
CLASS
  1
ACDBDICTIONARYWDFLT
  2
AcDbDictionaryWithDefault
  3
AutoCAD 2000
 90
        0
280
     0
281
     0
  0
CLASS
  1
ACDBPLACEHOLDER
  2
AcDbPlaceHolder
  3
AutoCAD 2000
 90
        0
280
     0
281
     0
  0
CLASS
  1
LAYOUT
  2
AcDbLayout
  3
AutoCAD 2000
 90
        0
280
     0
281
     0
  0
CLASS
  1
DICTIONARYVAR
  2
AcDbDictionaryVar
  3
AutoCAD 2000
 90
        0
280
     0
281
     0
  0
CLASS
  1
LONG_TRANSACTION
  2
AcDbLongTransaction
  3
AutoCAD 2000
 90
        0
280
     0
281
     0
  0
CLASS
  1
LWPOLYLINE
  2
AcDbPolyline
  3
AutoCAD 2000
 90
        0
280
     0
281
     1
  0
CLASS
  1
HATCH
  2
AcDbHatch
  3
AutoCAD 2000
 90
        0
280
     0
281
     1
  0
CLASS
  1
XRECORD
  2
AcDbXrecord
  3
AutoCAD 2000
 90
        0
280
     0
281
     0
  0
CLASS
  1
LONG_TRANSACTION
  2
AcDbLongTransaction
  3
AutoCAD 2000
 90
        0
280
     0
281
     0
  0
CLASS
  1
LWPOLYLINE
  2
AcDbPolyline
  3
AutoCAD 2000
 90
        0
280
     0
281
     1
  0
CLASS
  1
HATCH
  2
AcDbHatch
  3
AutoCAD 2000
 90
        0
280
     0
281
     1
  0
CLASS
  1
XRECORD
  2
AcDbXrecord
  3
AutoCAD 2000
 90
        0
280
     0
281
     0
  0
CLASS
  1
LONG_TRANSACTION
  2
AcDbLongTransaction
  3
AutoCAD 2000
 90
        0
280
     0
281
     0
  0
CLASS
  1
LWPOLYLINE
  2
AcDbPolyline
  3
AutoCAD 2000
 90
        0
280
     0
281
     1
  0
CLASS
  1
HATCH
  2
AcDbHatch
  3
AutoCAD 2000
 90
        0
280
     0
281
     1
  0
CLASS
  1
XRECORD
  2
AcDbXrecord
  3
AutoCAD 2000
 90
        0
280
     0
281
     0
  0
CLASS
  1
LONG_TRANSACTION
  2
AcDbLongTransaction
  3
AutoCAD 2000
 90
        0
280
     0
281
     0
  0
CLASS
  1
LWPOLYLINE
  2
AcDbPolyline
  3
AutoCAD 2000
 90
        0
280
     0
281
     1
  0
CLASS
  1
HATCH
  2
AcDbHatch
  3
AutoCAD 2000
 90
        0
280
     0
281
     1
  0
CLASS
  1
XRECORD
  2
AcDbXrecord
  3
AutoCAD 2000
 90
        0
280
     0
281
     0
  0
CLASS
  1
LONG_TRANSACTION
  2
AcDbLongTransaction
  3
AutoCAD 2000
 90
        0
280
     0
281
     0
  0
CLASS
  1
LWPOLYLINE
  2
AcDbPolyline
  3
AutoCAD 2000
 90
        0
280
     0
281
     1
  0
CLASS
  1
HATCH
  2
AcDbHatch
  3
AutoCAD 2000
 90
        0
280
     0
281
     1
  0
CLASS
  1
XRECORD
  2
AcDbXrecord
  3
AutoCAD 2000
 90
        0
280
     0
281
     0
  0
CLASS
  1
LONG_TRANSACTION
  2
AcDbLongTransaction
  3
AutoCAD 2000
 90
        0
280
     0
281
     0
  0
CLASS
  1
LWPOLYLINE
  2
AcDbPolyline
  3
AutoCAD 2000
 90
        0
280
     0
281
     1
  0
CLASS
  1
HATCH
  2
AcDbHatch
  3
AutoCAD 2000
 90
        0
280
     0
281
     1
  0
CLASS
  1
XRECORD
  2
AcDbXrecord
  3
AutoCAD 2000
 90
        0
280
     0
281
     0
  0
ENDSEC
  0
SECTION
  2
TABLES
  0
TABLE
  2
VPORT
  5
8
330
0
100
AcDbSymbolTable
 70
     2
  0
VPORT
  5
272
330
8
100
AcDbSymbolTableRecord
100
AcDbViewportTableRecord
  2
*ACTIVE
 70
     0
 10
0.0
 20
0.0
 11
1.0
 21
1.0
 12
-13.90317738497795
 22
20.99514779238397
 13
0.0
 23
0.0
 14
0.5740882589684922
 24
0.5740882589684922
 15
0.5
 25
0.5
 16
0.0
 26
0.0
 36
1.0
 17
0.0
 27
0.0
 37
0.0
 40
6.20023156466653
 41
1.570528967254408
 42
50.0
 43
0.0
 44
0.0
 50
0.0
 51
0.0
 71
     0
 72
   100
 73
     1
 74
     0
 75
     0
 76
     0
 77
     0
 78
     0
  0
ENDTAB
  0
TABLE
  2
LTYPE
  5
5
330
0
100
AcDbSymbolTable
 70
     2
  0
LTYPE
  5
13
330
5
100
AcDbSymbolTableRecord
100
AcDbLinetypeTableRecord
  2
BYBLOCK
 70
     0
  3

 72
    65
 73
     0
 40
0.0
  0
LTYPE
  5
14
330
5
100
AcDbSymbolTableRecord
100
AcDbLinetypeTableRecord
  2
BYLAYER
 70
     0
  3

 72
    65
 73
     0
 40
0.0
  0
LTYPE
  5
15
330
5
100
AcDbSymbolTableRecord
100
AcDbLinetypeTableRecord
  2
CONTINUOUS
 70
     0
  3
Solid line
 72
    65
 73
     0
 40
0.0
  0
LTYPE
  5
26
330
5
100
AcDbSymbolTableRecord
100
AcDbLinetypeTableRecord
  2
HIDDEN
 70
     0
  3
__ __ __ __ __ __ __ __ __ __ __ __ __ __ __ __
 72
    65
 73
     2
 40
0.375
 49
0.25
 74
     0
 49
-0.125
 74
     0
  0
ENDTAB
  0
TABLE
  2
LAYER
  5
2
330
0
100
AcDbSymbolTable
 70
     5
  0
LAYER
  5
10
330
2
100
AcDbSymbolTableRecord
100
AcDbLayerTableRecord
  2
0
 70
     0
 62
     7
  6
CONTINUOUS
  0
LAYER
  5
28
330
2
100
AcDbSymbolTableRecord
100
AcDbLayerTableRecord
  2
ADP2DETAIL
 70
     0
 62
     5
  6
CONTINUOUS
  0
LAYER
  5
29
330
2
100
AcDbSymbolTableRecord
100
AcDbLayerTableRecord
  2
ADP1DETAIL
 70
     0
 62
     7
  6
CONTINUOUS
  0
LAYER
  5
2A
330
2
100
AcDbSymbolTableRecord
100
AcDbLayerTableRecord
  2
DEFPOINTS
 70
     0
 62
     7
  6
CONTINUOUS
  0
LAYER
  5
2B
330
2
100
AcDbSymbolTableRecord
100
AcDbLayerTableRecord
  2
ADPDIM
 70
     0
 62
     3
  6
CONTINUOUS
  0
ENDTAB
  0
TABLE
  2
STYLE
  5
3
330
0
100
AcDbSymbolTable
 70
     2
  0
STYLE
  5
11
330
3
100
AcDbSymbolTableRecord
100
AcDbTextStyleTableRecord
  2
STANDARD
 70
     0
 40
0.0
 41
1.0
 50
0.0
 71
     0
 42
0.2
  3
txt
  4

  0
STYLE
  5
D6
330
3
100
AcDbSymbolTableRecord
100
AcDbTextStyleTableRecord
  2
ARIAL_WIDE
 70
     0
 40
0.0
 41
1.25
 50
0.0
 71
     0
 42
0.2
  3
ARIAL.TTF
  4

1001
ACAD
1000
Arial
1071
       34
  0
ENDTAB
  0
TABLE
  2
VIEW
  5
6
330
0
100
AcDbSymbolTable
 70
     0
  0
ENDTAB
  0
TABLE
  2
UCS
  5
7
330
0
100
AcDbSymbolTable
 70
     0
  0
ENDTAB
  0
TABLE
  2
APPID
  5
9
330
0
100
AcDbSymbolTable
 70
     1
  0
APPID
  5
12
330
9
100
AcDbSymbolTableRecord
100
AcDbRegAppTableRecord
  2
ACAD
 70
     0
  0
ENDTAB
  0
TABLE
  2
DIMSTYLE
  5
A
330
0
100
AcDbSymbolTable
 70
     1
  0
DIMSTYLE
105
D4
330
A
100
AcDbSymbolTableRecord
100
AcDbDimStyleTableRecord
  2
STANDARD
 70
     0
  3

  4

  5

  6

  7

 40
1.0
 41
0.18
 42
0.0625
 43
0.38
 44
0.18
 45
0.0
 46
0.0
 47
0.0
 48
0.0
140
0.18
141
0.09
142
0.0
143
25.4
144
1.0
145
0.0
146
1.0
147
0.09
 71
     0
 72
     0
 73
     1
 74
     1
 75
     0
 76
     0
 77
     0
 78
     0
170
     0
171
     2
172
     0
173
     0
174
     0
175
     0
176
     0
177
     0
178
     0
270
     2
271
     4
272
     4
273
     2
274
     2
340
11
275
     0
280
     0
281
     0
282
     0
283
     1
284
     0
285
     0
286
     0
287
     3
288
     0
  0
ENDTAB
  0
TABLE
  2
BLOCK_RECORD
  5
1
330
0
100
AcDbSymbolTable
 70
     4
  0
BLOCK_RECORD
  5
1E
102
{ACAD_XDICTIONARY
360
117
102
}
330
1
100
AcDbSymbolTableRecord
100
AcDbBlockTableRecord
  2
*MODEL_SPACE
  0
BLOCK_RECORD
  5
1A
102
{ACAD_XDICTIONARY
360
119
102
}
330
1
100
AcDbSymbolTableRecord
100
AcDbBlockTableRecord
  2
*PAPER_SPACE
  0
BLOCK_RECORD
  5
22
330
1
100
AcDbSymbolTableRecord
100
AcDbBlockTableRecord
  2
*D0
  0
BLOCK_RECORD
  5
23
330
1
100
AcDbSymbolTableRecord
100
AcDbBlockTableRecord
  2
*D1
  0
BLOCK_RECORD
  5
24
330
1
100
AcDbSymbolTableRecord
100
AcDbBlockTableRecord
  2
*D2
  0
BLOCK_RECORD
  5
25
330
1
100
AcDbSymbolTableRecord
100
AcDbBlockTableRecord
  2
*D3
  0
ENDTAB
  0
ENDSEC
  0
SECTION
  2
BLOCKS
  0
BLOCK
  5
2E
330
1E
100
AcDbEntity
  8
0
100
AcDbBlockBegin
  2
*MODEL_SPACE
 70
     0
 10
0.0
 20
0.0
 30
0.0
  3
*MODEL_SPACE
  1

  0
ENDBLK
  5
2F
330
1E
100
AcDbEntity
  8
0
100
AcDbBlockEnd
  0
BLOCK
  5
2C
330
1A
100
AcDbEntity
 67
     1
  8
0
100
AcDbBlockBegin
  2
*PAPER_SPACE
 70
     0
 10
0.0
 20
0.0
 30
0.0
  3
*PAPER_SPACE
  1

  0
ENDBLK
  5
2D
330
1A
100
AcDbEntity
 67
     1
  8
0
100
AcDbBlockEnd
  0
BLOCK
  5
30
330
22
100
AcDbEntity
  8
0
100
AcDbBlockBegin
  2
*D0
 70
     1
 10
0.0
 20
0.0
 30
0.0
  3
*D0
  1

  0
LINE
  5
31
330
22
100
AcDbEntity
  8
0
  6
BYBLOCK
 62
     0
100
AcDbLine
 10
-15.40572620963244
 20
22.02933368022743
 30
0.0
 11
-15.40572620963244
 21
22.32885692582984
 31
0.0
  0
LINE
  5
32
330
22
100
AcDbEntity
  8
0
  6
BYBLOCK
 62
     0
100
AcDbLine
 10
-12.40109658000282
 20
22.02933368022743
 30
0.0
 11
-12.40109658000282
 21
22.32885692582984
 31
0.0
  0
LINE
  5
33
330
22
100
AcDbEntity
  8
0
  6
BYBLOCK
 62
     0
100
AcDbLine
 10
-15.40572620963244
 20
22.14885692582984
 30
0.0
 11
-14.0700780614843
 21
22.14885692582984
 31
0.0
  0
LINE
  5
34
330
22
100
AcDbEntity
  8
0
  6
BYBLOCK
 62
     0
100
AcDbLine
 10
-12.40109658000282
 20
22.14885692582984
 30
0.0
 11
-13.73674472815097
 21
22.14885692582984
 31
0.0
  0
LINE
  5
35
330
22
100
AcDbEntity
  8
0
  6
BYBLOCK
 62
     0
100
AcDbLine
 10
-15.53072620963244
 20
22.02385692582984
 30
0.0
 11
-15.28072620963244
 21
22.27385692582984
 31
0.0
  0
LINE
  5
36
330
22
100
AcDbEntity
  8
0
  6
BYBLOCK
 62
     0
100
AcDbLine
 10
-12.52609658000282
 20
22.02385692582984
 30
0.0
 11
-12.27609658000282
 21
22.27385692582984
 31
0.0
  0
TEXT
  5
37
330
22
100
AcDbEntity
  8
0
  6
BYBLOCK
 62
     0
100
AcDbText
 10
-13.9450780614843
 20
22.08635692582984
 30
0.0
 40
0.125
  1
3
 72
     1
 11
-13.90341139481763
 21
22.14885692582984
 31
0.0
100
AcDbText
 73
     2
  0
POINT
  5
39
330
22
100
AcDbEntity
  8
DEFPOINTS
  6
BYBLOCK
 62
     0
100
AcDbPoint
 10
-15.40572620963244
 20
21.96683368022743
 30
0.0
  0
POINT
  5
3A
330
22
100
AcDbEntity
  8
DEFPOINTS
  6
BYBLOCK
 62
     0
100
AcDbPoint
 10
-12.40109658000282
 20
21.96683368022743
 30
0.0
  0
POINT
  5
3B
330
22
100
AcDbEntity
  8
DEFPOINTS
  6
BYBLOCK
 62
     0
100
AcDbPoint
 10
-12.40109658000282
 20
22.14885692582984
 30
0.0
  0
ENDBLK
  5
3C
330
22
100
AcDbEntity
  8
0
100
AcDbBlockEnd
  0
BLOCK
  5
3D
330
23
100
AcDbEntity
  8
0
100
AcDbBlockBegin
  2
*D1
 70
     1
 10
0.0
 20
0.0
 30
0.0
  3
*D1
  1

  0
LINE
  5
3E
330
23
100
AcDbEntity
  8
0
  6
BYBLOCK
 62
     0
100
AcDbLine
 10
-16.08859658000281
 20
21.87101886541261
 30
0.0
 11
-16.4050138454981
 21
21.87101886541261
 31
0.0
  0
LINE
  5
3F
330
23
100
AcDbEntity
  8
0
  6
BYBLOCK
 62
     0
100
AcDbLine
 10
-16.07933732074355
 20
21.09324108763483
 30
0.0
 11
-16.4050138454981
 21
21.09324108763483
 31
0.0
  0
LINE
  5
40
330
23
100
AcDbEntity
  8
0
  6
BYBLOCK
 62
     0
100
AcDbLine
 10
-16.2250138454981
 20
21.87101886541261
 30
0.0
 11
-16.2250138454981
 21
22.12101886541261
 31
0.0
  0
LINE
  5
41
330
23
100
AcDbEntity
  8
0
  6
BYBLOCK
 62
     0
100
AcDbLine
 10
-16.2250138454981
 20
21.09324108763483
 30
0.0
 11
-16.2250138454981
 21
20.84324108763483
 31
0.0
  0
LINE
  5
42
330
23
100
AcDbEntity
  8
0
  6
BYBLOCK
 62
     0
100
AcDbLine
 10
-16.1000138454981
 20
21.74601886541262
 30
0.0
 11
-16.3500138454981
 21
21.99601886541262
 31
0.0
  0
LINE
  5
43
330
23
100
AcDbEntity
  8
0
  6
BYBLOCK
 62
     0
100
AcDbLine
 10
-16.1000138454981
 20
20.96824108763483
 30
0.0
 11
-16.3500138454981
 21
21.21824108763483
 31
0.0
  0
TEXT
  5
44
330
23
100
AcDbEntity
  8
0
  6
BYBLOCK
 62
     0
100
AcDbText
 10
-16.1625138454981
 20
20.3849077543015
 30
0.0
 40
0.125
  1
3/4
 50
90.0
 72
     1
 11
-16.2250138454981
 21
20.55157442096816
 31
0.0
100
AcDbText
 73
     2
  0
POINT
  5
45
330
23
100
AcDbEntity
  8
DEFPOINTS
  6
BYBLOCK
 62
     0
100
AcDbPoint
 10
-16.02609658000281
 20
21.87101886541261
 30
0.0
  0
POINT
  5
46
330
23
100
AcDbEntity
  8
DEFPOINTS
  6
BYBLOCK
 62
     0
100
AcDbPoint
 10
-16.01683732074356
 20
21.09324108763483
 30
0.0
  0
POINT
  5
47
330
23
100
AcDbEntity
  8
DEFPOINTS
  6
BYBLOCK
 62
     0
100
AcDbPoint
 10
-16.2250138454981
 20
21.09324108763483
 30
0.0
  0
ENDBLK
  5
48
330
23
100
AcDbEntity
  8
0
100
AcDbBlockEnd
  0
BLOCK
  5
49
330
24
100
AcDbEntity
  8
0
100
AcDbBlockBegin
  2
*D2
 70
     1
 10
0.0
 20
0.0
 30
0.0
  3
*D2
  1

  0
LINE
  5
4A
330
24
100
AcDbEntity
  8
0
  6
BYBLOCK
 62
     0
100
AcDbLine
 10
-12.33859658000282
 20
20.99742627282002
 30
0.0
 11
-11.60182485088246
 21
20.99742627282002
 31
0.0
  0
LINE
  5
4B
330
24
100
AcDbEntity
  8
0
  6
BYBLOCK
 62
     0
100
AcDbLine
 10
-12.33859658000282
 20
21.96683368022743
 30
0.0
 11
-11.60182485088246
 21
21.96683368022743
 31
0.0
  0
LINE
  5
4C
330
24
100
AcDbEntity
  8
0
  6
BYBLOCK
 62
     0
100
AcDbLine
 10
-11.78182485088246
 20
20.99742627282002
 30
0.0
 11
-11.78182485088246
 21
21.33629664319039
 31
0.0
  0
LINE
  5
4D
330
24
100
AcDbEntity
  8
0
  6
BYBLOCK
 62
     0
100
AcDbLine
 10
-11.78182485088246
 20
21.96683368022743
 30
0.0
 11
-11.78182485088246
 21
21.62796330985706
 31
0.0
  0
LINE
  5
4E
330
24
100
AcDbEntity
  8
0
  6
BYBLOCK
 62
     0
100
AcDbLine
 10
-11.65682485088246
 20
20.87242627282002
 30
0.0
 11
-11.90682485088246
 21
21.12242627282002
 31
0.0
  0
LINE
  5
4F
330
24
100
AcDbEntity
  8
0
  6
BYBLOCK
 62
     0
100
AcDbLine
 10
-11.65682485088246
 20
21.84183368022743
 30
0.0
 11
-11.90682485088246
 21
22.09183368022743
 31
0.0
  0
TEXT
  5
50
330
24
100
AcDbEntity
  8
0
  6
BYBLOCK
 62
     0
100
AcDbText
 10
-11.71932485088245
 20
21.46129664319039
 30
0.0
 40
0.125
  1
1
 50
90.0
 72
     1
 11
-11.78182485088246
 21
21.48212997652373
 31
0.0
100
AcDbText
 73
     2
  0
POINT
  5
51
330
24
100
AcDbEntity
  8
DEFPOINTS
  6
BYBLOCK
 62
     0
100
AcDbPoint
 10
-12.40109658000282
 20
20.99742627282002
 30
0.0
  0
POINT
  5
52
330
24
100
AcDbEntity
  8
DEFPOINTS
  6
BYBLOCK
 62
     0
100
AcDbPoint
 10
-12.40109658000282
 20
21.96683368022743
 30
0.0
  0
POINT
  5
53
330
24
100
AcDbEntity
  8
DEFPOINTS
  6
BYBLOCK
 62
     0
100
AcDbPoint
 10
-11.78182485088246
 20
21.96683368022743
 30
0.0
  0
ENDBLK
  5
54
330
24
100
AcDbEntity
  8
0
100
AcDbBlockEnd
  0
BLOCK
  5
55
330
25
100
AcDbEntity
  8
0
100
AcDbBlockBegin
  2
*D3
 70
     1
 10
0.0
 20
0.0
 30
0.0
  3
*D3
  1

  0
LINE
  5
56
330
25
100
AcDbEntity
  8
0
  6
BYBLOCK
 62
     0
100
AcDbLine
 10
-12.33859658000282
 20
21.87101886541261
 30
0.0
 11
-12.05316075854639
 21
21.87101886541261
 31
0.0
  0
LINE
  5
57
330
25
100
AcDbEntity
  8
0
  6
BYBLOCK
 62
     0
100
AcDbLine
 10
-12.33859658000282
 20
21.09324108763483
 30
0.0
 11
-12.05316075854639
 21
21.09324108763483
 31
0.0
  0
LINE
  5
58
330
25
100
AcDbEntity
  8
0
  6
BYBLOCK
 62
     0
100
AcDbLine
 10
-12.23316075854639
 20
21.87101886541261
 30
0.0
 11
-12.23316075854639
 21
22.12101886541261
 31
0.0
  0
LINE
  5
59
330
25
100
AcDbEntity
  8
0
  6
BYBLOCK
 62
     0
100
AcDbLine
 10
-12.23316075854639
 20
21.09324108763483
 30
0.0
 11
-12.23316075854639
 21
20.84324108763483
 31
0.0
  0
LINE
  5
5A
330
25
100
AcDbEntity
  8
0
  6
BYBLOCK
 62
     0
100
AcDbLine
 10
-12.10816075854639
 20
21.74601886541262
 30
0.0
 11
-12.35816075854639
 21
21.99601886541262
 31
0.0
  0
LINE
  5
5B
330
25
100
AcDbEntity
  8
0
  6
BYBLOCK
 62
     0
100
AcDbLine
 10
-12.10816075854639
 20
20.96824108763483
 30
0.0
 11
-12.35816075854639
 21
21.21824108763483
 31
0.0
  0
TEXT
  5
5C
330
25
100
AcDbEntity
  8
0
  6
BYBLOCK
 62
     0
100
AcDbText
 10
-12.17066075854639
 20
20.3849077543015
 30
0.0
 40
0.125
  1
3/4
 50
90.0
 72
     1
 11
-12.23316075854639
 21
20.55157442096816
 31
0.0
100
AcDbText
 73
     2
  0
POINT
  5
5D
330
25
100
AcDbEntity
  8
DEFPOINTS
  6
BYBLOCK
 62
     0
100
AcDbPoint
 10
-12.40109658000282
 20
21.87101886541261
 30
0.0
  0
POINT
  5
5E
330
25
100
AcDbEntity
  8
DEFPOINTS
  6
BYBLOCK
 62
     0
100
AcDbPoint
 10
-12.40109658000282
 20
21.09324108763483
 30
0.0
  0
POINT
  5
5F
330
25
100
AcDbEntity
  8
DEFPOINTS
  6
BYBLOCK
 62
     0
100
AcDbPoint
 10
-12.23316075854639
 20
21.09324108763483
 30
0.0
  0
ENDBLK
  5
60
330
25
100
AcDbEntity
  8
0
100
AcDbBlockEnd
  0
ENDSEC
  0
SECTION
  2
ENTITIES
  0
DIMENSION
  5
61
330
1E
100
AcDbEntity
  8
ADPDIM
100
AcDbDimension
  2
*D3
 10
-12.23316075854639
 20
21.09324108763483
 30
0.0
 11
-12.23316075854639
 21
20.55157442096816
 31
0.0
100
AcDbAlignedDimension
 13
-12.40109658000282
 23
21.87101886541261
 33
0.0
 14
-12.40109658000282
 24
21.09324108763483
 34
0.0
 50
90.0
100
AcDbRotatedDimension
  0
DIMENSION
  5
62
330
1E
100
AcDbEntity
  8
ADPDIM
100
AcDbDimension
  2
*D2
 10
-11.78182485088246
 20
21.96683368022743
 30
0.0
 11
-11.78182485088246
 21
21.48212997652373
 31
0.0
100
AcDbAlignedDimension
 13
-12.40109658000282
 23
20.99742627282002
 33
0.0
 14
-12.40109658000282
 24
21.96683368022743
 34
0.0
 50
90.0
100
AcDbRotatedDimension
  0
DIMENSION
  5
63
330
1E
100
AcDbEntity
  8
ADPDIM
100
AcDbDimension
  2
*D1
 10
-16.2250138454981
 20
21.09324108763483
 30
0.0
 11
-16.2250138454981
 21
20.55157442096816
 31
0.0
100
AcDbAlignedDimension
 13
-16.02609658000281
 23
21.87101886541261
 33
0.0
 14
-16.01683732074356
 24
21.09324108763483
 34
0.0
 50
90.0
100
AcDbRotatedDimension
  0
LINE
  5
64
330
1E
100
AcDbEntity
  8
ADP1DETAIL
100
AcDbLine
 10
-12.40109658000282
 20
21.96683368022743
 30
0.0
 11
-15.40572620963244
 21
21.96683368022743
 31
0.0
  0
LINE
  5
65
330
1E
100
AcDbEntity
  8
ADP1DETAIL
100
AcDbLine
 10
-15.40572620963244
 20
20.99742627282002
 30
0.0
 11
-12.40109658000282
 21
20.99742627282002
 31
0.0
  0
LINE
  5
66
330
1E
100
AcDbEntity
  8
ADP2DETAIL
  6
HIDDEN
100
AcDbLine
 10
-12.41776324666948
 20
21.87101886541261
 30
0.0
 11
-14.48442991333615
 21
21.87101886541261
 31
0.0
  0
LINE
  5
67
330
1E
100
AcDbEntity
  8
ADP2DETAIL
  6
HIDDEN
100
AcDbLine
 10
-14.48442991333615
 20
21.09324108763483
 30
0.0
 11
-12.41776324666948
 21
21.09324108763483
 31
0.0
  0
DIMENSION
  5
68
330
1E
100
AcDbEntity
  8
ADPDIM
100
AcDbDimension
  2
*D0
 10
-12.40109658000282
 20
22.14885692582984
 30
0.0
 11
-13.90341139481763
 21
22.14885692582984
 31
0.0
100
AcDbAlignedDimension
 13
-15.40572620963244
 23
21.96683368022743
 33
0.0
 14
-12.40109658000282
 24
21.96683368022743
 34
0.0
100
AcDbRotatedDimension
  0
LINE
  5
69
330
1E
100
AcDbEntity
  8
ADP1DETAIL
100
AcDbLine
 10
-15.52609658000281
 20
21.8062040505978
 30
0.0
 11
-15.57239287629911
 21
21.87101886541261
 31
0.0
  0
LINE
  5
6A
330
1E
100
AcDbEntity
  8
ADP1DETAIL
100
AcDbLine
 10
-15.60017065407689
 20
21.15805590244965
 30
0.0
 11
-15.55387435778059
 21
21.09324108763483
 31
0.0
  0
LINE
  5
6B
330
1E
100
AcDbEntity
  8
ADP1DETAIL
100
AcDbLine
 10
-15.63720769111393
 20
21.87101886541261
 30
0.0
 11
-15.55387435778059
 21
21.09324108763483
 31
0.0
  0
LINE
  5
6C
330
1E
100
AcDbEntity
  8
ADP1DETAIL
100
AcDbLine
 10
-15.59091139481763
 20
21.8062040505978
 30
0.0
 11
-15.53535583926207
 21
21.15805590244965
 31
0.0
  0
LINE
  5
6D
330
1E
100
AcDbEntity
  8
ADP1DETAIL
100
AcDbLine
 10
-15.57239287629911
 20
21.87101886541261
 30
0.0
 11
-15.48905954296578
 21
21.09324108763483
 31
0.0
  0
LINE
  5
6E
330
1E
100
AcDbEntity
  8
ADP2DETAIL
  6
HIDDEN
100
AcDbLine
 10
-15.68350398741022
 20
21.50064849504224
 30
0.0
 11
-15.68350398741022
 21
21.58398182837558
 31
0.0
  0
LINE
  5
6F
330
1E
100
AcDbEntity
  8
ADP1DETAIL
100
AcDbLine
 10
-15.70202250592874
 20
21.87101886541261
 30
0.0
 11
-15.6186891725954
 21
21.09324108763483
 31
0.0
  0
LINE
  5
70
330
1E
100
AcDbEntity
  8
ADP1DETAIL
100
AcDbLine
 10
-15.65572620963244
 20
21.8062040505978
 30
0.0
 11
-15.60017065407689
 21
21.15805590244965
 31
0.0
  0
LINE
  5
71
330
1E
100
AcDbEntity
  8
ADP1DETAIL
100
AcDbLine
 10
-15.72054102444726
 20
21.8062040505978
 30
0.0
 11
-15.6649854688917
 21
21.15805590244965
 31
0.0
  0
LINE
  5
72
330
1E
100
AcDbEntity
  8
ADP1DETAIL
100
AcDbLine
 10
-15.89646695037318
 20
21.87101886541261
 30
0.0
 11
-15.81313361703985
 21
21.09324108763483
 31
0.0
  0
LINE
  5
73
330
1E
100
AcDbEntity
  8
ADP1DETAIL
100
AcDbLine
 10
-15.85017065407689
 20
21.8062040505978
 30
0.0
 11
-15.79461509852133
 21
21.15805590244965
 31
0.0
  0
LINE
  5
74
330
1E
100
AcDbEntity
  8
ADP1DETAIL
100
AcDbLine
 10
-16.02609658000281
 20
21.87101886541261
 30
0.0
 11
-15.94276324666948
 21
21.09324108763483
 31
0.0
  0
LINE
  5
75
330
1E
100
AcDbEntity
  8
ADP1DETAIL
100
AcDbLine
 10
-15.97980028370652
 20
21.8062040505978
 30
0.0
 11
-15.92424472815096
 21
21.15805590244965
 31
0.0
  0
LINE
  5
76
330
1E
100
AcDbEntity
  8
ADP1DETAIL
100
AcDbLine
 10
-16.05387435778059
 20
21.8062040505978
 30
0.0
 11
-15.98905954296578
 21
21.15805590244965
 31
0.0
  0
LINE
  5
77
330
1E
100
AcDbEntity
  8
ADP1DETAIL
100
AcDbLine
 10
-16.05387435778059
 20
21.8062040505978
 30
0.0
 11
-16.05387435778059
 21
21.15805590244965
 31
0.0
  0
LINE
  5
78
330
1E
100
AcDbEntity
  8
ADP1DETAIL
100
AcDbLine
 10
-15.961281765188
 20
21.87101886541261
 30
0.0
 11
-15.87794843185466
 21
21.09324108763483
 31
0.0
  0
LINE
  5
79
330
1E
100
AcDbEntity
  8
ADP1DETAIL
100
AcDbLine
 10
-15.9149854688917
 20
21.8062040505978
 30
0.0
 11
-15.85942991333615
 21
21.15805590244965
 31
0.0
  0
LINE
  5
7A
330
1E
100
AcDbEntity
  8
ADP1DETAIL
100
AcDbLine
 10
-15.76683732074355
 20
21.87101886541261
 30
0.0
 11
-15.68350398741022
 21
21.09324108763483
 31
0.0
  0
LINE
  5
7B
330
1E
100
AcDbEntity
  8
ADP1DETAIL
100
AcDbLine
 10
-15.78535583926207
 20
21.8062040505978
 30
0.0
 11
-15.72980028370652
 21
21.15805590244965
 31
0.0
  0
LINE
  5
7C
330
1E
100
AcDbEntity
  8
ADP1DETAIL
100
AcDbLine
 10
-15.83165213555837
 20
21.87101886541261
 30
0.0
 11
-15.74831880222504
 21
21.09324108763483
 31
0.0
  0
LINE
  5
7D
330
1E
100
AcDbEntity
  8
ADP2DETAIL
  6
HIDDEN
100
AcDbLine
 10
-16.06313361703985
 20
21.26916701356076
 30
0.0
 11
-15.97980028370652
 21
21.26916701356076
 31
0.0
  0
LINE
  5
7E
330
1E
100
AcDbEntity
  8
ADP2DETAIL
  6
HIDDEN
100
AcDbLine
 10
-15.90572620963244
 20
21.26916701356076
 30
0.0
 11
-15.83165213555837
 21
21.26916701356076
 31
0.0
  0
LINE
  5
7F
330
1E
100
AcDbEntity
  8
ADP2DETAIL
  6
HIDDEN
100
AcDbLine
 10
-15.74831880222504
 20
21.26916701356076
 30
0.0
 11
-15.68350398741022
 21
21.26916701356076
 31
0.0
  0
LINE
  5
80
330
1E
100
AcDbEntity
  8
ADP2DETAIL
  6
HIDDEN
100
AcDbLine
 10
-15.68350398741022
 20
21.26916701356076
 30
0.0
 11
-15.68350398741022
 21
21.26916701356076
 31
0.0
  0
LINE
  5
81
330
1E
100
AcDbEntity
  8
ADP2DETAIL
  6
HIDDEN
100
AcDbLine
 10
-15.68350398741022
 20
21.35250034689409
 30
0.0
 11
-15.68350398741022
 21
21.42657442096817
 31
0.0
  0
LINE
  5
82
330
1E
100
AcDbEntity
  8
ADP1DETAIL
100
AcDbLine
 10
-15.68350398741022
 20
21.09324108763483
 30
0.0
 11
-15.6649854688917
 21
21.15805590244965
 31
0.0
  0
LINE
  5
83
330
1E
100
AcDbEntity
  8
ADP1DETAIL
100
AcDbLine
 10
-15.74831880222504
 20
21.09324108763483
 30
0.0
 11
-15.72980028370652
 21
21.15805590244965
 31
0.0
  0
LINE
  5
84
330
1E
100
AcDbEntity
  8
ADP1DETAIL
100
AcDbLine
 10
-15.72980028370652
 20
21.15805590244965
 30
0.0
 11
-15.68350398741022
 21
21.09324108763483
 31
0.0
  0
LINE
  5
85
330
1E
100
AcDbEntity
  8
ADP1DETAIL
100
AcDbLine
 10
-15.6649854688917
 20
21.15805590244965
 30
0.0
 11
-15.6186891725954
 21
21.09324108763483
 31
0.0
  0
LINE
  5
86
330
1E
100
AcDbEntity
  8
ADP1DETAIL
100
AcDbLine
 10
-15.81313361703985
 20
21.09324108763483
 30
0.0
 11
-15.79461509852133
 21
21.15805590244965
 31
0.0
  0
LINE
  5
87
330
1E
100
AcDbEntity
  8
ADP1DETAIL
100
AcDbLine
 10
-15.85942991333615
 20
21.15805590244965
 30
0.0
 11
-15.81313361703985
 21
21.09324108763483
 31
0.0
  0
LINE
  5
88
330
1E
100
AcDbEntity
  8
ADP1DETAIL
100
AcDbLine
 10
-15.87794843185466
 20
21.09324108763483
 30
0.0
 11
-15.85942991333615
 21
21.15805590244965
 31
0.0
  0
LINE
  5
89
330
1E
100
AcDbEntity
  8
ADP1DETAIL
100
AcDbLine
 10
-15.94276324666948
 20
21.09324108763483
 30
0.0
 11
-15.92424472815096
 21
21.15805590244965
 31
0.0
  0
LINE
  5
8A
330
1E
100
AcDbEntity
  8
ADP1DETAIL
100
AcDbLine
 10
-16.05387435778059
 20
21.4636114580052
 30
0.0
 11
-16.01683732074356
 21
21.09324108763483
 31
0.0
  0
LINE
  5
8B
330
1E
100
AcDbEntity
  8
ADP1DETAIL
100
AcDbLine
 10
-16.01683732074356
 20
21.09324108763483
 30
0.0
 11
-15.98905954296578
 21
21.15805590244965
 31
0.0
  0
LINE
  5
8C
330
1E
100
AcDbEntity
  8
ADP1DETAIL
100
AcDbLine
 10
-16.04461509852133
 20
21.15805590244965
 30
0.0
 11
-16.01683732074356
 21
21.09324108763483
 31
0.0
  0
LINE
  5
8D
330
1E
100
AcDbEntity
  8
ADP1DETAIL
100
AcDbLine
 10
-16.05387435778059
 20
21.15805590244965
 30
0.0
 11
-16.04461509852133
 21
21.15805590244965
 31
0.0
  0
LINE
  5
8E
330
1E
100
AcDbEntity
  8
ADP1DETAIL
100
AcDbLine
 10
-15.98905954296578
 20
21.15805590244965
 30
0.0
 11
-15.94276324666948
 21
21.09324108763483
 31
0.0
  0
LINE
  5
8F
330
1E
100
AcDbEntity
  8
ADP1DETAIL
100
AcDbLine
 10
-15.92424472815096
 20
21.15805590244965
 30
0.0
 11
-15.87794843185466
 21
21.09324108763483
 31
0.0
  0
LINE
  5
90
330
1E
100
AcDbEntity
  8
ADP1DETAIL
100
AcDbLine
 10
-15.79461509852133
 20
21.15805590244965
 30
0.0
 11
-15.74831880222504
 21
21.09324108763483
 31
0.0
  0
LINE
  5
91
330
1E
100
AcDbEntity
  8
ADP1DETAIL
100
AcDbLine
 10
-15.6186891725954
 20
21.09324108763483
 30
0.0
 11
-15.60017065407689
 21
21.15805590244965
 31
0.0
  0
LINE
  5
92
330
1E
100
AcDbEntity
  8
ADP2DETAIL
  6
HIDDEN
100
AcDbLine
 10
-15.68350398741022
 20
21.65805590244965
 30
0.0
 11
-15.7575780614843
 21
21.65805590244965
 31
0.0
  0
LINE
  5
93
330
1E
100
AcDbEntity
  8
ADP2DETAIL
  6
HIDDEN
100
AcDbLine
 10
-15.98905954296578
 20
21.65805590244965
 30
0.0
 11
-16.06313361703985
 21
21.65805590244965
 31
0.0
  0
LINE
  5
94
330
1E
100
AcDbEntity
  8
ADP2DETAIL
  6
HIDDEN
100
AcDbLine
 10
-15.84091139481763
 20
21.65805590244965
 30
0.0
 11
-15.9149854688917
 21
21.65805590244965
 31
0.0
  0
LINE
  5
95
330
1E
100
AcDbEntity
  8
ADP1DETAIL
100
AcDbLine
 10
-15.57239287629911
 20
21.87101886541261
 30
0.0
 11
-15.59091139481763
 21
21.8062040505978
 31
0.0
  0
LINE
  5
96
330
1E
100
AcDbEntity
  8
ADP1DETAIL
100
AcDbLine
 10
-15.70202250592874
 20
21.87101886541261
 30
0.0
 11
-15.72980028370652
 21
21.8062040505978
 31
0.0
  0
LINE
  5
97
330
1E
100
AcDbEntity
  8
ADP1DETAIL
100
AcDbLine
 10
-15.6649854688917
 20
21.8062040505978
 30
0.0
 11
-15.70202250592874
 21
21.87101886541261
 31
0.0
  0
LINE
  5
98
330
1E
100
AcDbEntity
  8
ADP1DETAIL
100
AcDbLine
 10
-15.63720769111393
 20
21.87101886541261
 30
0.0
 11
-15.6649854688917
 21
21.8062040505978
 31
0.0
  0
LINE
  5
99
330
1E
100
AcDbEntity
  8
ADP1DETAIL
100
AcDbLine
 10
-15.85942991333615
 20
21.8062040505978
 30
0.0
 11
-15.89646695037318
 21
21.87101886541261
 31
0.0
  0
LINE
  5
9A
330
1E
100
AcDbEntity
  8
ADP1DETAIL
100
AcDbLine
 10
-15.83165213555837
 20
21.87101886541261
 30
0.0
 11
-15.85942991333615
 21
21.8062040505978
 31
0.0
  0
LINE
  5
9B
330
1E
100
AcDbEntity
  8
ADP1DETAIL
100
AcDbLine
 10
-15.79461509852133
 20
21.8062040505978
 30
0.0
 11
-15.83165213555837
 21
21.87101886541261
 31
0.0
  0
LINE
  5
9C
330
1E
100
AcDbEntity
  8
ADP1DETAIL
100
AcDbLine
 10
-15.76683732074355
 20
21.87101886541261
 30
0.0
 11
-15.79461509852133
 21
21.8062040505978
 31
0.0
  0
LINE
  5
9D
330
1E
100
AcDbEntity
  8
ADP1DETAIL
100
AcDbLine
 10
-15.92424472815096
 20
21.8062040505978
 30
0.0
 11
-15.961281765188
 21
21.87101886541261
 31
0.0
  0
LINE
  5
9E
330
1E
100
AcDbEntity
  8
ADP1DETAIL
100
AcDbLine
 10
-16.05387435778059
 20
21.8062040505978
 30
0.0
 11
-16.05387435778059
 21
21.8062040505978
 31
0.0
  0
LINE
  5
9F
330
1E
100
AcDbEntity
  8
ADP1DETAIL
100
AcDbLine
 10
-16.02609658000281
 20
21.87101886541261
 30
0.0
 11
-16.05387435778059
 21
21.8062040505978
 31
0.0
  0
LINE
  5
A0
330
1E
100
AcDbEntity
  8
ADP1DETAIL
100
AcDbLine
 10
-15.98905954296578
 20
21.8062040505978
 30
0.0
 11
-16.02609658000281
 21
21.87101886541261
 31
0.0
  0
LINE
  5
A1
330
1E
100
AcDbEntity
  8
ADP1DETAIL
100
AcDbLine
 10
-15.961281765188
 20
21.87101886541261
 30
0.0
 11
-15.98905954296578
 21
21.8062040505978
 31
0.0
  0
LINE
  5
A2
330
1E
100
AcDbEntity
  8
ADP1DETAIL
100
AcDbLine
 10
-15.89646695037318
 20
21.87101886541261
 30
0.0
 11
-15.92424472815096
 21
21.8062040505978
 31
0.0
  0
LINE
  5
A3
330
1E
100
AcDbEntity
  8
ADP1DETAIL
100
AcDbLine
 10
-15.72980028370652
 20
21.8062040505978
 30
0.0
 11
-15.76683732074355
 21
21.87101886541261
 31
0.0
  0
LINE
  5
A4
330
1E
100
AcDbEntity
  8
ADP1DETAIL
100
AcDbLine
 10
-15.59091139481763
 20
21.8062040505978
 30
0.0
 11
-15.63720769111393
 21
21.87101886541261
 31
0.0
  0
LINE
  5
A5
330
1E
100
AcDbEntity
  8
ADP1DETAIL
100
AcDbLine
 10
-15.52609658000281
 20
21.8062040505978
 30
0.0
 11
-15.461281765188
 21
21.15805590244965
 31
0.0
  0
LINE
  5
A6
330
1E
100
AcDbEntity
  8
ADP1DETAIL
100
AcDbLine
 10
-15.40572620963244
 20
21.96683368022743
 30
0.0
 11
-15.40572620963244
 21
21.02842627282002
 31
0.0
  0
LINE
  5
A7
330
1E
100
AcDbEntity
  8
ADP2DETAIL
  6
HIDDEN
100
AcDbLine
 10
-14.48442991333615
 20
21.87101886541261
 30
0.0
 11
-14.48442991333615
 21
21.09324108763483
 31
0.0
  0
LINE
  5
A8
330
1E
100
AcDbEntity
  8
ADP2DETAIL
  6
HIDDEN
100
AcDbLine
 10
-14.42442991333615
 20
21.81101886541262
 30
0.0
 11
-14.42442991333615
 21
21.1599077543015
 31
0.0
  0
LINE
  5
A9
330
1E
100
AcDbEntity
  8
ADP1DETAIL
100
AcDbLine
 10
-15.461281765188
 20
21.15805590244965
 30
0.0
 11
-15.47054102444726
 21
21.15805590244965
 31
0.0
  0
LINE
  5
AA
330
1E
100
AcDbEntity
  8
ADP1DETAIL
100
AcDbLine
 10
-15.48905954296578
 20
21.09324108763483
 30
0.0
 11
-15.461281765188
 21
21.15805590244965
 31
0.0
  0
LINE
  5
AB
330
1E
100
AcDbEntity
  8
ADP1DETAIL
100
AcDbLine
 10
-15.55387435778059
 20
21.09324108763483
 30
0.0
 11
-15.53535583926207
 21
21.15805590244965
 31
0.0
  0
LINE
  5
AC
330
1E
100
AcDbEntity
  8
ADP1DETAIL
100
AcDbLine
 10
-15.53535583926207
 20
21.15805590244965
 30
0.0
 11
-15.48905954296578
 21
21.09324108763483
 31
0.0
  0
LINE
  5
AD
330
1E
100
AcDbEntity
  8
ADP1DETAIL
100
AcDbLine
 10
-15.47054102444726
 20
21.15805590244965
 30
0.0
 11
-15.40572620963244
 21
21.15805590244965
 31
0.0
  0
LINE
  5
AE
330
1E
100
AcDbEntity
  8
ADP1DETAIL
100
AcDbLine
 10
-15.40572620963244
 20
21.96683368022743
 30
0.0
 11
-15.40572620963244
 21
21.96683368022743
 31
0.0
  0
LINE
  5
AF
330
1E
100
AcDbEntity
  8
ADP1DETAIL
100
AcDbLine
 10
-15.39646695037318
 20
21.8062040505978
 30
0.0
 11
-15.52609658000281
 21
21.8062040505978
 31
0.0
  0
LINE
  5
B0
330
1E
100
AcDbEntity
  8
ADP2DETAIL
  6
HIDDEN
100
AcDbLine
 10
-14.05776324666948
 20
21.81101886541262
 30
0.0
 11
-14.05776324666948
 21
21.1599077543015
 31
0.0
  0
LINE
  5
B1
330
1E
100
AcDbEntity
  8
ADP2DETAIL
  6
HIDDEN
100
AcDbLine
 10
-14.17776324666948
 20
21.81101886541262
 30
0.0
 11
-14.17776324666948
 21
21.1599077543015
 31
0.0
  0
LINE
  5
B2
330
1E
100
AcDbEntity
  8
ADP2DETAIL
  6
HIDDEN
100
AcDbLine
 10
-14.11776324666948
 20
21.87101886541261
 30
0.0
 11
-14.11776324666948
 21
21.09324108763483
 31
0.0
  0
LINE
  5
B3
330
1E
100
AcDbEntity
  8
ADP2DETAIL
  6
HIDDEN
100
AcDbLine
 10
-14.23776324666948
 20
21.87101886541261
 30
0.0
 11
-14.23776324666948
 21
21.09324108763483
 31
0.0
  0
LINE
  5
B4
330
1E
100
AcDbEntity
  8
ADP2DETAIL
  6
HIDDEN
100
AcDbLine
 10
-14.29776324666948
 20
21.81101886541262
 30
0.0
 11
-14.29776324666948
 21
21.1599077543015
 31
0.0
  0
LINE
  5
B5
330
1E
100
AcDbEntity
  8
ADP2DETAIL
  6
HIDDEN
100
AcDbLine
 10
-13.81776324666948
 20
21.81101886541262
 30
0.0
 11
-13.81776324666948
 21
21.1599077543015
 31
0.0
  0
LINE
  5
B6
330
1E
100
AcDbEntity
  8
ADP2DETAIL
  6
HIDDEN
100
AcDbLine
 10
-13.93776324666948
 20
21.81101886541262
 30
0.0
 11
-13.93776324666948
 21
21.1599077543015
 31
0.0
  0
LINE
  5
B7
330
1E
100
AcDbEntity
  8
ADP2DETAIL
  6
HIDDEN
100
AcDbLine
 10
-13.99776324666948
 20
21.87101886541261
 30
0.0
 11
-13.99776324666948
 21
21.09324108763483
 31
0.0
  0
LINE
  5
B8
330
1E
100
AcDbEntity
  8
ADP2DETAIL
  6
HIDDEN
100
AcDbLine
 10
-13.87776324666948
 20
21.87101886541261
 30
0.0
 11
-13.87776324666948
 21
21.09324108763483
 31
0.0
  0
LINE
  5
B9
330
1E
100
AcDbEntity
  8
ADP2DETAIL
  6
HIDDEN
100
AcDbLine
 10
-13.27109658000281
 20
21.87101886541261
 30
0.0
 11
-13.27109658000281
 21
21.09324108763483
 31
0.0
  0
LINE
  5
BA
330
1E
100
AcDbEntity
  8
ADP2DETAIL
  6
HIDDEN
100
AcDbLine
 10
-13.39109658000282
 20
21.87101886541261
 30
0.0
 11
-13.39109658000282
 21
21.09324108763483
 31
0.0
  0
LINE
  5
BB
330
1E
100
AcDbEntity
  8
ADP2DETAIL
  6
HIDDEN
100
AcDbLine
 10
-13.33109658000282
 20
21.81101886541262
 30
0.0
 11
-13.33109658000282
 21
21.1599077543015
 31
0.0
  0
LINE
  5
BC
330
1E
100
AcDbEntity
  8
ADP2DETAIL
  6
HIDDEN
100
AcDbLine
 10
-13.75776324666948
 20
21.87101886541261
 30
0.0
 11
-13.75776324666948
 21
21.09324108763483
 31
0.0
  0
LINE
  5
BD
330
1E
100
AcDbEntity
  8
ADP2DETAIL
  6
HIDDEN
100
AcDbLine
 10
-13.81776324666948
 20
21.81101886541262
 30
0.0
 11
-13.81776324666948
 21
21.1599077543015
 31
0.0
  0
LINE
  5
BE
330
1E
100
AcDbEntity
  8
ADP2DETAIL
  6
HIDDEN
100
AcDbLine
 10
-13.69109658000281
 20
21.81101886541262
 30
0.0
 11
-13.69109658000281
 21
21.1599077543015
 31
0.0
  0
LINE
  5
BF
330
1E
100
AcDbEntity
  8
ADP2DETAIL
  6
HIDDEN
100
AcDbLine
 10
-13.63109658000282
 20
21.87101886541261
 30
0.0
 11
-13.63109658000281
 21
21.09324108763483
 31
0.0
  0
LINE
  5
C0
330
1E
100
AcDbEntity
  8
ADP2DETAIL
  6
HIDDEN
100
AcDbLine
 10
-13.51109658000281
 20
21.87101886541261
 30
0.0
 11
-13.51109658000281
 21
21.09324108763483
 31
0.0
  0
LINE
  5
C1
330
1E
100
AcDbEntity
  8
ADP2DETAIL
  6
HIDDEN
100
AcDbLine
 10
-13.57109658000282
 20
21.81101886541262
 30
0.0
 11
-13.57109658000282
 21
21.1599077543015
 31
0.0
  0
LINE
  5
C2
330
1E
100
AcDbEntity
  8
ADP2DETAIL
  6
HIDDEN
100
AcDbLine
 10
-13.45109658000281
 20
21.81101886541262
 30
0.0
 11
-13.45109658000281
 21
21.1599077543015
 31
0.0
  0
LINE
  5
C3
330
1E
100
AcDbEntity
  8
ADP2DETAIL
  6
HIDDEN
100
AcDbLine
 10
-14.36442991333615
 20
21.87101886541261
 30
0.0
 11
-14.36442991333615
 21
21.09324108763483
 31
0.0
  0
LINE
  5
C4
330
1E
100
AcDbEntity
  8
ADP1DETAIL
100
AcDbLine
 10
-12.40109658000282
 20
20.99742627282002
 30
0.0
 11
-12.40109658000282
 21
21.96683368022743
 31
0.0
  0
LINE
  5
C5
330
1E
100
AcDbEntity
  8
ADP2DETAIL
  6
HIDDEN
100
AcDbLine
 10
-12.66442991333615
 20
21.87101886541261
 30
0.0
 11
-12.66442991333615
 21
21.09324108763483
 31
0.0
  0
LINE
  5
C6
330
1E
100
AcDbEntity
  8
ADP2DETAIL
  6
HIDDEN
100
AcDbLine
 10
-12.60442991333615
 20
21.81101886541262
 30
0.0
 11
-12.60442991333615
 21
21.1599077543015
 31
0.0
  0
LINE
  5
C7
330
1E
100
AcDbEntity
  8
ADP2DETAIL
  6
HIDDEN
100
AcDbLine
 10
-12.54442991333615
 20
21.87101886541261
 30
0.0
 11
-12.54442991333615
 21
21.09324108763483
 31
0.0
  0
LINE
  5
C8
330
1E
100
AcDbEntity
  8
ADP2DETAIL
  6
HIDDEN
100
AcDbLine
 10
-12.47776324666948
 20
21.81101886541262
 30
0.0
 11
-12.47776324666948
 21
21.1599077543015
 31
0.0
  0
LINE
  5
C9
330
1E
100
AcDbEntity
  8
ADP2DETAIL
  6
HIDDEN
100
AcDbLine
 10
-12.78442991333615
 20
21.87101886541261
 30
0.0
 11
-12.78442991333615
 21
21.09324108763483
 31
0.0
  0
LINE
  5
CA
330
1E
100
AcDbEntity
  8
ADP2DETAIL
  6
HIDDEN
100
AcDbLine
 10
-12.72442991333615
 20
21.81101886541262
 30
0.0
 11
-12.72442991333615
 21
21.1599077543015
 31
0.0
  0
LINE
  5
CB
330
1E
100
AcDbEntity
  8
ADP2DETAIL
  6
HIDDEN
100
AcDbLine
 10
-12.90442991333615
 20
21.87101886541261
 30
0.0
 11
-12.90442991333615
 21
21.09324108763483
 31
0.0
  0
LINE
  5
CC
330
1E
100
AcDbEntity
  8
ADP2DETAIL
  6
HIDDEN
100
AcDbLine
 10
-12.84442991333615
 20
21.81101886541262
 30
0.0
 11
-12.84442991333615
 21
21.1599077543015
 31
0.0
  0
LINE
  5
CD
330
1E
100
AcDbEntity
  8
ADP2DETAIL
  6
HIDDEN
100
AcDbLine
 10
-13.21109658000282
 20
21.81101886541262
 30
0.0
 11
-13.21109658000281
 21
21.1599077543015
 31
0.0
  0
LINE
  5
CE
330
1E
100
AcDbEntity
  8
ADP2DETAIL
  6
HIDDEN
100
AcDbLine
 10
-13.15109658000282
 20
21.87101886541261
 30
0.0
 11
-13.15109658000281
 21
21.09324108763483
 31
0.0
  0
LINE
  5
CF
330
1E
100
AcDbEntity
  8
ADP2DETAIL
  6
HIDDEN
100
AcDbLine
 10
-13.21109658000282
 20
21.81101886541262
 30
0.0
 11
-13.21109658000281
 21
21.1599077543015
 31
0.0
  0
LINE
  5
D0
330
1E
100
AcDbEntity
  8
ADP2DETAIL
  6
HIDDEN
100
AcDbLine
 10
-13.08442991333615
 20
21.81101886541262
 30
0.0
 11
-13.08442991333615
 21
21.1599077543015
 31
0.0
  0
LINE
  5
D1
330
1E
100
AcDbEntity
  8
ADP2DETAIL
  6
HIDDEN
100
AcDbLine
 10
-13.02442991333615
 20
21.87101886541261
 30
0.0
 11
-13.02442991333615
 21
21.09324108763483
 31
0.0
  0
LINE
  5
D2
330
1E
100
AcDbEntity
  8
ADP2DETAIL
  6
HIDDEN
100
AcDbLine
 10
-12.96442991333615
 20
21.81101886541262
 30
0.0
 11
-12.96442991333615
 21
21.1599077543015
 31
0.0
  0
LINE
  5
D3
330
1E
100
AcDbEntity
  8
ADP2DETAIL
  6
HIDDEN
100
AcDbLine
 10
-12.40109658000282
 20
21.09324108763483
 30
0.0
 11
-12.40109658000282
 21
21.09324108763483
 31
0.0
  0
TEXT
  5
18D
330
1E
100
AcDbEntity
  8
ADPDIM
100
AcDbText
 10
-18.7475877249677
 20
19.68762894868729
 30
0.0
 40
0.09375
  1
J U L I U S  B L U M  &  C O . ,  I N C .      ( 8 0 0 )  5 2 6 - 6 2 9 3        W W W . J U L I U S B L U M . C O M        P A R T  N O .  2 4 8
 41
1.25
  7
ARIAL_WIDE
 72
     1
 11
-13.90341139481763
 21
19.78137894868729
 31
0.0
100
AcDbText
 73
     3
  0
ENDSEC
  0
SECTION
  2
OBJECTS
  0
DICTIONARY
  5
C
330
0
100
AcDbDictionary
  3
ACAD_GROUP
350
D
  3
ACAD_LAYOUT
350
19
  3
ACAD_MLINESTYLE
350
16
  3
ACAD_PLOTSETTINGS
350
18
  3
ACAD_PLOTSTYLENAME
350
E
  3
ACDBHEADERROUNDTRIPXREC
350
273
  3
ACDBVARIABLEDICTIONARY
350
14C
  0
DICTIONARY
  5
117
330
1E
100
AcDbDictionary
280
     1
  3
ACAD_LAYOUTSELFREF
360
295
  0
DICTIONARY
  5
119
330
1A
100
AcDbDictionary
280
     1
  3
ACAD_LAYOUTSELFREF
360
294
  0
DICTIONARY
  5
D
102
{ACAD_REACTORS
330
C
102
}
330
C
100
AcDbDictionary
  0
DICTIONARY
  5
19
102
{ACAD_REACTORS
330
C
102
}
330
C
100
AcDbDictionary
  0
DICTIONARY
  5
16
102
{ACAD_REACTORS
330
C
102
}
330
C
100
AcDbDictionary
  3
STANDARD
350
17
  0
DICTIONARY
  5
18
102
{ACAD_REACTORS
330
C
102
}
330
C
100
AcDbDictionary
  0
ACDBDICTIONARYWDFLT
  5
E
102
{ACAD_REACTORS
330
C
102
}
330
C
100
AcDbDictionary
281
     1
  3
Normal
350
F
100
AcDbDictionaryWithDefault
340
F
  0
DICTIONARY
  5
273
102
{ACAD_REACTORS
330
C
102
}
330
C
100
AcDbDictionary
  3
CEPSNTYPE
350
27D
  3
DIMSTYLEDATA
350
281
  3
FINGERPRINTGUID
350
27E
  3
HYPERLINKBASE
350
276
  3
INSUNITS
350
27C
  3
LAYOUTDICT
350
278
  3
LWETCUNION
350
27B
  3
PLOTSETDICT
350
279
  3
PLOTSTYLNAMDICT
350
27A
  3
PSVPSCALE
350
280
  3
PUCSBASE
350
284
  3
PUCSORGBACK
350
28A
  3
PUCSORGBOTTOM
350
286
  3
PUCSORGFRONT
350
289
  3
PUCSORGLEFT
350
287
  3
PUCSORGRIGHT
350
288
  3
PUCSORGTOP
350
285
  3
PUCSORTHOREF
350
282
  3
PUCSORTHOVIEW
350
283
  3
STYLESHEET
350
277
  3
TSTACKALIGN
350
274
  3
TSTACKSIZE
350
275
  3
UCSBASE
350
28D
  3
UCSORGBACK
350
293
  3
UCSORGBOTTOM
350
28F
  3
UCSORGFRONT
350
292
  3
UCSORGLEFT
350
290
  3
UCSORGRIGHT
350
291
  3
UCSORGTOP
350
28E
  3
UCSORTHOREF
350
28B
  3
UCSORTHOVIEW
350
28C
  3
VERSIONGUID
350
27F
  0
DICTIONARY
  5
14C
102
{ACAD_REACTORS
330
C
102
}
330
C
100
AcDbDictionary
  3
DIMASSOC
350
14E
  3
HIDETEXT
350
14D
  0
XRECORD
  5
295
102
{ACAD_REACTORS
330
117
102
}
330
117
100
AcDbXrecord
340
1E
  0
XRECORD
  5
294
102
{ACAD_REACTORS
330
119
102
}
330
119
100
AcDbXrecord
340
1A
  0
MLINESTYLE
  5
17
102
{ACAD_REACTORS
330
16
102
}
330
16
100
AcDbMlineStyle
  2
STANDARD
 70
     0
  3

 62
   256
 51
90.0
 52
90.0
 71
     2
 49
0.5
 62
   256
  6
BYLAYER
 49
-0.5
 62
   256
  6
BYLAYER
  0
ACDBPLACEHOLDER
  5
F
102
{ACAD_REACTORS
330
E
102
}
330
E
100
AcDbPlaceHolder
280
     0
  0
XRECORD
  5
27D
102
{ACAD_REACTORS
330
273
102
}
330
273
100
AcDbXrecord
 90
        0
  0
XRECORD
  5
281
102
{ACAD_REACTORS
330
273
102
}
330
273
100
AcDbXrecord
1000
DSTYLE
1002
{
1070
   277
 70
     5
1070
   279
 70
     2
1002
}
  0
XRECORD
  5
27E
102
{ACAD_REACTORS
330
273
102
}
330
273
100
AcDbXrecord
  1
{FE5EA0D5-807B-407A-8353-58915DD9959B}
  0
XRECORD
  5
276
102
{ACAD_REACTORS
330
273
102
}
330
273
100
AcDbXrecord
  1

  0
XRECORD
  5
27C
102
{ACAD_REACTORS
330
273
102
}
330
273
100
AcDbXrecord
 90
        0
  0
XRECORD
  5
278
102
{ACAD_REACTORS
330
273
102
}
330
273
100
AcDbXrecord
340
19
  0
XRECORD
  5
27B
102
{ACAD_REACTORS
330
273
102
}
330
273
100
AcDbXrecord
 90
    14877
  0
XRECORD
  5
279
102
{ACAD_REACTORS
330
273
102
}
330
273
100
AcDbXrecord
340
18
  0
XRECORD
  5
27A
102
{ACAD_REACTORS
330
273
102
}
330
273
100
AcDbXrecord
340
E
  0
XRECORD
  5
280
102
{ACAD_REACTORS
330
273
102
}
330
273
100
AcDbXrecord
 40
0.0
  0
XRECORD
  5
284
102
{ACAD_REACTORS
330
273
102
}
330
273
100
AcDbXrecord
340
0
  0
XRECORD
  5
28A
102
{ACAD_REACTORS
330
273
102
}
330
273
100
AcDbXrecord
 10
0.0
 20
0.0
 30
0.0
  0
XRECORD
  5
286
102
{ACAD_REACTORS
330
273
102
}
330
273
100
AcDbXrecord
 10
0.0
 20
0.0
 30
0.0
  0
XRECORD
  5
289
102
{ACAD_REACTORS
330
273
102
}
330
273
100
AcDbXrecord
 10
0.0
 20
0.0
 30
0.0
  0
XRECORD
  5
287
102
{ACAD_REACTORS
330
273
102
}
330
273
100
AcDbXrecord
 10
0.0
 20
0.0
 30
0.0
  0
XRECORD
  5
288
102
{ACAD_REACTORS
330
273
102
}
330
273
100
AcDbXrecord
 10
0.0
 20
0.0
 30
0.0
  0
XRECORD
  5
285
102
{ACAD_REACTORS
330
273
102
}
330
273
100
AcDbXrecord
 10
0.0
 20
0.0
 30
0.0
  0
XRECORD
  5
282
102
{ACAD_REACTORS
330
273
102
}
330
273
100
AcDbXrecord
340
0
  0
XRECORD
  5
283
102
{ACAD_REACTORS
330
273
102
}
330
273
100
AcDbXrecord
 70
     0
  0
XRECORD
  5
277
102
{ACAD_REACTORS
330
273
102
}
330
273
100
AcDbXrecord
  1

  0
XRECORD
  5
274
102
{ACAD_REACTORS
330
273
102
}
330
273
100
AcDbXrecord
 90
        1
  0
XRECORD
  5
275
102
{ACAD_REACTORS
330
273
102
}
330
273
100
AcDbXrecord
 90
       70
  0
XRECORD
  5
28D
102
{ACAD_REACTORS
330
273
102
}
330
273
100
AcDbXrecord
340
0
  0
XRECORD
  5
293
102
{ACAD_REACTORS
330
273
102
}
330
273
100
AcDbXrecord
 10
0.0
 20
0.0
 30
0.0
  0
XRECORD
  5
28F
102
{ACAD_REACTORS
330
273
102
}
330
273
100
AcDbXrecord
 10
0.0
 20
0.0
 30
0.0
  0
XRECORD
  5
292
102
{ACAD_REACTORS
330
273
102
}
330
273
100
AcDbXrecord
 10
0.0
 20
0.0
 30
0.0
  0
XRECORD
  5
290
102
{ACAD_REACTORS
330
273
102
}
330
273
100
AcDbXrecord
 10
0.0
 20
0.0
 30
0.0
  0
XRECORD
  5
291
102
{ACAD_REACTORS
330
273
102
}
330
273
100
AcDbXrecord
 10
0.0
 20
0.0
 30
0.0
  0
XRECORD
  5
28E
102
{ACAD_REACTORS
330
273
102
}
330
273
100
AcDbXrecord
 10
0.0
 20
0.0
 30
0.0
  0
XRECORD
  5
28B
102
{ACAD_REACTORS
330
273
102
}
330
273
100
AcDbXrecord
340
0
  0
XRECORD
  5
28C
102
{ACAD_REACTORS
330
273
102
}
330
273
100
AcDbXrecord
 70
     0
  0
XRECORD
  5
27F
102
{ACAD_REACTORS
330
273
102
}
330
273
100
AcDbXrecord
  1
{C48A80F5-FD4C-4E5F-B53F-DC78D2EED416}
  0
DICTIONARYVAR
  5
14E
102
{ACAD_REACTORS
330
14C
102
}
330
14C
100
DictionaryVariables
280
     0
  1
2
  0
DICTIONARYVAR
  5
14D
102
{ACAD_REACTORS
330
14C
102
}
330
14C
100
DictionaryVariables
280
     0
  1
1
  0
ENDSEC
  0
EOF
