  0
SECTION
  2
HEADER
  9
$ACADVER
  1
AC1014
  9
$ACADMAINTVER
 70
     9
  9
$DWGCODEPAGE
  3
ANSI_1252
  9
$INSBASE
 10
1.89944029745081
 20
0.0228632473920918
 30
0.0
  9
$EXTMIN
 10
-3.758758485705304
 20
-0.62704740982007
 30
0.0
  9
$EXTMAX
 10
6.029835051129621
 20
3.460363247392091
 30
0.0
  9
$LIMMIN
 10
0.0
 20
0.0
  9
$LIMMAX
 10
36.0
 20
36.0
  9
$ORTHOMODE
 70
     1
  9
$REGENMODE
 70
     1
  9
$FILLMODE
 70
     1
  9
$QTEXTMODE
 70
     0
  9
$MIRRTEXT
 70
     1
  9
$DRAGMODE
 70
     0
  9
$LTSCALE
 40
1.0
  9
$OSMODE
 70
    37
  9
$ATTMODE
 70
     1
  9
$TEXTSIZE
 40
0.2
  9
$TRACEWID
 40
0.05
  9
$TEXTSTYLE
  7
STANDARD
  9
$CLAYER
  8
ADPDIM
  9
$CELTYPE
  6
BYLAYER
  9
$CECOLOR
 62
   256
  9
$CELTSCALE
 40
1.0
  9
$DELOBJ
 70
     1
  9
$DISPSILH
 70
     0
  9
$DIMSCALE
 40
1.0
  9
$DIMASZ
 40
0.125
  9
$DIMEXO
 40
0.0625
  9
$DIMDLI
 40
0.38
  9
$DIMRND
 40
0.0
  9
$DIMDLE
 40
0.0
  9
$DIMEXE
 40
0.18
  9
$DIMTP
 40
0.0
  9
$DIMTM
 40
0.0
  9
$DIMTXT
 40
0.125
  9
$DIMCEN
 40
0.1875
  9
$DIMTSZ
 40
0.125
  9
$DIMTOL
 70
     0
  9
$DIMLIM
 70
     0
  9
$DIMTIH
 70
     0
  9
$DIMTOH
 70
     0
  9
$DIMSE1
 70
     0
  9
$DIMSE2
 70
     0
  9
$DIMTAD
 70
     0
  9
$DIMZIN
 70
     3
  9
$DIMBLK
  1

  9
$DIMASO
 70
     1
  9
$DIMSHO
 70
     1
  9
$DIMPOST
  1

  9
$DIMAPOST
  1

  9
$DIMALT
 70
     0
  9
$DIMALTD
 70
     1
  9
$DIMALTF
 40
25.4
  9
$DIMLFAC
 40
1.0
  9
$DIMTOFL
 70
     0
  9
$DIMTVP
 40
0.0
  9
$DIMTIX
 70
     0
  9
$DIMSOXD
 70
     0
  9
$DIMSAH
 70
     0
  9
$DIMBLK1
  1

  9
$DIMBLK2
  1

  9
$DIMSTYLE
  2
STANDARD
  9
$DIMCLRD
 70
     0
  9
$DIMCLRE
 70
     0
  9
$DIMCLRT
 70
     0
  9
$DIMTFAC
 40
1.0
  9
$DIMGAP
 40
0.125
  9
$DIMJUST
 70
     0
  9
$DIMSD1
 70
     0
  9
$DIMSD2
 70
     0
  9
$DIMTOLJ
 70
     1
  9
$DIMTZIN
 70
     3
  9
$DIMALTZ
 70
     3
  9
$DIMALTTZ
 70
     3
  9
$DIMFIT
 70
     5
  9
$DIMUPT
 70
     0
  9
$DIMUNIT
 70
     5
  9
$DIMDEC
 70
     5
  9
$DIMTDEC
 70
     5
  9
$DIMALTU
 70
     5
  9
$DIMALTTD
 70
     1
  9
$DIMTXSTY
  7
STANDARD
  9
$DIMAUNIT
 70
     0
  9
$LUNITS
 70
     5
  9
$LUPREC
 70
     5
  9
$SKETCHINC
 40
0.1
  9
$FILLETRAD
 40
0.0
  9
$AUNITS
 70
     0
  9
$AUPREC
 70
     0
  9
$MENU
  1
acad
  9
$ELEVATION
 40
0.0
  9
$PELEVATION
 40
0.0
  9
$THICKNESS
 40
0.0
  9
$LIMCHECK
 70
     0
  9
$BLIPMODE
 70
     0
  9
$CHAMFERA
 40
0.0
  9
$CHAMFERB
 40
0.0
  9
$CHAMFERC
 40
0.0
  9
$CHAMFERD
 40
0.0
  9
$SKPOLY
 70
     0
  9
$TDCREATE
 40
2450414.663777581
  9
$TDUPDATE
 40
2452297.083255926
  9
$TDINDWG
 40
0.0184284606
  9
$TDUSRTIMER
 40
0.0184284606
  9
$USRTIMER
 70
     1
  9
$ANGBASE
 50
0.0
  9
$ANGDIR
 70
     0
  9
$PDMODE
 70
     0
  9
$PDSIZE
 40
0.0
  9
$PLINEWID
 40
0.0
  9
$COORDS
 70
     2
  9
$SPLFRAME
 70
     0
  9
$SPLINETYPE
 70
     6
  9
$SPLINESEGS
 70
     8
  9
$ATTDIA
 70
     0
  9
$ATTREQ
 70
     1
  9
$HANDLING
 70
 22529
  9
$HANDSEED
  5
311
  9
$SURFTAB1
 70
     6
  9
$SURFTAB2
 70
     6
  9
$SURFTYPE
 70
     6
  9
$SURFU
 70
     6
  9
$SURFV
 70
     6
  9
$UCSNAME
  2

  9
$UCSORG
 10
0.0
 20
0.0
 30
0.0
  9
$UCSXDIR
 10
1.0
 20
0.0
 30
0.0
  9
$UCSYDIR
 10
0.0
 20
1.0
 30
0.0
  9
$PUCSNAME
  2

  9
$PUCSORG
 10
0.0
 20
0.0
 30
0.0
  9
$PUCSXDIR
 10
1.0
 20
0.0
 30
0.0
  9
$PUCSYDIR
 10
0.0
 20
1.0
 30
0.0
  9
$USERI1
 70
     0
  9
$USERI2
 70
     0
  9
$USERI3
 70
     0
  9
$USERI4
 70
     0
  9
$USERI5
 70
     0
  9
$USERR1
 40
0.0
  9
$USERR2
 40
0.0
  9
$USERR3
 40
0.0
  9
$USERR4
 40
0.0
  9
$USERR5
 40
0.0
  9
$WORLDVIEW
 70
     1
  9
$SHADEDGE
 70
     3
  9
$SHADEDIF
 70
    70
  9
$TILEMODE
 70
     1
  9
$MAXACTVP
 70
    15
  9
$PINSBASE
 10
0.0781263709068299
 20
112.0181290174387
 30
0.0
  9
$PLIMCHECK
 70
     0
  9
$PEXTMIN
 10
1.000000000000000E+20
 20
1.000000000000000E+20
 30
1.000000000000000E+20
  9
$PEXTMAX
 10
-1.000000000000000E+20
 20
-1.000000000000000E+20
 30
-1.000000000000000E+20
  9
$PLIMMIN
 10
0.0
 20
0.0
  9
$PLIMMAX
 10
12.0
 20
9.0
  9
$UNITMODE
 70
     0
  9
$VISRETAIN
 70
     0
  9
$PLINEGEN
 70
     0
  9
$PSLTSCALE
 70
     1
  9
$TREEDEPTH
 70
  3020
  9
$PICKSTYLE
 70
     1
  9
$CMLSTYLE
  2
STANDARD
  9
$CMLJUST
 70
     0
  9
$CMLSCALE
 40
1.0
  9
$PROXYGRAPHICS
 70
     1
  9
$MEASUREMENT
 70
     0
  0
ENDSEC
  0
SECTION
  2
CLASSES
  0
CLASS
  1
ACDBDICTIONARYWDFLT
  2
AcDbDictionaryWithDefault
  3
AutoCAD 2000
 90
        0
280
     0
281
     0
  0
CLASS
  1
ACDBPLACEHOLDER
  2
AcDbPlaceHolder
  3
AutoCAD 2000
 90
        0
280
     0
281
     0
  0
CLASS
  1
LAYOUT
  2
AcDbLayout
  3
AutoCAD 2000
 90
        0
280
     0
281
     0
  0
CLASS
  1
DICTIONARYVAR
  2
AcDbDictionaryVar
  3
AutoCAD 2000
 90
        0
280
     0
281
     0
  0
CLASS
  1
LONG_TRANSACTION
  2
AcDbLongTransaction
  3
AutoCAD 2000
 90
        0
280
     0
281
     0
  0
CLASS
  1
LWPOLYLINE
  2
AcDbPolyline
  3
AutoCAD 2000
 90
        0
280
     0
281
     1
  0
CLASS
  1
HATCH
  2
AcDbHatch
  3
AutoCAD 2000
 90
        0
280
     0
281
     1
  0
CLASS
  1
XRECORD
  2
AcDbXrecord
  3
AutoCAD 2000
 90
        0
280
     0
281
     0
  0
CLASS
  1
LONG_TRANSACTION
  2
AcDbLongTransaction
  3
AutoCAD 2000
 90
        0
280
     0
281
     0
  0
CLASS
  1
LWPOLYLINE
  2
AcDbPolyline
  3
AutoCAD 2000
 90
        0
280
     0
281
     1
  0
CLASS
  1
HATCH
  2
AcDbHatch
  3
AutoCAD 2000
 90
        0
280
     0
281
     1
  0
CLASS
  1
XRECORD
  2
AcDbXrecord
  3
AutoCAD 2000
 90
        0
280
     0
281
     0
  0
CLASS
  1
LONG_TRANSACTION
  2
AcDbLongTransaction
  3
AutoCAD 2000
 90
        0
280
     0
281
     0
  0
CLASS
  1
LWPOLYLINE
  2
AcDbPolyline
  3
AutoCAD 2000
 90
        0
280
     0
281
     1
  0
CLASS
  1
HATCH
  2
AcDbHatch
  3
AutoCAD 2000
 90
        0
280
     0
281
     1
  0
CLASS
  1
XRECORD
  2
AcDbXrecord
  3
AutoCAD 2000
 90
        0
280
     0
281
     0
  0
CLASS
  1
LONG_TRANSACTION
  2
AcDbLongTransaction
  3
AutoCAD 2000
 90
        0
280
     0
281
     0
  0
CLASS
  1
LWPOLYLINE
  2
AcDbPolyline
  3
AutoCAD 2000
 90
        0
280
     0
281
     1
  0
CLASS
  1
HATCH
  2
AcDbHatch
  3
AutoCAD 2000
 90
        0
280
     0
281
     1
  0
CLASS
  1
XRECORD
  2
AcDbXrecord
  3
AutoCAD 2000
 90
        0
280
     0
281
     0
  0
CLASS
  1
LONG_TRANSACTION
  2
AcDbLongTransaction
  3
AutoCAD 2000
 90
        0
280
     0
281
     0
  0
CLASS
  1
LWPOLYLINE
  2
AcDbPolyline
  3
AutoCAD 2000
 90
        0
280
     0
281
     1
  0
CLASS
  1
HATCH
  2
AcDbHatch
  3
AutoCAD 2000
 90
        0
280
     0
281
     1
  0
CLASS
  1
XRECORD
  2
AcDbXrecord
  3
AutoCAD 2000
 90
        0
280
     0
281
     0
  0
CLASS
  1
LONG_TRANSACTION
  2
AcDbLongTransaction
  3
AutoCAD 2000
 90
        0
280
     0
281
     0
  0
CLASS
  1
LWPOLYLINE
  2
AcDbPolyline
  3
AutoCAD 2000
 90
        0
280
     0
281
     1
  0
CLASS
  1
HATCH
  2
AcDbHatch
  3
AutoCAD 2000
 90
        0
280
     0
281
     1
  0
CLASS
  1
XRECORD
  2
AcDbXrecord
  3
AutoCAD 2000
 90
        0
280
     0
281
     0
  0
CLASS
  1
LONG_TRANSACTION
  2
AcDbLongTransaction
  3
AutoCAD 2000
 90
        0
280
     0
281
     0
  0
CLASS
  1
LWPOLYLINE
  2
AcDbPolyline
  3
AutoCAD 2000
 90
        0
280
     0
281
     1
  0
CLASS
  1
HATCH
  2
AcDbHatch
  3
AutoCAD 2000
 90
        0
280
     0
281
     1
  0
CLASS
  1
XRECORD
  2
AcDbXrecord
  3
AutoCAD 2000
 90
        0
280
     0
281
     0
  0
ENDSEC
  0
SECTION
  2
TABLES
  0
TABLE
  2
VPORT
  5
8
330
0
100
AcDbSymbolTable
 70
     2
  0
VPORT
  5
2ED
330
8
100
AcDbSymbolTableRecord
100
AcDbViewportTableRecord
  2
*ACTIVE
 70
     0
 10
0.0
 20
0.0
 11
1.0
 21
1.0
 12
1.143842719676924
 22
1.417091356707941
 13
0.0
 23
0.0
 14
0.5740882589684922
 24
0.5740882589684922
 15
0.5
 25
0.5
 16
0.0
 26
0.0
 36
1.0
 17
0.0
 27
0.0
 37
0.0
 40
6.275426081325846
 41
1.570528967254408
 42
50.0
 43
0.0
 44
0.0
 50
0.0
 51
0.0
 71
     0
 72
   100
 73
     1
 74
     0
 75
     0
 76
     0
 77
     0
 78
     0
  0
ENDTAB
  0
TABLE
  2
LTYPE
  5
5
330
0
100
AcDbSymbolTable
 70
     1
  0
LTYPE
  5
13
330
5
100
AcDbSymbolTableRecord
100
AcDbLinetypeTableRecord
  2
BYBLOCK
 70
     0
  3

 72
    65
 73
     0
 40
0.0
  0
LTYPE
  5
14
330
5
100
AcDbSymbolTableRecord
100
AcDbLinetypeTableRecord
  2
BYLAYER
 70
     0
  3

 72
    65
 73
     0
 40
0.0
  0
LTYPE
  5
15
330
5
100
AcDbSymbolTableRecord
100
AcDbLinetypeTableRecord
  2
CONTINUOUS
 70
     0
  3
Solid line
 72
    65
 73
     0
 40
0.0
  0
ENDTAB
  0
TABLE
  2
LAYER
  5
2
330
0
100
AcDbSymbolTable
 70
     4
  0
LAYER
  5
10
330
2
100
AcDbSymbolTableRecord
100
AcDbLayerTableRecord
  2
0
 70
     0
 62
     7
  6
CONTINUOUS
  0
LAYER
  5
5E
330
2
100
AcDbSymbolTableRecord
100
AcDbLayerTableRecord
  2
ADPDIM
 70
     0
 62
     3
  6
CONTINUOUS
  0
LAYER
  5
60
330
2
100
AcDbSymbolTableRecord
100
AcDbLayerTableRecord
  2
ADP1DETAIL
 70
     0
 62
     7
  6
CONTINUOUS
  0
LAYER
  5
62
330
2
100
AcDbSymbolTableRecord
100
AcDbLayerTableRecord
  2
DEFPOINTS
 70
     0
 62
     7
  6
CONTINUOUS
  0
ENDTAB
  0
TABLE
  2
STYLE
  5
3
330
0
100
AcDbSymbolTable
 70
     2
  0
STYLE
  5
11
330
3
100
AcDbSymbolTableRecord
100
AcDbTextStyleTableRecord
  2
STANDARD
 70
     0
 40
0.0
 41
1.0
 50
0.0
 71
     0
 42
0.2
  3
txt
  4

  0
STYLE
  5
E6
330
3
100
AcDbSymbolTableRecord
100
AcDbTextStyleTableRecord
  2
ARIAL_WIDE
 70
     0
 40
0.0
 41
1.25
 50
0.0
 71
     0
 42
0.2
  3
ARIAL.TTF
  4

1001
ACAD
1000
Arial
1071
       34
  0
ENDTAB
  0
TABLE
  2
VIEW
  5
6
330
0
100
AcDbSymbolTable
 70
     0
  0
ENDTAB
  0
TABLE
  2
UCS
  5
7
330
0
100
AcDbSymbolTable
 70
     0
  0
ENDTAB
  0
TABLE
  2
APPID
  5
9
330
0
100
AcDbSymbolTable
 70
     1
  0
APPID
  5
12
330
9
100
AcDbSymbolTableRecord
100
AcDbRegAppTableRecord
  2
ACAD
 70
     0
  0
ENDTAB
  0
TABLE
  2
DIMSTYLE
  5
A
330
0
100
AcDbSymbolTable
 70
     1
  0
DIMSTYLE
105
E4
330
A
100
AcDbSymbolTableRecord
100
AcDbDimStyleTableRecord
  2
STANDARD
 70
     0
  3

  4

  5

  6

  7

 40
1.0
 41
0.18
 42
0.0625
 43
0.38
 44
0.18
 45
0.0
 46
0.0
 47
0.0
 48
0.0
140
0.18
141
0.09
142
0.0
143
25.4
144
1.0
145
0.0
146
1.0
147
0.09
 71
     0
 72
     0
 73
     1
 74
     1
 75
     0
 76
     0
 77
     0
 78
     0
170
     0
171
     2
172
     0
173
     0
174
     0
175
     0
176
     0
177
     0
178
     0
270
     2
271
     4
272
     4
273
     2
274
     2
340
11
275
     0
280
     0
281
     0
282
     0
283
     1
284
     0
285
     0
286
     0
287
     3
288
     0
  0
ENDTAB
  0
TABLE
  2
BLOCK_RECORD
  5
1
330
0
100
AcDbSymbolTable
 70
     1
  0
BLOCK_RECORD
  5
1E
102
{ACAD_XDICTIONARY
360
123
102
}
330
1
100
AcDbSymbolTableRecord
100
AcDbBlockTableRecord
  2
*MODEL_SPACE
  0
BLOCK_RECORD
  5
1A
102
{ACAD_XDICTIONARY
360
125
102
}
330
1
100
AcDbSymbolTableRecord
100
AcDbBlockTableRecord
  2
*PAPER_SPACE
  0
BLOCK_RECORD
  5
5C
330
1
100
AcDbSymbolTableRecord
100
AcDbBlockTableRecord
  2
*D0
  0
ENDTAB
  0
ENDSEC
  0
SECTION
  2
BLOCKS
  0
BLOCK
  5
65
330
1E
100
AcDbEntity
  8
0
100
AcDbBlockBegin
  2
*MODEL_SPACE
 70
     0
 10
0.0
 20
0.0
 30
0.0
  3
*MODEL_SPACE
  1

  0
ENDBLK
  5
66
330
1E
100
AcDbEntity
  8
0
100
AcDbBlockEnd
  0
BLOCK
  5
63
330
1A
100
AcDbEntity
 67
     1
  8
0
100
AcDbBlockBegin
  2
*PAPER_SPACE
 70
     0
 10
0.0
 20
0.0
 30
0.0
  3
*PAPER_SPACE
  1

  0
ENDBLK
  5
64
330
1A
100
AcDbEntity
 67
     1
  8
0
100
AcDbBlockEnd
  0
BLOCK
  5
68
330
5C
100
AcDbEntity
  8
0
100
AcDbBlockBegin
  2
*D0
 70
     1
 10
0.0
 20
0.0
 30
0.0
  3
*D0
  1
*U
  0
LINE
  5
69
330
5C
100
AcDbEntity
  8
0
  6
BYBLOCK
 62
     0
100
AcDbLine
 10
1.272973043901328
 20
0.0228632473920918
 30
0.0
 11
2.525907551000292
 21
0.0228632473920917
 31
0.0
  0
LINE
  5
6A
330
5C
100
AcDbEntity
  8
0
  6
BYBLOCK
 62
     0
100
AcDbLine
 10
1.272973043901328
 20
3.335363247392091
 30
0.0
 11
2.525907551000292
 21
3.335363247392091
 31
0.0
  0
LINE
  5
6B
330
5C
100
AcDbEntity
  8
0
  6
BYBLOCK
 62
     0
100
AcDbLine
 10
2.345907551000292
 20
0.0228632473920918
 30
0.0
 11
2.345907551000292
 21
1.220779914058758
 31
0.0
  0
LINE
  5
6C
330
5C
100
AcDbEntity
  8
0
  6
BYBLOCK
 62
     0
100
AcDbLine
 10
2.345907551000292
 20
3.335363247392091
 30
0.0
 11
2.345907551000292
 21
2.137446580725425
 31
0.0
  0
LINE
  5
6D
330
5C
100
AcDbEntity
  8
0
  6
BYBLOCK
 62
     0
100
AcDbLine
 10
2.470907551000292
 20
-0.1021367526079083
 30
0.0
 11
2.220907551000292
 21
0.1478632473920917
 31
0.0
  0
LINE
  5
6E
330
5C
100
AcDbEntity
  8
0
  6
BYBLOCK
 62
     0
100
AcDbLine
 10
2.470907551000292
 20
3.210363247392091
 30
0.0
 11
2.220907551000292
 21
3.460363247392091
 31
0.0
  0
TEXT
  5
6F
330
5C
100
AcDbEntity
  8
0
  6
BYBLOCK
 62
     0
100
AcDbText
 10
2.408407551000292
 20
1.345779914058758
 30
0.0
 40
0.125
  1
3 5/16
 50
90.0
 72
     1
 11
2.345907551000292
 21
1.679113247392091
 31
0.0
100
AcDbText
 73
     2
  0
POINT
  5
71
330
5C
100
AcDbEntity
  8
DEFPOINTS
  6
BYBLOCK
 62
     0
100
AcDbPoint
 10
1.210473043901328
 20
0.0228632473920918
 30
0.0
  0
POINT
  5
72
330
5C
100
AcDbEntity
  8
DEFPOINTS
  6
BYBLOCK
 62
     0
100
AcDbPoint
 10
1.210473043901328
 20
3.335363247392091
 30
0.0
  0
POINT
  5
73
330
5C
100
AcDbEntity
  8
DEFPOINTS
  6
BYBLOCK
 62
     0
100
AcDbPoint
 10
2.345907551000292
 20
3.335363247392091
 30
0.0
  0
ENDBLK
  5
74
330
5C
100
AcDbEntity
  8
0
100
AcDbBlockEnd
  0
ENDSEC
  0
SECTION
  2
ENTITIES
  0
LINE
  5
75
330
1E
100
AcDbEntity
  8
ADP1DETAIL
100
AcDbLine
 10
0.9488363920287968
 20
2.031684486062243
 30
0.0
 11
0.632875191097231
 21
2.626955932436331
 31
0.0
  0
LINE
  5
76
330
1E
100
AcDbEntity
  8
ADP1DETAIL
100
AcDbLine
 10
0.9488363920287968
 20
1.328191119280585
 30
0.0
 11
0.632875191097231
 21
0.7329196729064968
 31
0.0
  0
LWPOLYLINE
  5
77
330
1E
100
AcDbEntity
  8
ADP1DETAIL
100
AcDbPolyline
 90
        7
 70
     0
 43
0.0
 10
0.4493904284552788
 20
1.526047356584614
 42
0.2921747272429609
 10
0.3665263421008482
 20
1.41358895367503
 42
0.0950579867158086
 10
0.4375527018332171
 20
0.8868101189932961
 42
0.3333333333333237
 10
0.632875191097231
 20
0.7329196729064968
 10
0.6861449608965076
 20
0.4665708239101163
 10
0.8459542702943366
 20
0.4902462771542385
 42
0.4944813440103915
 10
1.135978572534841
 20
0.2238974281578559
 42
-0.0880138454383881
  0
LINE
  5
80
330
1E
100
AcDbEntity
  8
ADP1DETAIL
100
AcDbLine
 10
0.989059956713257
 20
1.284444689526737
 30
0.0
 11
0.6861449608965076
 21
0.4665708239101163
 31
0.0
  0
LINE
  5
81
330
1E
100
AcDbEntity
  8
ADP1DETAIL
100
AcDbLine
 10
1.031254376047406
 20
1.251510559844649
 30
0.0
 11
0.8459542702943366
 21
0.4902462771542385
 31
0.0
  0
LINE
  5
82
330
1E
100
AcDbEntity
  8
ADP1DETAIL
100
AcDbLine
 10
1.031254376047406
 20
2.108365045498179
 30
0.0
 11
0.8459542702943366
 21
2.86962932818859
 31
0.0
  0
LINE
  5
83
330
1E
100
AcDbEntity
  8
ADP1DETAIL
100
AcDbLine
 10
0.989059956713257
 20
2.075430915816091
 30
0.0
 11
0.6861449608965076
 21
2.893304781432711
 31
0.0
  0
LWPOLYLINE
  5
84
330
1E
100
AcDbEntity
  8
ADP1DETAIL
100
AcDbPolyline
 90
        7
 70
     0
 43
0.0
 10
0.4493904284552788
 20
1.833828248758214
 42
-0.2921747272429609
 10
0.3665263421008482
 20
1.946286651667797
 42
-0.0950579867158086
 10
0.4375527018332171
 20
2.473065486349532
 42
-0.3333333333333237
 10
0.632875191097231
 20
2.626955932436331
 10
0.6861449608965076
 20
2.893304781432711
 10
0.8459542702943366
 20
2.86962932818859
 42
-0.4944813440103915
 10
1.135978572534841
 20
3.135978177184972
 42
0.0880138454383881
  0
LWPOLYLINE
  5
8D
330
1E
100
AcDbEntity
  8
ADP1DETAIL
100
AcDbPolyline
 90
       16
 70
     1
 43
0.0
 10
0.106641313002851
 20
1.679937802671414
 42
0.0629509836301794
 10
0.1904769170484832
 20
1.016696552969498
 42
0.0760699304009064
 10
0.4079982582884174
 20
0.5069346313694063
 42
0.1071121116501177
 10
0.7708857065174555
 20
0.1316291085044871
 42
0.1482745817750753
 10
1.135538282712158
 20
0.0210608091094634
 42
0.1482745817750753
 10
1.50019085890686
 20
0.1316291085044868
 42
0.1071121116501178
 10
1.863078307135898
 20
0.506934631369406
 42
0.0760699304009065
 10
2.080599648375833
 20
1.016696552969498
 42
0.0629509836301794
 10
2.164435252421466
 20
1.679937802671414
 42
0.0629509836301792
 10
2.080599648375833
 20
2.343179052373331
 42
0.0760699304009062
 10
1.863078307135899
 20
2.852940973973422
 42
0.1071121116501174
 10
1.500190858906861
 20
3.228246496838341
 42
0.1482745817750753
 10
1.135538282712158
 20
3.338814796233365
 42
0.1482745817750754
 10
0.7708857065174564
 20
3.228246496838341
 42
0.1071121116501178
 10
0.4079982582884176
 20
2.852940973973422
 42
0.0760699304009064
 10
0.1904769170484832
 20
2.34317905237333
 42
0.0629509836301794
  0
LWPOLYLINE
  5
9F
330
1E
100
AcDbEntity
  8
ADP1DETAIL
100
AcDbPolyline
 90
       16
 70
     1
 43
0.0
 10
0.2649331409713755
 20
1.679937802671414
 42
0.0592108391140624
 10
0.3362768316612841
 20
1.079595312731102
 42
0.0727600335052074
 10
0.519927483251375
 20
0.622226868222143
 42
0.1066968199743871
 10
0.8308933011164763
 20
0.2814466963956162
 42
0.155874914553993
 10
1.135538282712158
 20
0.1841086541029346
 42
0.1558749145539929
 10
1.440183264307839
 20
0.2814466963956162
 42
0.106696819974387
 10
1.751149082172941
 20
0.6222268682221427
 42
0.0727600335052072
 10
1.934799733763032
 20
1.079595312731102
 42
0.0592108391140622
 10
2.006143424452941
 20
1.679937802671414
 42
0.059210839114062
 10
1.934799733763032
 20
2.280280292611726
 42
0.0727600335052069
 10
1.751149082172941
 20
2.737648737120685
 42
0.106696819974387
 10
1.44018326430784
 20
3.078428908947212
 42
0.1558749145539928
 10
1.135538282712158
 20
3.175766951239894
 42
0.1558749145539924
 10
0.830893301116477
 20
3.078428908947212
 42
0.1066968199743869
 10
0.5199274832513754
 20
2.737648737120685
 42
0.0727600335052073
 10
0.3362768316612841
 20
2.280280292611726
 42
0.0592108391140624
  0
LWPOLYLINE
  5
B1
330
1E
100
AcDbEntity
  8
ADP1DETAIL
100
AcDbPolyline
 90
       16
 70
     1
 43
0.0
 10
0.8453365541462478
 20
1.679937802671414
 42
0.0639878458336133
 10
0.8689438892726002
 20
1.49622575627717
 42
0.0769546296384256
 10
0.9303346725311453
 20
1.35467175520475
 42
0.1071582444818389
 10
1.032345779383248
 20
1.250791006939385
 42
0.1462742541209092
 10
1.135538282712158
 20
1.219942146964567
 42
0.1462742541209097
 10
1.238730786041067
 20
1.250791006939385
 42
0.1071582444818393
 10
1.340741892893171
 20
1.35467175520475
 42
0.0769546296384258
 10
1.402132676151715
 20
1.49622575627717
 42
0.0639878458336135
 10
1.425740011278068
 20
1.679937802671414
 42
0.0639878458336133
 10
1.402132676151715
 20
1.863649849065659
 42
0.0769546296384254
 10
1.340741892893171
 20
2.005203850138078
 42
0.1071582444818397
 10
1.238730786041067
 20
2.109084598403442
 42
0.1462742541209095
 10
1.135538282712158
 20
2.13993345837826
 42
0.1462742541209097
 10
1.032345779383248
 20
2.109084598403442
 42
0.1071582444818393
 10
0.9303346725311454
 20
2.005203850138078
 42
0.0769546296384252
 10
0.8689438892726002
 20
1.863649849065658
 42
0.0639878458336133
  0
LINE
  5
C3
330
1E
100
AcDbEntity
  8
ADP1DETAIL
100
AcDbLine
 10
0.4493904284552788
 20
1.526047356584614
 30
0.0
 11
0.3073377089905414
 21
1.679937802671414
 31
0.0
  0
LINE
  5
C4
330
1E
100
AcDbEntity
  8
ADP1DETAIL
100
AcDbLine
 10
0.8482000087369737
 20
1.615493069826271
 30
0.0
 11
0.4493904284552788
 21
1.526047356584614
 31
0.0
  0
LINE
  5
C5
330
1E
100
AcDbEntity
  8
ADP1DETAIL
100
AcDbLine
 10
0.8482000087369737
 20
1.744382535516556
 30
0.0
 11
0.4493904284552788
 21
1.833828248758214
 31
0.0
  0
LINE
  5
C6
330
1E
100
AcDbEntity
  8
ADP1DETAIL
100
AcDbLine
 10
0.4493904284552788
 20
1.833828248758214
 30
0.0
 11
0.3073377089905414
 21
1.679937802671414
 31
0.0
  0
DIMENSION
  5
C7
330
1E
100
AcDbEntity
  8
ADPDIM
100
AcDbDimension
  2
*D0
 10
2.345907551000292
 20
3.335363247392091
 30
0.0
 11
2.345907551000292
 21
1.679113247392091
 31
0.0
100
AcDbAlignedDimension
 13
1.210473043901328
 23
0.0228632473920918
 33
0.0
 14
1.210473043901328
 24
3.335363247392091
 34
0.0
 50
90.0
100
AcDbRotatedDimension
  0
LINE
  5
C8
330
1E
100
AcDbEntity
  8
ADP1DETAIL
100
AcDbLine
 10
1.239822189376909
 20
1.251510559844649
 30
0.0
 11
1.425122295129979
 21
0.4902462771542385
 31
0.0
  0
LINE
  5
C9
330
1E
100
AcDbEntity
  8
ADP1DETAIL
100
AcDbLine
 10
1.282016608711059
 20
1.284444689526737
 30
0.0
 11
1.584931604527808
 21
0.4665708239101163
 31
0.0
  0
LWPOLYLINE
  5
CA
330
1E
100
AcDbEntity
  8
ADP1DETAIL
100
AcDbPolyline
 90
        7
 70
     0
 43
0.0
 10
1.821686136969037
 20
1.526047356584614
 42
-0.2921747272429609
 10
1.904550223323467
 20
1.41358895367503
 42
-0.0950579867158086
 10
1.833523863591099
 20
0.8868101189932961
 42
-0.3333333333333237
 10
1.638201374327084
 20
0.7329196729064968
 10
1.584931604527808
 20
0.4665708239101163
 10
1.425122295129979
 20
0.4902462771542385
 42
-0.4944813440103915
 10
1.135097992889474
 20
0.2238974281578559
 42
0.0880138454383881
  0
LINE
  5
D3
330
1E
100
AcDbEntity
  8
ADP1DETAIL
100
AcDbLine
 10
1.322240173395519
 20
1.328191119280585
 30
0.0
 11
1.638201374327084
 21
0.7329196729064968
 31
0.0
  0
LINE
  5
D4
330
1E
100
AcDbEntity
  8
ADP1DETAIL
100
AcDbLine
 10
1.322240173395519
 20
2.031684486062243
 30
0.0
 11
1.638201374327084
 21
2.626955932436331
 31
0.0
  0
LWPOLYLINE
  5
D5
330
1E
100
AcDbEntity
  8
ADP1DETAIL
100
AcDbPolyline
 90
        7
 70
     0
 43
0.0
 10
1.821686136969037
 20
1.833828248758214
 42
0.2921747272429609
 10
1.904550223323467
 20
1.946286651667797
 42
0.0950579867158086
 10
1.833523863591099
 20
2.473065486349532
 42
0.3333333333333237
 10
1.638201374327084
 20
2.626955932436331
 10
1.584931604527808
 20
2.893304781432711
 10
1.425122295129979
 20
2.86962932818859
 42
0.4944813440103915
 10
1.135097992889474
 20
3.135978177184972
 42
-0.0880138454383881
  0
LINE
  5
DE
330
1E
100
AcDbEntity
  8
ADP1DETAIL
100
AcDbLine
 10
1.282016608711059
 20
2.075430915816091
 30
0.0
 11
1.584931604527808
 21
2.893304781432711
 31
0.0
  0
LINE
  5
DF
330
1E
100
AcDbEntity
  8
ADP1DETAIL
100
AcDbLine
 10
1.239822189376909
 20
2.108365045498179
 30
0.0
 11
1.425122295129979
 21
2.86962932818859
 31
0.0
  0
LINE
  5
E0
330
1E
100
AcDbEntity
  8
ADP1DETAIL
100
AcDbLine
 10
1.422876556687342
 20
1.615493069826271
 30
0.0
 11
1.821686136969037
 21
1.526047356584614
 31
0.0
  0
LINE
  5
E1
330
1E
100
AcDbEntity
  8
ADP1DETAIL
100
AcDbLine
 10
1.422876556687342
 20
1.744382535516556
 30
0.0
 11
1.821686136969037
 21
1.833828248758214
 31
0.0
  0
LINE
  5
E2
330
1E
100
AcDbEntity
  8
ADP1DETAIL
100
AcDbLine
 10
1.821686136969037
 20
1.526047356584614
 30
0.0
 11
1.963738856433774
 21
1.679937802671414
 31
0.0
  0
LINE
  5
E3
330
1E
100
AcDbEntity
  8
ADP1DETAIL
100
AcDbLine
 10
1.821686136969037
 20
1.833828248758214
 30
0.0
 11
1.963738856433774
 21
1.679937802671414
 31
0.0
  0
TEXT
  5
E7
330
1E
100
AcDbEntity
  8
ADPDIM
100
AcDbText
 10
-3.758758485705304
 20
-0.5992933170506293
 30
0.0
 40
0.09375
  1
J U L I U S  B L U M  &  C O . ,  I N C .      ( 8 0 0 )  5 2 6 - 6 2 9 3        W W W . J U L I U S B L U M . C O M        P A R T  N o .  2 4 5 3
 41
1.25
  7
ARIAL_WIDE
 72
     1
 11
1.135538282712158
 21
-0.5055433170506293
 31
0.0
100
AcDbText
 73
     3
  0
ENDSEC
  0
SECTION
  2
OBJECTS
  0
DICTIONARY
  5
C
330
0
100
AcDbDictionary
  3
ACAD_GROUP
350
D
  3
ACAD_LAYOUT
350
19
  3
ACAD_MLINESTYLE
350
16
  3
ACAD_PLOTSETTINGS
350
18
  3
ACAD_PLOTSTYLENAME
350
E
  3
ACDBHEADERROUNDTRIPXREC
350
2EE
  3
ACDBVARIABLEDICTIONARY
350
158
  0
DICTIONARY
  5
123
330
1E
100
AcDbDictionary
280
     1
  3
ACAD_LAYOUTSELFREF
360
310
  0
DICTIONARY
  5
125
330
1A
100
AcDbDictionary
280
     1
  3
ACAD_LAYOUTSELFREF
360
30F
  0
DICTIONARY
  5
D
102
{ACAD_REACTORS
330
C
102
}
330
C
100
AcDbDictionary
  0
DICTIONARY
  5
19
102
{ACAD_REACTORS
330
C
102
}
330
C
100
AcDbDictionary
  0
DICTIONARY
  5
16
102
{ACAD_REACTORS
330
C
102
}
330
C
100
AcDbDictionary
  3
STANDARD
350
17
  0
DICTIONARY
  5
18
102
{ACAD_REACTORS
330
C
102
}
330
C
100
AcDbDictionary
  0
ACDBDICTIONARYWDFLT
  5
E
102
{ACAD_REACTORS
330
C
102
}
330
C
100
AcDbDictionary
281
     1
  3
Normal
350
F
100
AcDbDictionaryWithDefault
340
F
  0
DICTIONARY
  5
2EE
102
{ACAD_REACTORS
330
C
102
}
330
C
100
AcDbDictionary
  3
CEPSNTYPE
350
2F8
  3
DIMSTYLEDATA
350
2FC
  3
FINGERPRINTGUID
350
2F9
  3
HYPERLINKBASE
350
2F1
  3
INSUNITS
350
2F7
  3
LAYOUTDICT
350
2F3
  3
LWETCUNION
350
2F6
  3
PLOTSETDICT
350
2F4
  3
PLOTSTYLNAMDICT
350
2F5
  3
PSVPSCALE
350
2FB
  3
PUCSBASE
350
2FF
  3
PUCSORGBACK
350
305
  3
PUCSORGBOTTOM
350
301
  3
PUCSORGFRONT
350
304
  3
PUCSORGLEFT
350
302
  3
PUCSORGRIGHT
350
303
  3
PUCSORGTOP
350
300
  3
PUCSORTHOREF
350
2FD
  3
PUCSORTHOVIEW
350
2FE
  3
STYLESHEET
350
2F2
  3
TSTACKALIGN
350
2EF
  3
TSTACKSIZE
350
2F0
  3
UCSBASE
350
308
  3
UCSORGBACK
350
30E
  3
UCSORGBOTTOM
350
30A
  3
UCSORGFRONT
350
30D
  3
UCSORGLEFT
350
30B
  3
UCSORGRIGHT
350
30C
  3
UCSORGTOP
350
309
  3
UCSORTHOREF
350
306
  3
UCSORTHOVIEW
350
307
  3
VERSIONGUID
350
2FA
  0
DICTIONARY
  5
158
102
{ACAD_REACTORS
330
C
102
}
330
C
100
AcDbDictionary
  3
DIMASSOC
350
15A
  3
HIDETEXT
350
159
  0
XRECORD
  5
310
102
{ACAD_REACTORS
330
123
102
}
330
123
100
AcDbXrecord
340
1E
  0
XRECORD
  5
30F
102
{ACAD_REACTORS
330
125
102
}
330
125
100
AcDbXrecord
340
1A
  0
MLINESTYLE
  5
17
102
{ACAD_REACTORS
330
16
102
}
330
16
100
AcDbMlineStyle
  2
STANDARD
 70
     0
  3

 62
   256
 51
90.0
 52
90.0
 71
     2
 49
0.5
 62
   256
  6
BYLAYER
 49
-0.5
 62
   256
  6
BYLAYER
  0
ACDBPLACEHOLDER
  5
F
102
{ACAD_REACTORS
330
E
102
}
330
E
100
AcDbPlaceHolder
280
     0
  0
XRECORD
  5
2F8
102
{ACAD_REACTORS
330
2EE
102
}
330
2EE
100
AcDbXrecord
 90
        0
  0
XRECORD
  5
2FC
102
{ACAD_REACTORS
330
2EE
102
}
330
2EE
100
AcDbXrecord
1000
DSTYLE
1002
{
1070
   277
 70
     5
1070
   279
 70
     2
1002
}
  0
XRECORD
  5
2F9
102
{ACAD_REACTORS
330
2EE
102
}
330
2EE
100
AcDbXrecord
  1
{CFC0323B-BC61-410F-B4D3-F8FC0D24B562}
  0
XRECORD
  5
2F1
102
{ACAD_REACTORS
330
2EE
102
}
330
2EE
100
AcDbXrecord
  1

  0
XRECORD
  5
2F7
102
{ACAD_REACTORS
330
2EE
102
}
330
2EE
100
AcDbXrecord
 90
        0
  0
XRECORD
  5
2F3
102
{ACAD_REACTORS
330
2EE
102
}
330
2EE
100
AcDbXrecord
340
19
  0
XRECORD
  5
2F6
102
{ACAD_REACTORS
330
2EE
102
}
330
2EE
100
AcDbXrecord
 90
    14877
  0
XRECORD
  5
2F4
102
{ACAD_REACTORS
330
2EE
102
}
330
2EE
100
AcDbXrecord
340
18
  0
XRECORD
  5
2F5
102
{ACAD_REACTORS
330
2EE
102
}
330
2EE
100
AcDbXrecord
340
E
  0
XRECORD
  5
2FB
102
{ACAD_REACTORS
330
2EE
102
}
330
2EE
100
AcDbXrecord
 40
0.0
  0
XRECORD
  5
2FF
102
{ACAD_REACTORS
330
2EE
102
}
330
2EE
100
AcDbXrecord
340
0
  0
XRECORD
  5
305
102
{ACAD_REACTORS
330
2EE
102
}
330
2EE
100
AcDbXrecord
 10
0.0
 20
0.0
 30
0.0
  0
XRECORD
  5
301
102
{ACAD_REACTORS
330
2EE
102
}
330
2EE
100
AcDbXrecord
 10
0.0
 20
0.0
 30
0.0
  0
XRECORD
  5
304
102
{ACAD_REACTORS
330
2EE
102
}
330
2EE
100
AcDbXrecord
 10
0.0
 20
0.0
 30
0.0
  0
XRECORD
  5
302
102
{ACAD_REACTORS
330
2EE
102
}
330
2EE
100
AcDbXrecord
 10
0.0
 20
0.0
 30
0.0
  0
XRECORD
  5
303
102
{ACAD_REACTORS
330
2EE
102
}
330
2EE
100
AcDbXrecord
 10
0.0
 20
0.0
 30
0.0
  0
XRECORD
  5
300
102
{ACAD_REACTORS
330
2EE
102
}
330
2EE
100
AcDbXrecord
 10
0.0
 20
0.0
 30
0.0
  0
XRECORD
  5
2FD
102
{ACAD_REACTORS
330
2EE
102
}
330
2EE
100
AcDbXrecord
340
0
  0
XRECORD
  5
2FE
102
{ACAD_REACTORS
330
2EE
102
}
330
2EE
100
AcDbXrecord
 70
     0
  0
XRECORD
  5
2F2
102
{ACAD_REACTORS
330
2EE
102
}
330
2EE
100
AcDbXrecord
  1

  0
XRECORD
  5
2EF
102
{ACAD_REACTORS
330
2EE
102
}
330
2EE
100
AcDbXrecord
 90
        1
  0
XRECORD
  5
2F0
102
{ACAD_REACTORS
330
2EE
102
}
330
2EE
100
AcDbXrecord
 90
       70
  0
XRECORD
  5
308
102
{ACAD_REACTORS
330
2EE
102
}
330
2EE
100
AcDbXrecord
340
0
  0
XRECORD
  5
30E
102
{ACAD_REACTORS
330
2EE
102
}
330
2EE
100
AcDbXrecord
 10
0.0
 20
0.0
 30
0.0
  0
XRECORD
  5
30A
102
{ACAD_REACTORS
330
2EE
102
}
330
2EE
100
AcDbXrecord
 10
0.0
 20
0.0
 30
0.0
  0
XRECORD
  5
30D
102
{ACAD_REACTORS
330
2EE
102
}
330
2EE
100
AcDbXrecord
 10
0.0
 20
0.0
 30
0.0
  0
XRECORD
  5
30B
102
{ACAD_REACTORS
330
2EE
102
}
330
2EE
100
AcDbXrecord
 10
0.0
 20
0.0
 30
0.0
  0
XRECORD
  5
30C
102
{ACAD_REACTORS
330
2EE
102
}
330
2EE
100
AcDbXrecord
 10
0.0
 20
0.0
 30
0.0
  0
XRECORD
  5
309
102
{ACAD_REACTORS
330
2EE
102
}
330
2EE
100
AcDbXrecord
 10
0.0
 20
0.0
 30
0.0
  0
XRECORD
  5
306
102
{ACAD_REACTORS
330
2EE
102
}
330
2EE
100
AcDbXrecord
340
0
  0
XRECORD
  5
307
102
{ACAD_REACTORS
330
2EE
102
}
330
2EE
100
AcDbXrecord
 70
     0
  0
XRECORD
  5
2FA
102
{ACAD_REACTORS
330
2EE
102
}
330
2EE
100
AcDbXrecord
  1
{0D7D4EE5-D304-4283-B14F-BD75BF0F9036}
  0
DICTIONARYVAR
  5
15A
102
{ACAD_REACTORS
330
158
102
}
330
158
100
DictionaryVariables
280
     0
  1
2
  0
DICTIONARYVAR
  5
159
102
{ACAD_REACTORS
330
158
102
}
330
158
100
DictionaryVariables
280
     0
  1
1
  0
ENDSEC
  0
EOF
