  0
SECTION
  2
HEADER
  9
$ACADVER
  1
AC1015
  9
$ACADMAINTVER
 70
    20
  9
$DWGCODEPAGE
  3
ANSI_1252
  9
$INSBASE
 10
5.576181235387793
 20
0.7026415094339626
 30
0.0
  9
$EXTMIN
 10
-1.568329055162774
 20
-2.60718837458399
 30
0.0
  9
$EXTMAX
 10
70.9820546307501
 20
16.55698019173748
 30
0.0
  9
$LIMMIN
 10
0.0
 20
0.0
  9
$LIMMAX
 10
36.0
 20
36.0
  9
$ORTHOMODE
 70
     0
  9
$REGENMODE
 70
     1
  9
$FILLMODE
 70
     1
  9
$QTEXTMODE
 70
     0
  9
$MIRRTEXT
 70
     1
  9
$LTSCALE
 40
1.0
  9
$ATTMODE
 70
     1
  9
$TEXTSIZE
 40
0.2
  9
$TRACEWID
 40
0.05
  9
$TEXTSTYLE
  7
STANDARD
  9
$CLAYER
  8
ADPDIM
  9
$CELTYPE
  6
ByLayer
  9
$CECOLOR
 62
   256
  9
$CELTSCALE
 40
1.0
  9
$DISPSILH
 70
     0
  9
$DIMSCALE
 40
1.0
  9
$DIMASZ
 40
0.125
  9
$DIMEXO
 40
0.0625
  9
$DIMDLI
 40
0.38
  9
$DIMRND
 40
0.0
  9
$DIMDLE
 40
0.0
  9
$DIMEXE
 40
0.18
  9
$DIMTP
 40
0.0
  9
$DIMTM
 40
0.0
  9
$DIMTXT
 40
0.125
  9
$DIMCEN
 40
0.1875
  9
$DIMTSZ
 40
0.125
  9
$DIMTOL
 70
     0
  9
$DIMLIM
 70
     0
  9
$DIMTIH
 70
     0
  9
$DIMTOH
 70
     0
  9
$DIMSE1
 70
     0
  9
$DIMSE2
 70
     0
  9
$DIMTAD
 70
     0
  9
$DIMZIN
 70
     3
  9
$DIMBLK
  1

  9
$DIMASO
 70
     1
  9
$DIMSHO
 70
     1
  9
$DIMPOST
  1

  9
$DIMAPOST
  1

  9
$DIMALT
 70
     0
  9
$DIMALTD
 70
     1
  9
$DIMALTF
 40
25.4
  9
$DIMLFAC
 40
1.0
  9
$DIMTOFL
 70
     0
  9
$DIMTVP
 40
0.0
  9
$DIMTIX
 70
     0
  9
$DIMSOXD
 70
     0
  9
$DIMSAH
 70
     0
  9
$DIMBLK1
  1

  9
$DIMBLK2
  1

  9
$DIMSTYLE
  2
Standard
  9
$DIMCLRD
 70
     0
  9
$DIMCLRE
 70
     0
  9
$DIMCLRT
 70
     0
  9
$DIMTFAC
 40
1.0
  9
$DIMGAP
 40
0.125
  9
$DIMJUST
 70
     0
  9
$DIMSD1
 70
     0
  9
$DIMSD2
 70
     0
  9
$DIMTOLJ
 70
     1
  9
$DIMTZIN
 70
     3
  9
$DIMALTZ
 70
     3
  9
$DIMALTTZ
 70
     3
  9
$DIMUPT
 70
     0
  9
$DIMDEC
 70
     4
  9
$DIMTDEC
 70
     4
  9
$DIMALTU
 70
     5
  9
$DIMALTTD
 70
     1
  9
$DIMTXSTY
  7
STANDARD
  9
$DIMAUNIT
 70
     0
  9
$DIMADEC
 70
     0
  9
$DIMALTRND
 40
0.0
  9
$DIMAZIN
 70
     0
  9
$DIMDSEP
 70
    46
  9
$DIMATFIT
 70
     3
  9
$DIMFRAC
 70
     0
  9
$DIMLDRBLK
  1

  9
$DIMLUNIT
 70
     5
  9
$DIMLWD
 70
    -2
  9
$DIMLWE
 70
    -2
  9
$DIMTMOVE
 70
     2
  9
$LUNITS
 70
     5
  9
$LUPREC
 70
     4
  9
$SKETCHINC
 40
0.1
  9
$FILLETRAD
 40
0.031
  9
$AUNITS
 70
     0
  9
$AUPREC
 70
     0
  9
$MENU
  1
acad
  9
$ELEVATION
 40
0.0
  9
$PELEVATION
 40
0.0
  9
$THICKNESS
 40
0.0
  9
$LIMCHECK
 70
     0
  9
$CHAMFERA
 40
0.0
  9
$CHAMFERB
 40
0.0
  9
$CHAMFERC
 40
0.0
  9
$CHAMFERD
 40
0.0
  9
$SKPOLY
 70
     0
  9
$TDCREATE
 40
2450366.566373843
  9
$TDUCREATE
 40
2450366.733040509
  9
$TDUPDATE
 40
2453947.951872569
  9
$TDUUPDATE
 40
2453948.118539236
  9
$TDINDWG
 40
0.0308909259
  9
$TDUSRTIMER
 40
0.0308909259
  9
$USRTIMER
 70
     1
  9
$ANGBASE
 50
0.0
  9
$ANGDIR
 70
     0
  9
$PDMODE
 70
     0
  9
$PDSIZE
 40
0.0
  9
$PLINEWID
 40
0.0
  9
$SPLFRAME
 70
     0
  9
$SPLINETYPE
 70
     6
  9
$SPLINESEGS
 70
     8
  9
$HANDSEED
  5
3FE
  9
$SURFTAB1
 70
     6
  9
$SURFTAB2
 70
     6
  9
$SURFTYPE
 70
     6
  9
$SURFU
 70
     6
  9
$SURFV
 70
     6
  9
$UCSBASE
  2

  9
$UCSNAME
  2

  9
$UCSORG
 10
0.0
 20
0.0
 30
0.0
  9
$UCSXDIR
 10
1.0
 20
0.0
 30
0.0
  9
$UCSYDIR
 10
0.0
 20
1.0
 30
0.0
  9
$UCSORTHOREF
  2

  9
$UCSORTHOVIEW
 70
     0
  9
$UCSORGTOP
 10
0.0
 20
0.0
 30
0.0
  9
$UCSORGBOTTOM
 10
0.0
 20
0.0
 30
0.0
  9
$UCSORGLEFT
 10
0.0
 20
0.0
 30
0.0
  9
$UCSORGRIGHT
 10
0.0
 20
0.0
 30
0.0
  9
$UCSORGFRONT
 10
0.0
 20
0.0
 30
0.0
  9
$UCSORGBACK
 10
0.0
 20
0.0
 30
0.0
  9
$PUCSBASE
  2

  9
$PUCSNAME
  2

  9
$PUCSORG
 10
0.0
 20
0.0
 30
0.0
  9
$PUCSXDIR
 10
1.0
 20
0.0
 30
0.0
  9
$PUCSYDIR
 10
0.0
 20
1.0
 30
0.0
  9
$PUCSORTHOREF
  2

  9
$PUCSORTHOVIEW
 70
     0
  9
$PUCSORGTOP
 10
0.0
 20
0.0
 30
0.0
  9
$PUCSORGBOTTOM
 10
0.0
 20
0.0
 30
0.0
  9
$PUCSORGLEFT
 10
0.0
 20
0.0
 30
0.0
  9
$PUCSORGRIGHT
 10
0.0
 20
0.0
 30
0.0
  9
$PUCSORGFRONT
 10
0.0
 20
0.0
 30
0.0
  9
$PUCSORGBACK
 10
0.0
 20
0.0
 30
0.0
  9
$USERI1
 70
     0
  9
$USERI2
 70
     0
  9
$USERI3
 70
     0
  9
$USERI4
 70
     0
  9
$USERI5
 70
     0
  9
$USERR1
 40
0.0
  9
$USERR2
 40
0.0
  9
$USERR3
 40
0.0
  9
$USERR4
 40
0.0
  9
$USERR5
 40
0.0
  9
$WORLDVIEW
 70
     1
  9
$SHADEDGE
 70
     3
  9
$SHADEDIF
 70
    70
  9
$TILEMODE
 70
     1
  9
$MAXACTVP
 70
    15
  9
$PINSBASE
 10
0.1250013113021854
 20
0.0
 30
0.0
  9
$PLIMCHECK
 70
     0
  9
$PEXTMIN
 10
1.000000000000000E+20
 20
1.000000000000000E+20
 30
1.000000000000000E+20
  9
$PEXTMAX
 10
-1.000000000000000E+20
 20
-1.000000000000000E+20
 30
-1.000000000000000E+20
  9
$PLIMMIN
 10
0.0
 20
0.0
  9
$PLIMMAX
 10
12.0
 20
9.0
  9
$UNITMODE
 70
     0
  9
$VISRETAIN
 70
     0
  9
$PLINEGEN
 70
     0
  9
$PSLTSCALE
 70
     1
  9
$TREEDEPTH
 70
  3020
  9
$CMLSTYLE
  2
Standard
  9
$CMLJUST
 70
     0
  9
$CMLSCALE
 40
1.0
  9
$PROXYGRAPHICS
 70
     1
  9
$MEASUREMENT
 70
     0
  9
$CELWEIGHT
370
    -1
  9
$ENDCAPS
280
     0
  9
$JOINSTYLE
280
     0
  9
$LWDISPLAY
290
     0
  9
$INSUNITS
 70
     0
  9
$HYPERLINKBASE
  1

  9
$STYLESHEET
  1

  9
$XEDIT
290
     1
  9
$CEPSNTYPE
380
     0
  9
$PSTYLEMODE
290
     1
  9
$FINGERPRINTGUID
  2
{A94728E3-56A9-4FFC-BC26-6E5F8A00391E}
  9
$VERSIONGUID
  2
{3CC7D20A-7D95-46EB-93C9-C7B7CDDF790C}
  9
$EXTNAMES
290
     1
  9
$PSVPSCALE
 40
0.0
  9
$OLESTARTUP
290
     0
  0
ENDSEC
  0
SECTION
  2
CLASSES
  0
CLASS
  1
ACDBDICTIONARYWDFLT
  2
AcDbDictionaryWithDefault
  3
ObjectDBX Classes
 90
        0
280
     0
281
     0
  0
CLASS
  1
ACDBPLACEHOLDER
  2
AcDbPlaceHolder
  3
ObjectDBX Classes
 90
        0
280
     0
281
     0
  0
CLASS
  1
LAYOUT
  2
AcDbLayout
  3
ObjectDBX Classes
 90
        0
280
     0
281
     0
  0
CLASS
  1
DICTIONARYVAR
  2
AcDbDictionaryVar
  3
ObjectDBX Classes
 90
        0
280
     0
281
     0
  0
CLASS
  1
MATERIAL
  2
AcDbMaterial
  3
ObjectDBX Classes
 90
     1024
280
     0
281
     0
  0
CLASS
  1
VISUALSTYLE
  2
AcDbVisualStyle
  3
ObjectDBX Classes
 90
     4095
280
     0
281
     0
  0
CLASS
  1
TABLESTYLE
  2
AcDbTableStyle
  3
ObjectDBX Classes
 90
     4095
280
     0
281
     0
  0
CLASS
  1
ACAD_EVALUATION_GRAPH
  2
AcDbEvalGraph
  3
ObjectDBX Classes
 90
     1153
280
     0
281
     0
  0
CLASS
  1
ACDB_DYNAMICBLOCKPURGEPREVENTER_VERSION
  2
AcDbDynamicBlockPurgePreventer
  3
ObjectDBX Classes
 90
     1153
280
     0
281
     0
  0
ENDSEC
  0
SECTION
  2
TABLES
  0
TABLE
  2
VPORT
  5
8
330
0
100
AcDbSymbolTable
 70
     1
  0
VPORT
  5
328
330
8
100
AcDbSymbolTableRecord
100
AcDbViewportTableRecord
  2
*Active
 70
     0
 10
0.0
 20
0.0
 11
1.0
 21
1.0
 12
6.549247658432209
 22
1.939594923386703
 13
0.0
 23
0.0
 14
0.5740882589684922
 24
0.5740882589684922
 15
0.5
 25
0.5
 16
0.0
 26
0.0
 36
1.0
 17
0.0
 27
0.0
 37
0.0
 40
9.274945140833722
 41
2.181192660550458
 42
50.0
 43
0.0
 44
0.0
 50
0.0
 51
0.0
 71
     0
 72
   100
 73
     1
 74
     1
 75
     0
 76
     0
 77
     0
 78
     0
281
     0
 65
     1
110
0.0
120
0.0
130
0.0
111
1.0
121
0.0
131
0.0
112
0.0
122
1.0
132
0.0
 79
     0
146
0.0
  0
ENDTAB
  0
TABLE
  2
LTYPE
  5
5
330
0
100
AcDbSymbolTable
 70
     3
  0
LTYPE
  5
13
330
5
100
AcDbSymbolTableRecord
100
AcDbLinetypeTableRecord
  2
ByBlock
 70
     0
  3

 72
    65
 73
     0
 40
0.0
  0
LTYPE
  5
14
330
5
100
AcDbSymbolTableRecord
100
AcDbLinetypeTableRecord
  2
ByLayer
 70
     0
  3

 72
    65
 73
     0
 40
0.0
  0
LTYPE
  5
15
330
5
100
AcDbSymbolTableRecord
100
AcDbLinetypeTableRecord
  2
CONTINUOUS
 70
     0
  3
Solid line
 72
    65
 73
     0
 40
0.0
  0
LTYPE
  5
28
330
5
100
AcDbSymbolTableRecord
100
AcDbLinetypeTableRecord
  2
HIDDEN2
 70
     0
  3
_ _ _ _ _ _ _ _ _ _ _ _ _ _ _ _ _ _ _ _ _ _ _ _
 72
    65
 73
     2
 40
0.1875
 49
0.125
 74
     0
 49
-0.0625
 74
     0
  0
ENDTAB
  0
TABLE
  2
LAYER
  5
2
330
0
100
AcDbSymbolTable
 70
     5
  0
LAYER
  5
10
330
2
100
AcDbSymbolTableRecord
100
AcDbLayerTableRecord
  2
0
 70
     0
 62
     7
  6
CONTINUOUS
370
    -3
390
F
  0
LAYER
  5
2A
330
2
100
AcDbSymbolTableRecord
100
AcDbLayerTableRecord
  2
ADP2DETAIL
 70
     0
 62
     5
  6
CONTINUOUS
370
    -3
390
F
  0
LAYER
  5
2B
330
2
100
AcDbSymbolTableRecord
100
AcDbLayerTableRecord
  2
ADPDIM
 70
     0
 62
     3
  6
CONTINUOUS
370
    -3
390
F
  0
LAYER
  5
2C
330
2
100
AcDbSymbolTableRecord
100
AcDbLayerTableRecord
  2
ADP1DETAIL
 70
     0
 62
     7
  6
CONTINUOUS
370
    -3
390
F
  0
LAYER
  5
2D
330
2
100
AcDbSymbolTableRecord
100
AcDbLayerTableRecord
  2
DEFPOINTS
 70
     0
 62
     7
  6
CONTINUOUS
290
     0
370
    -3
390
F
  0
ENDTAB
  0
TABLE
  2
STYLE
  5
3
330
0
100
AcDbSymbolTable
 70
     2
  0
STYLE
  5
11
330
3
100
AcDbSymbolTableRecord
100
AcDbTextStyleTableRecord
  2
STANDARD
 70
     0
 40
0.0
 41
1.0
 50
0.0
 71
     0
 42
0.2
  3
txt
  4

  0
STYLE
  5
1C6
330
3
100
AcDbSymbolTableRecord
100
AcDbTextStyleTableRecord
  2
ARIAL_WIDE
 70
     0
 40
0.0
 41
1.25
 50
0.0
 71
     0
 42
0.2
  3
ARIAL.TTF
  4

1001
ACAD
1000
Arial
1071
       34
  0
ENDTAB
  0
TABLE
  2
VIEW
  5
6
330
0
100
AcDbSymbolTable
 70
     0
  0
ENDTAB
  0
TABLE
  2
UCS
  5
7
330
0
100
AcDbSymbolTable
 70
     0
  0
ENDTAB
  0
TABLE
  2
APPID
  5
9
330
0
100
AcDbSymbolTable
 70
     6
  0
APPID
  5
12
330
9
100
AcDbSymbolTableRecord
100
AcDbRegAppTableRecord
  2
ACAD
 70
     0
  0
APPID
  5
388
330
9
100
AcDbSymbolTableRecord
100
AcDbRegAppTableRecord
  2
ACAD_EXEMPT_FROM_CAD_STANDARDS
 70
     0
  0
APPID
  5
3A7
330
9
100
AcDbSymbolTableRecord
100
AcDbRegAppTableRecord
  2
ACAUTHENVIRON
 70
     0
  0
APPID
  5
3A8
330
9
100
AcDbSymbolTableRecord
100
AcDbRegAppTableRecord
  2
DCO15
 70
     0
  0
APPID
  5
3B0
330
9
100
AcDbSymbolTableRecord
100
AcDbRegAppTableRecord
  2
AcDbDynamicBlockTrueName
 70
     0
  0
APPID
  5
3B1
330
9
100
AcDbSymbolTableRecord
100
AcDbRegAppTableRecord
  2
AcDbDynamicBlockGUID
 70
     0
  0
ENDTAB
  0
TABLE
  2
DIMSTYLE
  5
A
330
0
100
AcDbSymbolTable
 70
     2
100
AcDbDimStyleTable
 71
     1
340
1C4
  0
DIMSTYLE
105
1C4
102
{ACAD_REACTORS
330
7C
330
7B
102
}
330
A
100
AcDbSymbolTableRecord
100
AcDbDimStyleTableRecord
  2
Standard
 70
     0
340
11
  0
ENDTAB
  0
TABLE
  2
BLOCK_RECORD
  5
1
330
0
100
AcDbSymbolTable
 70
    10
  0
BLOCK_RECORD
  5
1E
102
{ACAD_XDICTIONARY
360
207
102
}
330
1
100
AcDbSymbolTableRecord
100
AcDbBlockTableRecord
  2
*Model_Space
340
21
  0
BLOCK_RECORD
  5
1A
102
{ACAD_XDICTIONARY
360
209
102
}
330
1
100
AcDbSymbolTableRecord
100
AcDbBlockTableRecord
  2
*Paper_Space
340
1D
  0
BLOCK_RECORD
  5
22
330
1
100
AcDbSymbolTableRecord
100
AcDbBlockTableRecord
  2
*D0
340
0
  0
BLOCK_RECORD
  5
23
330
1
100
AcDbSymbolTableRecord
100
AcDbBlockTableRecord
  2
*D1
340
0
  0
BLOCK_RECORD
  5
24
330
1
100
AcDbSymbolTableRecord
100
AcDbBlockTableRecord
  2
*D2
340
0
  0
BLOCK_RECORD
  5
25
330
1
100
AcDbSymbolTableRecord
100
AcDbBlockTableRecord
  2
*D3
340
0
  0
BLOCK_RECORD
  5
26
330
1
100
AcDbSymbolTableRecord
100
AcDbBlockTableRecord
  2
*D4
340
0
  0
BLOCK_RECORD
  5
27
330
1
100
AcDbSymbolTableRecord
100
AcDbBlockTableRecord
  2
*D5
340
0
  0
BLOCK_RECORD
  5
37A
330
1
100
AcDbSymbolTableRecord
100
AcDbBlockTableRecord
  2
*D6
340
0
  0
BLOCK_RECORD
  5
3B6
330
1
100
AcDbSymbolTableRecord
100
AcDbBlockTableRecord
  2
*D9
340
0
  0
ENDTAB
  0
ENDSEC
  0
SECTION
  2
BLOCKS
  0
BLOCK
  5
30
330
1E
100
AcDbEntity
  8
0
100
AcDbBlockBegin
  2
*Model_Space
 70
     0
 10
0.0
 20
0.0
 30
0.0
  3
*Model_Space
  1

  0
ENDBLK
  5
31
330
1E
100
AcDbEntity
  8
0
100
AcDbBlockEnd
  0
BLOCK
  5
2E
330
1A
100
AcDbEntity
 67
     1
  8
0
100
AcDbBlockBegin
  2
*Paper_Space
 70
     0
 10
0.0
 20
0.0
 30
0.0
  3
*Paper_Space
  1

  0
ENDBLK
  5
2F
330
1A
100
AcDbEntity
 67
     1
  8
0
100
AcDbBlockEnd
  0
BLOCK
  5
32
330
22
100
AcDbEntity
  8
0
100
AcDbBlockBegin
  2
*D0
 70
     1
 10
0.0
 20
0.0
 30
0.0
  3
*D0
  1
*U
  0
LINE
  5
33
330
22
100
AcDbEntity
  8
0
  6
ByBlock
 62
     0
100
AcDbLine
 10
5.558433810073412
 20
6.433083149451808
 30
0.0
 11
5.153176245142181
 21
6.433083149451808
 31
0.0
  0
LINE
  5
34
330
22
100
AcDbEntity
  8
0
  6
ByBlock
 62
     0
100
AcDbLine
 10
5.558433810073412
 20
1.433083149451808
 30
0.0
 11
5.153176245142181
 21
1.433083149451808
 31
0.0
  0
LINE
  5
35
330
22
100
AcDbEntity
  8
0
  6
ByBlock
 62
     0
100
AcDbLine
 10
5.333176245142181
 20
6.433083149451808
 30
0.0
 11
5.333176245142181
 21
4.099749816118475
 31
0.0
  0
LINE
  5
36
330
22
100
AcDbEntity
  8
0
  6
ByBlock
 62
     0
100
AcDbLine
 10
5.333176245142181
 20
1.433083149451808
 30
0.0
 11
5.333176245142181
 21
3.766416482785141
 31
0.0
  0
LINE
  5
37
330
22
100
AcDbEntity
  8
0
  6
ByBlock
 62
     0
100
AcDbLine
 10
5.458176245142181
 20
6.308083149451808
 30
0.0
 11
5.208176245142181
 21
6.558083149451808
 31
0.0
  0
LINE
  5
38
330
22
100
AcDbEntity
  8
0
  6
ByBlock
 62
     0
100
AcDbLine
 10
5.458176245142181
 20
1.308083149451808
 30
0.0
 11
5.208176245142181
 21
1.558083149451808
 31
0.0
  0
TEXT
  5
39
330
22
100
AcDbEntity
  8
0
  6
ByBlock
 62
     0
100
AcDbText
 10
5.395676245142181
 20
3.891416482785141
 30
0.0
 40
0.125
  1
5
 50
90.0
 72
     1
 11
5.333176245142181
 21
3.933083149451807
 31
0.0
100
AcDbText
 73
     2
  0
POINT
  5
3B
330
22
100
AcDbEntity
  8
DEFPOINTS
  6
ByBlock
 62
     0
100
AcDbPoint
 10
5.620933810073412
 20
6.433083149451808
 30
0.0
  0
POINT
  5
3C
330
22
100
AcDbEntity
  8
DEFPOINTS
  6
ByBlock
 62
     0
100
AcDbPoint
 10
5.620933810073412
 20
1.433083149451808
 30
0.0
  0
POINT
  5
3D
330
22
100
AcDbEntity
  8
DEFPOINTS
  6
ByBlock
 62
     0
100
AcDbPoint
 10
5.333176245142181
 20
1.433083149451808
 30
0.0
  0
ENDBLK
  5
3E
330
22
100
AcDbEntity
  8
0
100
AcDbBlockEnd
  0
BLOCK
  5
3F
330
23
100
AcDbEntity
  8
0
100
AcDbBlockBegin
  2
*D1
 70
     1
 10
0.0
 20
0.0
 30
0.0
  3
*D1
  1
*U
  0
LINE
  5
40
330
23
100
AcDbEntity
  8
0
  6
ByBlock
 62
     0
100
AcDbLine
 10
6.867448358675463
 20
5.457436029981908
 30
0.0
 11
7.774128804631611
 21
5.457436029981907
 31
0.0
  0
LINE
  5
41
330
23
100
AcDbEntity
  8
0
  6
ByBlock
 62
     0
100
AcDbLine
 10
6.99210589292204
 20
2.447846988886017
 30
0.0
 11
7.774128804631611
 21
2.447846988886017
 31
0.0
  0
LINE
  5
42
330
23
100
AcDbEntity
  8
0
  6
ByBlock
 62
     0
100
AcDbLine
 10
7.594128804631611
 20
5.457436029981907
 30
0.0
 11
7.594128804631611
 21
4.119308176100629
 31
0.0
  0
LINE
  5
43
330
23
100
AcDbEntity
  8
0
  6
ByBlock
 62
     0
100
AcDbLine
 10
7.594128804631611
 20
2.447846988886017
 30
0.0
 11
7.594128804631611
 21
3.785974842767296
 31
0.0
  0
LINE
  5
44
330
23
100
AcDbEntity
  8
0
  6
ByBlock
 62
     0
100
AcDbLine
 10
7.719128804631611
 20
5.332436029981907
 30
0.0
 11
7.469128804631611
 21
5.582436029981907
 31
0.0
  0
LINE
  5
45
330
23
100
AcDbEntity
  8
0
  6
ByBlock
 62
     0
100
AcDbLine
 10
7.719128804631611
 20
2.322846988886017
 30
0.0
 11
7.469128804631611
 21
2.572846988886017
 31
0.0
  0
TEXT
  5
46
330
23
100
AcDbEntity
  8
0
  6
ByBlock
 62
     0
100
AcDbText
 10
7.656628804631611
 20
3.910974842767296
 30
0.0
 40
0.125
  1
3
 50
90.0
 72
     1
 11
7.594128804631611
 21
3.952641509433962
 31
0.0
100
AcDbText
 73
     2
  0
POINT
  5
47
330
23
100
AcDbEntity
  8
DEFPOINTS
  6
ByBlock
 62
     0
100
AcDbPoint
 10
6.804948358675463
 20
5.457436029981908
 30
0.0
  0
POINT
  5
48
330
23
100
AcDbEntity
  8
DEFPOINTS
  6
ByBlock
 62
     0
100
AcDbPoint
 10
6.92960589292204
 20
2.447846988886017
 30
0.0
  0
POINT
  5
49
330
23
100
AcDbEntity
  8
DEFPOINTS
  6
ByBlock
 62
     0
100
AcDbPoint
 10
7.594128804631611
 20
2.447846988886017
 30
0.0
  0
ENDBLK
  5
4A
330
23
100
AcDbEntity
  8
0
100
AcDbBlockEnd
  0
BLOCK
  5
4B
330
24
100
AcDbEntity
  8
0
100
AcDbBlockBegin
  2
*D2
 70
     1
 10
0.0
 20
0.0
 30
0.0
  3
*D2
  1
*U
  0
LINE
  5
4C
330
24
100
AcDbEntity
  8
0
  6
ByBlock
 62
     0
100
AcDbLine
 10
5.513681235387793
 20
0.7026415094339626
 30
0.0
 11
4.78320214522068
 21
0.7026415094339626
 31
0.0
  0
LINE
  5
4D
330
24
100
AcDbEntity
  8
0
  6
ByBlock
 62
     0
100
AcDbLine
 10
5.513681235387793
 20
7.013285373844504
 30
0.0
 11
4.78320214522068
 21
7.013285373844504
 31
0.0
  0
LINE
  5
4E
330
24
100
AcDbEntity
  8
0
  6
ByBlock
 62
     0
100
AcDbLine
 10
4.963202145220679
 20
0.7026415094339626
 30
0.0
 11
4.963202145220679
 21
3.399630108305899
 31
0.0
  0
LINE
  5
4F
330
24
100
AcDbEntity
  8
0
  6
ByBlock
 62
     0
100
AcDbLine
 10
4.963202145220679
 20
7.013285373844504
 30
0.0
 11
4.963202145220679
 21
4.316296774972567
 31
0.0
  0
LINE
  5
50
330
24
100
AcDbEntity
  8
0
  6
ByBlock
 62
     0
100
AcDbLine
 10
5.088202145220679
 20
0.5776415094339626
 30
0.0
 11
4.838202145220679
 21
0.8276415094339625
 31
0.0
  0
LINE
  5
51
330
24
100
AcDbEntity
  8
0
  6
ByBlock
 62
     0
100
AcDbLine
 10
5.088202145220679
 20
6.888285373844504
 30
0.0
 11
4.838202145220679
 21
7.138285373844504
 31
0.0
  0
TEXT
  5
52
330
24
100
AcDbEntity
  8
0
  6
ByBlock
 62
     0
100
AcDbText
 10
5.025702145220679
 20
3.524630108305899
 30
0.0
 40
0.125
  1
6 5/16
 50
90.0
 72
     1
 11
4.963202145220679
 21
3.857963441639233
 31
0.0
100
AcDbText
 73
     2
  0
POINT
  5
53
330
24
100
AcDbEntity
  8
DEFPOINTS
  6
ByBlock
 62
     0
100
AcDbPoint
 10
5.576181235387793
 20
0.7026415094339626
 30
0.0
  0
POINT
  5
54
330
24
100
AcDbEntity
  8
DEFPOINTS
  6
ByBlock
 62
     0
100
AcDbPoint
 10
5.576181235387793
 20
7.013285373844504
 30
0.0
  0
POINT
  5
55
330
24
100
AcDbEntity
  8
DEFPOINTS
  6
ByBlock
 62
     0
100
AcDbPoint
 10
4.963202145220679
 20
7.013285373844504
 30
0.0
  0
ENDBLK
  5
56
330
24
100
AcDbEntity
  8
0
100
AcDbBlockEnd
  0
BLOCK
  5
57
330
25
100
AcDbEntity
  8
0
100
AcDbBlockBegin
  2
*D3
 70
     1
 10
0.0
 20
0.0
 30
0.0
  3
*D3
  1
*U
  0
LINE
  5
58
330
25
100
AcDbEntity
  8
0
  6
ByBlock
 62
     0
100
AcDbLine
 10
5.599197787899208
 20
0.3708196204198467
 30
0.0
 11
5.153176245142181
 21
0.3708196204198467
 31
0.0
  0
LINE
  5
59
330
25
100
AcDbEntity
  8
0
  6
ByBlock
 62
     0
100
AcDbLine
 10
5.599197787899208
 20
-0.8791803795801532
 30
0.0
 11
5.153176245142181
 21
-0.8791803795801532
 31
0.0
  0
LINE
  5
5A
330
25
100
AcDbEntity
  8
0
  6
ByBlock
 62
     0
100
AcDbLine
 10
5.333176245142181
 20
0.3708196204198467
 30
0.0
 11
5.333176245142181
 21
0.1208196204198467
 31
0.0
  0
LINE
  5
5B
330
25
100
AcDbEntity
  8
0
  6
ByBlock
 62
     0
100
AcDbLine
 10
5.333176245142181
 20
-0.8791803795801532
 30
0.0
 11
5.333176245142181
 21
-0.6291803795801533
 31
0.0
  0
LINE
  5
5C
330
25
100
AcDbEntity
  8
0
  6
ByBlock
 62
     0
100
AcDbLine
 10
5.458176245142181
 20
0.2458196204198467
 30
0.0
 11
5.208176245142181
 21
0.4958196204198467
 31
0.0
  0
LINE
  5
5D
330
25
100
AcDbEntity
  8
0
  6
ByBlock
 62
     0
100
AcDbLine
 10
5.458176245142181
 20
-1.004180379580153
 30
0.0
 11
5.208176245142181
 21
-0.7541803795801533
 31
0.0
  0
TEXT
  5
5E
330
25
100
AcDbEntity
  8
0
  6
ByBlock
 62
     0
100
AcDbText
 10
5.395676245142181
 20
-0.5041803795801533
 30
0.0
 40
0.125
  1
1 1/4
 50
90.0
 72
     1
 11
5.333176245142181
 21
-0.2541803795801533
 31
0.0
100
AcDbText
 73
     2
  0
POINT
  5
5F
330
25
100
AcDbEntity
  8
DEFPOINTS
  6
ByBlock
 62
     0
100
AcDbPoint
 10
5.661697787899208
 20
0.3708196204198467
 30
0.0
  0
POINT
  5
60
330
25
100
AcDbEntity
  8
DEFPOINTS
  6
ByBlock
 62
     0
100
AcDbPoint
 10
5.661697787899208
 20
-0.8791803795801532
 30
0.0
  0
POINT
  5
61
330
25
100
AcDbEntity
  8
DEFPOINTS
  6
ByBlock
 62
     0
100
AcDbPoint
 10
5.333176245142181
 20
-0.8791803795801532
 30
0.0
  0
ENDBLK
  5
62
330
25
100
AcDbEntity
  8
0
100
AcDbBlockEnd
  0
BLOCK
  5
63
330
26
100
AcDbEntity
  8
0
100
AcDbBlockBegin
  2
*D4
 70
     1
 10
0.0
 20
0.0
 30
0.0
  3
*D4
  1
*U
  0
LINE
  5
64
330
26
100
AcDbEntity
  8
0
  6
ByBlock
 62
     0
100
AcDbLine
 10
5.593989454565875
 20
-0.8739720462468199
 30
0.0
 11
5.593989454565875
 21
-1.277191055522584
 31
0.0
  0
LINE
  5
65
330
26
100
AcDbEntity
  8
0
  6
ByBlock
 62
     0
100
AcDbLine
 10
6.341934660045327
 20
-0.8739720462468197
 30
0.0
 11
6.341934660045327
 21
-1.277191055522584
 31
0.0
  0
LINE
  5
66
330
26
100
AcDbEntity
  8
0
  6
ByBlock
 62
     0
100
AcDbLine
 10
5.593989454565875
 20
-1.097191055522584
 30
0.0
 11
5.343989454565875
 21
-1.097191055522584
 31
0.0
  0
LINE
  5
67
330
26
100
AcDbEntity
  8
0
  6
ByBlock
 62
     0
100
AcDbLine
 10
6.341934660045327
 20
-1.097191055522584
 30
0.0
 11
6.591934660045327
 21
-1.097191055522584
 31
0.0
  0
LINE
  5
68
330
26
100
AcDbEntity
  8
0
  6
ByBlock
 62
     0
100
AcDbLine
 10
5.468989454565875
 20
-1.222191055522584
 30
0.0
 11
5.718989454565875
 21
-0.9721910555225841
 31
0.0
  0
LINE
  5
69
330
26
100
AcDbEntity
  8
0
  6
ByBlock
 62
     0
100
AcDbLine
 10
6.216934660045327
 20
-1.222191055522584
 30
0.0
 11
6.466934660045327
 21
-0.9721910555225841
 31
0.0
  0
TEXT
  5
6A
330
26
100
AcDbEntity
  8
0
  6
ByBlock
 62
     0
100
AcDbText
 10
6.716934660045327
 20
-1.159691055522584
 30
0.0
 40
0.125
  1
3/4
 72
     1
 11
6.883601326711994
 21
-1.097191055522584
 31
0.0
100
AcDbText
 73
     2
  0
POINT
  5
6B
330
26
100
AcDbEntity
  8
DEFPOINTS
  6
ByBlock
 62
     0
100
AcDbPoint
 10
5.593989454565875
 20
-0.8114720462468199
 30
0.0
  0
POINT
  5
6C
330
26
100
AcDbEntity
  8
DEFPOINTS
  6
ByBlock
 62
     0
100
AcDbPoint
 10
6.341934660045327
 20
-0.8114720462468197
 30
0.0
  0
POINT
  5
6D
330
26
100
AcDbEntity
  8
DEFPOINTS
  6
ByBlock
 62
     0
100
AcDbPoint
 10
6.341934660045327
 20
-1.097191055522584
 30
0.0
  0
ENDBLK
  5
6E
330
26
100
AcDbEntity
  8
0
100
AcDbBlockEnd
  0
BLOCK
  5
6F
330
27
100
AcDbEntity
  8
0
100
AcDbBlockBegin
  2
*D5
 70
     1
 10
0.0
 20
0.0
 30
0.0
  3
*D5
  1
*U
  0
LINE
  5
70
330
27
100
AcDbEntity
  8
0
  6
ByBlock
 62
     0
100
AcDbLine
 10
6.341934660045327
 20
0.3656112870865137
 30
0.0
 11
6.341934660045327
 21
0.6994529186212147
 31
0.0
  0
LINE
  5
71
330
27
100
AcDbEntity
  8
0
  6
ByBlock
 62
     0
100
AcDbLine
 10
12.36111274223711
 20
0.3709908532965588
 30
0.0
 11
12.36111274223711
 21
0.6994529186212147
 31
0.0
  0
LINE
  5
72
330
27
100
AcDbEntity
  8
0
  6
ByBlock
 62
     0
100
AcDbLine
 10
6.341934660045327
 20
0.5194529186212146
 30
0.0
 11
9.184857034474552
 21
0.5194529186212146
 31
0.0
  0
LINE
  5
73
330
27
100
AcDbEntity
  8
0
  6
ByBlock
 62
     0
100
AcDbLine
 10
12.36111274223711
 20
0.5194529186212146
 30
0.0
 11
9.518190367807884
 21
0.5194529186212146
 31
0.0
  0
LINE
  5
74
330
27
100
AcDbEntity
  8
0
  6
ByBlock
 62
     0
100
AcDbLine
 10
6.216934660045327
 20
0.3944529186212145
 30
0.0
 11
6.466934660045327
 21
0.6444529186212146
 31
0.0
  0
LINE
  5
75
330
27
100
AcDbEntity
  8
0
  6
ByBlock
 62
     0
100
AcDbLine
 10
12.23611274223711
 20
0.3944529186212145
 30
0.0
 11
12.4861127422371
 21
0.6444529186212146
 31
0.0
  0
TEXT
  5
76
330
27
100
AcDbEntity
  8
0
  6
ByBlock
 62
     0
100
AcDbText
 10
9.309857034474552
 20
0.4569529186212146
 30
0.0
 40
0.125
  1
6
 72
     1
 11
9.351523701141218
 21
0.5194529186212146
 31
0.0
100
AcDbText
 73
     2
  0
POINT
  5
77
330
27
100
AcDbEntity
  8
DEFPOINTS
  6
ByBlock
 62
     0
100
AcDbPoint
 10
6.341934660045327
 20
0.3031112870865137
 30
0.0
  0
POINT
  5
78
330
27
100
AcDbEntity
  8
DEFPOINTS
  6
ByBlock
 62
     0
100
AcDbPoint
 10
12.36111274223711
 20
0.3084908532965588
 30
0.0
  0
POINT
  5
79
330
27
100
AcDbEntity
  8
DEFPOINTS
  6
ByBlock
 62
     0
100
AcDbPoint
 10
12.36111274223711
 20
0.5194529186212146
 30
0.0
  0
ENDBLK
  5
7A
330
27
100
AcDbEntity
  8
0
100
AcDbBlockEnd
  0
BLOCK
  5
385
330
37A
100
AcDbEntity
  8
0
100
AcDbBlockBegin
  2
*D6
 70
     1
 10
0.0
 20
0.0
 30
0.0
  3
*D6
  1

  0
LINE
  5
38E
330
37A
100
AcDbEntity
  8
ADPDIM
 62
     0
370
    -2
100
AcDbLine
 10
6.386626440867244
 20
5.457436029981908
 30
0.0
 11
7.774128804631611
 21
5.457436029981908
 31
0.0
  0
LINE
  5
38F
330
37A
100
AcDbEntity
  8
ADPDIM
 62
     0
370
    -2
100
AcDbLine
 10
6.386626440867244
 20
2.447846988886017
 30
0.0
 11
7.774128804631611
 21
2.447846988886017
 31
0.0
  0
LINE
  5
390
330
37A
100
AcDbEntity
  8
ADPDIM
 62
     0
370
    -2
100
AcDbLine
 10
7.594128804631611
 20
5.457436029981908
 30
0.0
 11
7.594128804631611
 21
4.119308176100629
 31
0.0
  0
LINE
  5
391
330
37A
100
AcDbEntity
  8
ADPDIM
 62
     0
370
    -2
100
AcDbLine
 10
7.594128804631611
 20
2.447846988886017
 30
0.0
 11
7.594128804631611
 21
3.785974842767295
 31
0.0
  0
LINE
  5
392
330
37A
100
AcDbEntity
  8
ADPDIM
 62
     0
370
    -2
100
AcDbLine
 10
7.719128804631611
 20
2.322846988886017
 30
0.0
 11
7.469128804631611
 21
2.572846988886017
 31
0.0
  0
LINE
  5
393
330
37A
100
AcDbEntity
  8
ADPDIM
 62
     0
370
    -2
100
AcDbLine
 10
7.719128804631611
 20
5.332436029981908
 30
0.0
 11
7.469128804631611
 21
5.582436029981908
 31
0.0
  0
MTEXT
  5
394
330
37A
100
AcDbEntity
  8
ADPDIM
 62
     0
100
AcDbMText
 10
7.59412880463161
 20
3.952641509433963
 30
0.0
 40
0.125
 41
0.0
 71
     5
 72
     1
  1
\A1;3
 11
0.0000000000000001
 21
1.0
 31
0.0
 73
     1
 44
1.0
1001
ACAD
1000
MTEXTBEGIN
1070
    73
1070
     1
1070
    44
1040
1.0
1070
    74
1070
     0
1000
MTEXTEND
  0
POINT
  5
395
330
37A
100
AcDbEntity
  8
DEFPOINTS
 62
     0
100
AcDbPoint
 10
6.324126440867244
 20
5.457436029981908
 30
0.0
  0
POINT
  5
396
330
37A
100
AcDbEntity
  8
DEFPOINTS
 62
     0
100
AcDbPoint
 10
6.324126440867244
 20
2.447846988886017
 30
0.0
  0
POINT
  5
397
330
37A
100
AcDbEntity
  8
DEFPOINTS
 62
     0
100
AcDbPoint
 10
7.594128804631611
 20
2.447846988886017
 30
0.0
  0
ENDBLK
  5
386
330
37A
100
AcDbEntity
  8
0
100
AcDbBlockEnd
  0
BLOCK
  5
3C1
330
3B6
100
AcDbEntity
  8
0
100
AcDbBlockBegin
  2
*D9
 70
     1
 10
0.0
 20
0.0
 30
0.0
  3
*D9
  1

  0
LINE
  5
3C3
330
3B6
100
AcDbEntity
  8
ADPDIM
 62
     0
370
    -2
100
AcDbLine
 10
5.513681235387793
 20
0.7026415094339626
 30
0.0
 11
4.783202145220678
 21
0.7026415094339628
 31
0.0
  0
LINE
  5
3C4
330
3B6
100
AcDbEntity
  8
ADPDIM
 62
     0
370
    -2
100
AcDbLine
 10
5.513681235387793
 20
7.202641509433963
 30
0.0
 11
4.78320214522068
 21
7.202641509433963
 31
0.0
  0
LINE
  5
3C5
330
3B6
100
AcDbEntity
  8
ADPDIM
 62
     0
370
    -2
100
AcDbLine
 10
4.963202145220678
 20
0.7026415094339628
 30
0.0
 11
4.963202145220678
 21
3.556808176100629
 31
0.0
  0
LINE
  5
3C6
330
3B6
100
AcDbEntity
  8
ADPDIM
 62
     0
370
    -2
100
AcDbLine
 10
4.963202145220679
 20
7.202641509433963
 30
0.0
 11
4.963202145220678
 21
4.348474842767296
 31
0.0
  0
LINE
  5
3C7
330
3B6
100
AcDbEntity
  8
ADPDIM
 62
     0
370
    -2
100
AcDbLine
 10
5.088202145220679
 20
7.077641509433963
 30
0.0
 11
4.838202145220679
 21
7.327641509433963
 31
0.0
  0
LINE
  5
3C8
330
3B6
100
AcDbEntity
  8
ADPDIM
 62
     0
370
    -2
100
AcDbLine
 10
5.088202145220678
 20
0.5776415094339628
 30
0.0
 11
4.838202145220678
 21
0.8276415094339627
 31
0.0
  0
MTEXT
  5
3C9
330
3B6
100
AcDbEntity
  8
ADPDIM
 62
     0
100
AcDbMText
 10
4.963202145220678
 20
3.952641509433963
 30
0.0
 40
0.125
 41
0.0
 71
     5
 72
     1
  1
\A1;6 1/2
 11
0.0000000000000001
 21
1.0
 31
0.0
 73
     1
 44
1.0
1001
ACAD
1000
MTEXTBEGIN
1070
    73
1070
     1
1070
    44
1040
1.0
1070
    74
1070
     0
1000
MTEXTEND
  0
POINT
  5
3CA
330
3B6
100
AcDbEntity
  8
DEFPOINTS
 62
     0
100
AcDbPoint
 10
5.576181235387793
 20
0.7026415094339626
 30
0.0
  0
POINT
  5
3CB
330
3B6
100
AcDbEntity
  8
DEFPOINTS
 62
     0
100
AcDbPoint
 10
5.576181235387793
 20
7.202641509433963
 30
0.0
  0
POINT
  5
3CC
330
3B6
100
AcDbEntity
  8
DEFPOINTS
 62
     0
100
AcDbPoint
 10
4.963202145220679
 20
7.202641509433963
 30
0.0
  0
ENDBLK
  5
3C2
330
3B6
100
AcDbEntity
  8
0
100
AcDbBlockEnd
  0
ENDSEC
  0
SECTION
  2
ENTITIES
  0
DIMENSION
  5
7B
330
1E
100
AcDbEntity
  8
ADPDIM
100
AcDbDimension
  2
*D9
 10
4.963202145220679
 20
7.202641509433963
 30
0.0
 11
4.963202145220678
 21
3.952641509433963
 31
0.0
 70
    32
 71
     5
 42
6.5
  3
Standard
100
AcDbAlignedDimension
 13
5.576181235387793
 23
0.7026415094339626
 33
0.0
 14
5.576181235387793
 24
7.202641509433963
 34
0.0
 50
90.0
100
AcDbRotatedDimension
1001
ACAD
1000
DSTYLE
1002
{
1070
   276
1070
     2
1070
    41
1040
0.125
1070
    73
1070
     0
1070
    74
1070
     0
1070
    78
1070
     3
1070
   140
1040
0.125
1070
   141
1040
0.1875
1070
   142
1040
0.125
1070
   147
1040
0.125
1070
   171
1070
     1
1070
   273
1070
     5
1070
   274
1070
     1
1070
   277
1070
     5
1070
   279
1070
     2
1070
   284
1070
     3
1070
   285
1070
     3
1070
   286
1070
     3
1002
}
  0
DIMENSION
  5
7C
330
1E
100
AcDbEntity
  8
ADPDIM
100
AcDbDimension
  2
*D6
 10
7.594128804631611
 20
2.447846988886017
 30
0.0
 11
7.59412880463161
 21
3.952641509433963
 31
0.0
 70
    32
 71
     5
 42
3.00958904109589
  3
Standard
100
AcDbAlignedDimension
 13
6.324126440867244
 23
5.457436029981908
 33
0.0
 14
6.324126440867244
 24
2.447846988886017
 34
0.0
 50
90.0
100
AcDbRotatedDimension
1001
ACAD
1000
DSTYLE
1002
{
1070
    41
1040
0.125
1070
    73
1070
     0
1070
    74
1070
     0
1070
    78
1070
     3
1070
   140
1040
0.125
1070
   141
1040
0.1875
1070
   142
1040
0.125
1070
   147
1040
0.125
1070
   171
1070
     1
1070
   273
1070
     5
1070
   274
1070
     1
1070
   277
1070
     5
1070
   279
1070
     2
1070
   284
1070
     3
1070
   285
1070
     3
1070
   286
1070
     3
1002
}
  0
DIMENSION
  5
7D
330
1E
100
AcDbEntity
  8
ADPDIM
100
AcDbDimension
  2
*D0
 10
5.333176245142181
 20
1.433083149451808
 30
0.0
 11
5.333176245142181
 21
3.933083149451807
 31
0.0
 71
     5
 42
-1.0
100
AcDbAlignedDimension
 13
5.620933810073412
 23
6.433083149451808
 33
0.0
 14
5.620933810073412
 24
1.433083149451808
 34
0.0
 50
90.0
100
AcDbRotatedDimension
  0
LINE
  5
7E
330
1E
100
AcDbEntity
  8
ADP1DETAIL
100
AcDbLine
 10
6.324126440867244
 20
0.7026415094339626
 30
0.0
 11
6.324126440867244
 21
2.438942879296976
 31
0.0
  0
LINE
  5
7F
330
1E
100
AcDbEntity
  8
ADP1DETAIL
100
AcDbLine
 10
5.576181235387793
 20
7.202641509433963
 30
0.0
 11
5.576181235387793
 21
0.7026415094339626
 31
0.0
  0
LINE
  5
80
330
1E
100
AcDbEntity
  8
ADP2DETAIL
  6
HIDDEN2
100
AcDbLine
 10
5.691934660045327
 20
7.202641509433963
 30
0.0
 11
5.691934660045327
 21
0.7026415094339626
 31
0.0
  0
LINE
  5
81
330
1E
100
AcDbEntity
  8
ADP2DETAIL
  6
HIDDEN2
100
AcDbLine
 10
6.199468906620669
 20
7.202641509433963
 30
0.0
 11
6.199468906620669
 21
0.7026415094339626
 31
0.0
  0
DIMENSION
  5
82
330
1E
100
AcDbEntity
  8
ADPDIM
100
AcDbDimension
  2
*D5
 10
12.36111274223711
 20
0.5194529186212146
 30
0.0
 11
9.351523701141218
 21
0.5194529186212146
 31
0.0
 71
     5
 42
-1.0
100
AcDbAlignedDimension
 13
6.341934660045327
 23
0.3031112870865137
 33
0.0
 14
12.36111274223711
 24
0.3084908532965588
 34
0.0
100
AcDbRotatedDimension
  0
LINE
  5
83
330
1E
100
AcDbEntity
  8
ADP1DETAIL
100
AcDbLine
 10
6.341720612915861
 20
-0.816851612456865
 30
0.0
 11
12.36111274223711
 21
-0.816851612456865
 31
0.0
  0
LINE
  5
84
330
1E
100
AcDbEntity
  8
ADP1DETAIL
100
AcDbLine
 10
6.341720612915861
 20
0.3084908532965588
 30
0.0
 11
12.36111274223711
 21
0.3084908532965588
 31
0.0
  0
DIMENSION
  5
85
330
1E
100
AcDbEntity
  8
ADPDIM
100
AcDbDimension
  2
*D4
 10
6.341934660045327
 20
-1.097191055522584
 30
0.0
 11
6.883601326711994
 21
-1.097191055522584
 31
0.0
 71
     5
 42
-1.0
100
AcDbAlignedDimension
 13
5.593989454565875
 23
-0.8114720462468199
 33
0.0
 14
6.341934660045327
 24
-0.8114720462468197
 34
0.0
100
AcDbRotatedDimension
  0
ARC
  5
86
330
1E
100
AcDbEntity
  8
ADP1DETAIL
100
AcDbCircle
 10
6.274226326711994
 20
-0.8114720462468197
 30
0.0
 40
0.0677083333333333
100
AcDbArc
 50
270.0
 51
0.0
  0
ARC
  5
87
330
1E
100
AcDbEntity
  8
ADP1DETAIL
100
AcDbCircle
 10
6.274226326711994
 20
0.3031112870865137
 30
0.0
 40
0.0677083333333333
100
AcDbArc
 50
0.0
 51
90.0
  0
LINE
  5
88
330
1E
100
AcDbEntity
  8
ADP1DETAIL
100
AcDbLine
 10
5.576181235387793
 20
0.7026415094339626
 30
0.0
 11
6.324126440867244
 21
0.7026415094339626
 31
0.0
  0
DIMENSION
  5
89
330
1E
100
AcDbEntity
  8
ADPDIM
100
AcDbDimension
  2
*D3
 10
5.333176245142181
 20
-0.8791803795801532
 30
0.0
 11
5.333176245142181
 21
-0.2541803795801533
 31
0.0
 71
     5
 42
-1.0
100
AcDbAlignedDimension
 13
5.661697787899208
 23
0.3708196204198467
 33
0.0
 14
5.661697787899208
 24
-0.8791803795801532
 34
0.0
 50
90.0
100
AcDbRotatedDimension
  0
ARC
  5
8A
330
1E
100
AcDbEntity
  8
ADP1DETAIL
100
AcDbCircle
 10
5.661697787899208
 20
-0.8114720462468199
 30
0.0
 40
0.0677083333333333
100
AcDbArc
 50
180.0
 51
270.0
  0
LINE
  5
8B
330
1E
100
AcDbEntity
  8
ADP1DETAIL
100
AcDbLine
 10
6.274226326711994
 20
-0.8791803795801531
 30
0.0
 11
5.661697787899208
 21
-0.8791803795801532
 31
0.0
  0
LINE
  5
8C
330
1E
100
AcDbEntity
  8
ADP2DETAIL
  6
HIDDEN2
100
AcDbLine
 10
5.745359317579573
 20
0.7649702765572508
 30
0.0
 11
5.745359317579573
 21
0.7382579477901273
 31
0.0
  0
LINE
  5
8D
330
1E
100
AcDbEntity
  8
ADP2DETAIL
  6
HIDDEN2
100
AcDbLine
 10
6.190564797031628
 20
0.7382579477901273
 30
0.0
 11
6.190564797031628
 21
1.895792194365469
 31
0.0
  0
LINE
  5
8E
330
1E
100
AcDbEntity
  8
ADP1DETAIL
100
AcDbLine
 10
6.221729180593273
 20
0.2214828624289792
 30
0.0
 11
6.221729180593273
 21
-0.7298436215892856
 31
0.0
  0
LINE
  5
8F
330
1E
100
AcDbEntity
  8
ADP1DETAIL
100
AcDbLine
 10
5.709742879223409
 20
0.2214828624289792
 30
0.0
 11
5.709742879223409
 21
-0.7298436215892856
 31
0.0
  0
LINE
  5
90
330
1E
100
AcDbEntity
  8
ADP1DETAIL
100
AcDbLine
 10
5.593989454565874
 20
0.3031112870865135
 30
0.0
 11
5.593989454565875
 21
-0.8114720462468199
 31
0.0
  0
ARC
  5
91
330
1E
100
AcDbEntity
  8
ADP1DETAIL
100
AcDbCircle
 10
5.743326212556742
 20
-0.7298436215892856
 30
0.0
 40
0.0335833333333333
100
AcDbArc
 50
180.0
 51
270.0
  0
ARC
  5
92
330
1E
100
AcDbEntity
  8
ADP1DETAIL
100
AcDbCircle
 10
6.188145847259939
 20
-0.7298436215892856
 30
0.0
 40
0.0335833333333333
100
AcDbArc
 50
270.0
 51
0.0
  0
LINE
  5
93
330
1E
100
AcDbEntity
  8
ADP1DETAIL
100
AcDbLine
 10
6.188145847259939
 20
-0.7634269549226188
 30
0.0
 11
5.743326212556742
 21
-0.7634269549226188
 31
0.0
  0
ARC
  5
94
330
1E
100
AcDbEntity
  8
ADP1DETAIL
100
AcDbCircle
 10
5.661697787899208
 20
0.3031112870865135
 30
0.0
 40
0.0677083333333333
100
AcDbArc
 50
90.0
 51
180.0
  0
LINE
  5
95
330
1E
100
AcDbEntity
  8
ADP1DETAIL
100
AcDbLine
 10
6.274226326711994
 20
0.370819620419847
 30
0.0
 11
5.661697787899208
 21
0.3708196204198467
 31
0.0
  0
ARC
  5
96
330
1E
100
AcDbEntity
  8
ADP1DETAIL
100
AcDbCircle
 10
5.743326212556742
 20
0.2214828624289792
 30
0.0
 40
0.0335833333333333
100
AcDbArc
 50
90.0
 51
180.0
  0
LINE
  5
97
330
1E
100
AcDbEntity
  8
ADP1DETAIL
100
AcDbLine
 10
6.188145847259939
 20
0.2550661957623125
 30
0.0
 11
5.743326212556742
 21
0.2550661957623125
 31
0.0
  0
ARC
  5
98
330
1E
100
AcDbEntity
  8
ADP1DETAIL
100
AcDbCircle
 10
6.188145847259939
 20
0.2214828624289792
 30
0.0
 40
0.0335833333333333
100
AcDbArc
 50
0.0
 51
90.0
  0
LINE
  5
99
330
1E
100
AcDbEntity
  8
ADP2DETAIL
  6
HIDDEN2
100
AcDbLine
 10
5.745359317579573
 20
0.7382579477901273
 30
0.0
 11
5.745359317579573
 21
0.7382579477901273
 31
0.0
  0
LINE
  5
9A
330
1E
100
AcDbEntity
  8
ADP2DETAIL
  6
HIDDEN2
100
AcDbLine
 10
5.745359317579573
 20
0.7382579477901273
 30
0.0
 11
5.754263427168615
 21
0.7115456190230041
 31
0.0
  0
LINE
  5
9B
330
1E
100
AcDbEntity
  8
ADP2DETAIL
  6
HIDDEN2
100
AcDbLine
 10
5.754263427168615
 20
0.7115456190230041
 30
0.0
 11
5.772071646346697
 21
0.7026415094339626
 31
0.0
  0
LINE
  5
9C
330
1E
100
AcDbEntity
  8
ADP2DETAIL
  6
HIDDEN2
100
AcDbLine
 10
5.772071646346697
 20
0.7026415094339626
 30
0.0
 11
6.128236029908341
 21
0.7026415094339626
 31
0.0
  0
LINE
  5
9D
330
1E
100
AcDbEntity
  8
ADP2DETAIL
  6
HIDDEN2
100
AcDbLine
 10
6.128236029908341
 20
0.7026415094339626
 30
0.0
 11
6.163852468264504
 21
0.7026415094339626
 31
0.0
  0
LINE
  5
9E
330
1E
100
AcDbEntity
  8
ADP2DETAIL
  6
HIDDEN2
100
AcDbLine
 10
6.163852468264504
 20
0.7026415094339626
 30
0.0
 11
6.172756577853546
 21
0.7026415094339626
 31
0.0
  0
LINE
  5
9F
330
1E
100
AcDbEntity
  8
ADP2DETAIL
  6
HIDDEN2
100
AcDbLine
 10
6.172756577853546
 20
0.7026415094339626
 30
0.0
 11
6.190564797031628
 21
0.7382579477901273
 31
0.0
  0
LINE
  5
A0
330
1E
100
AcDbEntity
  8
ADP2DETAIL
  6
HIDDEN2
100
AcDbLine
 10
6.012482605250807
 20
1.174559317653141
 30
0.0
 11
6.012482605250807
 21
1.771134660118894
 31
0.0
  0
LINE
  5
A1
330
1E
100
AcDbEntity
  8
ADP2DETAIL
  6
HIDDEN2
100
AcDbLine
 10
6.048099043606971
 20
1.771134660118894
 30
0.0
 11
6.048099043606971
 21
1.174559317653141
 31
0.0
  0
LINE
  5
A2
330
1E
100
AcDbEntity
  8
ADP2DETAIL
  6
HIDDEN2
100
AcDbLine
 10
6.101523701141218
 20
1.112230550529853
 30
0.0
 11
6.101523701141218
 21
1.833463427242182
 31
0.0
  0
LINE
  5
A3
330
1E
100
AcDbEntity
  8
ADP2DETAIL
  6
HIDDEN2
100
AcDbLine
 10
6.128236029908341
 20
1.833463427242182
 30
0.0
 11
6.128236029908341
 21
0.7916826053243737
 31
0.0
  0
LINE
  5
A4
330
1E
100
AcDbEntity
  8
ADP2DETAIL
  6
HIDDEN2
100
AcDbLine
 10
5.585085344976834
 20
1.281408632721634
 30
0.0
 11
5.691934660045327
 21
1.281408632721634
 31
0.0
  0
LINE
  5
A5
330
1E
100
AcDbEntity
  8
ADP2DETAIL
  6
HIDDEN2
100
AcDbLine
 10
5.691934660045327
 20
1.174559317653141
 30
0.0
 11
6.012482605250807
 21
1.174559317653141
 31
0.0
  0
LINE
  5
A6
330
1E
100
AcDbEntity
  8
ADP2DETAIL
  6
HIDDEN2
100
AcDbLine
 10
6.048099043606971
 20
1.174559317653141
 30
0.0
 11
6.039194934017929
 21
1.156751098475058
 31
0.0
  0
LINE
  5
A7
330
1E
100
AcDbEntity
  8
ADP2DETAIL
  6
HIDDEN2
100
AcDbLine
 10
6.039194934017929
 20
1.156751098475058
 30
0.0
 11
6.012482605250807
 21
1.147846988886017
 31
0.0
  0
LINE
  5
A8
330
1E
100
AcDbEntity
  8
ADP2DETAIL
  6
HIDDEN2
100
AcDbLine
 10
6.012482605250807
 20
1.147846988886017
 30
0.0
 11
5.834400413469984
 21
1.147846988886017
 31
0.0
  0
LINE
  5
A9
330
1E
100
AcDbEntity
  8
ADP2DETAIL
  6
HIDDEN2
100
AcDbLine
 10
5.834400413469984
 20
1.147846988886017
 30
0.0
 11
5.816592194291902
 21
1.138942879296976
 31
0.0
  0
LINE
  5
AA
330
1E
100
AcDbEntity
  8
ADP2DETAIL
  6
HIDDEN2
100
AcDbLine
 10
5.816592194291902
 20
1.138942879296976
 30
0.0
 11
5.807688084702862
 21
1.112230550529853
 31
0.0
  0
LINE
  5
AB
330
1E
100
AcDbEntity
  8
ADP2DETAIL
  6
HIDDEN2
100
AcDbLine
 10
5.807688084702862
 20
1.112230550529853
 30
0.0
 11
5.807688084702862
 21
1.112230550529853
 31
0.0
  0
LINE
  5
AC
330
1E
100
AcDbEntity
  8
ADP2DETAIL
  6
HIDDEN2
100
AcDbLine
 10
5.807688084702862
 20
1.112230550529853
 30
0.0
 11
5.816592194291902
 21
1.09442233135177
 31
0.0
  0
LINE
  5
AD
330
1E
100
AcDbEntity
  8
ADP2DETAIL
  6
HIDDEN2
100
AcDbLine
 10
5.816592194291902
 20
1.09442233135177
 30
0.0
 11
5.834400413469984
 21
1.085518221762729
 31
0.0
  0
LINE
  5
AE
330
1E
100
AcDbEntity
  8
ADP2DETAIL
  6
HIDDEN2
100
AcDbLine
 10
5.834400413469984
 20
1.085518221762729
 30
0.0
 11
6.012482605250807
 21
1.085518221762729
 31
0.0
  0
LINE
  5
AF
330
1E
100
AcDbEntity
  8
ADP2DETAIL
  6
HIDDEN2
100
AcDbLine
 10
6.012482605250807
 20
1.085518221762729
 30
0.0
 11
6.048099043606971
 21
1.085518221762729
 31
0.0
  0
LINE
  5
B0
330
1E
100
AcDbEntity
  8
ADP2DETAIL
  6
HIDDEN2
100
AcDbLine
 10
6.048099043606971
 20
1.085518221762729
 30
0.0
 11
6.074811372374094
 21
1.085518221762729
 31
0.0
  0
LINE
  5
B1
330
1E
100
AcDbEntity
  8
ADP2DETAIL
  6
HIDDEN2
100
AcDbLine
 10
6.074811372374094
 20
1.085518221762729
 30
0.0
 11
6.074811372374094
 21
1.085518221762729
 31
0.0
  0
LINE
  5
B2
330
1E
100
AcDbEntity
  8
ADP2DETAIL
  6
HIDDEN2
100
AcDbLine
 10
6.074811372374094
 20
1.085518221762729
 30
0.0
 11
6.101523701141218
 21
1.09442233135177
 31
0.0
  0
LINE
  5
B3
330
1E
100
AcDbEntity
  8
ADP2DETAIL
  6
HIDDEN2
100
AcDbLine
 10
6.101523701141218
 20
1.09442233135177
 30
0.0
 11
6.101523701141218
 21
1.112230550529853
 31
0.0
  0
LINE
  5
B4
330
1E
100
AcDbEntity
  8
ADP2DETAIL
  6
HIDDEN2
100
AcDbLine
 10
6.128236029908341
 20
0.7916826053243737
 30
0.0
 11
6.1193319203193
 21
0.7738743861462913
 31
0.0
  0
LINE
  5
B5
330
1E
100
AcDbEntity
  8
ADP2DETAIL
  6
HIDDEN2
100
AcDbLine
 10
6.1193319203193
 20
0.7738743861462913
 30
0.0
 11
6.101523701141218
 21
0.7649702765572508
 31
0.0
  0
LINE
  5
B6
330
1E
100
AcDbEntity
  8
ADP2DETAIL
  6
HIDDEN2
100
AcDbLine
 10
6.101523701141218
 20
0.7649702765572508
 30
0.0
 11
5.834400413469984
 21
0.7649702765572508
 31
0.0
  0
LINE
  5
B7
330
1E
100
AcDbEntity
  8
ADP2DETAIL
  6
HIDDEN2
100
AcDbLine
 10
5.834400413469984
 20
0.7649702765572508
 30
0.0
 11
5.816592194291902
 21
0.7738743861462913
 31
0.0
  0
LINE
  5
B8
330
1E
100
AcDbEntity
  8
ADP2DETAIL
  6
HIDDEN2
100
AcDbLine
 10
5.816592194291902
 20
0.7738743861462913
 30
0.0
 11
5.79878397511382
 21
0.7916826053243737
 31
0.0
  0
LINE
  5
B9
330
1E
100
AcDbEntity
  8
ADP2DETAIL
  6
HIDDEN2
100
AcDbLine
 10
5.79878397511382
 20
0.7916826053243737
 30
0.0
 11
5.79878397511382
 21
1.014285345050401
 31
0.0
  0
LINE
  5
BA
330
1E
100
AcDbEntity
  8
ADP2DETAIL
  6
HIDDEN2
100
AcDbLine
 10
5.79878397511382
 20
1.014285345050401
 30
0.0
 11
5.79878397511382
 21
1.032093564228483
 31
0.0
  0
LINE
  5
BB
330
1E
100
AcDbEntity
  8
ADP2DETAIL
  6
HIDDEN2
100
AcDbLine
 10
5.79878397511382
 20
1.032093564228483
 30
0.0
 11
5.772071646346697
 21
1.049901783406566
 31
0.0
  0
LINE
  5
BC
330
1E
100
AcDbEntity
  8
ADP2DETAIL
  6
HIDDEN2
100
AcDbLine
 10
5.772071646346697
 20
1.049901783406566
 30
0.0
 11
5.772071646346697
 21
1.049901783406566
 31
0.0
  0
LINE
  5
BD
330
1E
100
AcDbEntity
  8
ADP2DETAIL
  6
HIDDEN2
100
AcDbLine
 10
5.772071646346697
 20
1.049901783406566
 30
0.0
 11
5.754263427168615
 21
1.032093564228483
 31
0.0
  0
LINE
  5
BE
330
1E
100
AcDbEntity
  8
ADP2DETAIL
  6
HIDDEN2
100
AcDbLine
 10
5.754263427168615
 20
1.032093564228483
 30
0.0
 11
5.745359317579573
 21
1.014285345050401
 31
0.0
  0
LINE
  5
BF
330
1E
100
AcDbEntity
  8
ADP2DETAIL
  6
HIDDEN2
100
AcDbLine
 10
5.745359317579573
 20
1.014285345050401
 30
0.0
 11
5.745359317579573
 21
0.7916826053243737
 31
0.0
  0
LINE
  5
C0
330
1E
100
AcDbEntity
  8
ADP2DETAIL
  6
HIDDEN2
100
AcDbLine
 10
5.745359317579573
 20
0.7916826053243737
 30
0.0
 11
5.745359317579573
 21
0.7649702765572508
 31
0.0
  0
LINE
  5
C1
330
1E
100
AcDbEntity
  8
ADP2DETAIL
  6
HIDDEN2
100
AcDbLine
 10
5.691934660045327
 20
1.65538123546136
 30
0.0
 11
5.585085344976834
 21
1.65538123546136
 31
0.0
  0
LINE
  5
C2
330
1E
100
AcDbEntity
  8
ADP2DETAIL
  6
HIDDEN2
100
AcDbLine
 10
6.012482605250807
 20
1.771134660118894
 30
0.0
 11
5.691934660045327
 21
1.771134660118894
 31
0.0
  0
LINE
  5
C3
330
1E
100
AcDbEntity
  8
ADP2DETAIL
  6
HIDDEN2
100
AcDbLine
 10
6.190564797031628
 20
1.895792194365469
 30
0.0
 11
6.172756577853546
 21
1.922504523132593
 31
0.0
  0
LINE
  5
C4
330
1E
100
AcDbEntity
  8
ADP2DETAIL
  6
HIDDEN2
100
AcDbLine
 10
6.172756577853546
 20
1.922504523132593
 30
0.0
 11
6.146044249086423
 21
1.922504523132593
 31
0.0
  0
LINE
  5
C5
330
1E
100
AcDbEntity
  8
ADP2DETAIL
  6
HIDDEN2
100
AcDbLine
 10
6.146044249086423
 20
1.922504523132593
 30
0.0
 11
6.101523701141218
 21
1.922504523132593
 31
0.0
  0
LINE
  5
C6
330
1E
100
AcDbEntity
  8
ADP2DETAIL
  6
HIDDEN2
100
AcDbLine
 10
6.101523701141218
 20
1.922504523132593
 30
0.0
 11
5.780975755935738
 21
1.922504523132593
 31
0.0
  0
LINE
  5
C7
330
1E
100
AcDbEntity
  8
ADP2DETAIL
  6
HIDDEN2
100
AcDbLine
 10
5.780975755935738
 20
1.922504523132593
 30
0.0
 11
5.745359317579573
 21
1.931408632721634
 31
0.0
  0
LINE
  5
C8
330
1E
100
AcDbEntity
  8
ADP2DETAIL
  6
HIDDEN2
100
AcDbLine
 10
5.745359317579573
 20
1.931408632721634
 30
0.0
 11
5.745359317579573
 21
1.931408632721634
 31
0.0
  0
LINE
  5
C9
330
1E
100
AcDbEntity
  8
ADP2DETAIL
  6
HIDDEN2
100
AcDbLine
 10
5.745359317579573
 20
1.931408632721634
 30
0.0
 11
5.71864698881245
 21
1.90469630395451
 31
0.0
  0
LINE
  5
CA
330
1E
100
AcDbEntity
  8
ADP2DETAIL
  6
HIDDEN2
100
AcDbLine
 10
5.71864698881245
 20
1.90469630395451
 30
0.0
 11
5.709742879223409
 21
1.860175756009305
 31
0.0
  0
LINE
  5
CB
330
1E
100
AcDbEntity
  8
ADP2DETAIL
  6
HIDDEN2
100
AcDbLine
 10
5.709742879223409
 20
1.860175756009305
 30
0.0
 11
5.71864698881245
 21
1.8156552080641
 31
0.0
  0
LINE
  5
CC
330
1E
100
AcDbEntity
  8
ADP2DETAIL
  6
HIDDEN2
100
AcDbLine
 10
5.71864698881245
 20
1.8156552080641
 30
0.0
 11
5.745359317579573
 21
1.797846988886018
 31
0.0
  0
LINE
  5
CD
330
1E
100
AcDbEntity
  8
ADP2DETAIL
  6
HIDDEN2
100
AcDbLine
 10
5.745359317579573
 20
1.797846988886018
 30
0.0
 11
5.745359317579573
 21
1.797846988886018
 31
0.0
  0
LINE
  5
CE
330
1E
100
AcDbEntity
  8
ADP2DETAIL
  6
HIDDEN2
100
AcDbLine
 10
5.745359317579573
 20
1.797846988886018
 30
0.0
 11
5.780975755935738
 21
1.797846988886018
 31
0.0
  0
LINE
  5
CF
330
1E
100
AcDbEntity
  8
ADP2DETAIL
  6
HIDDEN2
100
AcDbLine
 10
5.780975755935738
 20
1.797846988886018
 30
0.0
 11
6.012482605250807
 21
1.797846988886018
 31
0.0
  0
LINE
  5
D0
330
1E
100
AcDbEntity
  8
ADP2DETAIL
  6
HIDDEN2
100
AcDbLine
 10
6.012482605250807
 20
1.797846988886018
 30
0.0
 11
6.039194934017929
 21
1.788942879296977
 31
0.0
  0
LINE
  5
D1
330
1E
100
AcDbEntity
  8
ADP2DETAIL
  6
HIDDEN2
100
AcDbLine
 10
6.039194934017929
 20
1.788942879296977
 30
0.0
 11
6.048099043606971
 21
1.771134660118894
 31
0.0
  0
LINE
  5
D2
330
1E
100
AcDbEntity
  8
ADP2DETAIL
  6
HIDDEN2
100
AcDbLine
 10
6.101523701141218
 20
1.833463427242182
 30
0.0
 11
6.101523701141218
 21
1.851271646420264
 31
0.0
  0
LINE
  5
D3
330
1E
100
AcDbEntity
  8
ADP2DETAIL
  6
HIDDEN2
100
AcDbLine
 10
6.101523701141218
 20
1.851271646420264
 30
0.0
 11
6.074811372374094
 21
1.860175756009305
 31
0.0
  0
LINE
  5
D4
330
1E
100
AcDbEntity
  8
ADP2DETAIL
  6
HIDDEN2
100
AcDbLine
 10
6.074811372374094
 20
1.860175756009305
 30
0.0
 11
6.074811372374094
 21
1.860175756009305
 31
0.0
  0
LINE
  5
D5
330
1E
100
AcDbEntity
  8
ADP2DETAIL
  6
HIDDEN2
100
AcDbLine
 10
6.074811372374094
 20
1.860175756009305
 30
0.0
 11
6.048099043606971
 21
1.860175756009305
 31
0.0
  0
LINE
  5
D6
330
1E
100
AcDbEntity
  8
ADP2DETAIL
  6
HIDDEN2
100
AcDbLine
 10
6.048099043606971
 20
1.860175756009305
 30
0.0
 11
6.012482605250807
 21
1.860175756009305
 31
0.0
  0
LINE
  5
D7
330
1E
100
AcDbEntity
  8
ADP2DETAIL
  6
HIDDEN2
100
AcDbLine
 10
6.012482605250807
 20
1.860175756009305
 30
0.0
 11
5.807688084702862
 21
1.860175756009305
 31
0.0
  0
LINE
  5
D8
330
1E
100
AcDbEntity
  8
ADP2DETAIL
  6
HIDDEN2
100
AcDbLine
 10
5.807688084702862
 20
1.860175756009305
 30
0.0
 11
5.780975755935738
 21
1.860175756009305
 31
0.0
  0
LINE
  5
D9
330
1E
100
AcDbEntity
  8
ADP2DETAIL
  6
HIDDEN2
100
AcDbLine
 10
5.780975755935738
 20
1.860175756009305
 30
0.0
 11
5.780975755935738
 21
1.860175756009305
 31
0.0
  0
LINE
  5
DA
330
1E
100
AcDbEntity
  8
ADP2DETAIL
  6
HIDDEN2
100
AcDbLine
 10
5.780975755935738
 20
1.860175756009305
 30
0.0
 11
5.780975755935738
 21
1.860175756009305
 31
0.0
  0
LINE
  5
DB
330
1E
100
AcDbEntity
  8
ADP2DETAIL
  6
HIDDEN2
100
AcDbLine
 10
5.780975755935738
 20
1.860175756009305
 30
0.0
 11
5.807688084702862
 21
1.860175756009305
 31
0.0
  0
LINE
  5
DC
330
1E
100
AcDbEntity
  8
ADP2DETAIL
  6
HIDDEN2
100
AcDbLine
 10
5.807688084702862
 20
1.860175756009305
 30
0.0
 11
6.101523701141218
 21
1.860175756009305
 31
0.0
  0
LINE
  5
DD
330
1E
100
AcDbEntity
  8
ADP2DETAIL
  6
HIDDEN2
100
AcDbLine
 10
6.101523701141218
 20
1.860175756009305
 30
0.0
 11
6.1193319203193
 21
1.851271646420264
 31
0.0
  0
LINE
  5
DE
330
1E
100
AcDbEntity
  8
ADP2DETAIL
  6
HIDDEN2
100
AcDbLine
 10
6.1193319203193
 20
1.851271646420264
 30
0.0
 11
6.128236029908341
 21
1.833463427242182
 31
0.0
  0
LINE
  5
DF
330
1E
100
AcDbEntity
  8
ADP2DETAIL
  6
HIDDEN2
100
AcDbLine
 10
6.190564797031628
 20
1.895792194365469
 30
0.0
 11
6.190564797031628
 21
1.895792194365469
 31
0.0
  0
LINE
  5
E0
330
1E
100
AcDbEntity
  8
ADP1DETAIL
100
AcDbLine
 10
6.341934660045327
 20
0.3031112870865137
 30
0.0
 11
6.341934660045327
 21
-0.8114720462468197
 31
0.0
  0
LINE
  5
12D
330
1E
100
AcDbEntity
  8
ADP1DETAIL
100
AcDbLine
 10
12.36111274223711
 20
0.3084908532965588
 30
0.0
 11
12.36111274223711
 21
-0.816851612456865
 31
0.0
  0
LINE
  5
12E
330
1E
100
AcDbEntity
  8
ADP1DETAIL
100
AcDbLine
 10
12.24067727436947
 20
0.2906826341184768
 30
0.0
 11
12.24067727436947
 21
-0.816851612456865
 31
0.0
  0
LINE
  5
147
330
1E
100
AcDbEntity
  8
ADP1DETAIL
100
AcDbLine
 10
12.1652223312782
 20
3.676614112173689
 30
0.0
 11
6.324126440867244
 21
2.572504523132593
 31
0.0
  0
LINE
  5
148
330
1E
100
AcDbEntity
  8
ADP1DETAIL
100
AcDbLine
 10
12.28097575593574
 20
4.299901783406566
 30
0.0
 11
6.324126440867244
 21
5.457436029981908
 31
0.0
  0
LINE
  5
149
330
1E
100
AcDbEntity
  8
ADP1DETAIL
100
AcDbLine
 10
6.324126440867244
 20
2.438942879296976
 30
0.0
 11
12.28097575593574
 21
3.596477125872318
 31
0.0
  0
LINE
  5
14A
330
1E
100
AcDbEntity
  8
ADP1DETAIL
100
AcDbLine
 10
6.324126440867244
 20
7.202641509433963
 30
0.0
 11
5.576181235387793
 21
7.202641509433963
 31
0.0
  0
LINE
  5
14B
330
1E
100
AcDbEntity
  8
ADP2DETAIL
  6
HIDDEN2
100
AcDbLine
 10
6.012482605250807
 20
6.721819591625743
 30
0.0
 11
6.012482605250807
 21
6.116340139570949
 31
0.0
  0
LINE
  5
14C
330
1E
100
AcDbEntity
  8
ADP2DETAIL
  6
HIDDEN2
100
AcDbLine
 10
6.048099043606971
 20
6.116340139570949
 30
0.0
 11
6.048099043606971
 21
6.712915482036702
 31
0.0
  0
LINE
  5
14D
330
1E
100
AcDbEntity
  8
ADP2DETAIL
  6
HIDDEN2
100
AcDbLine
 10
6.101523701141218
 20
6.77524424915999
 30
0.0
 11
6.101523701141218
 21
6.054011372447661
 31
0.0
  0
LINE
  5
14E
330
1E
100
AcDbEntity
  8
ADP2DETAIL
  6
HIDDEN2
100
AcDbLine
 10
6.128236029908341
 20
6.054011372447661
 30
0.0
 11
6.128236029908341
 21
7.09579219436547
 31
0.0
  0
LINE
  5
14F
330
1E
100
AcDbEntity
  8
ADP2DETAIL
  6
HIDDEN2
100
AcDbLine
 10
6.190564797031628
 20
7.149216851899716
 30
0.0
 11
6.190564797031628
 21
5.991682605324374
 31
0.0
  0
LINE
  5
150
330
1E
100
AcDbEntity
  8
ADP2DETAIL
  6
HIDDEN2
100
AcDbLine
 10
5.691934660045327
 20
6.232093564228483
 30
0.0
 11
5.585085344976834
 21
6.232093564228483
 31
0.0
  0
LINE
  5
151
330
1E
100
AcDbEntity
  8
ADP2DETAIL
  6
HIDDEN2
100
AcDbLine
 10
6.012482605250807
 20
6.116340139570949
 30
0.0
 11
5.691934660045327
 21
6.116340139570949
 31
0.0
  0
LINE
  5
152
330
1E
100
AcDbEntity
  8
ADP2DETAIL
  6
HIDDEN2
100
AcDbLine
 10
5.709742879223409
 20
6.027299043680537
 30
0.0
 11
5.71864698881245
 21
6.071819591625744
 31
0.0
  0
LINE
  5
153
330
1E
100
AcDbEntity
  8
ADP2DETAIL
  6
HIDDEN2
100
AcDbLine
 10
5.71864698881245
 20
6.071819591625744
 30
0.0
 11
5.745359317579573
 21
6.089627810803825
 31
0.0
  0
LINE
  5
154
330
1E
100
AcDbEntity
  8
ADP2DETAIL
  6
HIDDEN2
100
AcDbLine
 10
5.745359317579573
 20
6.089627810803825
 30
0.0
 11
5.745359317579573
 21
6.089627810803825
 31
0.0
  0
LINE
  5
155
330
1E
100
AcDbEntity
  8
ADP2DETAIL
  6
HIDDEN2
100
AcDbLine
 10
5.745359317579573
 20
6.089627810803825
 30
0.0
 11
5.780975755935738
 21
6.089627810803825
 31
0.0
  0
LINE
  5
156
330
1E
100
AcDbEntity
  8
ADP2DETAIL
  6
HIDDEN2
100
AcDbLine
 10
5.780975755935738
 20
6.089627810803825
 30
0.0
 11
6.012482605250807
 21
6.089627810803825
 31
0.0
  0
LINE
  5
157
330
1E
100
AcDbEntity
  8
ADP2DETAIL
  6
HIDDEN2
100
AcDbLine
 10
6.012482605250807
 20
6.089627810803825
 30
0.0
 11
6.039194934017929
 21
6.098531920392867
 31
0.0
  0
LINE
  5
158
330
1E
100
AcDbEntity
  8
ADP2DETAIL
  6
HIDDEN2
100
AcDbLine
 10
6.039194934017929
 20
6.098531920392867
 30
0.0
 11
6.048099043606971
 21
6.116340139570949
 31
0.0
  0
LINE
  5
159
330
1E
100
AcDbEntity
  8
ADP2DETAIL
  6
HIDDEN2
100
AcDbLine
 10
6.101523701141218
 20
6.054011372447661
 30
0.0
 11
6.101523701141218
 21
6.036203153269579
 31
0.0
  0
LINE
  5
15A
330
1E
100
AcDbEntity
  8
ADP2DETAIL
  6
HIDDEN2
100
AcDbLine
 10
6.101523701141218
 20
6.036203153269579
 30
0.0
 11
6.074811372374094
 21
6.027299043680537
 31
0.0
  0
LINE
  5
15B
330
1E
100
AcDbEntity
  8
ADP2DETAIL
  6
HIDDEN2
100
AcDbLine
 10
6.074811372374094
 20
6.027299043680537
 30
0.0
 11
6.074811372374094
 21
6.027299043680537
 31
0.0
  0
LINE
  5
15C
330
1E
100
AcDbEntity
  8
ADP2DETAIL
  6
HIDDEN2
100
AcDbLine
 10
6.074811372374094
 20
6.027299043680537
 30
0.0
 11
6.048099043606971
 21
6.027299043680537
 31
0.0
  0
LINE
  5
15D
330
1E
100
AcDbEntity
  8
ADP2DETAIL
  6
HIDDEN2
100
AcDbLine
 10
6.048099043606971
 20
6.027299043680537
 30
0.0
 11
6.012482605250807
 21
6.027299043680537
 31
0.0
  0
LINE
  5
15E
330
1E
100
AcDbEntity
  8
ADP2DETAIL
  6
HIDDEN2
100
AcDbLine
 10
6.012482605250807
 20
6.027299043680537
 30
0.0
 11
5.807688084702862
 21
6.027299043680537
 31
0.0
  0
LINE
  5
15F
330
1E
100
AcDbEntity
  8
ADP2DETAIL
  6
HIDDEN2
100
AcDbLine
 10
5.807688084702862
 20
6.027299043680537
 30
0.0
 11
5.780975755935738
 21
6.027299043680537
 31
0.0
  0
LINE
  5
160
330
1E
100
AcDbEntity
  8
ADP2DETAIL
  6
HIDDEN2
100
AcDbLine
 10
5.780975755935738
 20
6.027299043680537
 30
0.0
 11
5.780975755935738
 21
6.027299043680537
 31
0.0
  0
LINE
  5
161
330
1E
100
AcDbEntity
  8
ADP2DETAIL
  6
HIDDEN2
100
AcDbLine
 10
5.780975755935738
 20
6.027299043680537
 30
0.0
 11
5.780975755935738
 21
6.027299043680537
 31
0.0
  0
LINE
  5
162
330
1E
100
AcDbEntity
  8
ADP2DETAIL
  6
HIDDEN2
100
AcDbLine
 10
5.780975755935738
 20
6.027299043680537
 30
0.0
 11
5.807688084702862
 21
6.027299043680537
 31
0.0
  0
LINE
  5
163
330
1E
100
AcDbEntity
  8
ADP2DETAIL
  6
HIDDEN2
100
AcDbLine
 10
5.807688084702862
 20
6.027299043680537
 30
0.0
 11
6.101523701141218
 21
6.027299043680537
 31
0.0
  0
LINE
  5
164
330
1E
100
AcDbEntity
  8
ADP2DETAIL
  6
HIDDEN2
100
AcDbLine
 10
6.101523701141218
 20
6.027299043680537
 30
0.0
 11
6.1193319203193
 21
6.036203153269579
 31
0.0
  0
LINE
  5
165
330
1E
100
AcDbEntity
  8
ADP2DETAIL
  6
HIDDEN2
100
AcDbLine
 10
6.1193319203193
 20
6.036203153269579
 30
0.0
 11
6.128236029908341
 21
6.054011372447661
 31
0.0
  0
LINE
  5
166
330
1E
100
AcDbEntity
  8
ADP2DETAIL
  6
HIDDEN2
100
AcDbLine
 10
6.190564797031628
 20
5.991682605324374
 30
0.0
 11
6.172756577853546
 21
5.964970276557251
 31
0.0
  0
LINE
  5
167
330
1E
100
AcDbEntity
  8
ADP2DETAIL
  6
HIDDEN2
100
AcDbLine
 10
6.172756577853546
 20
5.964970276557251
 30
0.0
 11
6.146044249086423
 21
5.964970276557251
 31
0.0
  0
LINE
  5
168
330
1E
100
AcDbEntity
  8
ADP2DETAIL
  6
HIDDEN2
100
AcDbLine
 10
6.146044249086423
 20
5.964970276557251
 30
0.0
 11
6.101523701141218
 21
5.964970276557251
 31
0.0
  0
LINE
  5
169
330
1E
100
AcDbEntity
  8
ADP2DETAIL
  6
HIDDEN2
100
AcDbLine
 10
6.101523701141218
 20
5.964970276557251
 30
0.0
 11
5.780975755935738
 21
5.964970276557251
 31
0.0
  0
LINE
  5
16A
330
1E
100
AcDbEntity
  8
ADP2DETAIL
  6
HIDDEN2
100
AcDbLine
 10
5.780975755935738
 20
5.964970276557251
 30
0.0
 11
5.745359317579573
 21
5.964970276557251
 31
0.0
  0
LINE
  5
16B
330
1E
100
AcDbEntity
  8
ADP2DETAIL
  6
HIDDEN2
100
AcDbLine
 10
5.745359317579573
 20
5.964970276557251
 30
0.0
 11
5.745359317579573
 21
5.964970276557251
 31
0.0
  0
LINE
  5
16C
330
1E
100
AcDbEntity
  8
ADP2DETAIL
  6
HIDDEN2
100
AcDbLine
 10
5.745359317579573
 20
5.964970276557251
 30
0.0
 11
5.71864698881245
 21
5.982778495735332
 31
0.0
  0
LINE
  5
16D
330
1E
100
AcDbEntity
  8
ADP2DETAIL
  6
HIDDEN2
100
AcDbLine
 10
6.190564797031628
 20
5.991682605324374
 30
0.0
 11
6.190564797031628
 21
5.991682605324374
 31
0.0
  0
LINE
  5
16E
330
1E
100
AcDbEntity
  8
ADP2DETAIL
  6
HIDDEN2
100
AcDbLine
 10
5.71864698881245
 20
5.982778495735332
 30
0.0
 11
5.709742879223409
 21
6.027299043680537
 31
0.0
  0
LINE
  5
16F
330
1E
100
AcDbEntity
  8
ADP2DETAIL
  6
HIDDEN2
100
AcDbLine
 10
5.585085344976834
 20
6.60606616696821
 30
0.0
 11
5.691934660045327
 21
6.60606616696821
 31
0.0
  0
LINE
  5
170
330
1E
100
AcDbEntity
  8
ADP2DETAIL
  6
HIDDEN2
100
AcDbLine
 10
6.128236029908341
 20
7.09579219436547
 30
0.0
 11
6.1193319203193
 21
7.113600413543551
 31
0.0
  0
LINE
  5
171
330
1E
100
AcDbEntity
  8
ADP2DETAIL
  6
HIDDEN2
100
AcDbLine
 10
6.1193319203193
 20
7.113600413543551
 30
0.0
 11
6.101523701141218
 21
7.122504523132593
 31
0.0
  0
LINE
  5
172
330
1E
100
AcDbEntity
  8
ADP2DETAIL
  6
HIDDEN2
100
AcDbLine
 10
6.101523701141218
 20
7.122504523132593
 30
0.0
 11
5.834400413469984
 21
7.122504523132593
 31
0.0
  0
LINE
  5
173
330
1E
100
AcDbEntity
  8
ADP2DETAIL
  6
HIDDEN2
100
AcDbLine
 10
5.834400413469984
 20
7.122504523132593
 30
0.0
 11
5.816592194291902
 21
7.113600413543551
 31
0.0
  0
LINE
  5
174
330
1E
100
AcDbEntity
  8
ADP2DETAIL
  6
HIDDEN2
100
AcDbLine
 10
5.816592194291902
 20
7.113600413543551
 30
0.0
 11
5.79878397511382
 21
7.09579219436547
 31
0.0
  0
LINE
  5
175
330
1E
100
AcDbEntity
  8
ADP2DETAIL
  6
HIDDEN2
100
AcDbLine
 10
5.745359317579573
 20
7.09579219436547
 30
0.0
 11
5.745359317579573
 21
7.122504523132593
 31
0.0
  0
LINE
  5
176
330
1E
100
AcDbEntity
  8
ADP2DETAIL
  6
HIDDEN2
100
AcDbLine
 10
5.745359317579573
 20
7.122504523132593
 30
0.0
 11
5.745359317579573
 21
7.158120961488758
 31
0.0
  0
LINE
  5
177
330
1E
100
AcDbEntity
  8
ADP2DETAIL
  6
HIDDEN2
100
AcDbLine
 10
5.745359317579573
 20
7.158120961488758
 30
0.0
 11
5.745359317579573
 21
7.158120961488758
 31
0.0
  0
LINE
  5
178
330
1E
100
AcDbEntity
  8
ADP2DETAIL
  6
HIDDEN2
100
AcDbLine
 10
5.745359317579573
 20
7.158120961488758
 30
0.0
 11
5.754263427168615
 21
7.175929180666839
 31
0.0
  0
LINE
  5
179
330
1E
100
AcDbEntity
  8
ADP2DETAIL
  6
HIDDEN2
100
AcDbLine
 10
5.754263427168615
 20
7.175929180666839
 30
0.0
 11
5.772071646346697
 21
7.18483329025588
 31
0.0
  0
LINE
  5
17A
330
1E
100
AcDbEntity
  8
ADP2DETAIL
  6
HIDDEN2
100
AcDbLine
 10
5.772071646346697
 20
7.18483329025588
 30
0.0
 11
6.128236029908341
 21
7.18483329025588
 31
0.0
  0
LINE
  5
17B
330
1E
100
AcDbEntity
  8
ADP2DETAIL
  6
HIDDEN2
100
AcDbLine
 10
6.128236029908341
 20
7.18483329025588
 30
0.0
 11
6.163852468264504
 21
7.18483329025588
 31
0.0
  0
LINE
  5
17C
330
1E
100
AcDbEntity
  8
ADP2DETAIL
  6
HIDDEN2
100
AcDbLine
 10
6.163852468264504
 20
7.18483329025588
 30
0.0
 11
6.172756577853546
 21
7.18483329025588
 31
0.0
  0
LINE
  5
17D
330
1E
100
AcDbEntity
  8
ADP2DETAIL
  6
HIDDEN2
100
AcDbLine
 10
6.172756577853546
 20
7.18483329025588
 30
0.0
 11
6.190564797031628
 21
7.149216851899716
 31
0.0
  0
LINE
  5
17E
330
1E
100
AcDbEntity
  8
ADP2DETAIL
  6
HIDDEN2
100
AcDbLine
 10
5.691934660045327
 20
6.721819591625743
 30
0.0
 11
6.012482605250807
 21
6.721819591625743
 31
0.0
  0
LINE
  5
17F
330
1E
100
AcDbEntity
  8
ADP2DETAIL
  6
HIDDEN2
100
AcDbLine
 10
6.048099043606971
 20
6.712915482036702
 30
0.0
 11
6.039194934017929
 21
6.730723701214785
 31
0.0
  0
LINE
  5
180
330
1E
100
AcDbEntity
  8
ADP2DETAIL
  6
HIDDEN2
100
AcDbLine
 10
6.039194934017929
 20
6.730723701214785
 30
0.0
 11
6.012482605250807
 21
6.739627810803826
 31
0.0
  0
LINE
  5
181
330
1E
100
AcDbEntity
  8
ADP2DETAIL
  6
HIDDEN2
100
AcDbLine
 10
6.012482605250807
 20
6.739627810803826
 30
0.0
 11
5.834400413469984
 21
6.739627810803826
 31
0.0
  0
LINE
  5
182
330
1E
100
AcDbEntity
  8
ADP2DETAIL
  6
HIDDEN2
100
AcDbLine
 10
5.834400413469984
 20
6.739627810803826
 30
0.0
 11
5.816592194291902
 21
6.748531920392866
 31
0.0
  0
LINE
  5
183
330
1E
100
AcDbEntity
  8
ADP2DETAIL
  6
HIDDEN2
100
AcDbLine
 10
5.816592194291902
 20
6.748531920392866
 30
0.0
 11
5.807688084702862
 21
6.77524424915999
 31
0.0
  0
LINE
  5
184
330
1E
100
AcDbEntity
  8
ADP2DETAIL
  6
HIDDEN2
100
AcDbLine
 10
5.807688084702862
 20
6.77524424915999
 30
0.0
 11
5.807688084702862
 21
6.77524424915999
 31
0.0
  0
LINE
  5
185
330
1E
100
AcDbEntity
  8
ADP2DETAIL
  6
HIDDEN2
100
AcDbLine
 10
5.807688084702862
 20
6.77524424915999
 30
0.0
 11
5.816592194291902
 21
6.793052468338072
 31
0.0
  0
LINE
  5
186
330
1E
100
AcDbEntity
  8
ADP2DETAIL
  6
HIDDEN2
100
AcDbLine
 10
5.816592194291902
 20
6.793052468338072
 30
0.0
 11
5.834400413469984
 21
6.801956577927113
 31
0.0
  0
LINE
  5
187
330
1E
100
AcDbEntity
  8
ADP2DETAIL
  6
HIDDEN2
100
AcDbLine
 10
5.834400413469984
 20
6.801956577927113
 30
0.0
 11
6.012482605250807
 21
6.801956577927113
 31
0.0
  0
LINE
  5
188
330
1E
100
AcDbEntity
  8
ADP2DETAIL
  6
HIDDEN2
100
AcDbLine
 10
6.012482605250807
 20
6.801956577927113
 30
0.0
 11
6.048099043606971
 21
6.801956577927113
 31
0.0
  0
LINE
  5
189
330
1E
100
AcDbEntity
  8
ADP2DETAIL
  6
HIDDEN2
100
AcDbLine
 10
6.048099043606971
 20
6.801956577927113
 30
0.0
 11
6.074811372374094
 21
6.801956577927113
 31
0.0
  0
LINE
  5
18A
330
1E
100
AcDbEntity
  8
ADP2DETAIL
  6
HIDDEN2
100
AcDbLine
 10
6.074811372374094
 20
6.801956577927113
 30
0.0
 11
6.074811372374094
 21
6.801956577927113
 31
0.0
  0
LINE
  5
18B
330
1E
100
AcDbEntity
  8
ADP2DETAIL
  6
HIDDEN2
100
AcDbLine
 10
6.074811372374094
 20
6.801956577927113
 30
0.0
 11
6.101523701141218
 21
6.793052468338072
 31
0.0
  0
LINE
  5
18C
330
1E
100
AcDbEntity
  8
ADP2DETAIL
  6
HIDDEN2
100
AcDbLine
 10
6.101523701141218
 20
6.793052468338072
 30
0.0
 11
6.101523701141218
 21
6.77524424915999
 31
0.0
  0
LINE
  5
18D
330
1E
100
AcDbEntity
  8
ADP2DETAIL
  6
HIDDEN2
100
AcDbLine
 10
5.79878397511382
 20
6.873189454639442
 30
0.0
 11
5.79878397511382
 21
6.846477125872319
 31
0.0
  0
LINE
  5
18E
330
1E
100
AcDbEntity
  8
ADP2DETAIL
  6
HIDDEN2
100
AcDbLine
 10
5.79878397511382
 20
6.846477125872319
 30
0.0
 11
5.772071646346697
 21
6.846477125872319
 31
0.0
  0
LINE
  5
18F
330
1E
100
AcDbEntity
  8
ADP2DETAIL
  6
HIDDEN2
100
AcDbLine
 10
5.772071646346697
 20
6.846477125872319
 30
0.0
 11
5.772071646346697
 21
6.846477125872319
 31
0.0
  0
LINE
  5
190
330
1E
100
AcDbEntity
  8
ADP2DETAIL
  6
HIDDEN2
100
AcDbLine
 10
5.772071646346697
 20
6.846477125872319
 30
0.0
 11
5.754263427168615
 21
6.846477125872319
 31
0.0
  0
LINE
  5
191
330
1E
100
AcDbEntity
  8
ADP2DETAIL
  6
HIDDEN2
100
AcDbLine
 10
5.754263427168615
 20
6.846477125872319
 30
0.0
 11
5.745359317579573
 21
6.873189454639442
 31
0.0
  0
LINE
  5
192
330
1E
100
AcDbEntity
  8
ADP2DETAIL
  6
HIDDEN2
100
AcDbLine
 10
5.79878397511382
 20
7.09579219436547
 30
0.0
 11
5.79878397511382
 21
6.873189454639442
 31
0.0
  0
LINE
  5
193
330
1E
100
AcDbEntity
  8
ADP2DETAIL
  6
HIDDEN2
100
AcDbLine
 10
5.745359317579573
 20
6.873189454639442
 30
0.0
 11
5.745359317579573
 21
7.09579219436547
 31
0.0
  0
LINE
  5
194
330
1E
100
AcDbEntity
  8
ADP1DETAIL
100
AcDbLine
 10
6.324126440867244
 20
5.457436029981908
 30
0.0
 11
6.324126440867244
 21
7.202641509433963
 31
0.0
  0
LINE
  5
195
330
1E
100
AcDbEntity
  8
ADP1DETAIL
100
AcDbLine
 10
6.324126440867244
 20
2.688257947790127
 30
0.0
 11
6.324126440867244
 21
5.217025071077798
 31
0.0
  0
LINE
  5
19C
330
1E
100
AcDbEntity
  8
ADP1DETAIL
100
AcDbLine
 10
6.324126440867244
 20
2.688257947790127
 30
0.0
 11
6.324126440867244
 21
2.438942879296976
 31
0.0
  0
LINE
  5
1A0
330
1E
100
AcDbEntity
  8
ADP1DETAIL
100
AcDbLine
 10
6.324126440867244
 20
5.457436029981908
 30
0.0
 11
6.324126440867244
 21
5.217025071077798
 31
0.0
  0
LINE
  5
1B4
330
1E
100
AcDbEntity
  8
ADP1DETAIL
100
AcDbLine
 10
12.22755109840149
 20
4.166340139570949
 30
0.0
 11
12.22755109840149
 21
3.730038769707936
 31
0.0
  0
LINE
  5
1B5
330
1E
100
AcDbEntity
  8
ADP1DETAIL
100
AcDbLine
 10
12.34330452305902
 20
3.667710002584648
 30
0.0
 11
12.34330452305902
 21
4.228668906694237
 31
0.0
  0
LINE
  5
1B7
330
1E
100
AcDbEntity
  8
ADP1DETAIL
100
AcDbLine
 10
12.22755109840149
 20
3.730038769707936
 30
0.0
 11
12.22755109840149
 21
3.730038769707936
 31
0.0
  0
LINE
  5
1B8
330
1E
100
AcDbEntity
  8
ADP1DETAIL
100
AcDbLine
 10
12.20974287922341
 20
3.694422331351771
 30
0.0
 11
12.1652223312782
 21
3.676614112173689
 31
0.0
  0
LINE
  5
1B9
330
1E
100
AcDbEntity
  8
ADP1DETAIL
100
AcDbLine
 10
12.22755109840149
 20
3.730038769707936
 30
0.0
 11
12.20974287922341
 21
3.694422331351771
 31
0.0
  0
LINE
  5
1BA
330
1E
100
AcDbEntity
  8
ADP1DETAIL
100
AcDbLine
 10
12.32549630388094
 20
3.614285345050401
 30
0.0
 11
12.34330452305902
 21
3.667710002584648
 31
0.0
  0
LINE
  5
1BB
330
1E
100
AcDbEntity
  8
ADP1DETAIL
100
AcDbLine
 10
12.28097575593574
 20
3.596477125872318
 30
0.0
 11
12.32549630388094
 21
3.614285345050401
 31
0.0
  0
LINE
  5
1BE
330
1E
100
AcDbEntity
  8
ADP1DETAIL
100
AcDbLine
 10
12.28097575593574
 20
4.299901783406566
 30
0.0
 11
12.28097575593574
 21
4.299901783406566
 31
0.0
  0
LINE
  5
1BF
330
1E
100
AcDbEntity
  8
ADP1DETAIL
100
AcDbLine
 10
12.32549630388094
 20
4.273189454639443
 30
0.0
 11
12.28097575593574
 21
4.299901783406566
 31
0.0
  0
LINE
  5
1C0
330
1E
100
AcDbEntity
  8
ADP1DETAIL
100
AcDbLine
 10
12.20974287922341
 20
4.201956577927114
 30
0.0
 11
12.22755109840149
 21
4.166340139570949
 31
0.0
  0
LINE
  5
1C1
330
1E
100
AcDbEntity
  8
ADP1DETAIL
100
AcDbLine
 10
12.1652223312782
 20
4.219764797105197
 30
0.0
 11
12.20974287922341
 21
4.201956577927114
 31
0.0
  0
LINE
  5
1C3
330
1E
100
AcDbEntity
  8
ADP1DETAIL
100
AcDbLine
 10
12.34330452305902
 20
4.228668906694237
 30
0.0
 11
12.32549630388094
 21
4.273189454639443
 31
0.0
  0
TEXT
  5
27D
330
1E
100
AcDbEntity
  8
ADPDIM
100
AcDbText
 10
-1.568329055162774
 20
-2.551680189045109
 30
0.0
 40
0.1875
  1
J U L I U S  B L U M  &  C O . ,  I N C .      ( 8 0 0 )  5 2 6 - 6 2 9 3        W W W . J U L I U S B L U M . C O M        P A R T  N O .  2 2 7
 41
1.25
  7
ARIAL_WIDE
 72
     1
 11
8.120023605137362
 21
-2.364180189045109
 31
0.0
100
AcDbText
 73
     3
  0
SPLINE
  5
3B4
330
1E
100
AcDbEntity
  8
ADP2DETAIL
 62
     7
370
     0
100
AcDbSpline
210
0.0
220
0.0
230
1.0
 70
    11
 71
     3
 72
    29
 73
    25
 74
     0
 42
0.0000000001
 43
0.0000000001
 40
0.0
 40
0.0
 40
0.0
 40
0.0
 40
1.0
 40
1.0
 40
1.0
 40
2.0
 40
2.0
 40
2.0
 40
3.0
 40
3.0
 40
3.0
 40
4.0
 40
4.0
 40
4.0
 40
5.0
 40
5.0
 40
5.0
 40
6.0
 40
6.0
 40
6.0
 40
7.0
 40
7.0
 40
7.0
 40
8.0
 40
8.0
 40
8.0
 40
8.0
 10
10.28920150353632
 20
-0.2861769746417655
 30
0.0
 10
10.28920150353632
 20
-0.4318801421088842
 30
0.0
 10
10.17113273006369
 20
-0.5499489155815191
 30
0.0
 10
10.02542956259657
 20
-0.5499489155815191
 30
0.0
 10
10.02542956259657
 20
-0.5499489155815191
 30
0.0
 10
9.450058075910106
 20
-0.5499489155815191
 30
0.0
 10
9.450058075910106
 20
-0.5499489155815191
 30
0.0
 10
9.304354908442988
 20
-0.5499489155815191
 30
0.0
 10
9.186286134970353
 20
-0.4318801421088842
 30
0.0
 10
9.186286134970353
 20
-0.2861769746417655
 30
0.0
 10
9.186286134970353
 20
-0.2861769746417655
 30
0.0
 10
9.186286134970353
 20
-0.2861769746417655
 30
0.0
 10
9.186286134970353
 20
-0.2861769746417655
 30
0.0
 10
9.186286134970353
 20
-0.1405338167164364
 30
0.0
 10
9.304354908442988
 20
-0.0224650432438014
 30
0.0
 10
9.450058075910106
 20
-0.0224650432438014
 30
0.0
 10
9.450058075910106
 20
-0.0224650432438014
 30
0.0
 10
10.02542956259657
 20
-0.0224650432438014
 30
0.0
 10
10.02542956259657
 20
-0.0224650432438014
 30
0.0
 10
10.17113273006369
 20
-0.0224650432438014
 30
0.0
 10
10.28920150353632
 20
-0.1405338167164364
 30
0.0
 10
10.28920150353632
 20
-0.2861769746417655
 30
0.0
 10
10.28920150353632
 20
-0.2861769746417655
 30
0.0
 10
10.28920150353632
 20
-0.2861769746417655
 30
0.0
 10
10.28920150353632
 20
-0.2861769746417655
 30
0.0
  0
SPLINE
  5
3B5
330
1E
100
AcDbEntity
  8
ADP2DETAIL
 62
     7
370
     0
100
AcDbSpline
210
0.0
220
0.0
230
1.0
 70
    11
 71
     3
 72
    29
 73
    25
 74
     0
 42
0.0000000001
 43
0.0000000001
 40
0.0
 40
0.0
 40
0.0
 40
0.0
 40
1.0
 40
1.0
 40
1.0
 40
2.0
 40
2.0
 40
2.0
 40
3.0
 40
3.0
 40
3.0
 40
4.0
 40
4.0
 40
4.0
 40
5.0
 40
5.0
 40
5.0
 40
6.0
 40
6.0
 40
6.0
 40
7.0
 40
7.0
 40
7.0
 40
8.0
 40
8.0
 40
8.0
 40
8.0
 10
11.93169266711078
 20
-0.2861769746417655
 30
0.0
 10
11.93169266711078
 20
-0.4318801421088842
 30
0.0
 10
11.81362389363815
 20
-0.5499489155815191
 30
0.0
 10
11.66792072617103
 20
-0.5499489155815191
 30
0.0
 10
11.66792072617103
 20
-0.5499489155815191
 30
0.0
 10
11.09251923471367
 20
-0.5499489155815191
 30
0.0
 10
11.09251923471367
 20
-0.5499489155815191
 30
0.0
 10
10.94681606724655
 20
-0.5499489155815191
 30
0.0
 10
10.82874729377391
 20
-0.4318801421088842
 30
0.0
 10
10.82874729377391
 20
-0.2861769746417655
 30
0.0
 10
10.82874729377391
 20
-0.2861769746417655
 30
0.0
 10
10.82874729377391
 20
-0.2861769746417655
 30
0.0
 10
10.82874729377391
 20
-0.2861769746417655
 30
0.0
 10
10.82874729377391
 20
-0.1405338167164364
 30
0.0
 10
10.94681606724655
 20
-0.0224650432438014
 30
0.0
 10
11.09251923471367
 20
-0.0224650432438014
 30
0.0
 10
11.09251923471367
 20
-0.0224650432438014
 30
0.0
 10
11.66792072617103
 20
-0.0224650432438014
 30
0.0
 10
11.66792072617103
 20
-0.0224650432438014
 30
0.0
 10
11.81362389363815
 20
-0.0224650432438014
 30
0.0
 10
11.93169266711078
 20
-0.1405338167164364
 30
0.0
 10
11.93169266711078
 20
-0.2861769746417655
 30
0.0
 10
11.93169266711078
 20
-0.2861769746417655
 30
0.0
 10
11.93169266711078
 20
-0.2861769746417655
 30
0.0
 10
11.93169266711078
 20
-0.2861769746417655
 30
0.0
  0
LINE
  5
3CE
330
1E
100
AcDbEntity
  8
ADP1DETAIL
100
AcDbLine
 10
12.1652223312782
 20
4.219764797105197
 30
0.0
 11
6.324126440867244
 21
5.352699125629793
 31
0.0
  0
ENDSEC
  0
SECTION
  2
OBJECTS
  0
DICTIONARY
  5
C
330
0
100
AcDbDictionary
281
     1
  3
ACAD_COLOR
350
374
  3
ACAD_GROUP
350
D
  3
ACAD_LAYOUT
350
19
  3
ACAD_MATERIAL
350
35F
  3
ACAD_MLINESTYLE
350
16
  3
ACAD_PLOTSETTINGS
350
18
  3
ACAD_PLOTSTYLENAME
350
E
  3
ACAD_TABLESTYLE
350
375
  3
ACAD_VISUALSTYLE
350
363
  3
AcDbVariableDictionary
350
23C
  3
ASE_INDEX_DICTIONARY
350
3D0
  3
DWGPROPS
350
3F1
  0
DICTIONARY
  5
207
330
1E
100
AcDbDictionary
280
     1
281
     1
  3
ACAD_LAYOUTSELFREF
360
35B
  0
DICTIONARY
  5
209
330
1A
100
AcDbDictionary
280
     1
281
     1
  3
ACAD_LAYOUTSELFREF
360
35A
  0
DICTIONARY
  5
374
102
{ACAD_REACTORS
330
C
102
}
330
C
100
AcDbDictionary
281
     1
  0
DICTIONARY
  5
D
102
{ACAD_REACTORS
330
C
102
}
330
C
100
AcDbDictionary
281
     1
  0
DICTIONARY
  5
19
102
{ACAD_REACTORS
330
C
102
}
330
C
100
AcDbDictionary
281
     1
  3
Layout1
350
1D
  3
Model
350
21
  0
DICTIONARY
  5
35F
102
{ACAD_REACTORS
330
C
102
}
330
C
100
AcDbDictionary
281
     1
  3
ByBlock
350
361
  3
ByLayer
350
360
  3
Global
350
362
  0
DICTIONARY
  5
16
102
{ACAD_REACTORS
330
C
102
}
330
C
100
AcDbDictionary
281
     1
  3
Standard
350
17
  0
DICTIONARY
  5
18
102
{ACAD_REACTORS
330
C
102
}
330
C
100
AcDbDictionary
281
     1
  0
ACDBDICTIONARYWDFLT
  5
E
102
{ACAD_REACTORS
330
C
102
}
330
C
100
AcDbDictionary
281
     1
  3
Normal
350
F
100
AcDbDictionaryWithDefault
340
F
  0
DICTIONARY
  5
375
102
{ACAD_REACTORS
330
C
102
}
330
C
100
AcDbDictionary
281
     1
  3
Standard
350
376
  0
DICTIONARY
  5
363
102
{ACAD_REACTORS
330
C
102
}
330
C
100
AcDbDictionary
281
     1
  3
2dWireframe
350
369
  3
3D Hidden
350
36B
  3
3dWireframe
350
36A
  3
Basic
350
368
  3
Brighten
350
36F
  3
ColorChange
350
373
  3
Conceptual
350
36C
  3
Dim
350
36E
  3
Facepattern
350
372
  3
Flat
350
364
  3
FlatWithEdges
350
365
  3
Gouraud
350
366
  3
GouraudWithEdges
350
367
  3
Linepattern
350
371
  3
Realistic
350
36D
  3
Thicken
350
370
  0
DICTIONARY
  5
23C
102
{ACAD_REACTORS
330
C
102
}
330
C
100
AcDbDictionary
281
     1
  3
CTABLESTYLE
350
3EE
  3
DIMASSOC
350
23E
  3
HIDETEXT
350
23D
  3
INDEXCTL
350
3F0
  3
SORTENTS
350
3EF
  0
DICTIONARY
  5
3D0
102
{ACAD_REACTORS
330
C
102
}
330
C
100
AcDbDictionary
281
     1
  3
ASEBlockHierarchyIndexRecord
350
3D1
1001
DCO15
1040
1567705537.79
  0
XRECORD
  5
3F1
102
{ACAD_REACTORS
330
C
102
}
330
C
100
AcDbXrecord
280
     1
  1
DWGPROPS COOKIE
  2

  3

  4

  6

  7

  8
Yu Hu
  9

300
=
301
=
302
=
303
=
304
=
305
=
306
=
307
=
308
=
309
=
 40
0.0308909259259259
 41
2450366.566373843
 42
2453947.951872569
  1

 90
        0
  0
XRECORD
  5
35B
102
{ACAD_REACTORS
330
207
102
}
330
207
100
AcDbXrecord
280
     1
340
1E
  0
XRECORD
  5
35A
102
{ACAD_REACTORS
330
209
102
}
330
209
100
AcDbXrecord
280
     1
340
1A
  0
LAYOUT
  5
1D
102
{ACAD_XDICTIONARY
360
3F2
102
}
102
{ACAD_REACTORS
330
19
102
}
330
19
100
AcDbPlotSettings
  1

  2
Fax
  4

  6

 40
0.0
 41
0.0
 42
0.0
 43
0.0
 44
0.0
 45
0.0
 46
0.0
 47
0.0
 48
0.0
 49
0.0
140
0.0
141
0.0
142
1.0
143
1.0
 70
   688
 72
     0
 73
     0
 74
     5
  7
Default R14 pen assignments.ctb
 75
    16
147
1.0
148
0.0
149
0.0
100
AcDbLayout
  1
Layout1
 70
     1
 71
     1
 10
0.0
 20
0.0
 11
12.0
 21
9.0
 12
0.1250013113021854
 22
0.0
 32
0.0
 14
1.000000000000000E+20
 24
1.000000000000000E+20
 34
1.000000000000000E+20
 15
-1.000000000000000E+20
 25
-1.000000000000000E+20
 35
-1.000000000000000E+20
146
0.0
 13
0.0
 23
0.0
 33
0.0
 16
1.0
 26
0.0
 36
0.0
 17
0.0
 27
1.0
 37
0.0
 76
     0
330
1A
  0
LAYOUT
  5
21
102
{ACAD_XDICTIONARY
360
3F4
102
}
102
{ACAD_REACTORS
330
19
102
}
330
19
100
AcDbPlotSettings
  1

  2
Fax
  4

  6

 40
0.0
 41
0.0
 42
0.0
 43
0.0
 44
0.0
 45
0.0
 46
0.0
 47
0.0
 48
0.0
 49
0.0
140
0.0
141
0.0
142
1.0
143
1.0
 70
  1712
 72
     0
 73
     0
 74
     0
  7
Default R14 pen assignments.ctb
 75
     0
147
1.0
148
0.0
149
0.0
100
AcDbLayout
  1
Model
 70
     1
 71
     0
 10
0.0
 20
0.0
 11
12.0
 21
9.0
 12
0.0
 22
0.0
 32
0.0
 14
0.0
 24
0.0
 34
0.0
 15
0.0
 25
0.0
 35
0.0
146
0.0
 13
0.0
 23
0.0
 33
0.0
 16
1.0
 26
0.0
 36
0.0
 17
0.0
 27
1.0
 37
0.0
 76
     0
330
1E
331
328
  0
MATERIAL
  5
361
102
{ACAD_XDICTIONARY
360
3F8
102
}
102
{ACAD_REACTORS
330
35F
102
}
330
35F
100
AcDbMaterial
  1
ByBlock
  0
MATERIAL
  5
360
102
{ACAD_XDICTIONARY
360
3F6
102
}
102
{ACAD_REACTORS
330
35F
102
}
330
35F
100
AcDbMaterial
  1
ByLayer
  0
MATERIAL
  5
362
102
{ACAD_XDICTIONARY
360
3FA
102
}
102
{ACAD_REACTORS
330
35F
102
}
330
35F
100
AcDbMaterial
  1
Global
  0
MLINESTYLE
  5
17
102
{ACAD_REACTORS
330
16
102
}
330
16
100
AcDbMlineStyle
  2
STANDARD
 70
     0
  3

 62
   256
 51
90.0
 52
90.0
 71
     2
 49
0.5
 62
   256
  6
BYLAYER
 49
-0.5
 62
   256
  6
BYLAYER
  0
ACDBPLACEHOLDER
  5
F
102
{ACAD_REACTORS
330
E
102
}
330
E
  0
TABLESTYLE
  5
376
102
{ACAD_XDICTIONARY
360
3FC
102
}
102
{ACAD_REACTORS
330
375
102
}
330
375
100
AcDbTableStyle
  3
Standard
 70
     0
 71
     0
 40
0.06
 41
0.06
280
     0
281
     0
  7
STANDARD
140
0.18
170
     2
 62
     0
 63
     7
283
     0
274
    -2
284
     1
 64
     0
275
    -2
285
     1
 65
     0
276
    -2
286
     1
 66
     0
277
    -2
287
     1
 67
     0
278
    -2
288
     1
 68
     0
279
    -2
289
     1
 69
     0
  7
STANDARD
140
0.25
170
     5
 62
     0
 63
     7
283
     0
274
    -2
284
     1
 64
     0
275
    -2
285
     1
 65
     0
276
    -2
286
     1
 66
     0
277
    -2
287
     1
 67
     0
278
    -2
288
     1
 68
     0
279
    -2
289
     1
 69
     0
  7
STANDARD
140
0.18
170
     5
 62
     0
 63
     7
283
     0
274
    -2
284
     1
 64
     0
275
    -2
285
     1
 65
     0
276
    -2
286
     1
 66
     0
277
    -2
287
     1
 67
     0
278
    -2
288
     1
 68
     0
279
    -2
289
     1
 69
     0
  0
VISUALSTYLE
  5
369
102
{ACAD_REACTORS
330
363
102
}
330
363
100
AcDbVisualStyle
  2
2dWireframe
 70
     4
 71
     0
 72
     2
 73
     0
 90
        0
 40
-0.6
 41
-30.0
 62
     5
 63
     7
 74
     1
 91
        4
 64
     7
 65
   257
 75
     1
175
     1
 42
1.0
 92
        0
 66
   257
 43
1.0
 76
     1
 77
     6
 78
     2
 67
     7
 79
     5
170
     0
171
     0
290
     0
174
     0
 93
        1
 44
0.0
173
     0
291
     0
 45
0.0
1001
ACAD
1000
AcDbSavedByObjectVersion
1070
     0
  0
VISUALSTYLE
  5
36B
102
{ACAD_REACTORS
330
363
102
}
330
363
100
AcDbVisualStyle
  2
3D Hidden
 70
     6
 71
     1
 72
     2
 73
     2
 90
        0
 40
-0.6
 41
-30.0
 62
     5
 63
     7
 74
     2
 91
        2
 64
     7
 65
   257
 75
     2
175
     1
 42
40.0
 92
        0
 66
   257
 43
1.0
 76
     1
 77
     6
 78
     2
 67
     7
 79
     3
170
     0
171
     0
290
     0
174
     0
 93
        1
 44
0.0
173
     0
291
     0
 45
0.0
1001
ACAD
1000
AcDbSavedByObjectVersion
1070
     0
  0
VISUALSTYLE
  5
36A
102
{ACAD_REACTORS
330
363
102
}
330
363
100
AcDbVisualStyle
  2
3dWireframe
 70
     5
 71
     0
 72
     2
 73
     0
 90
        0
 40
-0.6
 41
-30.0
 62
     5
 63
     7
 74
     1
 91
        4
 64
     7
 65
   257
 75
     1
175
     1
 42
1.0
 92
        0
 66
   257
 43
1.0
 76
     1
 77
     6
 78
     2
 67
     7
 79
     5
170
     0
171
     0
290
     0
174
     0
 93
        1
 44
0.0
173
     0
291
     0
 45
0.0
1001
ACAD
1000
AcDbSavedByObjectVersion
1070
     0
  0
VISUALSTYLE
  5
368
102
{ACAD_REACTORS
330
363
102
}
330
363
100
AcDbVisualStyle
  2
Basic
 70
     7
 71
     1
 72
     0
 73
     1
 90
        0
 40
-0.6
 41
-30.0
 62
     5
 63
     7
 74
     0
 91
        4
 64
     7
 65
   257
 75
     1
175
     1
 42
1.0
 92
        8
 66
     7
 43
1.0
 76
     1
 77
     6
 78
     2
 67
     7
 79
     5
170
     0
171
     0
290
     0
174
     0
 93
        1
 44
0.0
173
     0
291
     1
 45
0.0
1001
ACAD
1000
AcDbSavedByObjectVersion
1070
     0
  0
VISUALSTYLE
  5
36F
102
{ACAD_REACTORS
330
363
102
}
330
363
100
AcDbVisualStyle
  2
Brighten
 70
    12
 71
     2
 72
     2
 73
     0
 90
        0
 40
-0.6
 41
-30.0
 62
     5
 63
     7
 74
     1
 91
        4
 64
     7
 65
   257
 75
     1
175
     1
 42
1.0
 92
        8
 66
     7
 43
1.0
 76
     1
 77
     6
 78
     2
 67
     7
 79
     5
170
     0
171
     0
290
     0
174
     0
 93
        1
 44
50.0
173
     0
291
     1
 45
0.0
1001
ACAD
1000
AcDbSavedByObjectVersion
1070
     0
  0
VISUALSTYLE
  5
373
102
{ACAD_REACTORS
330
363
102
}
330
363
100
AcDbVisualStyle
  2
ColorChange
 70
    16
 71
     2
 72
     2
 73
     3
 90
        0
 40
-0.6
 41
-30.0
 62
     5
 63
     8
 74
     1
 91
        4
 64
     7
 65
   257
 75
     1
175
     1
 42
1.0
 92
        8
 66
     8
 43
1.0
 76
     1
 77
     6
 78
     2
 67
     7
 79
     5
170
     0
171
     0
290
     0
174
     0
 93
        1
 44
0.0
173
     0
291
     1
 45
0.0
1001
ACAD
1000
AcDbSavedByObjectVersion
1070
     0
  0
VISUALSTYLE
  5
36C
102
{ACAD_REACTORS
330
363
102
}
330
363
100
AcDbVisualStyle
  2
Conceptual
 70
     9
 71
     3
 72
     2
 73
     0
 90
        0
 40
-0.6
 41
-30.0
 62
     5
 63
     7
 74
     2
 91
        2
 64
     7
 65
   257
 75
     1
175
     1
 42
40.0
 92
        8
 66
     7
 43
1.0
 76
     1
 77
     6
 78
     2
 67
     7
 79
     3
170
     0
171
     0
290
     0
174
     0
 93
        1
 44
0.0
173
     0
291
     0
 45
0.0
1001
ACAD
1000
AcDbSavedByObjectVersion
1070
     0
  0
VISUALSTYLE
  5
36E
102
{ACAD_REACTORS
330
363
102
}
330
363
100
AcDbVisualStyle
  2
Dim
 70
    11
 71
     2
 72
     2
 73
     0
 90
        0
 40
-0.6
 41
-30.0
 62
     5
 63
     7
 74
     1
 91
        4
 64
     7
 65
   257
 75
     1
175
     1
 42
1.0
 92
        8
 66
     7
 43
1.0
 76
     1
 77
     6
 78
     2
 67
     7
 79
     5
170
     0
171
     0
290
     0
174
     0
 93
        1
 44
-50.0
173
     0
291
     1
 45
0.0
1001
ACAD
1000
AcDbSavedByObjectVersion
1070
     0
  0
VISUALSTYLE
  5
372
102
{ACAD_REACTORS
330
363
102
}
330
363
100
AcDbVisualStyle
  2
Facepattern
 70
    15
 71
     2
 72
     2
 73
     0
 90
        0
 40
-0.6
 41
-30.0
 62
     5
 63
     7
 74
     1
 91
        4
 64
     7
 65
   257
 75
     1
175
     1
 42
1.0
 92
        8
 66
     7
 43
1.0
 76
     1
 77
     6
 78
     2
 67
     7
 79
     5
170
     0
171
     0
290
     0
174
     0
 93
        1
 44
0.0
173
     0
291
     1
 45
0.0
1001
ACAD
1000
AcDbSavedByObjectVersion
1070
     0
  0
VISUALSTYLE
  5
364
102
{ACAD_REACTORS
330
363
102
}
330
363
100
AcDbVisualStyle
  2
Flat
 70
     0
 71
     2
 72
     1
 73
     1
 90
        2
 40
-0.6
 41
30.0
 62
     5
 63
     7
 74
     0
 91
        4
 64
     7
 65
   257
 75
     1
175
     1
 42
1.0
 92
        8
 66
     7
 43
1.0
 76
     1
 77
     6
 78
     2
 67
     7
 79
     5
170
     0
171
     0
290
     0
174
     0
 93
       13
 44
0.0
173
     0
291
     1
 45
0.0
1001
ACAD
1000
AcDbSavedByObjectVersion
1070
     0
  0
VISUALSTYLE
  5
365
102
{ACAD_REACTORS
330
363
102
}
330
363
100
AcDbVisualStyle
  2
FlatWithEdges
 70
     1
 71
     2
 72
     1
 73
     1
 90
        2
 40
-0.6
 41
30.0
 62
     5
 63
     7
 74
     1
 91
        4
 64
     7
 65
   257
 75
     1
175
     1
 42
1.0
 92
        0
 66
   257
 43
1.0
 76
     1
 77
     6
 78
     2
 67
     7
 79
     5
170
     0
171
     0
290
     0
174
     0
 93
       13
 44
0.0
173
     0
291
     1
 45
0.0
1001
ACAD
1000
AcDbSavedByObjectVersion
1070
     0
  0
VISUALSTYLE
  5
366
102
{ACAD_REACTORS
330
363
102
}
330
363
100
AcDbVisualStyle
  2
Gouraud
 70
     2
 71
     2
 72
     2
 73
     1
 90
        2
 40
-0.6
 41
30.0
 62
     5
 63
     7
 74
     0
 91
        4
 64
     7
 65
   257
 75
     1
175
     1
 42
1.0
 92
        0
 66
     7
 43
1.0
 76
     1
 77
     6
 78
     2
 67
     7
 79
     5
170
     0
171
     0
290
     0
174
     0
 93
       13
 44
0.0
173
     0
291
     1
 45
0.0
1001
ACAD
1000
AcDbSavedByObjectVersion
1070
     0
  0
VISUALSTYLE
  5
367
102
{ACAD_REACTORS
330
363
102
}
330
363
100
AcDbVisualStyle
  2
GouraudWithEdges
 70
     3
 71
     2
 72
     2
 73
     1
 90
        2
 40
-0.6
 41
30.0
 62
     5
 63
     7
 74
     1
 91
        4
 64
     7
 65
   257
 75
     1
175
     1
 42
1.0
 92
        0
 66
   257
 43
1.0
 76
     1
 77
     6
 78
     2
 67
     7
 79
     5
170
     0
171
     0
290
     0
174
     0
 93
       13
 44
0.0
173
     0
291
     1
 45
0.0
1001
ACAD
1000
AcDbSavedByObjectVersion
1070
     0
  0
VISUALSTYLE
  5
371
102
{ACAD_REACTORS
330
363
102
}
330
363
100
AcDbVisualStyle
  2
Linepattern
 70
    14
 71
     2
 72
     2
 73
     0
 90
        0
 40
-0.6
 41
-30.0
 62
     5
 63
     7
 74
     1
 91
        4
 64
     7
 65
   257
 75
     7
175
     7
 42
1.0
 92
        8
 66
     7
 43
1.0
 76
     1
 77
     6
 78
     2
 67
     7
 79
     5
170
     0
171
     0
290
     0
174
     0
 93
        1
 44
0.0
173
     0
291
     1
 45
0.0
1001
ACAD
1000
AcDbSavedByObjectVersion
1070
     0
  0
VISUALSTYLE
  5
36D
102
{ACAD_REACTORS
330
363
102
}
330
363
100
AcDbVisualStyle
  2
Realistic
 70
     8
 71
     2
 72
     2
 73
     0
 90
        0
 40
-0.6
 41
-30.0
 62
     5
 63
     7
 74
     1
 91
        0
 64
     7
 65
   257
 75
     1
175
     1
 42
1.0
 92
        8
 66
     8
 43
1.0
 76
     1
 77
     6
 78
     2
 67
     7
 79
     5
170
     0
171
     0
290
     0
174
     0
 93
       13
 44
0.0
173
     0
291
     0
 45
0.0
1001
ACAD
1000
AcDbSavedByObjectVersion
1070
     0
  0
VISUALSTYLE
  5
370
102
{ACAD_REACTORS
330
363
102
}
330
363
100
AcDbVisualStyle
  2
Thicken
 70
    13
 71
     2
 72
     2
 73
     0
 90
        0
 40
-0.6
 41
-30.0
 62
     5
 63
     7
 74
     1
 91
        4
 64
     7
 65
   257
 75
     1
175
     1
 42
1.0
 92
       12
 66
     7
 43
1.0
 76
     1
 77
     6
 78
     2
 67
     7
 79
     5
170
     0
171
     0
290
     0
174
     0
 93
        1
 44
0.0
173
     0
291
     1
 45
0.0
1001
ACAD
1000
AcDbSavedByObjectVersion
1070
     0
  0
DICTIONARYVAR
  5
3EE
102
{ACAD_REACTORS
330
23C
102
}
330
23C
100
DictionaryVariables
280
     0
  1
STANDARD
  0
DICTIONARYVAR
  5
23E
102
{ACAD_REACTORS
330
23C
102
}
330
23C
100
DictionaryVariables
280
     0
  1
2
  0
DICTIONARYVAR
  5
23D
102
{ACAD_REACTORS
330
23C
102
}
330
23C
100
DictionaryVariables
280
     0
  1
1
  0
DICTIONARYVAR
  5
3F0
102
{ACAD_REACTORS
330
23C
102
}
330
23C
100
DictionaryVariables
280
     0
  1
0
  0
DICTIONARYVAR
  5
3EF
102
{ACAD_REACTORS
330
23C
102
}
330
23C
100
DictionaryVariables
280
     0
  1
127
  0
XRECORD
  5
3D1
102
{ACAD_REACTORS
330
3D0
102
}
330
3D0
100
AcDbXrecord
280
     1
  0
DICTIONARY
  5
3F2
330
1D
100
AcDbDictionary
280
     1
281
     1
  3
ACAD_XREC_ROUNDTRIP
360
3F3
  0
DICTIONARY
  5
3F4
330
21
100
AcDbDictionary
280
     1
281
     1
  3
ACAD_XREC_ROUNDTRIP
360
3F5
  0
DICTIONARY
  5
3F8
330
361
100
AcDbDictionary
280
     1
281
     1
  3
ACAD_XREC_ROUNDTRIP
360
3F9
  0
DICTIONARY
  5
3F6
330
360
100
AcDbDictionary
280
     1
281
     1
  3
ACAD_XREC_ROUNDTRIP
360
3F7
  0
DICTIONARY
  5
3FA
330
362
100
AcDbDictionary
280
     1
281
     1
  3
ACAD_XREC_ROUNDTRIP
360
3FB
  0
DICTIONARY
  5
3FC
330
376
100
AcDbDictionary
280
     1
281
     1
  3
ACAD_XREC_ROUNDTRIP
360
3FD
  0
XRECORD
  5
3F3
102
{ACAD_REACTORS
330
3F2
102
}
330
3F2
100
AcDbXrecord
280
     1
102
SHADEPLOT
 70
     0
102
SHADEPLOTRESLEVEL
 70
     2
102
SHADEPLOTCUSTOMDPI
 70
   300
  0
XRECORD
  5
3F5
102
{ACAD_REACTORS
330
3F4
102
}
330
3F4
100
AcDbXrecord
280
     1
102
SHADEPLOT
 70
     0
102
SHADEPLOTRESLEVEL
 70
     2
102
SHADEPLOTCUSTOMDPI
 70
   300
  0
XRECORD
  5
3F9
102
{ACAD_REACTORS
330
3F8
102
}
330
3F8
100
AcDbXrecord
280
     1
102
MATERIAL
148
0.0
149
0.0
149
0.0
 93
        0
 94
       63
282
     0
 72
     1
 77
     1
171
     1
175
     1
179
     1
273
     0
  0
XRECORD
  5
3F7
102
{ACAD_REACTORS
330
3F6
102
}
330
3F6
100
AcDbXrecord
280
     1
102
MATERIAL
148
0.0
149
0.0
149
0.0
 93
        0
 94
       63
282
     0
 72
     1
 77
     1
171
     1
175
     1
179
     1
273
     0
  0
XRECORD
  5
3FB
102
{ACAD_REACTORS
330
3FA
102
}
330
3FA
100
AcDbXrecord
280
     1
102
MATERIAL
148
0.0
149
0.0
149
0.0
 93
        0
 94
       63
282
     0
 72
     1
 77
     1
171
     1
175
     1
179
     1
273
     0
  0
XRECORD
  5
3FD
102
{ACAD_REACTORS
330
3FC
102
}
330
3FC
100
AcDbXrecord
280
     1
102
ACAD_ROUNDTRIP_PRE2007_TABLESTYLE
 90
      512
 91
        0
  1

 92
      512
 93
        0
  2

 94
      512
 95
        0
  3

  0
ENDSEC
  0
EOF
