  0
SECTION
  2
HEADER
  9
$ACADVER
  1
AC1014
  9
$ACADMAINTVER
 70
     9
  9
$DWGCODEPAGE
  3
ANSI_1252
  9
$INSBASE
 10
10.66580314078042
 20
7.973946821480968
 30
0.0
  9
$EXTMIN
 10
3.407641737473798
 20
6.454086600924703
 30
0.0
  9
$EXTMAX
 10
16.32544528454064
 20
11.36107630669997
 30
0.0
  9
$LIMMIN
 10
0.0
 20
0.0
  9
$LIMMAX
 10
36.0
 20
36.0
  9
$ORTHOMODE
 70
     1
  9
$REGENMODE
 70
     1
  9
$FILLMODE
 70
     1
  9
$QTEXTMODE
 70
     0
  9
$MIRRTEXT
 70
     1
  9
$DRAGMODE
 70
     0
  9
$LTSCALE
 40
1.0
  9
$OSMODE
 70
    37
  9
$ATTMODE
 70
     1
  9
$TEXTSIZE
 40
0.2
  9
$TRACEWID
 40
0.05
  9
$TEXTSTYLE
  7
STANDARD
  9
$CLAYER
  8
0
  9
$CELTYPE
  6
BYLAYER
  9
$CECOLOR
 62
   256
  9
$CELTSCALE
 40
1.0
  9
$DELOBJ
 70
     1
  9
$DISPSILH
 70
     0
  9
$DIMSCALE
 40
1.0
  9
$DIMASZ
 40
0.125
  9
$DIMEXO
 40
0.0625
  9
$DIMDLI
 40
0.38
  9
$DIMRND
 40
0.0
  9
$DIMDLE
 40
0.0
  9
$DIMEXE
 40
0.18
  9
$DIMTP
 40
0.0
  9
$DIMTM
 40
0.0
  9
$DIMTXT
 40
0.125
  9
$DIMCEN
 40
0.1875
  9
$DIMTSZ
 40
0.125
  9
$DIMTOL
 70
     0
  9
$DIMLIM
 70
     0
  9
$DIMTIH
 70
     0
  9
$DIMTOH
 70
     0
  9
$DIMSE1
 70
     0
  9
$DIMSE2
 70
     0
  9
$DIMTAD
 70
     0
  9
$DIMZIN
 70
     3
  9
$DIMBLK
  1

  9
$DIMASO
 70
     1
  9
$DIMSHO
 70
     1
  9
$DIMPOST
  1

  9
$DIMAPOST
  1

  9
$DIMALT
 70
     0
  9
$DIMALTD
 70
     1
  9
$DIMALTF
 40
25.4
  9
$DIMLFAC
 40
1.0
  9
$DIMTOFL
 70
     0
  9
$DIMTVP
 40
0.0
  9
$DIMTIX
 70
     0
  9
$DIMSOXD
 70
     0
  9
$DIMSAH
 70
     0
  9
$DIMBLK1
  1

  9
$DIMBLK2
  1

  9
$DIMSTYLE
  2
STANDARD
  9
$DIMCLRD
 70
     0
  9
$DIMCLRE
 70
     0
  9
$DIMCLRT
 70
     0
  9
$DIMTFAC
 40
1.0
  9
$DIMGAP
 40
0.125
  9
$DIMJUST
 70
     0
  9
$DIMSD1
 70
     0
  9
$DIMSD2
 70
     0
  9
$DIMTOLJ
 70
     1
  9
$DIMTZIN
 70
     3
  9
$DIMALTZ
 70
     3
  9
$DIMALTTZ
 70
     3
  9
$DIMFIT
 70
     5
  9
$DIMUPT
 70
     0
  9
$DIMUNIT
 70
     5
  9
$DIMDEC
 70
     4
  9
$DIMTDEC
 70
     4
  9
$DIMALTU
 70
     5
  9
$DIMALTTD
 70
     1
  9
$DIMTXSTY
  7
STANDARD
  9
$DIMAUNIT
 70
     0
  9
$LUNITS
 70
     5
  9
$LUPREC
 70
     4
  9
$SKETCHINC
 40
0.1
  9
$FILLETRAD
 40
0.062
  9
$AUNITS
 70
     0
  9
$AUPREC
 70
     0
  9
$MENU
  1
acad
  9
$ELEVATION
 40
0.0
  9
$PELEVATION
 40
0.0
  9
$THICKNESS
 40
0.0
  9
$LIMCHECK
 70
     0
  9
$BLIPMODE
 70
     0
  9
$CHAMFERA
 40
0.0
  9
$CHAMFERB
 40
0.0
  9
$CHAMFERC
 40
0.0
  9
$CHAMFERD
 40
0.0
  9
$SKPOLY
 70
     0
  9
$TDCREATE
 40
2450375.479341435
  9
$TDUPDATE
 40
2452297.065344687
  9
$TDINDWG
 40
0.0266721412
  9
$TDUSRTIMER
 40
0.0266721412
  9
$USRTIMER
 70
     1
  9
$ANGBASE
 50
0.0
  9
$ANGDIR
 70
     0
  9
$PDMODE
 70
     0
  9
$PDSIZE
 40
0.0
  9
$PLINEWID
 40
0.0
  9
$COORDS
 70
     2
  9
$SPLFRAME
 70
     0
  9
$SPLINETYPE
 70
     6
  9
$SPLINESEGS
 70
     8
  9
$ATTDIA
 70
     0
  9
$ATTREQ
 70
     1
  9
$HANDLING
 70
 22529
  9
$HANDSEED
  5
2FB
  9
$SURFTAB1
 70
     6
  9
$SURFTAB2
 70
     6
  9
$SURFTYPE
 70
     6
  9
$SURFU
 70
     6
  9
$SURFV
 70
     6
  9
$UCSNAME
  2

  9
$UCSORG
 10
0.0
 20
0.0
 30
0.0
  9
$UCSXDIR
 10
1.0
 20
0.0
 30
0.0
  9
$UCSYDIR
 10
0.0
 20
1.0
 30
0.0
  9
$PUCSNAME
  2

  9
$PUCSORG
 10
0.0
 20
0.0
 30
0.0
  9
$PUCSXDIR
 10
1.0
 20
0.0
 30
0.0
  9
$PUCSYDIR
 10
0.0
 20
1.0
 30
0.0
  9
$USERI1
 70
     0
  9
$USERI2
 70
     0
  9
$USERI3
 70
     0
  9
$USERI4
 70
     0
  9
$USERI5
 70
     0
  9
$USERR1
 40
0.0
  9
$USERR2
 40
0.0
  9
$USERR3
 40
0.0
  9
$USERR4
 40
0.0
  9
$USERR5
 40
0.0
  9
$WORLDVIEW
 70
     1
  9
$SHADEDGE
 70
     3
  9
$SHADEDIF
 70
    70
  9
$TILEMODE
 70
     1
  9
$MAXACTVP
 70
    15
  9
$PINSBASE
 10
6.111119585016845E+90
 20
8.346071047958366E+93
 30
0.0
  9
$PLIMCHECK
 70
     0
  9
$PEXTMIN
 10
1.000000000000000E+20
 20
1.000000000000000E+20
 30
1.000000000000000E+20
  9
$PEXTMAX
 10
-1.000000000000000E+20
 20
-1.000000000000000E+20
 30
-1.000000000000000E+20
  9
$PLIMMIN
 10
0.0
 20
0.0
  9
$PLIMMAX
 10
12.0
 20
9.0
  9
$UNITMODE
 70
     0
  9
$VISRETAIN
 70
     0
  9
$PLINEGEN
 70
     0
  9
$PSLTSCALE
 70
     1
  9
$TREEDEPTH
 70
  3020
  9
$PICKSTYLE
 70
     1
  9
$CMLSTYLE
  2
STANDARD
  9
$CMLJUST
 70
     0
  9
$CMLSCALE
 40
1.0
  9
$PROXYGRAPHICS
 70
     1
  9
$MEASUREMENT
 70
     0
  0
ENDSEC
  0
SECTION
  2
CLASSES
  0
CLASS
  1
ACDBDICTIONARYWDFLT
  2
AcDbDictionaryWithDefault
  3
AutoCAD 2000
 90
        0
280
     0
281
     0
  0
CLASS
  1
ACDBPLACEHOLDER
  2
AcDbPlaceHolder
  3
AutoCAD 2000
 90
        0
280
     0
281
     0
  0
CLASS
  1
LAYOUT
  2
AcDbLayout
  3
AutoCAD 2000
 90
        0
280
     0
281
     0
  0
CLASS
  1
DICTIONARYVAR
  2
AcDbDictionaryVar
  3
AutoCAD 2000
 90
        0
280
     0
281
     0
  0
CLASS
  1
LONG_TRANSACTION
  2
AcDbLongTransaction
  3
AutoCAD 2000
 90
        0
280
     0
281
     0
  0
CLASS
  1
LWPOLYLINE
  2
AcDbPolyline
  3
AutoCAD 2000
 90
        0
280
     0
281
     1
  0
CLASS
  1
HATCH
  2
AcDbHatch
  3
AutoCAD 2000
 90
        0
280
     0
281
     1
  0
CLASS
  1
XRECORD
  2
AcDbXrecord
  3
AutoCAD 2000
 90
        0
280
     0
281
     0
  0
CLASS
  1
LONG_TRANSACTION
  2
AcDbLongTransaction
  3
AutoCAD 2000
 90
        0
280
     0
281
     0
  0
CLASS
  1
LWPOLYLINE
  2
AcDbPolyline
  3
AutoCAD 2000
 90
        0
280
     0
281
     1
  0
CLASS
  1
HATCH
  2
AcDbHatch
  3
AutoCAD 2000
 90
        0
280
     0
281
     1
  0
CLASS
  1
XRECORD
  2
AcDbXrecord
  3
AutoCAD 2000
 90
        0
280
     0
281
     0
  0
CLASS
  1
LONG_TRANSACTION
  2
AcDbLongTransaction
  3
AutoCAD 2000
 90
        0
280
     0
281
     0
  0
CLASS
  1
LWPOLYLINE
  2
AcDbPolyline
  3
AutoCAD 2000
 90
        0
280
     0
281
     1
  0
CLASS
  1
HATCH
  2
AcDbHatch
  3
AutoCAD 2000
 90
        0
280
     0
281
     1
  0
CLASS
  1
XRECORD
  2
AcDbXrecord
  3
AutoCAD 2000
 90
        0
280
     0
281
     0
  0
CLASS
  1
LONG_TRANSACTION
  2
AcDbLongTransaction
  3
AutoCAD 2000
 90
        0
280
     0
281
     0
  0
CLASS
  1
LWPOLYLINE
  2
AcDbPolyline
  3
AutoCAD 2000
 90
        0
280
     0
281
     1
  0
CLASS
  1
HATCH
  2
AcDbHatch
  3
AutoCAD 2000
 90
        0
280
     0
281
     1
  0
CLASS
  1
XRECORD
  2
AcDbXrecord
  3
AutoCAD 2000
 90
        0
280
     0
281
     0
  0
CLASS
  1
LONG_TRANSACTION
  2
AcDbLongTransaction
  3
AutoCAD 2000
 90
        0
280
     0
281
     0
  0
CLASS
  1
LWPOLYLINE
  2
AcDbPolyline
  3
AutoCAD 2000
 90
        0
280
     0
281
     1
  0
CLASS
  1
HATCH
  2
AcDbHatch
  3
AutoCAD 2000
 90
        0
280
     0
281
     1
  0
CLASS
  1
XRECORD
  2
AcDbXrecord
  3
AutoCAD 2000
 90
        0
280
     0
281
     0
  0
CLASS
  1
LONG_TRANSACTION
  2
AcDbLongTransaction
  3
AutoCAD 2000
 90
        0
280
     0
281
     0
  0
CLASS
  1
LWPOLYLINE
  2
AcDbPolyline
  3
AutoCAD 2000
 90
        0
280
     0
281
     1
  0
CLASS
  1
HATCH
  2
AcDbHatch
  3
AutoCAD 2000
 90
        0
280
     0
281
     1
  0
CLASS
  1
XRECORD
  2
AcDbXrecord
  3
AutoCAD 2000
 90
        0
280
     0
281
     0
  0
CLASS
  1
LONG_TRANSACTION
  2
AcDbLongTransaction
  3
AutoCAD 2000
 90
        0
280
     0
281
     0
  0
CLASS
  1
LWPOLYLINE
  2
AcDbPolyline
  3
AutoCAD 2000
 90
        0
280
     0
281
     1
  0
CLASS
  1
HATCH
  2
AcDbHatch
  3
AutoCAD 2000
 90
        0
280
     0
281
     1
  0
CLASS
  1
XRECORD
  2
AcDbXrecord
  3
AutoCAD 2000
 90
        0
280
     0
281
     0
  0
ENDSEC
  0
SECTION
  2
TABLES
  0
TABLE
  2
VPORT
  5
8
330
0
100
AcDbSymbolTable
 70
     2
  0
VPORT
  5
2D7
330
8
100
AcDbSymbolTableRecord
100
AcDbViewportTableRecord
  2
*ACTIVE
 70
     0
 10
0.0
 20
0.0
 11
1.0
 21
1.0
 12
9.867370679820158
 22
8.907440258780777
 13
0.0
 23
0.0
 14
0.5740882589684922
 24
0.5740882589684922
 15
0.5
 25
0.5
 16
0.0
 26
0.0
 36
1.0
 17
0.0
 27
0.0
 37
0.0
 40
8.266010207072932
 41
1.570528967254408
 42
50.0
 43
0.0
 44
0.0
 50
0.0
 51
0.0
 71
     0
 72
   100
 73
     1
 74
     0
 75
     0
 76
     0
 77
     0
 78
     0
  0
ENDTAB
  0
TABLE
  2
LTYPE
  5
5
330
0
100
AcDbSymbolTable
 70
     2
  0
LTYPE
  5
13
330
5
100
AcDbSymbolTableRecord
100
AcDbLinetypeTableRecord
  2
BYBLOCK
 70
     0
  3

 72
    65
 73
     0
 40
0.0
  0
LTYPE
  5
14
330
5
100
AcDbSymbolTableRecord
100
AcDbLinetypeTableRecord
  2
BYLAYER
 70
     0
  3

 72
    65
 73
     0
 40
0.0
  0
LTYPE
  5
15
330
5
100
AcDbSymbolTableRecord
100
AcDbLinetypeTableRecord
  2
CONTINUOUS
 70
     0
  3
Solid line
 72
    65
 73
     0
 40
0.0
  0
LTYPE
  5
26
330
5
100
AcDbSymbolTableRecord
100
AcDbLinetypeTableRecord
  2
HIDDEN2
 70
     0
  3
_ _ _ _ _ _ _ _ _ _ _ _ _ _ _ _ _ _ _ _ _ _ _ _
 72
    65
 73
     2
 40
0.1875
 49
0.125
 74
     0
 49
-0.0625
 74
     0
  0
ENDTAB
  0
TABLE
  2
LAYER
  5
2
330
0
100
AcDbSymbolTable
 70
     4
  0
LAYER
  5
10
330
2
100
AcDbSymbolTableRecord
100
AcDbLayerTableRecord
  2
0
 70
     0
 62
     7
  6
CONTINUOUS
  0
LAYER
  5
28
330
2
100
AcDbSymbolTableRecord
100
AcDbLayerTableRecord
  2
DEFPOINTS
 70
     0
 62
     7
  6
CONTINUOUS
  0
LAYER
  5
29
330
2
100
AcDbSymbolTableRecord
100
AcDbLayerTableRecord
  2
ADP2DETAIL
 70
     0
 62
     5
  6
HIDDEN2
  0
LAYER
  5
2A
330
2
100
AcDbSymbolTableRecord
100
AcDbLayerTableRecord
  2
ADPDIM
 70
     0
 62
     3
  6
CONTINUOUS
  0
ENDTAB
  0
TABLE
  2
STYLE
  5
3
330
0
100
AcDbSymbolTable
 70
     2
  0
STYLE
  5
11
330
3
100
AcDbSymbolTableRecord
100
AcDbTextStyleTableRecord
  2
STANDARD
 70
     0
 40
0.0
 41
1.0
 50
0.0
 71
     0
 42
0.2
  3
txt
  4

  0
STYLE
  5
101
330
3
100
AcDbSymbolTableRecord
100
AcDbTextStyleTableRecord
  2
ARIAL_WIDE
 70
     0
 40
0.0
 41
1.25
 50
0.0
 71
     0
 42
0.2
  3
ARIAL.TTF
  4

1001
ACAD
1000
Arial
1071
       34
  0
ENDTAB
  0
TABLE
  2
VIEW
  5
6
330
0
100
AcDbSymbolTable
 70
     0
  0
ENDTAB
  0
TABLE
  2
UCS
  5
7
330
0
100
AcDbSymbolTable
 70
     0
  0
ENDTAB
  0
TABLE
  2
APPID
  5
9
330
0
100
AcDbSymbolTable
 70
     1
  0
APPID
  5
12
330
9
100
AcDbSymbolTableRecord
100
AcDbRegAppTableRecord
  2
ACAD
 70
     0
  0
ENDTAB
  0
TABLE
  2
DIMSTYLE
  5
A
330
0
100
AcDbSymbolTable
 70
     1
  0
DIMSTYLE
105
FF
330
A
100
AcDbSymbolTableRecord
100
AcDbDimStyleTableRecord
  2
STANDARD
 70
     0
  3

  4

  5

  6

  7

 40
1.0
 41
0.18
 42
0.0625
 43
0.38
 44
0.18
 45
0.0
 46
0.0
 47
0.0
 48
0.0
140
0.18
141
0.09
142
0.0
143
25.4
144
1.0
145
0.0
146
1.0
147
0.09
 71
     0
 72
     0
 73
     1
 74
     1
 75
     0
 76
     0
 77
     0
 78
     0
170
     0
171
     2
172
     0
173
     0
174
     0
175
     0
176
     0
177
     0
178
     0
270
     2
271
     4
272
     4
273
     2
274
     2
340
11
275
     0
280
     0
281
     0
282
     0
283
     1
284
     0
285
     0
286
     0
287
     3
288
     0
  0
ENDTAB
  0
TABLE
  2
BLOCK_RECORD
  5
1
330
0
100
AcDbSymbolTable
 70
     4
  0
BLOCK_RECORD
  5
1E
102
{ACAD_XDICTIONARY
360
142
102
}
330
1
100
AcDbSymbolTableRecord
100
AcDbBlockTableRecord
  2
*MODEL_SPACE
  0
BLOCK_RECORD
  5
1A
102
{ACAD_XDICTIONARY
360
144
102
}
330
1
100
AcDbSymbolTableRecord
100
AcDbBlockTableRecord
  2
*PAPER_SPACE
  0
BLOCK_RECORD
  5
22
330
1
100
AcDbSymbolTableRecord
100
AcDbBlockTableRecord
  2
*D0
  0
BLOCK_RECORD
  5
23
330
1
100
AcDbSymbolTableRecord
100
AcDbBlockTableRecord
  2
*D1
  0
BLOCK_RECORD
  5
24
330
1
100
AcDbSymbolTableRecord
100
AcDbBlockTableRecord
  2
*D2
  0
BLOCK_RECORD
  5
25
330
1
100
AcDbSymbolTableRecord
100
AcDbBlockTableRecord
  2
*D3
  0
ENDTAB
  0
ENDSEC
  0
SECTION
  2
BLOCKS
  0
BLOCK
  5
2D
330
1E
100
AcDbEntity
  8
0
100
AcDbBlockBegin
  2
*MODEL_SPACE
 70
     0
 10
0.0
 20
0.0
 30
0.0
  3
*MODEL_SPACE
  1

  0
ENDBLK
  5
2E
330
1E
100
AcDbEntity
  8
0
100
AcDbBlockEnd
  0
BLOCK
  5
2B
330
1A
100
AcDbEntity
 67
     1
  8
0
100
AcDbBlockBegin
  2
*PAPER_SPACE
 70
     0
 10
0.0
 20
0.0
 30
0.0
  3
*PAPER_SPACE
  1

  0
ENDBLK
  5
2C
330
1A
100
AcDbEntity
 67
     1
  8
0
100
AcDbBlockEnd
  0
BLOCK
  5
2F
330
22
100
AcDbEntity
  8
0
100
AcDbBlockBegin
  2
*D0
 70
     1
 10
0.0
 20
0.0
 30
0.0
  3
*D0
  1

  0
LINE
  5
30
330
22
100
AcDbEntity
  8
0
  6
BYBLOCK
 62
     0
100
AcDbLine
 10
8.785936255692805
 20
9.70936499628563
 30
0.0
 11
7.958603936028108
 21
10.62600837553446
 31
0.0
  0
LINE
  5
31
330
22
100
AcDbEntity
  8
0
  6
BYBLOCK
 62
     0
100
AcDbLine
 10
8.609390911424979
 20
9.718406092311813
 30
0.0
 11
8.962481599960632
 21
9.700323900259448
 31
0.0
  0
LINE
  5
32
330
22
100
AcDbEntity
  8
0
  6
BYBLOCK
 62
     0
100
AcDbLine
 10
8.81091699690754
 20
9.47394682148097
 30
0.0
 11
9.18591699690754
 21
9.47394682148097
 31
0.0
  0
LINE
  5
33
330
22
100
AcDbEntity
  8
0
  6
BYBLOCK
 62
     0
100
AcDbLine
 10
8.99841699690754
 20
9.28644682148097
 30
0.0
 11
8.99841699690754
 21
9.66144682148097
 31
0.0
  0
TEXT
  5
34
330
22
100
AcDbEntity
  8
0
  6
BYBLOCK
 62
     0
100
AcDbText
 10
7.521364080057437
 20
11.01716734082674
 30
0.0
 40
0.125
  1
%%c5/8
 50
312.0683763412141
 72
     1
 11
7.721306251019113
 21
10.88892249928431
 31
0.0
100
AcDbText
 73
     2
  0
POINT
  5
36
330
22
100
AcDbEntity
  8
DEFPOINTS
  6
BYBLOCK
 62
     0
100
AcDbPoint
 10
8.785936255692805
 20
9.70936499628563
 30
0.0
  0
POINT
  5
37
330
22
100
AcDbEntity
  8
DEFPOINTS
  6
BYBLOCK
 62
     0
100
AcDbPoint
 10
9.210897738122273
 20
9.238528646676307
 30
0.0
  0
ENDBLK
  5
38
330
22
100
AcDbEntity
  8
0
100
AcDbBlockEnd
  0
BLOCK
  5
39
330
23
100
AcDbEntity
  8
0
100
AcDbBlockBegin
  2
*D1
 70
     1
 10
0.0
 20
0.0
 30
0.0
  3
*D1
  1

  0
LINE
  5
3A
330
23
100
AcDbEntity
  8
0
  6
BYBLOCK
 62
     0
100
AcDbLine
 10
7.742426008510876
 20
8.653893995703038
 30
0.0
 11
7.533094177111432
 21
8.51721852474005
 31
0.0
  0
LINE
  5
3B
330
23
100
AcDbEntity
  8
0
  6
BYBLOCK
 62
     0
100
AcDbLine
 10
7.706097828292648
 20
8.480890344521823
 30
0.0
 11
7.778754188729103
 21
8.826897646884255
 31
0.0
  0
LINE
  5
3C
330
23
100
AcDbEntity
  8
0
  6
BYBLOCK
 62
     0
100
AcDbLine
 10
8.810916996907538
 20
9.473946821480971
 30
0.0
 11
9.185916996907538
 21
9.473946821480971
 31
0.0
  0
LINE
  5
3D
330
23
100
AcDbEntity
  8
0
  6
BYBLOCK
 62
     0
100
AcDbLine
 10
8.998416996907538
 20
9.286446821480971
 30
0.0
 11
8.998416996907538
 21
9.661446821480971
 31
0.0
  0
TEXT
  5
3E
330
23
100
AcDbEntity
  8
0
  6
BYBLOCK
 62
     0
100
AcDbText
 10
7.288153936319588
 20
8.282651605606202
 30
0.0
 40
0.125
  1
%%c3
 50
33.14104131383583
 72
     1
 11
7.341206664995276
 21
8.39193267635731
 31
0.0
100
AcDbText
 73
     2
  0
POINT
  5
3F
330
23
100
AcDbEntity
  8
DEFPOINTS
  6
BYBLOCK
 62
     0
100
AcDbPoint
 10
7.742426008510876
 20
8.653893995703038
 30
0.0
  0
POINT
  5
40
330
23
100
AcDbEntity
  8
DEFPOINTS
  6
BYBLOCK
 62
     0
100
AcDbPoint
 10
10.2544079853042
 20
10.2939996472589
 30
0.0
  0
ENDBLK
  5
41
330
23
100
AcDbEntity
  8
0
100
AcDbBlockEnd
  0
BLOCK
  5
42
330
24
100
AcDbEntity
  8
0
100
AcDbBlockBegin
  2
*D2
 70
     1
 10
0.0
 20
0.0
 30
0.0
  3
*D2
  1

  0
LINE
  5
43
330
24
100
AcDbEntity
  8
0
  6
BYBLOCK
 62
     0
100
AcDbLine
 10
10.85380314078042
 20
7.911446821480968
 30
0.0
 11
10.85380314078042
 21
7.477576300759791
 31
0.0
  0
LINE
  5
44
330
24
100
AcDbEntity
  8
0
  6
BYBLOCK
 62
     0
100
AcDbLine
 10
10.66580314078042
 20
7.911446821480968
 30
0.0
 11
10.66580314078042
 21
7.477576300759791
 31
0.0
  0
LINE
  5
45
330
24
100
AcDbEntity
  8
0
  6
BYBLOCK
 62
     0
100
AcDbLine
 10
10.85380314078042
 20
7.657576300759791
 30
0.0
 11
11.10380314078042
 21
7.657576300759791
 31
0.0
  0
LINE
  5
46
330
24
100
AcDbEntity
  8
0
  6
BYBLOCK
 62
     0
100
AcDbLine
 10
10.66580314078042
 20
7.657576300759791
 30
0.0
 11
10.41580314078042
 21
7.657576300759791
 31
0.0
  0
LINE
  5
47
330
24
100
AcDbEntity
  8
0
  6
BYBLOCK
 62
     0
100
AcDbLine
 10
10.72880314078042
 20
7.532576300759791
 30
0.0
 11
10.97880314078042
 21
7.782576300759791
 31
0.0
  0
LINE
  5
48
330
24
100
AcDbEntity
  8
0
  6
BYBLOCK
 62
     0
100
AcDbLine
 10
10.54080314078042
 20
7.532576300759791
 30
0.0
 11
10.79080314078042
 21
7.782576300759791
 31
0.0
  0
TEXT
  5
49
330
24
100
AcDbEntity
  8
0
  6
BYBLOCK
 62
     0
100
AcDbText
 10
9.874136474113758
 20
7.595076300759791
 30
0.0
 40
0.125
  1
3/16
 72
     1
 11
10.08246980744709
 21
7.657576300759791
 31
0.0
100
AcDbText
 73
     2
  0
POINT
  5
4A
330
24
100
AcDbEntity
  8
DEFPOINTS
  6
BYBLOCK
 62
     0
100
AcDbPoint
 10
10.85380314078042
 20
7.973946821480968
 30
0.0
  0
POINT
  5
4B
330
24
100
AcDbEntity
  8
DEFPOINTS
  6
BYBLOCK
 62
     0
100
AcDbPoint
 10
10.66580314078042
 20
7.973946821480968
 30
0.0
  0
POINT
  5
4C
330
24
100
AcDbEntity
  8
DEFPOINTS
  6
BYBLOCK
 62
     0
100
AcDbPoint
 10
10.66580314078042
 20
7.657576300759791
 30
0.0
  0
ENDBLK
  5
4D
330
24
100
AcDbEntity
  8
0
100
AcDbBlockEnd
  0
BLOCK
  5
4E
330
25
100
AcDbEntity
  8
0
100
AcDbBlockBegin
  2
*D3
 70
     1
 10
0.0
 20
0.0
 30
0.0
  3
*D3
  1

  0
LINE
  5
4F
330
25
100
AcDbEntity
  8
0
  6
BYBLOCK
 62
     0
100
AcDbLine
 10
10.88480314078042
 20
11.03644682148096
 30
0.0
 11
10.88480314078042
 21
11.36107630669997
 31
0.0
  0
LINE
  5
50
330
25
100
AcDbEntity
  8
0
  6
BYBLOCK
 62
     0
100
AcDbLine
 10
11.39753375012382
 20
11.03644682148096
 30
0.0
 11
11.39753375012382
 21
11.36107630669997
 31
0.0
  0
LINE
  5
51
330
25
100
AcDbEntity
  8
0
  6
BYBLOCK
 62
     0
100
AcDbLine
 10
10.88480314078042
 20
11.18107630669997
 30
0.0
 11
10.63480314078042
 21
11.18107630669997
 31
0.0
  0
LINE
  5
52
330
25
100
AcDbEntity
  8
0
  6
BYBLOCK
 62
     0
100
AcDbLine
 10
11.39753375012382
 20
11.18107630669997
 30
0.0
 11
11.64753375012382
 21
11.18107630669997
 31
0.0
  0
LINE
  5
53
330
25
100
AcDbEntity
  8
0
  6
BYBLOCK
 62
     0
100
AcDbLine
 10
10.75980314078042
 20
11.05607630669997
 30
0.0
 11
11.00980314078042
 21
11.30607630669997
 31
0.0
  0
LINE
  5
54
330
25
100
AcDbEntity
  8
0
  6
BYBLOCK
 62
     0
100
AcDbLine
 10
11.27253375012382
 20
11.05607630669997
 30
0.0
 11
11.52253375012382
 21
11.30607630669997
 31
0.0
  0
TEXT
  5
55
330
25
100
AcDbEntity
  8
0
  6
BYBLOCK
 62
     0
100
AcDbText
 10
11.77253375012382
 20
11.11857630669997
 30
0.0
 40
0.125
  1
1/2
 72
     1
 11
11.91836708345716
 21
11.18107630669997
 31
0.0
100
AcDbText
 73
     2
  0
POINT
  5
56
330
25
100
AcDbEntity
  8
DEFPOINTS
  6
BYBLOCK
 62
     0
100
AcDbPoint
 10
10.88480314078042
 20
10.97394682148096
 30
0.0
  0
POINT
  5
57
330
25
100
AcDbEntity
  8
DEFPOINTS
  6
BYBLOCK
 62
     0
100
AcDbPoint
 10
11.39753375012382
 20
10.97394682148096
 30
0.0
  0
POINT
  5
58
330
25
100
AcDbEntity
  8
DEFPOINTS
  6
BYBLOCK
 62
     0
100
AcDbPoint
 10
11.39753375012382
 20
11.18107630669997
 30
0.0
  0
ENDBLK
  5
59
330
25
100
AcDbEntity
  8
0
100
AcDbBlockEnd
  0
ENDSEC
  0
SECTION
  2
ENTITIES
  0
DIMENSION
  5
5A
330
1E
100
AcDbEntity
  8
ADPDIM
100
AcDbDimension
  2
*D1
 10
10.2544079853042
 20
10.2939996472589
 30
0.0
 11
7.341206664995276
 21
8.39193267635731
 31
0.0
 70
     3
100
AcDbDiametricDimension
 15
7.742426008510876
 25
8.653893995703038
 35
0.0
 40
0.0
  0
CIRCLE
  5
5B
330
1E
100
AcDbEntity
  8
0
100
AcDbCircle
 10
8.998416996907538
 20
9.473946821480968
 30
0.0
 40
1.5
  0
CIRCLE
  5
5C
330
1E
100
AcDbEntity
  8
0
100
AcDbCircle
 10
8.998416996907538
 20
9.473946821480968
 30
0.0
 40
0.3171273914620452
  0
CIRCLE
  5
5D
330
1E
100
AcDbEntity
  8
0
100
AcDbCircle
 10
8.998416996907538
 20
9.473946821480968
 30
0.0
 40
0.1873934420861377
  0
DIMENSION
  5
5E
330
1E
100
AcDbEntity
  8
ADPDIM
100
AcDbDimension
  2
*D0
 10
9.210897738122273
 20
9.238528646676307
 30
0.0
 11
7.721306251019113
 21
10.88892249928431
 31
0.0
 70
     3
100
AcDbDiametricDimension
 15
8.785936255692805
 25
9.70936499628563
 35
0.0
 40
1.234793040101251
  0
LINE
  5
5F
330
1E
100
AcDbEntity
  8
0
100
AcDbLine
 10
11.86619477468531
 20
9.612835710369857
 30
0.0
 11
11.90619477468531
 21
9.32616904370319
 31
0.0
  0
LINE
  5
60
330
1E
100
AcDbEntity
  8
0
100
AcDbLine
 10
11.83286144135198
 20
9.32616904370319
 30
0.0
 11
11.79952810801865
 21
9.612835710369857
 31
0.0
  0
LINE
  5
61
330
1E
100
AcDbEntity
  8
0
100
AcDbLine
 10
11.65286144135198
 20
9.606169043703189
 30
0.0
 11
11.68619477468531
 21
9.32616904370319
 31
0.0
  0
LINE
  5
62
330
1E
100
AcDbEntity
  8
0
100
AcDbLine
 10
11.57952810801865
 20
9.606169043703189
 30
0.0
 11
11.61286144135198
 21
9.32616904370319
 31
0.0
  0
LINE
  5
63
330
1E
100
AcDbEntity
  8
0
100
AcDbLine
 10
11.72619477468531
 20
9.612835710369857
 30
0.0
 11
11.75952810801865
 21
9.32616904370319
 31
0.0
  0
LINE
  5
64
330
1E
100
AcDbEntity
  8
ADP2DETAIL
100
AcDbLine
 10
11.28619477468531
 20
9.612835710369857
 30
0.0
 11
11.32619477468531
 21
9.32616904370319
 31
0.0
  0
LINE
  5
65
330
1E
100
AcDbEntity
  8
ADP2DETAIL
100
AcDbLine
 10
11.28619477468531
 20
9.612835710369857
 30
0.0
 11
11.32619477468531
 21
9.332835710369858
 31
0.0
  0
LINE
  5
66
330
1E
100
AcDbEntity
  8
ADP2DETAIL
100
AcDbLine
 10
11.13952810801865
 20
9.606169043703189
 30
0.0
 11
11.17952810801865
 21
9.32616904370319
 31
0.0
  0
LINE
  5
67
330
1E
100
AcDbEntity
  8
ADP2DETAIL
100
AcDbLine
 10
11.21286144135198
 20
9.612835710369857
 30
0.0
 11
11.25286144135198
 21
9.32616904370319
 31
0.0
  0
LINE
  5
68
330
1E
100
AcDbEntity
  8
ADP2DETAIL
100
AcDbLine
 10
11.13952810801865
 20
9.612835710369857
 30
0.0
 11
11.17952810801865
 21
9.32616904370319
 31
0.0
  0
LINE
  5
69
330
1E
100
AcDbEntity
  8
ADP2DETAIL
100
AcDbLine
 10
11.21286144135198
 20
9.612835710369857
 30
0.0
 11
11.25286144135198
 21
9.332835710369858
 31
0.0
  0
LINE
  5
6A
330
1E
100
AcDbEntity
  8
ADP2DETAIL
100
AcDbLine
 10
11.35952810801865
 20
9.612835710369857
 30
0.0
 11
11.39286144135198
 21
9.32616904370319
 31
0.0
  0
LINE
  5
6B
330
1E
100
AcDbEntity
  8
ADP2DETAIL
100
AcDbLine
 10
11.35952810801865
 20
9.612835710369857
 30
0.0
 11
11.39286144135198
 21
9.332835710369858
 31
0.0
  0
LINE
  5
6C
330
1E
100
AcDbEntity
  8
0
100
AcDbLine
 10
11.43286144135198
 20
9.612835710369857
 30
0.0
 11
11.47286144135198
 21
9.32616904370319
 31
0.0
  0
LINE
  5
6D
330
1E
100
AcDbEntity
  8
ADP2DETAIL
100
AcDbLine
 10
10.99286144135198
 20
9.612835710369857
 30
0.0
 11
11.03286144135198
 21
9.32616904370319
 31
0.0
  0
LINE
  5
6E
330
1E
100
AcDbEntity
  8
ADP2DETAIL
100
AcDbLine
 10
10.99286144135198
 20
9.612835710369857
 30
0.0
 11
11.03286144135198
 21
9.332835710369858
 31
0.0
  0
LINE
  5
6F
330
1E
100
AcDbEntity
  8
ADP2DETAIL
100
AcDbLine
 10
11.06619477468531
 20
9.606169043703189
 30
0.0
 11
11.10619477468531
 21
9.32616904370319
 31
0.0
  0
LINE
  5
70
330
1E
100
AcDbEntity
  8
ADP2DETAIL
100
AcDbLine
 10
11.06619477468531
 20
9.612835710369857
 30
0.0
 11
11.10619477468531
 21
9.32616904370319
 31
0.0
  0
LINE
  5
71
330
1E
100
AcDbEntity
  8
0
100
AcDbLine
 10
11.50619477468531
 20
9.612835710369857
 30
0.0
 11
11.53952810801865
 21
9.32616904370319
 31
0.0
  0
LINE
  5
72
330
1E
100
AcDbEntity
  8
0
100
AcDbLine
 10
11.90619477468531
 20
9.659502377036524
 30
0.0
 11
11.93952810801864
 21
9.279502377036523
 31
0.0
  0
LINE
  5
73
330
1E
100
AcDbEntity
  8
0
100
AcDbLine
 10
11.83286144135198
 20
9.659502377036524
 30
0.0
 11
11.86619477468531
 21
9.279502377036523
 31
0.0
  0
LINE
  5
74
330
1E
100
AcDbEntity
  8
0
100
AcDbLine
 10
11.61286144135198
 20
9.659502377036524
 30
0.0
 11
11.65286144135198
 21
9.279502377036523
 31
0.0
  0
LINE
  5
75
330
1E
100
AcDbEntity
  8
0
100
AcDbLine
 10
11.53952810801865
 20
9.659502377036524
 30
0.0
 11
11.57952810801865
 21
9.279502377036523
 31
0.0
  0
LINE
  5
76
330
1E
100
AcDbEntity
  8
0
100
AcDbLine
 10
11.46619477468531
 20
9.659502377036524
 30
0.0
 11
11.50619477468531
 21
9.279502377036523
 31
0.0
  0
LINE
  5
77
330
1E
100
AcDbEntity
  8
0
100
AcDbLine
 10
11.68619477468531
 20
9.659502377036524
 30
0.0
 11
11.72619477468531
 21
9.279502377036523
 31
0.0
  0
LINE
  5
78
330
1E
100
AcDbEntity
  8
0
100
AcDbLine
 10
11.75952810801865
 20
9.659502377036524
 30
0.0
 11
11.79952810801865
 21
9.279502377036523
 31
0.0
  0
LINE
  5
79
330
1E
100
AcDbEntity
  8
ADP2DETAIL
100
AcDbLine
 10
11.10619477468531
 20
9.659502377036524
 30
0.0
 11
11.13952810801865
 21
9.279502377036523
 31
0.0
  0
LINE
  5
7A
330
1E
100
AcDbEntity
  8
ADP2DETAIL
100
AcDbLine
 10
11.17952810801865
 20
9.659502377036524
 30
0.0
 11
11.21286144135198
 21
9.279502377036523
 31
0.0
  0
LINE
  5
7B
330
1E
100
AcDbEntity
  8
ADP2DETAIL
100
AcDbLine
 10
11.25286144135198
 20
9.659502377036524
 30
0.0
 11
11.28619477468531
 21
9.279502377036523
 31
0.0
  0
LINE
  5
7C
330
1E
100
AcDbEntity
  8
ADP2DETAIL
100
AcDbLine
 10
11.10619477468531
 20
9.659502377036524
 30
0.0
 11
11.13952810801865
 21
9.286169043703191
 31
0.0
  0
LINE
  5
7D
330
1E
100
AcDbEntity
  8
ADP2DETAIL
100
AcDbLine
 10
11.17952810801865
 20
9.659502377036524
 30
0.0
 11
11.21286144135198
 21
9.286169043703191
 31
0.0
  0
LINE
  5
7E
330
1E
100
AcDbEntity
  8
ADP2DETAIL
100
AcDbLine
 10
11.25286144135198
 20
9.659502377036524
 30
0.0
 11
11.28619477468531
 21
9.286169043703191
 31
0.0
  0
LINE
  5
7F
330
1E
100
AcDbEntity
  8
0
100
AcDbLine
 10
11.39952810801865
 20
9.659502377036524
 30
0.0
 11
11.43286144135198
 21
9.279502377036523
 31
0.0
  0
LINE
  5
80
330
1E
100
AcDbEntity
  8
ADP2DETAIL
100
AcDbLine
 10
11.31952810801865
 20
9.659502377036524
 30
0.0
 11
11.35952810801865
 21
9.279502377036523
 31
0.0
  0
LINE
  5
81
330
1E
100
AcDbEntity
  8
ADP2DETAIL
100
AcDbLine
 10
11.31952810801865
 20
9.659502377036524
 30
0.0
 11
11.35952810801865
 21
9.286169043703191
 31
0.0
  0
LINE
  5
82
330
1E
100
AcDbEntity
  8
ADP2DETAIL
100
AcDbLine
 10
11.03286144135198
 20
9.659502377036524
 30
0.0
 11
11.06619477468531
 21
9.279502377036523
 31
0.0
  0
LINE
  5
83
330
1E
100
AcDbEntity
  8
ADP2DETAIL
100
AcDbLine
 10
11.03286144135198
 20
9.659502377036524
 30
0.0
 11
11.06619477468531
 21
9.286169043703191
 31
0.0
  0
LINE
  5
84
330
1E
100
AcDbEntity
  8
0
100
AcDbLine
 10
11.94619477468531
 20
9.612835710369857
 30
0.0
 11
11.97952810801865
 21
9.32616904370319
 31
0.0
  0
LINE
  5
85
330
1E
100
AcDbEntity
  8
ADP2DETAIL
100
AcDbLine
 10
10.92619477468531
 20
9.612835710369857
 30
0.0
 11
10.95952810801865
 21
9.32616904370319
 31
0.0
  0
LINE
  5
86
330
1E
100
AcDbEntity
  8
ADP2DETAIL
100
AcDbLine
 10
10.92619477468531
 20
9.612835710369857
 30
0.0
 11
10.95952810801865
 21
9.332835710369858
 31
0.0
  0
LINE
  5
87
330
1E
100
AcDbEntity
  8
ADP2DETAIL
100
AcDbLine
 10
10.88619477468531
 20
9.659502377036524
 30
0.0
 11
10.91952810801865
 21
9.279502377036523
 31
0.0
  0
LINE
  5
88
330
1E
100
AcDbEntity
  8
ADP2DETAIL
100
AcDbLine
 10
10.88619477468531
 20
9.659502377036524
 30
0.0
 11
10.91952810801865
 21
9.286169043703191
 31
0.0
  0
LINE
  5
89
330
1E
100
AcDbEntity
  8
ADP2DETAIL
100
AcDbLine
 10
10.95952810801865
 20
9.659502377036524
 30
0.0
 11
10.99286144135198
 21
9.279502377036523
 31
0.0
  0
LINE
  5
8A
330
1E
100
AcDbEntity
  8
ADP2DETAIL
100
AcDbLine
 10
10.95952810801865
 20
9.659502377036524
 30
0.0
 11
10.99286144135198
 21
9.286169043703191
 31
0.0
  0
LWPOLYLINE
  5
8B
330
1E
100
AcDbEntity
  8
0
100
AcDbPolyline
 90
        4
 70
     1
 43
0.0
 10
11.39753375012382
 20
7.973946821480968
 10
11.39753375012382
 20
10.97394682148096
 10
11.42853375012382
 20
10.97394682148096
 10
11.42853375012382
 20
7.973946821480968
  0
LWPOLYLINE
  5
91
330
1E
100
AcDbEntity
  8
0
100
AcDbPolyline
 90
        4
 70
     1
 43
0.0
 10
10.85380314078042
 20
7.973946821480968
 10
10.85380314078042
 20
10.97394682148096
 10
10.88480314078042
 20
10.97394682148096
 10
10.88480314078042
 20
7.973946821480968
  0
LWPOLYLINE
  5
97
330
1E
100
AcDbEntity
  8
0
100
AcDbPolyline
 90
        4
 70
     1
 43
0.0
 10
10.66580314078042
 20
7.973946821480968
 10
10.66580314078042
 20
10.97394682148096
 10
10.85380314078042
 20
10.97394682148096
 10
10.85380314078042
 20
7.973946821480968
  0
LINE
  5
9D
330
1E
100
AcDbEntity
  8
0
100
AcDbLine
 10
10.88609150534386
 20
9.151905557330833
 30
0.0
 11
11.39416380836756
 21
9.151905557330833
 31
0.0
  0
LINE
  5
9E
330
1E
100
AcDbEntity
  8
ADP2DETAIL
100
AcDbLine
 10
10.88609150534386
 20
9.287030126389749
 30
0.0
 11
11.39416380836756
 21
9.287030126389749
 31
0.0
  0
LINE
  5
9F
330
1E
100
AcDbEntity
  8
ADP2DETAIL
100
AcDbLine
 10
10.95952810801865
 20
9.32616904370319
 30
0.0
 11
10.99286144135198
 21
9.286169043703191
 31
0.0
  0
LINE
  5
A0
330
1E
100
AcDbEntity
  8
ADP2DETAIL
100
AcDbLine
 10
10.95952810801865
 20
9.32616904370319
 30
0.0
 11
10.99286144135198
 21
9.286169043703191
 31
0.0
  0
LINE
  5
A1
330
1E
100
AcDbEntity
  8
ADP2DETAIL
100
AcDbLine
 10
10.95644641850847
 20
9.321143408140125
 30
0.0
 11
10.98860317148223
 21
9.28901473277502
 31
0.0
  0
DIMENSION
  5
A2
330
1E
100
AcDbEntity
  8
ADPDIM
100
AcDbDimension
  2
*D2
 10
10.66580314078042
 20
7.657576300759791
 30
0.0
 11
10.08246980744709
 21
7.657576300759791
 31
0.0
100
AcDbAlignedDimension
 13
10.85380314078042
 23
7.973946821480968
 33
0.0
 14
10.66580314078042
 24
7.973946821480968
 34
0.0
100
AcDbRotatedDimension
  0
LINE
  5
A3
330
1E
100
AcDbEntity
  8
ADP2DETAIL
100
AcDbLine
 10
10.91952810801865
 20
9.286169043703191
 30
0.0
 11
10.95952810801865
 21
9.32616904370319
 31
0.0
  0
LINE
  5
A4
330
1E
100
AcDbEntity
  8
ADP2DETAIL
100
AcDbLine
 10
10.91952810801865
 20
9.286169043703191
 30
0.0
 11
10.95952810801865
 21
9.32616904370319
 31
0.0
  0
LINE
  5
A5
330
1E
100
AcDbEntity
  8
ADP2DETAIL
100
AcDbLine
 10
10.92428962408224
 20
9.28901473277502
 30
0.0
 11
10.95644641850847
 21
9.321143408140125
 31
0.0
  0
LINE
  5
A6
330
1E
100
AcDbEntity
  8
0
100
AcDbLine
 10
11.39860212424368
 20
7.973344829697479
 30
0.0
 11
11.42673931418508
 21
7.973344829697479
 31
0.0
  0
LINE
  5
A7
330
1E
100
AcDbEntity
  8
0
100
AcDbLine
 10
11.65286144135198
 20
9.286169043703191
 30
0.0
 11
11.68619477468531
 21
9.32616904370319
 31
0.0
  0
LINE
  5
A8
330
1E
100
AcDbEntity
  8
ADP2DETAIL
100
AcDbLine
 10
11.31952810801865
 20
9.32616904370319
 30
0.0
 11
11.35952810801865
 21
9.286169043703191
 31
0.0
  0
LINE
  5
A9
330
1E
100
AcDbEntity
  8
ADP2DETAIL
100
AcDbLine
 10
11.31952810801865
 20
9.32616904370319
 30
0.0
 11
11.35952810801865
 21
9.286169043703191
 31
0.0
  0
LINE
  5
AA
330
1E
100
AcDbEntity
  8
ADP2DETAIL
100
AcDbLine
 10
11.21286144135198
 20
9.286169043703191
 30
0.0
 11
11.25286144135198
 21
9.32616904370319
 31
0.0
  0
LINE
  5
AB
330
1E
100
AcDbEntity
  8
ADP2DETAIL
100
AcDbLine
 10
11.21286144135198
 20
9.286169043703191
 30
0.0
 11
11.25286144135198
 21
9.32616904370319
 31
0.0
  0
LINE
  5
AC
330
1E
100
AcDbEntity
  8
ADP2DETAIL
100
AcDbLine
 10
11.10619477468531
 20
9.32616904370319
 30
0.0
 11
11.14619477468531
 21
9.286169043703191
 31
0.0
  0
LINE
  5
AD
330
1E
100
AcDbEntity
  8
ADP2DETAIL
100
AcDbLine
 10
11.14619477468531
 20
9.286169043703191
 30
0.0
 11
11.17952810801865
 21
9.32616904370319
 31
0.0
  0
LINE
  5
AE
330
1E
100
AcDbEntity
  8
ADP2DETAIL
100
AcDbLine
 10
11.17952810801865
 20
9.32616904370319
 30
0.0
 11
11.21286144135198
 21
9.286169043703191
 31
0.0
  0
LINE
  5
AF
330
1E
100
AcDbEntity
  8
ADP2DETAIL
100
AcDbLine
 10
11.10619477468531
 20
9.32616904370319
 30
0.0
 11
11.14619477468531
 21
9.286169043703191
 31
0.0
  0
LINE
  5
B0
330
1E
100
AcDbEntity
  8
ADP2DETAIL
100
AcDbLine
 10
11.14619477468531
 20
9.286169043703191
 30
0.0
 11
11.17952810801865
 21
9.32616904370319
 31
0.0
  0
LINE
  5
B1
330
1E
100
AcDbEntity
  8
ADP2DETAIL
100
AcDbLine
 10
11.17952810801865
 20
9.32616904370319
 30
0.0
 11
11.21286144135198
 21
9.286169043703191
 31
0.0
  0
LINE
  5
B2
330
1E
100
AcDbEntity
  8
ADP2DETAIL
100
AcDbLine
 10
10.99286144135198
 20
9.286169043703191
 30
0.0
 11
11.03286144135198
 21
9.32616904370319
 31
0.0
  0
LINE
  5
B3
330
1E
100
AcDbEntity
  8
ADP2DETAIL
100
AcDbLine
 10
11.03286144135198
 20
9.32616904370319
 30
0.0
 11
11.06619477468531
 21
9.286169043703191
 31
0.0
  0
LINE
  5
B4
330
1E
100
AcDbEntity
  8
ADP2DETAIL
100
AcDbLine
 10
10.99286144135198
 20
9.286169043703191
 30
0.0
 11
11.03286144135198
 21
9.32616904370319
 31
0.0
  0
LINE
  5
B5
330
1E
100
AcDbEntity
  8
ADP2DETAIL
100
AcDbLine
 10
11.03286144135198
 20
9.32616904370319
 30
0.0
 11
11.06619477468531
 21
9.286169043703191
 31
0.0
  0
LINE
  5
B6
330
1E
100
AcDbEntity
  8
ADP2DETAIL
100
AcDbLine
 10
11.06619477468531
 20
9.286169043703191
 30
0.0
 11
11.10619477468531
 21
9.32616904370319
 31
0.0
  0
LINE
  5
B7
330
1E
100
AcDbEntity
  8
ADP2DETAIL
100
AcDbLine
 10
11.06619477468531
 20
9.286169043703191
 30
0.0
 11
11.10619477468531
 21
9.32616904370319
 31
0.0
  0
LINE
  5
B8
330
1E
100
AcDbEntity
  8
ADP2DETAIL
100
AcDbLine
 10
11.28619477468531
 20
9.286169043703191
 30
0.0
 11
11.31952810801865
 21
9.32616904370319
 31
0.0
  0
LINE
  5
B9
330
1E
100
AcDbEntity
  8
ADP2DETAIL
100
AcDbLine
 10
11.28619477468531
 20
9.286169043703191
 30
0.0
 11
11.31952810801865
 21
9.32616904370319
 31
0.0
  0
LINE
  5
BA
330
1E
100
AcDbEntity
  8
ADP2DETAIL
100
AcDbLine
 10
11.25286144135198
 20
9.32616904370319
 30
0.0
 11
11.28619477468531
 21
9.286169043703191
 31
0.0
  0
LINE
  5
BB
330
1E
100
AcDbEntity
  8
ADP2DETAIL
100
AcDbLine
 10
11.25286144135198
 20
9.32616904370319
 30
0.0
 11
11.28619477468531
 21
9.286169043703191
 31
0.0
  0
LINE
  5
BC
330
1E
100
AcDbEntity
  8
0
100
AcDbLine
 10
11.43952810801865
 20
9.452835710369857
 30
0.0
 11
11.43952810801865
 21
9.452835710369857
 31
0.0
  0
LINE
  5
BD
330
1E
100
AcDbEntity
  8
0
100
AcDbLine
 10
11.57952810801865
 20
9.286169043703191
 30
0.0
 11
11.61286144135198
 21
9.32616904370319
 31
0.0
  0
LINE
  5
BE
330
1E
100
AcDbEntity
  8
0
100
AcDbLine
 10
11.53952810801865
 20
9.32616904370319
 30
0.0
 11
11.57952810801865
 21
9.286169043703191
 31
0.0
  0
LINE
  5
BF
330
1E
100
AcDbEntity
  8
0
100
AcDbLine
 10
11.50619477468531
 20
9.286169043703191
 30
0.0
 11
11.53952810801865
 21
9.32616904370319
 31
0.0
  0
LINE
  5
C0
330
1E
100
AcDbEntity
  8
0
100
AcDbLine
 10
11.46619477468531
 20
9.32616904370319
 30
0.0
 11
11.50619477468531
 21
9.286169043703191
 31
0.0
  0
LINE
  5
C1
330
1E
100
AcDbEntity
  8
0
100
AcDbLine
 10
11.39952810801865
 20
9.32616904370319
 30
0.0
 11
11.43286144135198
 21
9.286169043703191
 31
0.0
  0
LINE
  5
C2
330
1E
100
AcDbEntity
  8
ADP2DETAIL
100
AcDbLine
 10
11.35952810801865
 20
9.286169043703191
 30
0.0
 11
11.39952810801865
 21
9.32616904370319
 31
0.0
  0
LINE
  5
C3
330
1E
100
AcDbEntity
  8
ADP2DETAIL
100
AcDbLine
 10
11.35952810801865
 20
9.286169043703191
 30
0.0
 11
11.39952810801865
 21
9.32616904370319
 31
0.0
  0
LINE
  5
C4
330
1E
100
AcDbEntity
  8
0
100
AcDbLine
 10
11.43286144135198
 20
9.286169043703191
 30
0.0
 11
11.46619477468531
 21
9.32616904370319
 31
0.0
  0
LINE
  5
C5
330
1E
100
AcDbEntity
  8
0
100
AcDbLine
 10
11.61286144135198
 20
9.32616904370319
 30
0.0
 11
11.65286144135198
 21
9.286169043703191
 31
0.0
  0
LINE
  5
C6
330
1E
100
AcDbEntity
  8
0
100
AcDbLine
 10
11.93952810801864
 20
9.286169043703191
 30
0.0
 11
11.97952810801865
 21
9.32616904370319
 31
0.0
  0
LINE
  5
C7
330
1E
100
AcDbEntity
  8
0
100
AcDbLine
 10
11.90619477468531
 20
9.32616904370319
 30
0.0
 11
11.93952810801864
 21
9.286169043703191
 31
0.0
  0
LINE
  5
C8
330
1E
100
AcDbEntity
  8
0
100
AcDbLine
 10
11.87286144135198
 20
9.286169043703191
 30
0.0
 11
11.90619477468531
 21
9.32616904370319
 31
0.0
  0
LINE
  5
C9
330
1E
100
AcDbEntity
  8
0
100
AcDbLine
 10
11.83286144135198
 20
9.32616904370319
 30
0.0
 11
11.87286144135198
 21
9.286169043703191
 31
0.0
  0
LINE
  5
CA
330
1E
100
AcDbEntity
  8
0
100
AcDbLine
 10
11.79286144135198
 20
9.286169043703191
 30
0.0
 11
11.83286144135198
 21
9.32616904370319
 31
0.0
  0
LINE
  5
CB
330
1E
100
AcDbEntity
  8
0
100
AcDbLine
 10
11.72619477468531
 20
9.286169043703191
 30
0.0
 11
11.75952810801865
 21
9.32616904370319
 31
0.0
  0
LINE
  5
CC
330
1E
100
AcDbEntity
  8
0
100
AcDbLine
 10
11.68619477468531
 20
9.32616904370319
 30
0.0
 11
11.72619477468531
 21
9.286169043703191
 31
0.0
  0
LINE
  5
CD
330
1E
100
AcDbEntity
  8
0
100
AcDbLine
 10
11.75952810801865
 20
9.32616904370319
 30
0.0
 11
11.79286144135198
 21
9.286169043703191
 31
0.0
  0
DIMENSION
  5
CE
330
1E
100
AcDbEntity
  8
ADPDIM
100
AcDbDimension
  2
*D3
 10
11.39753375012382
 20
11.18107630669997
 30
0.0
 11
11.91836708345716
 21
11.18107630669997
 31
0.0
100
AcDbAlignedDimension
 13
10.88480314078042
 23
10.97394682148096
 33
0.0
 14
11.39753375012382
 24
10.97394682148096
 34
0.0
100
AcDbRotatedDimension
  0
LINE
  5
CF
330
1E
100
AcDbEntity
  8
0
100
AcDbLine
 10
11.39416380836756
 20
9.791074212943014
 30
0.0
 11
10.88609150534386
 21
9.791074212943014
 31
0.0
  0
LINE
  5
D0
330
1E
100
AcDbEntity
  8
ADP2DETAIL
100
AcDbLine
 10
10.88609150534386
 20
9.66038271991359
 30
0.0
 11
11.39416380836756
 21
9.66038271991359
 31
0.0
  0
LINE
  5
D1
330
1E
100
AcDbEntity
  8
ADP2DETAIL
100
AcDbLine
 10
10.99286144135198
 20
9.612835710369857
 30
0.0
 11
10.95952810801865
 21
9.659502377036524
 31
0.0
  0
LINE
  5
D2
330
1E
100
AcDbEntity
  8
ADP2DETAIL
100
AcDbLine
 10
10.99286144135198
 20
9.612835710369857
 30
0.0
 11
10.95952810801865
 21
9.659502377036524
 31
0.0
  0
LINE
  5
D3
330
1E
100
AcDbEntity
  8
ADP2DETAIL
100
AcDbLine
 10
10.95952810801865
 20
9.659502377036524
 30
0.0
 11
10.91952810801865
 21
9.612835710369857
 31
0.0
  0
LINE
  5
D4
330
1E
100
AcDbEntity
  8
ADP2DETAIL
100
AcDbLine
 10
10.95952810801865
 20
9.659502377036524
 30
0.0
 11
10.91952810801865
 21
9.612835710369857
 31
0.0
  0
LINE
  5
D5
330
1E
100
AcDbEntity
  8
ADP2DETAIL
100
AcDbLine
 10
10.91952810801865
 20
9.612835710369857
 30
0.0
 11
10.88619477468531
 21
9.659502377036524
 31
0.0
  0
LINE
  5
D6
330
1E
100
AcDbEntity
  8
ADP2DETAIL
100
AcDbLine
 10
10.91952810801865
 20
9.612835710369857
 30
0.0
 11
10.88619477468531
 21
9.659502377036524
 31
0.0
  0
LINE
  5
D7
330
1E
100
AcDbEntity
  8
0
100
AcDbLine
 10
11.68619477468531
 20
9.659502377036524
 30
0.0
 11
11.65286144135198
 21
9.612835710369857
 31
0.0
  0
LINE
  5
D8
330
1E
100
AcDbEntity
  8
ADP2DETAIL
100
AcDbLine
 10
11.32619477468531
 20
9.659502377036524
 30
0.0
 11
11.28619477468531
 21
9.612835710369857
 31
0.0
  0
LINE
  5
D9
330
1E
100
AcDbEntity
  8
ADP2DETAIL
100
AcDbLine
 10
11.32619477468531
 20
9.659502377036524
 30
0.0
 11
11.28619477468531
 21
9.612835710369857
 31
0.0
  0
LINE
  5
DA
330
1E
100
AcDbEntity
  8
ADP2DETAIL
100
AcDbLine
 10
11.25286144135198
 20
9.659502377036524
 30
0.0
 11
11.21286144135198
 21
9.612835710369857
 31
0.0
  0
LINE
  5
DB
330
1E
100
AcDbEntity
  8
ADP2DETAIL
100
AcDbLine
 10
11.25286144135198
 20
9.659502377036524
 30
0.0
 11
11.21286144135198
 21
9.612835710369857
 31
0.0
  0
LINE
  5
DC
330
1E
100
AcDbEntity
  8
ADP2DETAIL
100
AcDbLine
 10
11.21286144135198
 20
9.612835710369857
 30
0.0
 11
11.17952810801865
 21
9.659502377036524
 31
0.0
  0
LINE
  5
DD
330
1E
100
AcDbEntity
  8
ADP2DETAIL
100
AcDbLine
 10
11.17952810801865
 20
9.659502377036524
 30
0.0
 11
11.13952810801865
 21
9.612835710369857
 31
0.0
  0
LINE
  5
DE
330
1E
100
AcDbEntity
  8
ADP2DETAIL
100
AcDbLine
 10
11.21286144135198
 20
9.612835710369857
 30
0.0
 11
11.17952810801865
 21
9.659502377036524
 31
0.0
  0
LINE
  5
DF
330
1E
100
AcDbEntity
  8
ADP2DETAIL
100
AcDbLine
 10
11.17952810801865
 20
9.659502377036524
 30
0.0
 11
11.13952810801865
 21
9.612835710369857
 31
0.0
  0
LINE
  5
E0
330
1E
100
AcDbEntity
  8
ADP2DETAIL
100
AcDbLine
 10
11.06619477468531
 20
9.612835710369857
 30
0.0
 11
11.03286144135198
 21
9.659502377036524
 31
0.0
  0
LINE
  5
E1
330
1E
100
AcDbEntity
  8
ADP2DETAIL
100
AcDbLine
 10
11.03286144135198
 20
9.659502377036524
 30
0.0
 11
10.99286144135198
 21
9.612835710369857
 31
0.0
  0
LINE
  5
E2
330
1E
100
AcDbEntity
  8
ADP2DETAIL
100
AcDbLine
 10
11.06619477468531
 20
9.612835710369857
 30
0.0
 11
11.03286144135198
 21
9.659502377036524
 31
0.0
  0
LINE
  5
E3
330
1E
100
AcDbEntity
  8
ADP2DETAIL
100
AcDbLine
 10
11.03286144135198
 20
9.659502377036524
 30
0.0
 11
10.99286144135198
 21
9.612835710369857
 31
0.0
  0
LINE
  5
E4
330
1E
100
AcDbEntity
  8
ADP2DETAIL
100
AcDbLine
 10
11.10619477468531
 20
9.659502377036524
 30
0.0
 11
11.06619477468531
 21
9.612835710369857
 31
0.0
  0
LINE
  5
E5
330
1E
100
AcDbEntity
  8
ADP2DETAIL
100
AcDbLine
 10
11.10619477468531
 20
9.659502377036524
 30
0.0
 11
11.06619477468531
 21
9.612835710369857
 31
0.0
  0
LINE
  5
E6
330
1E
100
AcDbEntity
  8
ADP2DETAIL
100
AcDbLine
 10
11.13952810801865
 20
9.612835710369857
 30
0.0
 11
11.10619477468531
 21
9.659502377036524
 31
0.0
  0
LINE
  5
E7
330
1E
100
AcDbEntity
  8
ADP2DETAIL
100
AcDbLine
 10
11.13952810801865
 20
9.612835710369857
 30
0.0
 11
11.10619477468531
 21
9.659502377036524
 31
0.0
  0
LINE
  5
E8
330
1E
100
AcDbEntity
  8
ADP2DETAIL
100
AcDbLine
 10
11.28619477468531
 20
9.612835710369857
 30
0.0
 11
11.25286144135198
 21
9.659502377036524
 31
0.0
  0
LINE
  5
E9
330
1E
100
AcDbEntity
  8
ADP2DETAIL
100
AcDbLine
 10
11.28619477468531
 20
9.612835710369857
 30
0.0
 11
11.25286144135198
 21
9.659502377036524
 31
0.0
  0
LINE
  5
EA
330
1E
100
AcDbEntity
  8
0
100
AcDbLine
 10
11.61286144135198
 20
9.659502377036524
 30
0.0
 11
11.57952810801865
 21
9.612835710369857
 31
0.0
  0
LINE
  5
EB
330
1E
100
AcDbEntity
  8
0
100
AcDbLine
 10
11.57952810801865
 20
9.612835710369857
 30
0.0
 11
11.53952810801865
 21
9.659502377036524
 31
0.0
  0
LINE
  5
EC
330
1E
100
AcDbEntity
  8
0
100
AcDbLine
 10
11.50619477468531
 20
9.612835710369857
 30
0.0
 11
11.46619477468531
 21
9.659502377036524
 31
0.0
  0
LINE
  5
ED
330
1E
100
AcDbEntity
  8
0
100
AcDbLine
 10
11.43286144135198
 20
9.612835710369857
 30
0.0
 11
11.39952810801865
 21
9.659502377036524
 31
0.0
  0
LINE
  5
EE
330
1E
100
AcDbEntity
  8
0
100
AcDbLine
 10
11.43286144135198
 20
9.612835710369857
 30
0.0
 11
11.39952810801865
 21
9.659502377036524
 31
0.0
  0
LINE
  5
EF
330
1E
100
AcDbEntity
  8
ADP2DETAIL
100
AcDbLine
 10
11.39952810801865
 20
9.659502377036524
 30
0.0
 11
11.35952810801865
 21
9.612835710369857
 31
0.0
  0
LINE
  5
F0
330
1E
100
AcDbEntity
  8
ADP2DETAIL
100
AcDbLine
 10
11.35952810801865
 20
9.612835710369857
 30
0.0
 11
11.32619477468531
 21
9.659502377036524
 31
0.0
  0
LINE
  5
F1
330
1E
100
AcDbEntity
  8
ADP2DETAIL
100
AcDbLine
 10
11.39952810801865
 20
9.659502377036524
 30
0.0
 11
11.35952810801865
 21
9.612835710369857
 31
0.0
  0
LINE
  5
F2
330
1E
100
AcDbEntity
  8
ADP2DETAIL
100
AcDbLine
 10
11.35952810801865
 20
9.612835710369857
 30
0.0
 11
11.32619477468531
 21
9.659502377036524
 31
0.0
  0
LINE
  5
F3
330
1E
100
AcDbEntity
  8
0
100
AcDbLine
 10
11.46619477468531
 20
9.659502377036524
 30
0.0
 11
11.43286144135198
 21
9.612835710369857
 31
0.0
  0
LINE
  5
F4
330
1E
100
AcDbEntity
  8
0
100
AcDbLine
 10
11.53952810801865
 20
9.659502377036524
 30
0.0
 11
11.50619477468531
 21
9.612835710369857
 31
0.0
  0
LINE
  5
F5
330
1E
100
AcDbEntity
  8
0
100
AcDbLine
 10
11.65286144135198
 20
9.612835710369857
 30
0.0
 11
11.61286144135198
 21
9.659502377036524
 31
0.0
  0
LINE
  5
F6
330
1E
100
AcDbEntity
  8
0
100
AcDbLine
 10
11.97952810801865
 20
9.659502377036524
 30
0.0
 11
11.93952810801864
 21
9.612835710369857
 31
0.0
  0
LINE
  5
F7
330
1E
100
AcDbEntity
  8
0
100
AcDbLine
 10
11.83286144135198
 20
9.659502377036524
 30
0.0
 11
11.79952810801865
 21
9.612835710369857
 31
0.0
  0
LINE
  5
F8
330
1E
100
AcDbEntity
  8
0
100
AcDbLine
 10
11.86619477468531
 20
9.612835710369857
 30
0.0
 11
11.83286144135198
 21
9.659502377036524
 31
0.0
  0
LINE
  5
F9
330
1E
100
AcDbEntity
  8
0
100
AcDbLine
 10
11.90619477468531
 20
9.659502377036524
 30
0.0
 11
11.86619477468531
 21
9.612835710369857
 31
0.0
  0
LINE
  5
FA
330
1E
100
AcDbEntity
  8
0
100
AcDbLine
 10
11.71952810801865
 20
9.612835710369857
 30
0.0
 11
11.68619477468531
 21
9.659502377036524
 31
0.0
  0
LINE
  5
FB
330
1E
100
AcDbEntity
  8
0
100
AcDbLine
 10
11.75952810801865
 20
9.659502377036524
 30
0.0
 11
11.71952810801865
 21
9.612835710369857
 31
0.0
  0
LINE
  5
FC
330
1E
100
AcDbEntity
  8
0
100
AcDbLine
 10
11.79952810801865
 20
9.612835710369857
 30
0.0
 11
11.75952810801865
 21
9.659502377036524
 31
0.0
  0
LINE
  5
FD
330
1E
100
AcDbEntity
  8
0
100
AcDbLine
 10
11.93952810801864
 20
9.612835710369857
 30
0.0
 11
11.90619477468531
 21
9.659502377036524
 31
0.0
  0
LINE
  5
FE
330
1E
100
AcDbEntity
  8
0
100
AcDbLine
 10
11.97952810801865
 20
9.32616904370319
 30
0.0
 11
11.97952810801865
 21
9.659502377036524
 31
0.0
  0
TEXT
  5
1B8
330
1E
100
AcDbEntity
  8
ADPDIM
100
AcDbText
 10
3.407641737473798
 20
6.491092057950623
 30
0.0
 40
0.125
  1
J U L I U S  B L U M  &  C O . ,  I N C .      ( 8 0 0 )  5 2 6 - 6 2 9 3        W W W . J U L I U S B L U M . C O M        P A R T  N O .  2 2 4
 41
1.25
  7
ARIAL_WIDE
 72
     1
 11
9.866543511007222
 21
6.616092057950623
 31
0.0
100
AcDbText
 73
     3
  0
ENDSEC
  0
SECTION
  2
OBJECTS
  0
DICTIONARY
  5
C
330
0
100
AcDbDictionary
  3
ACAD_GROUP
350
D
  3
ACAD_LAYOUT
350
19
  3
ACAD_MLINESTYLE
350
16
  3
ACAD_PLOTSETTINGS
350
18
  3
ACAD_PLOTSTYLENAME
350
E
  3
ACDBHEADERROUNDTRIPXREC
350
2D8
  3
ACDBVARIABLEDICTIONARY
350
177
  0
DICTIONARY
  5
142
330
1E
100
AcDbDictionary
280
     1
  3
ACAD_LAYOUTSELFREF
360
2FA
  0
DICTIONARY
  5
144
330
1A
100
AcDbDictionary
280
     1
  3
ACAD_LAYOUTSELFREF
360
2F9
  0
DICTIONARY
  5
D
102
{ACAD_REACTORS
330
C
102
}
330
C
100
AcDbDictionary
  0
DICTIONARY
  5
19
102
{ACAD_REACTORS
330
C
102
}
330
C
100
AcDbDictionary
  0
DICTIONARY
  5
16
102
{ACAD_REACTORS
330
C
102
}
330
C
100
AcDbDictionary
  3
STANDARD
350
17
  0
DICTIONARY
  5
18
102
{ACAD_REACTORS
330
C
102
}
330
C
100
AcDbDictionary
  0
ACDBDICTIONARYWDFLT
  5
E
102
{ACAD_REACTORS
330
C
102
}
330
C
100
AcDbDictionary
281
     1
  3
Normal
350
F
100
AcDbDictionaryWithDefault
340
F
  0
DICTIONARY
  5
2D8
102
{ACAD_REACTORS
330
C
102
}
330
C
100
AcDbDictionary
  3
CEPSNTYPE
350
2E2
  3
DIMSTYLEDATA
350
2E6
  3
FINGERPRINTGUID
350
2E3
  3
HYPERLINKBASE
350
2DB
  3
INSUNITS
350
2E1
  3
LAYOUTDICT
350
2DD
  3
LWETCUNION
350
2E0
  3
PLOTSETDICT
350
2DE
  3
PLOTSTYLNAMDICT
350
2DF
  3
PSVPSCALE
350
2E5
  3
PUCSBASE
350
2E9
  3
PUCSORGBACK
350
2EF
  3
PUCSORGBOTTOM
350
2EB
  3
PUCSORGFRONT
350
2EE
  3
PUCSORGLEFT
350
2EC
  3
PUCSORGRIGHT
350
2ED
  3
PUCSORGTOP
350
2EA
  3
PUCSORTHOREF
350
2E7
  3
PUCSORTHOVIEW
350
2E8
  3
STYLESHEET
350
2DC
  3
TSTACKALIGN
350
2D9
  3
TSTACKSIZE
350
2DA
  3
UCSBASE
350
2F2
  3
UCSORGBACK
350
2F8
  3
UCSORGBOTTOM
350
2F4
  3
UCSORGFRONT
350
2F7
  3
UCSORGLEFT
350
2F5
  3
UCSORGRIGHT
350
2F6
  3
UCSORGTOP
350
2F3
  3
UCSORTHOREF
350
2F0
  3
UCSORTHOVIEW
350
2F1
  3
VERSIONGUID
350
2E4
  0
DICTIONARY
  5
177
102
{ACAD_REACTORS
330
C
102
}
330
C
100
AcDbDictionary
  3
DIMASSOC
350
179
  3
HIDETEXT
350
178
  0
XRECORD
  5
2FA
102
{ACAD_REACTORS
330
142
102
}
330
142
100
AcDbXrecord
340
1E
  0
XRECORD
  5
2F9
102
{ACAD_REACTORS
330
144
102
}
330
144
100
AcDbXrecord
340
1A
  0
MLINESTYLE
  5
17
102
{ACAD_REACTORS
330
16
102
}
330
16
100
AcDbMlineStyle
  2
STANDARD
 70
     0
  3

 62
   256
 51
90.0
 52
90.0
 71
     2
 49
0.5
 62
   256
  6
BYLAYER
 49
-0.5
 62
   256
  6
BYLAYER
  0
ACDBPLACEHOLDER
  5
F
102
{ACAD_REACTORS
330
E
102
}
330
E
100
AcDbPlaceHolder
280
     0
  0
XRECORD
  5
2E2
102
{ACAD_REACTORS
330
2D8
102
}
330
2D8
100
AcDbXrecord
 90
        0
  0
XRECORD
  5
2E6
102
{ACAD_REACTORS
330
2D8
102
}
330
2D8
100
AcDbXrecord
1000
DSTYLE
1002
{
1070
   277
 70
     5
1070
   279
 70
     2
1002
}
  0
XRECORD
  5
2E3
102
{ACAD_REACTORS
330
2D8
102
}
330
2D8
100
AcDbXrecord
  1
{7B05729A-D0CF-4DAD-BF0F-77F10C54F3CD}
  0
XRECORD
  5
2DB
102
{ACAD_REACTORS
330
2D8
102
}
330
2D8
100
AcDbXrecord
  1

  0
XRECORD
  5
2E1
102
{ACAD_REACTORS
330
2D8
102
}
330
2D8
100
AcDbXrecord
 90
        0
  0
XRECORD
  5
2DD
102
{ACAD_REACTORS
330
2D8
102
}
330
2D8
100
AcDbXrecord
340
19
  0
XRECORD
  5
2E0
102
{ACAD_REACTORS
330
2D8
102
}
330
2D8
100
AcDbXrecord
 90
    14877
  0
XRECORD
  5
2DE
102
{ACAD_REACTORS
330
2D8
102
}
330
2D8
100
AcDbXrecord
340
18
  0
XRECORD
  5
2DF
102
{ACAD_REACTORS
330
2D8
102
}
330
2D8
100
AcDbXrecord
340
E
  0
XRECORD
  5
2E5
102
{ACAD_REACTORS
330
2D8
102
}
330
2D8
100
AcDbXrecord
 40
0.0
  0
XRECORD
  5
2E9
102
{ACAD_REACTORS
330
2D8
102
}
330
2D8
100
AcDbXrecord
340
0
  0
XRECORD
  5
2EF
102
{ACAD_REACTORS
330
2D8
102
}
330
2D8
100
AcDbXrecord
 10
0.0
 20
0.0
 30
0.0
  0
XRECORD
  5
2EB
102
{ACAD_REACTORS
330
2D8
102
}
330
2D8
100
AcDbXrecord
 10
0.0
 20
0.0
 30
0.0
  0
XRECORD
  5
2EE
102
{ACAD_REACTORS
330
2D8
102
}
330
2D8
100
AcDbXrecord
 10
0.0
 20
0.0
 30
0.0
  0
XRECORD
  5
2EC
102
{ACAD_REACTORS
330
2D8
102
}
330
2D8
100
AcDbXrecord
 10
0.0
 20
0.0
 30
0.0
  0
XRECORD
  5
2ED
102
{ACAD_REACTORS
330
2D8
102
}
330
2D8
100
AcDbXrecord
 10
0.0
 20
0.0
 30
0.0
  0
XRECORD
  5
2EA
102
{ACAD_REACTORS
330
2D8
102
}
330
2D8
100
AcDbXrecord
 10
0.0
 20
0.0
 30
0.0
  0
XRECORD
  5
2E7
102
{ACAD_REACTORS
330
2D8
102
}
330
2D8
100
AcDbXrecord
340
0
  0
XRECORD
  5
2E8
102
{ACAD_REACTORS
330
2D8
102
}
330
2D8
100
AcDbXrecord
 70
     0
  0
XRECORD
  5
2DC
102
{ACAD_REACTORS
330
2D8
102
}
330
2D8
100
AcDbXrecord
  1

  0
XRECORD
  5
2D9
102
{ACAD_REACTORS
330
2D8
102
}
330
2D8
100
AcDbXrecord
 90
        1
  0
XRECORD
  5
2DA
102
{ACAD_REACTORS
330
2D8
102
}
330
2D8
100
AcDbXrecord
 90
       70
  0
XRECORD
  5
2F2
102
{ACAD_REACTORS
330
2D8
102
}
330
2D8
100
AcDbXrecord
340
0
  0
XRECORD
  5
2F8
102
{ACAD_REACTORS
330
2D8
102
}
330
2D8
100
AcDbXrecord
 10
0.0
 20
0.0
 30
0.0
  0
XRECORD
  5
2F4
102
{ACAD_REACTORS
330
2D8
102
}
330
2D8
100
AcDbXrecord
 10
0.0
 20
0.0
 30
0.0
  0
XRECORD
  5
2F7
102
{ACAD_REACTORS
330
2D8
102
}
330
2D8
100
AcDbXrecord
 10
0.0
 20
0.0
 30
0.0
  0
XRECORD
  5
2F5
102
{ACAD_REACTORS
330
2D8
102
}
330
2D8
100
AcDbXrecord
 10
0.0
 20
0.0
 30
0.0
  0
XRECORD
  5
2F6
102
{ACAD_REACTORS
330
2D8
102
}
330
2D8
100
AcDbXrecord
 10
0.0
 20
0.0
 30
0.0
  0
XRECORD
  5
2F3
102
{ACAD_REACTORS
330
2D8
102
}
330
2D8
100
AcDbXrecord
 10
0.0
 20
0.0
 30
0.0
  0
XRECORD
  5
2F0
102
{ACAD_REACTORS
330
2D8
102
}
330
2D8
100
AcDbXrecord
340
0
  0
XRECORD
  5
2F1
102
{ACAD_REACTORS
330
2D8
102
}
330
2D8
100
AcDbXrecord
 70
     0
  0
XRECORD
  5
2E4
102
{ACAD_REACTORS
330
2D8
102
}
330
2D8
100
AcDbXrecord
  1
{BC25B399-B12C-47AC-99C9-B5867D4A6938}
  0
DICTIONARYVAR
  5
179
102
{ACAD_REACTORS
330
177
102
}
330
177
100
DictionaryVariables
280
     0
  1
2
  0
DICTIONARYVAR
  5
178
102
{ACAD_REACTORS
330
177
102
}
330
177
100
DictionaryVariables
280
     0
  1
1
  0
ENDSEC
  0
EOF
