  0
SECTION
  2
HEADER
  9
$ACADVER
  1
AC1015
  9
$ACADMAINTVER
 70
    20
  9
$DWGCODEPAGE
  3
ANSI_1252
  9
$INSBASE
 10
0.0
 20
0.0
 30
0.0
  9
$EXTMIN
 10
4.336314660622423
 20
14.36374974541806
 30
0.0
  9
$EXTMAX
 10
39.16130861359564
 20
27.68817101258483
 30
0.0
  9
$LIMMIN
 10
0.0
 20
0.0
  9
$LIMMAX
 10
0.0
 20
0.0
  9
$ORTHOMODE
 70
     0
  9
$REGENMODE
 70
     1
  9
$FILLMODE
 70
     1
  9
$QTEXTMODE
 70
     0
  9
$MIRRTEXT
 70
     1
  9
$LTSCALE
 40
1.0
  9
$ATTMODE
 70
     1
  9
$TEXTSIZE
 40
0.0
  9
$TRACEWID
 40
0.05
  9
$TEXTSTYLE
  7
STANDARD
  9
$CLAYER
  8
0
  9
$CELTYPE
  6
CONTINUOUS
  9
$CECOLOR
 62
   256
  9
$CELTSCALE
 40
1.0
  9
$DISPSILH
 70
     0
  9
$DIMSCALE
 40
1.0
  9
$DIMASZ
 40
0.18
  9
$DIMEXO
 40
0.0625
  9
$DIMDLI
 40
0.38
  9
$DIMRND
 40
0.0
  9
$DIMDLE
 40
0.0
  9
$DIMEXE
 40
0.18
  9
$DIMTP
 40
0.0
  9
$DIMTM
 40
0.0
  9
$DIMTXT
 40
0.18
  9
$DIMCEN
 40
0.09
  9
$DIMTSZ
 40
0.0
  9
$DIMTOL
 70
     0
  9
$DIMLIM
 70
     0
  9
$DIMTIH
 70
     1
  9
$DIMTOH
 70
     1
  9
$DIMSE1
 70
     0
  9
$DIMSE2
 70
     0
  9
$DIMTAD
 70
     0
  9
$DIMZIN
 70
     0
  9
$DIMBLK
  1

  9
$DIMASO
 70
     1
  9
$DIMSHO
 70
     1
  9
$DIMPOST
  1

  9
$DIMAPOST
  1

  9
$DIMALT
 70
     0
  9
$DIMALTD
 70
     2
  9
$DIMALTF
 40
25.4
  9
$DIMLFAC
 40
1.0
  9
$DIMTOFL
 70
     0
  9
$DIMTVP
 40
0.0
  9
$DIMTIX
 70
     0
  9
$DIMSOXD
 70
     0
  9
$DIMSAH
 70
     0
  9
$DIMBLK1
  1

  9
$DIMBLK2
  1

  9
$DIMSTYLE
  2
STANDARD
  9
$DIMCLRD
 70
     0
  9
$DIMCLRE
 70
     0
  9
$DIMCLRT
 70
     0
  9
$DIMTFAC
 40
1.0
  9
$DIMGAP
 40
0.09
  9
$DIMJUST
 70
     0
  9
$DIMSD1
 70
     0
  9
$DIMSD2
 70
     0
  9
$DIMTOLJ
 70
     1
  9
$DIMTZIN
 70
     0
  9
$DIMALTZ
 70
     0
  9
$DIMALTTZ
 70
     0
  9
$DIMUPT
 70
     0
  9
$DIMDEC
 70
     4
  9
$DIMTDEC
 70
     4
  9
$DIMALTU
 70
     2
  9
$DIMALTTD
 70
     2
  9
$DIMTXSTY
  7
STANDARD
  9
$DIMAUNIT
 70
     0
  9
$DIMADEC
 70
     0
  9
$DIMALTRND
 40
0.0
  9
$DIMAZIN
 70
     0
  9
$DIMDSEP
 70
    46
  9
$DIMATFIT
 70
     3
  9
$DIMFRAC
 70
     0
  9
$DIMLDRBLK
  1

  9
$DIMLUNIT
 70
     2
  9
$DIMLWD
 70
    -2
  9
$DIMLWE
 70
    -2
  9
$DIMTMOVE
 70
     0
  9
$LUNITS
 70
     2
  9
$LUPREC
 70
     4
  9
$SKETCHINC
 40
0.1
  9
$FILLETRAD
 40
0.0
  9
$AUNITS
 70
     0
  9
$AUPREC
 70
     0
  9
$MENU
  1
acad
  9
$ELEVATION
 40
0.0
  9
$PELEVATION
 40
0.0
  9
$THICKNESS
 40
0.0
  9
$LIMCHECK
 70
     0
  9
$CHAMFERA
 40
0.0
  9
$CHAMFERB
 40
0.0
  9
$CHAMFERC
 40
0.0
  9
$CHAMFERD
 40
0.0
  9
$SKPOLY
 70
     0
  9
$TDCREATE
 40
2444971.791666667
  9
$TDUCREATE
 40
2444971.958333334
  9
$TDUPDATE
 40
2453950.013388646
  9
$TDUUPDATE
 40
2453950.180055313
  9
$TDINDWG
 40
0.0329016435
  9
$TDUSRTIMER
 40
0.0329016435
  9
$USRTIMER
 70
     1
  9
$ANGBASE
 50
0.0
  9
$ANGDIR
 70
     0
  9
$PDMODE
 70
     0
  9
$PDSIZE
 40
0.0
  9
$PLINEWID
 40
0.0
  9
$SPLFRAME
 70
     0
  9
$SPLINETYPE
 70
     6
  9
$SPLINESEGS
 70
     8
  9
$HANDSEED
  5
5AF
  9
$SURFTAB1
 70
     6
  9
$SURFTAB2
 70
     6
  9
$SURFTYPE
 70
     6
  9
$SURFU
 70
     6
  9
$SURFV
 70
     6
  9
$UCSBASE
  2

  9
$UCSNAME
  2

  9
$UCSORG
 10
0.0
 20
0.0
 30
0.0
  9
$UCSXDIR
 10
1.0
 20
0.0
 30
0.0
  9
$UCSYDIR
 10
0.0
 20
1.0
 30
0.0
  9
$UCSORTHOREF
  2

  9
$UCSORTHOVIEW
 70
     0
  9
$UCSORGTOP
 10
0.0
 20
0.0
 30
0.0
  9
$UCSORGBOTTOM
 10
0.0
 20
0.0
 30
0.0
  9
$UCSORGLEFT
 10
0.0
 20
0.0
 30
0.0
  9
$UCSORGRIGHT
 10
0.0
 20
0.0
 30
0.0
  9
$UCSORGFRONT
 10
0.0
 20
0.0
 30
0.0
  9
$UCSORGBACK
 10
0.0
 20
0.0
 30
0.0
  9
$PUCSBASE
  2

  9
$PUCSNAME
  2

  9
$PUCSORG
 10
0.0
 20
0.0
 30
0.0
  9
$PUCSXDIR
 10
1.0
 20
0.0
 30
0.0
  9
$PUCSYDIR
 10
0.0
 20
1.0
 30
0.0
  9
$PUCSORTHOREF
  2

  9
$PUCSORTHOVIEW
 70
     0
  9
$PUCSORGTOP
 10
0.0
 20
0.0
 30
0.0
  9
$PUCSORGBOTTOM
 10
0.0
 20
0.0
 30
0.0
  9
$PUCSORGLEFT
 10
0.0
 20
0.0
 30
0.0
  9
$PUCSORGRIGHT
 10
0.0
 20
0.0
 30
0.0
  9
$PUCSORGFRONT
 10
0.0
 20
0.0
 30
0.0
  9
$PUCSORGBACK
 10
0.0
 20
0.0
 30
0.0
  9
$USERI1
 70
     0
  9
$USERI2
 70
     0
  9
$USERI3
 70
     0
  9
$USERI4
 70
     0
  9
$USERI5
 70
     0
  9
$USERR1
 40
0.0
  9
$USERR2
 40
0.0
  9
$USERR3
 40
0.0
  9
$USERR4
 40
0.0
  9
$USERR5
 40
0.0
  9
$WORLDVIEW
 70
     1
  9
$SHADEDGE
 70
     3
  9
$SHADEDIF
 70
    70
  9
$TILEMODE
 70
     1
  9
$MAXACTVP
 70
    16
  9
$PINSBASE
 10
0.0
 20
0.0
 30
0.0
  9
$PLIMCHECK
 70
     0
  9
$PEXTMIN
 10
1.000000000000000E+20
 20
1.000000000000000E+20
 30
1.000000000000000E+20
  9
$PEXTMAX
 10
-1.000000000000000E+20
 20
-1.000000000000000E+20
 30
-1.000000000000000E+20
  9
$PLIMMIN
 10
0.0
 20
0.0
  9
$PLIMMAX
 10
12.0
 20
9.0
  9
$UNITMODE
 70
     0
  9
$VISRETAIN
 70
     0
  9
$PLINEGEN
 70
     0
  9
$PSLTSCALE
 70
     0
  9
$TREEDEPTH
 70
  3020
  9
$CMLSTYLE
  2
STANDARD
  9
$CMLJUST
 70
     0
  9
$CMLSCALE
 40
1.0
  9
$PROXYGRAPHICS
 70
     1
  9
$MEASUREMENT
 70
     0
  9
$CELWEIGHT
370
    -1
  9
$ENDCAPS
280
     0
  9
$JOINSTYLE
280
     0
  9
$LWDISPLAY
290
     0
  9
$INSUNITS
 70
     0
  9
$HYPERLINKBASE
  1

  9
$STYLESHEET
  1

  9
$XEDIT
290
     1
  9
$CEPSNTYPE
380
     0
  9
$PSTYLEMODE
290
     1
  9
$FINGERPRINTGUID
  2
{842CD083-2E8A-4FC3-8BC6-3ED318DD4039}
  9
$VERSIONGUID
  2
{E624DCC9-93CE-42CB-A797-279B5633F6D9}
  9
$EXTNAMES
290
     1
  9
$PSVPSCALE
 40
0.0
  9
$OLESTARTUP
290
     0
  0
ENDSEC
  0
SECTION
  2
CLASSES
  0
CLASS
  1
IMAGE
  2
AcDbRasterImage
  3
ISM
 90
    34943
280
     0
281
     1
  0
CLASS
  1
DICTIONARYVAR
  2
AcDbDictionaryVar
  3
ObjectDBX Classes
 90
        0
280
     0
281
     0
  0
CLASS
  1
RASTERVARIABLES
  2
AcDbRasterVariables
  3
ISM
 90
    32768
280
     0
281
     0
  0
CLASS
  1
IMAGEDEF
  2
AcDbRasterImageDef
  3
ISM
 90
    32768
280
     0
281
     0
  0
CLASS
  1
IMAGEDEF_REACTOR
  2
AcDbRasterImageDefReactor
  3
ISM
 90
    32769
280
     0
281
     0
  0
CLASS
  1
IDBUFFER
  2
AcDbIdBuffer
  3
ObjectDBX Classes
 90
    32768
280
     0
281
     0
  0
CLASS
  1
SPATIAL_FILTER
  2
AcDbSpatialFilter
  3
ObjectDBX Classes
 90
    32768
280
     0
281
     0
  0
CLASS
  1
SORTENTSTABLE
  2
AcDbSortentsTable
  3
ObjectDBX Classes
 90
    32768
280
     0
281
     0
  0
CLASS
  1
LAYER_INDEX
  2
AcDbLayerIndex
  3
ObjectDBX Classes
 90
    32768
280
     0
281
     0
  0
CLASS
  1
SPATIAL_INDEX
  2
AcDbSpatialIndex
  3
ObjectDBX Classes
 90
    32768
280
     0
281
     0
  0
CLASS
  1
OBJECT_PTR
  2
CAseDLPNTableRecord
  3
ASE-LPNTableRecord
 90
    32769
280
     0
281
     0
  0
CLASS
  1
ACDBDICTIONARYWDFLT
  2
AcDbDictionaryWithDefault
  3
ObjectDBX Classes
 90
        0
280
     0
281
     0
  0
CLASS
  1
ACDBPLACEHOLDER
  2
AcDbPlaceHolder
  3
ObjectDBX Classes
 90
        0
280
     0
281
     0
  0
CLASS
  1
LAYOUT
  2
AcDbLayout
  3
ObjectDBX Classes
 90
        0
280
     0
281
     0
  0
CLASS
  1
MATERIAL
  2
AcDbMaterial
  3
ObjectDBX Classes
 90
     1024
280
     0
281
     0
  0
CLASS
  1
VISUALSTYLE
  2
AcDbVisualStyle
  3
ObjectDBX Classes
 90
     4095
280
     0
281
     0
  0
CLASS
  1
TABLESTYLE
  2
AcDbTableStyle
  3
ObjectDBX Classes
 90
     4095
280
     0
281
     0
  0
CLASS
  1
ACAD_EVALUATION_GRAPH
  2
AcDbEvalGraph
  3
ObjectDBX Classes
 90
     1153
280
     0
281
     0
  0
CLASS
  1
ACDB_DYNAMICBLOCKPURGEPREVENTER_VERSION
  2
AcDbDynamicBlockPurgePreventer
  3
ObjectDBX Classes
 90
     1153
280
     0
281
     0
  0
ENDSEC
  0
SECTION
  2
TABLES
  0
TABLE
  2
VPORT
  5
7
330
0
100
AcDbSymbolTable
 70
     2
  0
VPORT
  5
2E
330
7
100
AcDbSymbolTableRecord
100
AcDbViewportTableRecord
  2
DCADVPORT
 70
     0
 10
6.88868277949511
 20
15.31959659875498
 11
15.07172086240148
 21
19.00802227029315
 12
6.209999999999999
 22
9.019999999999999
 13
0.0
 23
0.0
 14
1.0
 24
1.0
 15
0.0
 25
0.0
 16
0.0
 26
0.0
 36
1.0
 17
0.0
 27
0.0
 37
0.0
 40
18.04
 41
0.688564
 42
50.0
 43
1.0
 44
1.0
 50
0.0
 51
0.0
 71
     0
 72
   100
 73
     1
 74
     1
 75
     0
 76
     0
 77
     0
 78
     0
281
     0
 65
     1
110
0.0
120
0.0
130
0.0
111
1.0
121
0.0
131
0.0
112
0.0
122
1.0
132
0.0
 79
     0
146
0.0
  0
VPORT
  5
3F5
330
7
100
AcDbSymbolTableRecord
100
AcDbViewportTableRecord
  2
*Active
 70
     0
 10
0.0
 20
0.0
 11
1.0
 21
1.0
 12
9.840098136863339
 22
17.00588300959722
 13
0.0
 23
0.0
 14
1.0
 24
1.0
 15
0.0
 25
0.0
 16
0.0
 26
0.0
 36
1.0
 17
0.0
 27
0.0
 37
0.0
 40
6.530167906806727
 41
2.023012552301255
 42
50.0
 43
0.0
 44
0.0
 50
0.0
 51
0.0
 71
     0
 72
   100
 73
     1
 74
     1
 75
     0
 76
     0
 77
     0
 78
     0
281
     0
 65
     1
110
0.0
120
0.0
130
0.0
111
1.0
121
0.0
131
0.0
112
0.0
122
1.0
132
0.0
 79
     0
146
0.0
  0
ENDTAB
  0
TABLE
  2
LTYPE
  5
4
330
0
100
AcDbSymbolTable
 70
     3
  0
LTYPE
  5
11
330
4
100
AcDbSymbolTableRecord
100
AcDbLinetypeTableRecord
  2
BYBLOCK
 70
     0
  3

 72
    65
 73
     0
 40
0.0
  0
LTYPE
  5
12
330
4
100
AcDbSymbolTableRecord
100
AcDbLinetypeTableRecord
  2
BYLAYER
 70
     0
  3

 72
    65
 73
     0
 40
0.0
  0
LTYPE
  5
13
330
4
100
AcDbSymbolTableRecord
100
AcDbLinetypeTableRecord
  2
CONTINUOUS
 70
     0
  3
Solid line
 72
    65
 73
     0
 40
0.0
  0
LTYPE
  5
1E
330
4
100
AcDbSymbolTableRecord
100
AcDbLinetypeTableRecord
  2
CONTINUOUS
 70
     0
  3
Solid line
 72
    65
 73
     0
 40
0.0
  0
ENDTAB
  0
TABLE
  2
LAYER
  5
2
330
0
100
AcDbSymbolTable
 70
     5
  0
LAYER
  5
14
330
2
100
AcDbSymbolTableRecord
100
AcDbLayerTableRecord
  2
0
 70
     0
 62
     7
  6
CONTINUOUS
370
    -3
390
284
  0
LAYER
  5
2A
330
2
100
AcDbSymbolTableRecord
100
AcDbLayerTableRecord
  2
DEFPOINTS
 70
     0
 62
   250
  6
CONTINUOUS
290
     0
370
    -3
390
284
  0
LAYER
  5
2B
330
2
100
AcDbSymbolTableRecord
100
AcDbLayerTableRecord
  2
ADP2DETAIL
 70
     0
 62
   250
  6
CONTINUOUS
370
    -3
390
284
  0
LAYER
  5
2C
330
2
100
AcDbSymbolTableRecord
100
AcDbLayerTableRecord
  2
ADPDIM
 70
     0
 62
     3
  6
CONTINUOUS
370
    -3
390
284
  0
LAYER
  5
2D
330
2
100
AcDbSymbolTableRecord
100
AcDbLayerTableRecord
  2
ADP1DETAIL
 70
     0
 62
   250
  6
CONTINUOUS
370
    -3
390
284
  0
ENDTAB
  0
TABLE
  2
STYLE
  5
3
330
0
100
AcDbSymbolTable
 70
     2
  0
STYLE
  5
17
330
3
100
AcDbSymbolTableRecord
100
AcDbTextStyleTableRecord
  2
STANDARD
 70
     0
 40
0.0
 41
1.0
 50
0.0
 71
     0
 42
0.0
  3
txt
  4

  0
STYLE
  5
28C
330
3
100
AcDbSymbolTableRecord
100
AcDbTextStyleTableRecord
  2
ARIAL_WIDE
 70
     0
 40
0.0
 41
1.25
 50
0.0
 71
     0
 42
0.2
  3
ARIAL.TTF
  4

1001
ACAD
1000
Arial
1071
       34
  0
ENDTAB
  0
TABLE
  2
VIEW
  5
5
330
0
100
AcDbSymbolTable
 70
     0
  0
ENDTAB
  0
TABLE
  2
UCS
  5
6
330
0
100
AcDbSymbolTable
 70
     0
  0
ENDTAB
  0
TABLE
  2
APPID
  5
8
330
0
100
AcDbSymbolTable
 70
     5
  0
APPID
  5
16
330
8
100
AcDbSymbolTableRecord
100
AcDbRegAppTableRecord
  2
ACAD
 70
     0
  0
APPID
  5
472
330
8
100
AcDbSymbolTableRecord
100
AcDbRegAppTableRecord
  2
ACAUTHENVIRON
 70
     0
  0
APPID
  5
473
330
8
100
AcDbSymbolTableRecord
100
AcDbRegAppTableRecord
  2
DCO15
 70
     0
  0
APPID
  5
4AC
330
8
100
AcDbSymbolTableRecord
100
AcDbRegAppTableRecord
  2
AcDbDynamicBlockTrueName
 70
     0
  0
APPID
  5
4AD
330
8
100
AcDbSymbolTableRecord
100
AcDbRegAppTableRecord
  2
AcDbDynamicBlockGUID
 70
     0
  0
ENDTAB
  0
TABLE
  2
DIMSTYLE
  5
9
330
0
100
AcDbSymbolTable
 70
     2
100
AcDbDimStyleTable
 71
     1
340
18
  0
DIMSTYLE
105
18
102
{ACAD_REACTORS
330
440
102
}
330
9
100
AcDbSymbolTableRecord
100
AcDbDimStyleTableRecord
  2
STANDARD
 70
     0
289
     0
340
17
  0
ENDTAB
  0
TABLE
  2
BLOCK_RECORD
  5
1
330
0
100
AcDbSymbolTable
 70
     4
  0
BLOCK_RECORD
  5
A
102
{ACAD_XDICTIONARY
360
2E7
102
}
330
1
100
AcDbSymbolTableRecord
100
AcDbBlockTableRecord
  2
*MODEL_SPACE
340
287
  0
BLOCK_RECORD
  5
B
102
{ACAD_XDICTIONARY
360
2E9
102
}
330
1
100
AcDbSymbolTableRecord
100
AcDbBlockTableRecord
  2
*PAPER_SPACE
340
288
  0
BLOCK_RECORD
  5
441
330
1
100
AcDbSymbolTableRecord
100
AcDbBlockTableRecord
  2
*D0
340
0
  0
ENDTAB
  0
ENDSEC
  0
SECTION
  2
BLOCKS
  0
BLOCK
  5
D
330
A
100
AcDbEntity
  8
0
100
AcDbBlockBegin
  2
*MODEL_SPACE
 70
     0
 10
0.0
 20
0.0
 30
0.0
  3
*MODEL_SPACE
  1

  0
ENDBLK
  5
E
330
A
100
AcDbEntity
  8
0
100
AcDbBlockEnd
  0
BLOCK
  5
F
330
B
100
AcDbEntity
 67
     1
  8
0
100
AcDbBlockBegin
  2
*PAPER_SPACE
 70
     0
 10
0.0
 20
0.0
 30
0.0
  3
*PAPER_SPACE
  1

  0
ENDBLK
  5
10
330
B
100
AcDbEntity
 67
     1
  8
0
100
AcDbBlockEnd
  0
BLOCK
  5
44C
330
441
100
AcDbEntity
  8
0
 62
     3
100
AcDbBlockBegin
  2
*D0
 70
     1
 10
0.0
 20
0.0
 30
0.0
  3
*D0
  1

  0
LINE
  5
576
330
441
100
AcDbEntity
  8
ADPDIM
  6
Continuous
 62
     0
370
    -2
100
AcDbLine
 10
9.513257423244747
 20
18.12549031577345
 30
0.0
 11
9.513257423244747
 21
18.90763224057731
 31
0.0
  0
LINE
  5
577
330
441
100
AcDbEntity
  8
ADPDIM
  6
Continuous
 62
     0
370
    -2
100
AcDbLine
 10
7.263257423244747
 20
17.42450107967817
 30
0.0
 11
7.263257423244747
 21
18.90763224057731
 31
0.0
  0
LINE
  5
578
330
441
100
AcDbEntity
  8
ADPDIM
  6
Continuous
 62
     0
370
    -2
100
AcDbLine
 10
9.333257423244747
 20
18.72763224057731
 30
0.0
 11
8.74909075657808
 21
18.72763224057731
 31
0.0
  0
LINE
  5
579
330
441
100
AcDbEntity
  8
ADPDIM
  6
Continuous
 62
     0
370
    -2
100
AcDbLine
 10
7.443257423244746
 20
18.72763224057731
 30
0.0
 11
8.027424089911413
 21
18.72763224057731
 31
0.0
  0
SOLID
  5
57A
330
441
100
AcDbEntity
  8
ADPDIM
  6
Continuous
 62
     0
100
AcDbTrace
 10
9.333257423244747
 20
18.75763224057731
 30
0.0
 11
9.333257423244747
 21
18.69763224057731
 31
0.0
 12
9.513257423244747
 22
18.72763224057731
 32
0.0
 13
9.513257423244747
 23
18.72763224057731
 33
0.0
  0
SOLID
  5
57B
330
441
100
AcDbEntity
  8
ADPDIM
  6
Continuous
 62
     0
100
AcDbTrace
 10
7.443257423244746
 20
18.75763224057731
 30
0.0
 11
7.443257423244746
 21
18.69763224057731
 31
0.0
 12
7.263257423244747
 22
18.72763224057731
 32
0.0
 13
7.263257423244747
 23
18.72763224057731
 33
0.0
  0
MTEXT
  5
57C
330
441
100
AcDbEntity
  8
ADPDIM
  6
Continuous
 62
     0
100
AcDbMText
 10
8.388257423244747
 20
18.72763224057731
 30
0.0
 40
0.125
 41
0.0
 71
     5
 72
     1
  1
\A1;2 1/4
 73
     1
 44
1.0
1001
ACAD
1000
MTEXTBEGIN
1070
    73
1070
     1
1070
    44
1040
1.0
1070
    74
1070
     0
1000
MTEXTEND
  0
POINT
  5
57D
330
441
100
AcDbEntity
  8
DEFPOINTS
  6
Continuous
 62
     0
100
AcDbPoint
 10
9.513257423244747
 20
18.06299031577345
 30
0.0
  0
POINT
  5
57E
330
441
100
AcDbEntity
  8
DEFPOINTS
  6
Continuous
 62
     0
100
AcDbPoint
 10
7.263257423244747
 20
17.36200107967817
 30
0.0
  0
POINT
  5
57F
330
441
100
AcDbEntity
  8
DEFPOINTS
  6
Continuous
 62
     0
100
AcDbPoint
 10
7.263257423244747
 20
18.72763224057731
 30
0.0
  0
ENDBLK
  5
44D
330
441
100
AcDbEntity
  8
0
 62
     3
100
AcDbBlockEnd
  0
ENDSEC
  0
SECTION
  2
ENTITIES
  0
ARC
  5
2F
330
A
100
AcDbEntity
  8
ADP2DETAIL
  6
Continuous
 62
     5
100
AcDbCircle
 10
-10.6977178814225
 20
16.8464561923999
 30
0.0
 40
0.7499999999999993
210
0.0
220
0.0
230
-1.0
100
AcDbArc
 50
0.0
 51
21.7802251253253
  0
LWPOLYLINE
  5
30
330
A
100
AcDbEntity
  8
ADP1DETAIL
  6
Continuous
 62
     7
100
AcDbPolyline
 90
        2
 70
   128
 43
0.0
 10
9.126257423244746
 20
18.06299031577345
 10
9.126257423244746
 20
16.4709561923999
  0
LWPOLYLINE
  5
34
330
A
100
AcDbEntity
  8
ADP1DETAIL
  6
Continuous
 62
     7
100
AcDbPolyline
 90
        2
 70
   128
 43
0.0
 10
9.876257423244746
 20
16.4709561923999
 10
9.876257423244746
 20
18.06299031577345
  0
LWPOLYLINE
  5
40
330
A
100
AcDbEntity
  8
ADP1DETAIL
  6
Continuous
 62
     7
100
AcDbPolyline
 90
        2
 70
   128
 43
0.0
 10
7.26597652835558
 20
17.28536018914396
 10
7.26597652835558
 20
16.41036018914396
  0
LWPOLYLINE
  5
44
330
A
100
AcDbEntity
  8
ADP1DETAIL
  6
Continuous
 62
     7
100
AcDbPolyline
 90
        2
 70
   128
 43
0.0
 10
7.26597652835558
 20
16.84786018914396
 10
7.26597652835558
 20
17.28536018914396
  0
LWPOLYLINE
  5
4C
330
A
100
AcDbEntity
  8
ADP1DETAIL
  6
Continuous
 62
     7
100
AcDbPolyline
 90
        2
 70
   128
 43
0.0
 10
13.95022832524804
 20
17.56825651300746
 10
13.95022832524804
 20
16.81875651300746
  0
LWPOLYLINE
  5
50
330
A
100
AcDbEntity
  8
ADP1DETAIL
  6
Continuous
 62
     7
100
AcDbPolyline
 90
        2
 70
   128
 43
0.0
 10
13.20022832524804
 20
16.81875651300746
 10
13.20022832524804
 20
17.56825651300746
  0
CIRCLE
  5
54
330
A
100
AcDbEntity
  8
ADP1DETAIL
  6
Continuous
 62
     7
100
AcDbCircle
 10
-13.57572832524804
 20
16.81558913590843
 30
0.0
 40
0.2859512779740925
210
0.0
220
0.0
230
-1.0
  0
CIRCLE
  5
55
330
A
100
AcDbEntity
  8
ADP1DETAIL
  6
Continuous
 62
     7
100
AcDbCircle
 10
-13.57572832524804
 20
16.81558913590843
 30
0.0
 40
0.3125
210
0.0
220
0.0
230
-1.0
  0
LWPOLYLINE
  5
56
330
A
100
AcDbEntity
  8
ADP1DETAIL
  6
Continuous
 62
     7
100
AcDbPolyline
 90
        2
 70
   128
 43
0.0
 10
7.390876934402212
 20
17.25135773193153
 10
7.39097652835558
 20
16.84786018914396
  0
LWPOLYLINE
  5
5A
330
A
100
AcDbEntity
  8
ADP1DETAIL
  6
Continuous
 62
     7
100
AcDbPolyline
 90
        2
 70
   128
 43
0.0
 10
8.617755872345966
 20
16.59728900896137
 10
8.617755872345966
 20
17.09562337583843
  0
LWPOLYLINE
  5
5E
330
A
100
AcDbEntity
  8
ADP1DETAIL
  6
Continuous
 62
     7
100
AcDbPolyline
 90
        2
 70
   128
 43
0.0
 10
9.126257423244746
 20
16.6589561923999
 10
9.126257423244746
 20
17.0339561923999
  0
LWPOLYLINE
  5
62
330
A
100
AcDbEntity
  8
ADP1DETAIL
  6
Continuous
 62
     7
100
AcDbPolyline
 90
        2
 70
   128
 43
0.0
 10
9.126257423244746
 20
17.1589561923999
 10
9.126257423244746
 20
16.5339561923999
  0
LWPOLYLINE
  5
66
330
A
100
AcDbEntity
  8
ADP1DETAIL
  6
Continuous
 62
     7
100
AcDbPolyline
 90
        2
 70
   128
 43
0.0
 10
9.126257423244746
 20
17.1589561923999
 10
9.126257423244746
 20
16.5339561923999
  0
LWPOLYLINE
  5
6A
330
A
100
AcDbEntity
  8
ADP1DETAIL
  6
Continuous
 62
     7
100
AcDbPolyline
 90
        2
 70
   128
 43
0.0
 10
9.126257423244746
 20
16.6589561923999
 10
9.126257423244746
 20
17.0339561923999
  0
LWPOLYLINE
  5
6E
330
A
100
AcDbEntity
  8
ADP1DETAIL
  6
Continuous
 62
     7
100
AcDbPolyline
 90
        2
 70
   128
 43
0.0
 10
9.876257423244746
 20
17.0339561923999
 10
9.876257423244746
 20
16.6589561923999
  0
LWPOLYLINE
  5
72
330
A
100
AcDbEntity
  8
ADP1DETAIL
  6
Continuous
 62
     7
100
AcDbPolyline
 90
        2
 70
   128
 43
0.0
 10
9.876257423244746
 20
17.0339561923999
 10
9.876257423244746
 20
16.6589561923999
  0
LWPOLYLINE
  5
76
330
A
100
AcDbEntity
  8
ADP1DETAIL
  6
Continuous
 62
     7
100
AcDbPolyline
 90
        2
 70
   128
 43
0.0
 10
10.00125742324474
 20
17.12474171159706
 10
10.00125742324474
 20
16.8464561923999
  0
LWPOLYLINE
  5
7A
330
A
100
AcDbEntity
  8
ADP1DETAIL
  6
Continuous
 62
     7
100
AcDbPolyline
 90
        2
 70
   128
 43
0.0
 10
10.00125742324474
 20
17.12474171159706
 10
10.00125742324474
 20
16.8464561923999
  0
ARC
  5
7E
330
A
100
AcDbEntity
  8
ADP2DETAIL
  6
Continuous
 62
     5
100
AcDbCircle
 10
-10.6977178814225
 20
16.8464561923999
 30
0.0
 40
0.7499999999999993
210
0.0
220
0.0
230
-1.0
100
AcDbArc
 50
0.0
 51
21.7802251253253
  0
LWPOLYLINE
  5
7F
330
A
100
AcDbEntity
  8
ADP1DETAIL
  6
Continuous
 62
     7
100
AcDbPolyline
 90
        2
 70
   128
 43
0.0
 10
9.876257423244746
 20
16.4709561923999
 10
9.126257423244746
 20
16.4709561923999
  0
LWPOLYLINE
  5
83
330
A
100
AcDbEntity
  8
ADP1DETAIL
  6
Continuous
 62
     7
100
AcDbPolyline
 90
        2
 70
   128
 43
0.0
 10
8.617755872345966
 20
16.59728900896137
 10
7.390881887420668
 20
16.4714561923999
  0
LWPOLYLINE
  5
96
330
A
100
AcDbEntity
  8
ADP1DETAIL
  6
Continuous
 62
     7
100
AcDbPolyline
 90
        2
 70
   128
 43
0.0
 10
7.26597652835558
 20
16.41036018914396
 10
7.390876934402212
 20
16.44436264635639
  0
LWPOLYLINE
  5
9A
330
A
100
AcDbEntity
  8
ADP1DETAIL
  6
Continuous
 62
     7
100
AcDbPolyline
 90
        2
 70
   128
 43
0.0
 10
7.262309389389615
 20
17.00645402082239
 10
7.262309389389615
 20
16.82546223679954
  0
LWPOLYLINE
  5
9F
330
A
100
AcDbEntity
  8
ADP1DETAIL
  6
Continuous
 62
     7
100
AcDbPolyline
 90
        2
 70
   128
 43
0.0
 10
7.390876934402212
 20
16.44436264635639
 10
7.39097652835558
 20
16.84786018914396
  0
LWPOLYLINE
  5
A3
330
A
100
AcDbEntity
  8
ADP1DETAIL
  6
Continuous
 62
     7
100
AcDbPolyline
 90
        2
 70
   128
 43
0.0
 10
9.119712504307793
 20
16.5339561923999
 10
8.617755872345966
 20
16.59728900896137
  0
LWPOLYLINE
  5
A7
330
A
100
AcDbEntity
  8
ADP1DETAIL
  6
Continuous
 62
     7
100
AcDbPolyline
 90
        2
 70
   128
 43
0.0
 10
9.876257423244746
 20
16.5339561923999
 10
9.996998151530879
 20
16.56630857303772
  0
LWPOLYLINE
  5
AB
330
A
100
AcDbEntity
  8
ADP1DETAIL
  6
Continuous
 62
     7
100
AcDbPolyline
 90
        2
 70
   128
 43
0.0
 10
9.876257423244746
 20
16.5339561923999
 10
9.996998151530879
 20
16.56630857303772
  0
LWPOLYLINE
  5
AF
330
A
100
AcDbEntity
  8
ADP1DETAIL
  6
Continuous
 62
     7
100
AcDbPolyline
 90
        2
 70
   128
 43
0.0
 10
9.876257423244746
 20
16.6589561923999
 10
9.876257423244746
 20
16.5339561923999
  0
LWPOLYLINE
  5
B3
330
A
100
AcDbEntity
  8
ADP1DETAIL
  6
Continuous
 62
     7
100
AcDbPolyline
 90
        2
 70
   128
 43
0.0
 10
9.876257423244746
 20
16.6589561923999
 10
9.876257423244746
 20
16.5339561923999
  0
ARC
  5
B7
330
A
100
AcDbEntity
  8
ADP2DETAIL
  6
Continuous
 62
     5
100
AcDbCircle
 10
-10.6977178814225
 20
16.8464561923999
 30
0.0
 40
0.75
210
0.0
220
0.0
230
-1.0
100
AcDbArc
 50
338.2197748746756
 51
360.0000000000008
  0
LWPOLYLINE
  5
B8
330
A
100
AcDbEntity
  8
ADP1DETAIL
  6
Continuous
 62
     7
100
AcDbPolyline
 90
        2
 70
   128
 43
0.0
 10
10.00125742324474
 20
16.56817067320275
 10
10.00125742324474
 20
16.8464561923999
  0
ARC
  5
BC
330
A
100
AcDbEntity
  8
ADP2DETAIL
  6
Continuous
 62
     5
100
AcDbCircle
 10
-10.6977178814225
 20
16.8464561923999
 30
0.0
 40
0.75
210
0.0
220
0.0
230
-1.0
100
AcDbArc
 50
338.2197748746756
 51
360.0000000000008
  0
LWPOLYLINE
  5
BD
330
A
100
AcDbEntity
  8
ADP1DETAIL
  6
Continuous
 62
     7
100
AcDbPolyline
 90
        2
 70
   128
 43
0.0
 10
10.00125742324474
 20
16.56817067320275
 10
10.00125742324474
 20
16.8464561923999
  0
LWPOLYLINE
  5
C1
330
A
100
AcDbEntity
  8
ADP1DETAIL
  6
Continuous
 62
     7
100
AcDbPolyline
 90
        2
 70
   128
 43
0.0
 10
9.996998151530879
 20
16.56630857303772
 10
9.996998151530879
 20
16.56630857303772
  0
LWPOLYLINE
  5
C5
330
A
100
AcDbEntity
  8
ADP1DETAIL
  6
Continuous
 62
     7
100
AcDbPolyline
 90
        2
 70
   128
 43
0.0
 10
9.996998151530879
 20
16.56630857303772
 10
9.996998151530879
 20
16.56630857303772
  0
ARC
  5
C9
330
A
100
AcDbEntity
  8
ADP1DETAIL
  6
Continuous
 62
     7
100
AcDbCircle
 10
-13.57572832524804
 20
16.81875651300746
 30
0.0
 40
0.3745000000000012
210
0.0
220
0.0
230
-1.0
100
AcDbArc
 50
180.0
 51
270.0000000000008
  0
ARC
  5
CA
330
A
100
AcDbEntity
  8
ADP1DETAIL
  6
Continuous
 62
     7
100
AcDbCircle
 10
-13.57472832524804
 20
16.81875651300746
 30
0.0
 40
0.3744999999999994
210
0.0
220
0.0
230
-1.0
100
AcDbArc
 50
270.0000000000008
 51
360.0000000000008
  0
LWPOLYLINE
  5
CB
330
A
100
AcDbEntity
  8
ADP1DETAIL
  6
Continuous
 62
     7
100
AcDbPolyline
 90
        2
 70
   128
 43
0.0
 10
13.57572832524804
 20
16.44425651300745
 10
13.57472832524804
 20
16.44425651300745
  0
LWPOLYLINE
  5
CF
330
A
100
AcDbEntity
  8
ADP2DETAIL
  6
Continuous
 62
     5
100
AcDbPolyline
 90
        2
 70
   128
 43
0.0
 10
12.32522832524804
 20
17.88125651300745
 10
13.32634396882711
 20
17.88125651300745
  0
LWPOLYLINE
  5
D3
330
A
100
AcDbEntity
  8
ADP1DETAIL
  6
Continuous
 62
     7
100
AcDbPolyline
 90
        2
 70
   128
 43
0.0
 10
12.32522832524804
 20
18.00030191463557
 10
13.07522832524804
 20
18.00030191463557
  0
LWPOLYLINE
  5
D7
330
A
100
AcDbEntity
  8
ADP1DETAIL
  6
Continuous
 62
     7
100
AcDbPolyline
 90
        2
 70
   128
 43
0.0
 10
13.07522832524804
 20
17.69325651300746
 10
12.32522832524804
 20
17.69325651300746
  0
LWPOLYLINE
  5
DB
330
A
100
AcDbEntity
  8
ADP1DETAIL
  6
Continuous
 62
     7
100
AcDbPolyline
 90
        2
 70
   128
 43
0.0
 10
9.126257423244746
 20
17.7839561923999
 10
9.876257423244746
 20
17.7839561923999
  0
ARC
  5
DF
330
A
100
AcDbEntity
  8
ADP1DETAIL
  6
Continuous
 62
     7
100
AcDbCircle
 10
-9.501257423244746
 20
18.7809561923999
 30
0.0
 40
0.8099999999999988
210
0.0
220
0.0
230
-1.0
100
AcDbArc
 50
242.4215320218777
 51
297.578467978124
  0
LWPOLYLINE
  5
E0
330
A
100
AcDbEntity
  8
ADP1DETAIL
  6
Continuous
 62
     7
100
AcDbPolyline
 90
        2
 70
   128
 43
0.0
 10
7.390886049290727
 20
17.2214561923999
 10
8.617755872345966
 20
17.0964561923999
  0
LWPOLYLINE
  5
EF
330
A
100
AcDbEntity
  8
ADP1DETAIL
  6
Continuous
 62
     7
100
AcDbPolyline
 90
        2
 70
   128
 43
0.0
 10
7.26597652835558
 20
17.28536018914396
 10
7.390876934402212
 20
17.25135773193153
  0
LWPOLYLINE
  5
F4
330
A
100
AcDbEntity
  8
ADP1DETAIL
  6
Continuous
 62
     7
100
AcDbPolyline
 90
        2
 70
   128
 43
0.0
 10
8.617755872345966
 20
17.0964561923999
 10
9.119712504307793
 20
17.1589561923999
  0
LWPOLYLINE
  5
F8
330
A
100
AcDbEntity
  8
ADP2DETAIL
  6
Continuous
 62
     5
100
AcDbPolyline
 90
        2
 70
   128
 43
0.0
 10
9.407257423244745
 20
17.8459561923999
 10
9.345257423244746
 20
17.7839561923999
  0
LWPOLYLINE
  5
FC
330
A
100
AcDbEntity
  8
ADP2DETAIL
  6
Continuous
 62
     5
100
AcDbPolyline
 90
        2
 70
   128
 43
0.0
 10
9.407257423244745
 20
17.9709561923999
 10
9.407257423244745
 20
17.8459561923999
  0
LWPOLYLINE
  5
100
330
A
100
AcDbEntity
  8
ADP1DETAIL
  6
Continuous
 62
     7
100
AcDbPolyline
 90
        2
 70
   128
 43
0.0
 10
9.876257423244746
 20
17.1589561923999
 10
9.996998151530879
 20
17.12660381176209
  0
LWPOLYLINE
  5
104
330
A
100
AcDbEntity
  8
ADP1DETAIL
  6
Continuous
 62
     7
100
AcDbPolyline
 90
        2
 70
   128
 43
0.0
 10
9.876257423244746
 20
17.1589561923999
 10
9.996998151530879
 20
17.12660381176209
  0
LWPOLYLINE
  5
108
330
A
100
AcDbEntity
  8
ADP1DETAIL
  6
Continuous
 62
     7
100
AcDbPolyline
 90
        2
 70
   128
 43
0.0
 10
9.876257423244746
 20
17.0339561923999
 10
9.876257423244746
 20
17.1589561923999
  0
LWPOLYLINE
  5
10C
330
A
100
AcDbEntity
  8
ADP1DETAIL
  6
Continuous
 62
     7
100
AcDbPolyline
 90
        2
 70
   128
 43
0.0
 10
9.876257423244746
 20
17.0339561923999
 10
9.876257423244746
 20
17.1589561923999
  0
LWPOLYLINE
  5
110
330
A
100
AcDbEntity
  8
ADP1DETAIL
  6
Continuous
 62
     7
100
AcDbPolyline
 90
        2
 70
   128
 43
0.0
 10
9.996998151530879
 20
17.12660381176209
 10
9.996998151530879
 20
17.12660381176209
  0
LWPOLYLINE
  5
114
330
A
100
AcDbEntity
  8
ADP1DETAIL
  6
Continuous
 62
     7
100
AcDbPolyline
 90
        2
 70
   128
 43
0.0
 10
9.996998151530879
 20
17.12660381176209
 10
9.996998151530879
 20
17.12660381176209
  0
LWPOLYLINE
  5
118
330
A
100
AcDbEntity
  8
ADP2DETAIL
  6
Continuous
 62
     5
100
AcDbPolyline
 90
        2
 70
   128
 43
0.0
 10
9.595257423244746
 20
17.8459561923999
 10
9.657257423244747
 20
17.7839561923999
  0
LWPOLYLINE
  5
11C
330
A
100
AcDbEntity
  8
ADP2DETAIL
  6
Continuous
 62
     5
100
AcDbPolyline
 90
        2
 70
   128
 43
0.0
 10
9.595257423244746
 20
17.9709561923999
 10
9.595257423244746
 20
17.8459561923999
  0
LWPOLYLINE
  5
120
330
A
100
AcDbEntity
  8
ADP1DETAIL
  6
Continuous
 62
     7
100
AcDbPolyline
 90
        2
 70
   128
 43
0.0
 10
12.32522832524804
 20
17.69325651300746
 10
12.32522832524804
 20
18.00030191463557
  0
ARC
  5
124
330
A
100
AcDbEntity
  8
ADP1DETAIL
  6
Continuous
 62
     7
100
AcDbCircle
 10
-14.07522832524804
 20
17.68888893346353
 30
0.0
 40
0.3124999999999995
210
0.0
220
0.0
230
-1.0
100
AcDbArc
 50
0.0
 51
90.08306715293981
  0
ARC
  5
127
330
A
100
AcDbEntity
  8
ADP1DETAIL
  6
Continuous
 62
     7
100
AcDbCircle
 10
-13.07522832524804
 20
17.68780191463557
 30
0.0
 40
0.3125
210
0.0
220
0.0
230
-1.0
100
AcDbArc
 50
90.0
 51
180.0
  0
ARC
  5
128
330
A
100
AcDbEntity
  8
ADP1DETAIL
  6
Continuous
 62
     7
100
AcDbCircle
 10
-13.07522832524804
 20
17.56825651300746
 30
0.0
 40
0.125
210
0.0
220
0.0
230
-1.0
100
AcDbArc
 50
90.0
 51
180.0
  0
LWPOLYLINE
  5
129
330
A
100
AcDbEntity
  8
ADP2DETAIL
  6
Continuous
 62
     5
100
AcDbPolyline
 90
        2
 70
   128
 43
0.0
 10
12.57664116574337
 20
17.7600337223623
 10
12.51464116574337
 20
17.6980337223623
  0
LWPOLYLINE
  5
12D
330
A
100
AcDbEntity
  8
ADP2DETAIL
  6
Continuous
 62
     5
100
AcDbPolyline
 90
        2
 70
   128
 43
0.0
 10
12.57664116574337
 20
17.88503372236229
 10
12.57664116574337
 20
17.7600337223623
  0
LWPOLYLINE
  5
131
330
A
100
AcDbEntity
  8
ADP2DETAIL
  6
Continuous
 62
     5
100
AcDbPolyline
 90
        2
 70
   128
 43
0.0
 10
12.76464116574337
 20
17.7600337223623
 10
12.82664116574337
 20
17.6980337223623
  0
LWPOLYLINE
  5
135
330
A
100
AcDbEntity
  8
ADP2DETAIL
  6
Continuous
 62
     5
100
AcDbPolyline
 90
        2
 70
   128
 43
0.0
 10
12.76464116574337
 20
17.88503372236229
 10
12.76464116574337
 20
17.7600337223623
  0
LWPOLYLINE
  5
139
330
A
100
AcDbEntity
  8
ADP1DETAIL
  6
Continuous
 62
     7
100
AcDbPolyline
 90
        2
 70
   128
 43
0.0
 10
13.38772832524804
 20
17.06521335348357
 10
13.38772832524804
 20
18.01976085226711
  0
LWPOLYLINE
  5
13D
330
A
100
AcDbEntity
  8
ADP1DETAIL
  6
Continuous
 62
     7
100
AcDbPolyline
 90
        2
 70
   128
 43
0.0
 10
13.76158305809379
 20
17.06521335348357
 10
13.76158305809379
 20
18.01976085226711
  0
LWPOLYLINE
  5
141
330
A
100
AcDbEntity
  8
ADP2DETAIL
  6
Continuous
 62
     5
100
AcDbPolyline
 90
        2
 70
   128
 43
0.0
 10
13.38658305809379
 20
17.90023838387127
 10
13.76158305809379
 20
17.90023838387127
  0
LWPOLYLINE
  5
145
330
A
100
AcDbEntity
  8
ADP1DETAIL
  6
Continuous
 62
     7
100
AcDbPolyline
 90
        2
 70
   128
 43
0.0
 10
13.3948405261934
 20
18.01928378549938
 10
13.76158305809379
 20
18.01928378549938
  0
LWPOLYLINE
  5
149
330
A
100
AcDbEntity
  8
ADP2DETAIL
  6
Continuous
 62
     5
100
AcDbPolyline
 90
        2
 70
   128
 43
0.0
 10
14.57235248718312
 20
17.7565863389389
 10
14.63435248718312
 20
17.69458633893891
  0
LWPOLYLINE
  5
14D
330
A
100
AcDbEntity
  8
ADP1DETAIL
  6
Continuous
 62
     7
100
AcDbPolyline
 90
        2
 70
   128
 43
0.0
 10
14.82522832524804
 20
18.00030191463557
 10
14.07568138612653
 20
18.0013886050407
  0
LWPOLYLINE
  5
151
330
A
100
AcDbEntity
  8
ADP2DETAIL
  6
Continuous
 62
     5
100
AcDbPolyline
 90
        2
 70
   128
 43
0.0
 10
14.82522832524804
 20
17.88125651300745
 10
13.85041048575178
 20
17.88234320341258
  0
LWPOLYLINE
  5
155
330
A
100
AcDbEntity
  8
ADP1DETAIL
  6
Continuous
 62
     7
100
AcDbPolyline
 90
        2
 70
   128
 43
0.0
 10
14.82522832524804
 20
17.69325651300746
 10
14.07522832524804
 20
17.69325651300746
  0
ARC
  5
159
330
A
100
AcDbEntity
  8
ADP1DETAIL
  6
Continuous
 62
     7
100
AcDbCircle
 10
-14.07522832524804
 20
17.56825651300746
 30
0.0
 40
0.125
210
0.0
220
0.0
230
-1.0
100
AcDbArc
 50
0.0
 51
90.0
  0
LWPOLYLINE
  5
15A
330
A
100
AcDbEntity
  8
ADP2DETAIL
  6
Continuous
 62
     5
100
AcDbPolyline
 90
        2
 70
   128
 43
0.0
 10
14.57235248718312
 20
17.8815863389389
 10
14.57235248718312
 20
17.7565863389389
  0
LWPOLYLINE
  5
15E
330
A
100
AcDbEntity
  8
ADP2DETAIL
  6
Continuous
 62
     5
100
AcDbPolyline
 90
        2
 70
   128
 43
0.0
 10
14.38435248718312
 20
17.7565863389389
 10
14.32235248718312
 20
17.69458633893891
  0
LWPOLYLINE
  5
162
330
A
100
AcDbEntity
  8
ADP2DETAIL
  6
Continuous
 62
     5
100
AcDbPolyline
 90
        2
 70
   128
 43
0.0
 10
14.38435248718312
 20
17.8815863389389
 10
14.38435248718312
 20
17.7565863389389
  0
LWPOLYLINE
  5
166
330
A
100
AcDbEntity
  8
ADP1DETAIL
  6
Continuous
 62
     7
100
AcDbPolyline
 90
        2
 70
   128
 43
0.0
 10
14.82961825687848
 20
17.69510126166168
 10
14.82961825687848
 20
18.00214666328979
  0
LWPOLYLINE
  5
16A
330
A
100
AcDbEntity
  8
ADPDIM
  6
Continuous
 62
     3
 48
0.125
100
AcDbPolyline
 90
        2
 70
   128
 43
0.0
 10
12.26272832524804
 20
17.88125651300745
 10
11.3374970793627
 20
17.88125651300745
  0
LWPOLYLINE
  5
16E
330
A
100
AcDbEntity
  8
ADPDIM
  6
Continuous
 62
     3
 48
0.125
100
AcDbPolyline
 90
        2
 70
   128
 43
0.0
 10
13.42322832524804
 20
16.81558913590842
 10
11.3374970793627
 20
16.81558913590842
  0
LWPOLYLINE
  5
172
330
A
100
AcDbEntity
  8
ADPDIM
  6
Continuous
 62
     3
 48
0.125
100
AcDbPolyline
 90
        2
 70
   128
 43
0.0
 10
11.5174970793627
 20
17.88125651300745
 10
11.5174970793627
 20
18.13125651300746
  0
LWPOLYLINE
  5
176
330
A
100
AcDbEntity
  8
ADPDIM
  6
Continuous
 62
     3
 48
0.125
100
AcDbPolyline
 90
        2
 70
   128
 43
0.0
 10
11.5174970793627
 20
16.81558913590842
 10
11.5174970793627
 20
16.56558913590842
  0
LWPOLYLINE
  5
17A
330
A
100
AcDbEntity
  8
ADPDIM
  6
Continuous
 62
     3
 48
0.125
100
AcDbPolyline
 90
        2
 70
   128
 43
0.0
 10
11.6424970793627
 20
17.75625651300746
 10
11.3924970793627
 20
18.00625651300746
  0
LWPOLYLINE
  5
17E
330
A
100
AcDbEntity
  8
ADPDIM
  6
Continuous
 62
     3
 48
0.125
100
AcDbPolyline
 90
        2
 70
   128
 43
0.0
 10
11.6424970793627
 20
16.69058913590842
 10
11.3924970793627
 20
16.94058913590842
  0
TEXT
  5
182
330
A
100
AcDbEntity
  8
ADPDIM
 62
     3
 48
0.0
100
AcDbText
 10
11.5799970793627
 20
15.85725580257509
 30
0.0
 40
0.125
  1
1 1/16
 50
90.0
 72
     5
 11
11.5799970793627
 21
16.44058913590842
 31
0.0
100
AcDbText
  0
LWPOLYLINE
  5
18B
330
A
100
AcDbEntity
  8
ADPDIM
  6
Continuous
 62
     3
 48
0.125
100
AcDbPolyline
 90
        2
 70
   128
 43
0.0
 10
13.38822832524804
 20
16.81558913590843
 10
13.76322832524804
 20
16.81558913590843
  0
LWPOLYLINE
  5
18F
330
A
100
AcDbEntity
  8
ADPDIM
  6
Continuous
 62
     3
 48
0.125
100
AcDbPolyline
 90
        2
 70
   128
 43
0.0
 10
13.57572832524804
 20
16.62808913590843
 10
13.57572832524804
 20
17.00308913590843
  0
LWPOLYLINE
  5
194
330
A
100
AcDbEntity
  8
ADPDIM
  6
Continuous
 62
     3
 48
0.125
100
AcDbPolyline
 90
        2
 70
   128
 43
0.0
 10
12.32522832524804
 20
18.06280191463557
 10
12.32522832524804
 20
19.00802227029315
  0
LWPOLYLINE
  5
198
330
A
100
AcDbEntity
  8
ADPDIM
  6
Continuous
 62
     3
 48
0.125
100
AcDbPolyline
 90
        2
 70
   128
 43
0.0
 10
14.82522832524804
 20
18.00625651300746
 10
14.82522832524804
 20
19.00802227029315
  0
LWPOLYLINE
  5
19C
330
A
100
AcDbEntity
  8
ADPDIM
  6
Continuous
 62
     3
 48
0.125
100
AcDbPolyline
 90
        2
 70
   128
 43
0.0
 10
12.32522832524804
 20
18.82802227029315
 10
13.17939499191471
 20
18.82802227029315
  0
LWPOLYLINE
  5
1A0
330
A
100
AcDbEntity
  8
ADPDIM
  6
Continuous
 62
     3
 48
0.125
100
AcDbPolyline
 90
        2
 70
   128
 43
0.0
 10
14.82522832524804
 20
18.82802227029315
 10
13.97106165858138
 20
18.82802227029315
  0
LWPOLYLINE
  5
1A4
330
A
100
AcDbEntity
  8
ADPDIM
  6
Continuous
 62
     3
 48
0.125
100
AcDbPolyline
 90
        2
 70
   128
 43
0.0
 10
12.20022832524804
 20
18.70302227029315
 10
12.45022832524804
 20
18.95302227029315
  0
LWPOLYLINE
  5
1A8
330
A
100
AcDbEntity
  8
ADPDIM
  6
Continuous
 62
     3
 48
0.125
100
AcDbPolyline
 90
        2
 70
   128
 43
0.0
 10
14.70022832524804
 20
18.70302227029315
 10
14.95022832524804
 20
18.95302227029315
  0
TEXT
  5
1AC
330
A
100
AcDbEntity
  8
ADPDIM
 62
     3
 48
0.0
100
AcDbText
 10
13.30439499191471
 20
18.76552227029315
 30
0.0
 40
0.125
  1
2 1/2
 72
     5
 11
13.84606165858138
 21
18.76552227029315
 31
0.0
100
AcDbText
  0
LWPOLYLINE
  5
1AD
330
A
100
AcDbEntity
  8
ADPDIM
  6
Continuous
 62
     3
 48
0.125
100
AcDbPolyline
 90
        2
 70
   128
 43
0.0
 10
9.513257423244747
 20
18.12549031577345
 10
9.513257423244747
 20
18.66391809637546
  0
LWPOLYLINE
  5
1C6
330
A
100
AcDbEntity
  8
ADPDIM
  6
Continuous
 62
     3
 48
0.125
100
AcDbPolyline
 90
        2
 70
   128
 43
0.0
 10
9.126257423244746
 20
18.12549031577345
 10
9.126257423244746
 20
18.38408803774497
  0
LWPOLYLINE
  5
1CA
330
A
100
AcDbEntity
  8
ADPDIM
  6
Continuous
 62
     3
 48
0.125
100
AcDbPolyline
 90
        2
 70
   128
 43
0.0
 10
9.876257423244746
 20
18.12549031577345
 10
9.876257423244746
 20
18.38408803774497
  0
LWPOLYLINE
  5
1CE
330
A
100
AcDbEntity
  8
ADPDIM
  6
Continuous
 62
     3
 48
0.125
100
AcDbPolyline
 90
        2
 70
   128
 43
0.0
 10
9.126257423244746
 20
18.20408803774497
 10
8.876257423244746
 20
18.20408803774497
  0
LWPOLYLINE
  5
1D2
330
A
100
AcDbEntity
  8
ADPDIM
  6
Continuous
 62
     3
 48
0.125
100
AcDbPolyline
 90
        2
 70
   128
 43
0.0
 10
9.876257423244746
 20
18.20408803774497
 10
10.12625742324474
 20
18.20408803774497
  0
LWPOLYLINE
  5
1D6
330
A
100
AcDbEntity
  8
ADPDIM
  6
Continuous
 62
     3
 48
0.125
100
AcDbPolyline
 90
        2
 70
   128
 43
0.0
 10
9.001257423244746
 20
18.07908803774497
 10
9.251257423244746
 20
18.32908803774497
  0
LWPOLYLINE
  5
1DA
330
A
100
AcDbEntity
  8
ADPDIM
  6
Continuous
 62
     3
 48
0.125
100
AcDbPolyline
 90
        2
 70
   128
 43
0.0
 10
9.751257423244746
 20
18.07908803774497
 10
10.00125742324474
 20
18.32908803774497
  0
TEXT
  5
1DE
330
A
100
AcDbEntity
  8
ADPDIM
 62
     3
 48
0.0
100
AcDbText
 10
10.25125742324474
 20
18.14158803774496
 30
0.0
 40
0.125
  1
3/4
 72
     5
 11
10.58459075657808
 21
18.14158803774496
 31
0.0
100
AcDbText
  0
LWPOLYLINE
  5
1DF
330
A
100
AcDbEntity
  8
ADPDIM
  6
Continuous
 62
     3
 48
0.125
100
AcDbPolyline
 90
        2
 70
   128
 43
0.0
 10
12.67539847250899
 20
17.94822568795757
 10
12.67539847250899
 20
18.64567481171857
  0
LWPOLYLINE
  5
1E3
330
A
100
AcDbEntity
  8
ADPDIM
  6
Continuous
 62
     3
 48
0.125
100
AcDbPolyline
 90
        2
 70
   128
 43
0.0
 10
14.48138610223705
 20
17.95856783822774
 10
14.48138610223705
 20
18.65601696198875
  0
LWPOLYLINE
  5
1E7
330
A
100
AcDbEntity
  8
ADPDIM
  6
Continuous
 62
     3
 48
0.125
100
AcDbPolyline
 90
        2
 70
   128
 43
0.0
 10
12.676755487941
 20
18.47291962370327
 10
13.17824972476044
 20
18.47256957856535
  0
LWPOLYLINE
  5
1EB
330
A
100
AcDbEntity
  8
ADPDIM
  6
Continuous
 62
     3
 48
0.125
100
AcDbPolyline
 90
        2
 70
   128
 43
0.0
 10
14.49697393549175
 20
18.47291962370327
 10
13.96991639142711
 20
18.47256957856535
  0
LWPOLYLINE
  5
1EF
330
A
100
AcDbEntity
  8
ADPDIM
  6
Continuous
 62
     3
 48
0.125
100
AcDbPolyline
 90
        2
 70
   128
 43
0.0
 10
12.55039847250899
 20
18.34067481171857
 10
12.80039847250899
 20
18.59067481171857
  0
LWPOLYLINE
  5
1F3
330
A
100
AcDbEntity
  8
ADPDIM
  6
Continuous
 62
     3
 48
0.125
100
AcDbPolyline
 90
        2
 70
   128
 43
0.0
 10
14.35638610223705
 20
18.35101696198875
 10
14.60638610223704
 20
18.60101696198874
  0
TEXT
  5
1F7
330
A
100
AcDbEntity
  8
ADPDIM
 62
     3
 48
0.0
100
AcDbText
 10
13.17732976092575
 20
18.42519077215338
 30
0.0
 40
0.125
  1
1 13/16
 72
     5
 11
13.93566309425908
 21
18.42519077215338
 31
0.0
100
AcDbText
  0
LWPOLYLINE
  5
1F8
330
A
100
AcDbEntity
  8
DEFPOINTS
  6
Continuous
 62
     3
 48
0.125
100
AcDbPolyline
 90
        2
 70
   128
 43
0.0
 10
12.32522832524804
 20
17.88125651300745
 10
12.32522832524804
 20
17.88125651300745
  0
LWPOLYLINE
  5
1FC
330
A
100
AcDbEntity
  8
DEFPOINTS
  6
Continuous
 62
     3
 48
0.125
100
AcDbPolyline
 90
        2
 70
   128
 43
0.0
 10
12.32522832524804
 20
17.88125651300745
 10
12.32522832524804
 20
17.88125651300745
  0
LWPOLYLINE
  5
200
330
A
100
AcDbEntity
  8
DEFPOINTS
  6
Continuous
 62
     3
 48
0.125
100
AcDbPolyline
 90
        2
 70
   128
 43
0.0
 10
13.48572832524804
 20
16.81558913590843
 10
13.48572832524804
 20
16.81558913590843
  0
LWPOLYLINE
  5
204
330
A
100
AcDbEntity
  8
DEFPOINTS
  6
Continuous
 62
     3
 48
0.125
100
AcDbPolyline
 90
        2
 70
   128
 43
0.0
 10
13.48572832524804
 20
16.81558913590843
 10
13.48572832524804
 20
16.81558913590843
  0
LWPOLYLINE
  5
208
330
A
100
AcDbEntity
  8
DEFPOINTS
  6
Continuous
 62
     3
 48
0.125
100
AcDbPolyline
 90
        2
 70
   128
 43
0.0
 10
11.5174970793627
 20
16.81558913590843
 10
11.5174970793627
 20
16.81558913590843
  0
LWPOLYLINE
  5
20C
330
A
100
AcDbEntity
  8
DEFPOINTS
  6
Continuous
 62
     3
 48
0.125
100
AcDbPolyline
 90
        2
 70
   128
 43
0.0
 10
11.5174970793627
 20
16.81558913590843
 10
11.5174970793627
 20
16.81558913590843
  0
LWPOLYLINE
  5
218
330
A
100
AcDbEntity
  8
DEFPOINTS
  6
Continuous
 62
     3
 48
0.125
100
AcDbPolyline
 90
        2
 70
   128
 43
0.0
 10
14.80738545438989
 20
17.67175542596782
 10
14.80738545438989
 20
17.67175542596782
  0
LWPOLYLINE
  5
21C
330
A
100
AcDbEntity
  8
DEFPOINTS
  6
Continuous
 62
     3
 48
0.125
100
AcDbPolyline
 90
        2
 70
   128
 43
0.0
 10
14.80738545438989
 20
17.67175542596782
 10
14.80738545438989
 20
17.67175542596782
  0
LWPOLYLINE
  5
220
330
A
100
AcDbEntity
  8
DEFPOINTS
  6
Continuous
 62
     3
 48
0.125
100
AcDbPolyline
 90
        2
 70
   128
 43
0.0
 10
12.32522832524804
 20
18.00030191463558
 10
12.32522832524804
 20
18.00030191463558
  0
LWPOLYLINE
  5
224
330
A
100
AcDbEntity
  8
DEFPOINTS
  6
Continuous
 62
     3
 48
0.125
100
AcDbPolyline
 90
        2
 70
   128
 43
0.0
 10
12.32522832524804
 20
18.00030191463558
 10
12.32522832524804
 20
18.00030191463558
  0
LWPOLYLINE
  5
228
330
A
100
AcDbEntity
  8
DEFPOINTS
  6
Continuous
 62
     3
 48
0.125
100
AcDbPolyline
 90
        2
 70
   128
 43
0.0
 10
14.82522832524804
 20
17.94375651300746
 10
14.82522832524804
 20
17.94375651300746
  0
LWPOLYLINE
  5
22C
330
A
100
AcDbEntity
  8
DEFPOINTS
  6
Continuous
 62
     3
 48
0.125
100
AcDbPolyline
 90
        2
 70
   128
 43
0.0
 10
14.82522832524804
 20
17.94375651300746
 10
14.82522832524804
 20
17.94375651300746
  0
LWPOLYLINE
  5
230
330
A
100
AcDbEntity
  8
DEFPOINTS
  6
Continuous
 62
     3
 48
0.125
100
AcDbPolyline
 90
        2
 70
   128
 43
0.0
 10
14.82522832524804
 20
18.82802227029315
 10
14.82522832524804
 20
18.82802227029315
  0
LWPOLYLINE
  5
234
330
A
100
AcDbEntity
  8
DEFPOINTS
  6
Continuous
 62
     3
 48
0.125
100
AcDbPolyline
 90
        2
 70
   128
 43
0.0
 10
14.82522832524804
 20
18.82802227029315
 10
14.82522832524804
 20
18.82802227029315
  0
LWPOLYLINE
  5
238
330
A
100
AcDbEntity
  8
DEFPOINTS
  6
Continuous
 62
     3
 48
0.125
100
AcDbPolyline
 90
        2
 70
   128
 43
0.0
 10
9.513257423244747
 20
18.06299031577345
 10
9.513257423244747
 20
18.06299031577345
  0
LWPOLYLINE
  5
23C
330
A
100
AcDbEntity
  8
DEFPOINTS
  6
Continuous
 62
     3
 48
0.125
100
AcDbPolyline
 90
        2
 70
   128
 43
0.0
 10
9.513257423244747
 20
18.06299031577345
 10
9.513257423244747
 20
18.06299031577345
  0
LWPOLYLINE
  5
250
330
A
100
AcDbEntity
  8
DEFPOINTS
  6
Continuous
 62
     3
 48
0.125
100
AcDbPolyline
 90
        2
 70
   128
 43
0.0
 10
9.126257423244746
 20
18.06299031577345
 10
9.126257423244746
 20
18.06299031577345
  0
LWPOLYLINE
  5
254
330
A
100
AcDbEntity
  8
DEFPOINTS
  6
Continuous
 62
     3
 48
0.125
100
AcDbPolyline
 90
        2
 70
   128
 43
0.0
 10
9.126257423244746
 20
18.06299031577345
 10
9.126257423244746
 20
18.06299031577345
  0
LWPOLYLINE
  5
258
330
A
100
AcDbEntity
  8
DEFPOINTS
  6
Continuous
 62
     3
 48
0.125
100
AcDbPolyline
 90
        2
 70
   128
 43
0.0
 10
9.876257423244746
 20
18.06299031577345
 10
9.876257423244746
 20
18.06299031577345
  0
LWPOLYLINE
  5
25C
330
A
100
AcDbEntity
  8
DEFPOINTS
  6
Continuous
 62
     3
 48
0.125
100
AcDbPolyline
 90
        2
 70
   128
 43
0.0
 10
9.876257423244746
 20
18.06299031577345
 10
9.876257423244746
 20
18.06299031577345
  0
LWPOLYLINE
  5
260
330
A
100
AcDbEntity
  8
DEFPOINTS
  6
Continuous
 62
     3
 48
0.125
100
AcDbPolyline
 90
        2
 70
   128
 43
0.0
 10
9.876257423244746
 20
18.20408803774497
 10
9.876257423244746
 20
18.20408803774497
  0
LWPOLYLINE
  5
264
330
A
100
AcDbEntity
  8
DEFPOINTS
  6
Continuous
 62
     3
 48
0.125
100
AcDbPolyline
 90
        2
 70
   128
 43
0.0
 10
9.876257423244746
 20
18.20408803774497
 10
9.876257423244746
 20
18.20408803774497
  0
LWPOLYLINE
  5
268
330
A
100
AcDbEntity
  8
DEFPOINTS
  6
Continuous
 62
     3
 48
0.125
100
AcDbPolyline
 90
        2
 70
   128
 43
0.0
 10
12.6702273973739
 20
17.89779152993944
 10
12.6702273973739
 20
17.89779152993944
  0
LWPOLYLINE
  5
26C
330
A
100
AcDbEntity
  8
DEFPOINTS
  6
Continuous
 62
     3
 48
0.125
100
AcDbPolyline
 90
        2
 70
   128
 43
0.0
 10
12.6702273973739
 20
17.89779152993944
 10
12.6702273973739
 20
17.89779152993944
  0
LWPOLYLINE
  5
270
330
A
100
AcDbEntity
  8
DEFPOINTS
  6
Continuous
 62
     3
 48
0.125
100
AcDbPolyline
 90
        2
 70
   128
 43
0.0
 10
14.47793871881366
 20
17.89434414651605
 10
14.47793871881366
 20
17.89434414651605
  0
LWPOLYLINE
  5
274
330
A
100
AcDbEntity
  8
DEFPOINTS
  6
Continuous
 62
     3
 48
0.125
100
AcDbPolyline
 90
        2
 70
   128
 43
0.0
 10
14.47793871881366
 20
17.89434414651605
 10
14.47793871881366
 20
17.89434414651605
  0
LWPOLYLINE
  5
278
330
A
100
AcDbEntity
  8
DEFPOINTS
  6
Continuous
 62
     3
 48
0.125
100
AcDbPolyline
 90
        2
 70
   128
 43
0.0
 10
14.48138610223705
 20
18.47601696198875
 10
14.48138610223705
 20
18.47601696198875
  0
LWPOLYLINE
  5
27C
330
A
100
AcDbEntity
  8
DEFPOINTS
  6
Continuous
 62
     3
 48
0.125
100
AcDbPolyline
 90
        2
 70
   128
 43
0.0
 10
14.48138610223705
 20
18.47601696198875
 10
14.48138610223705
 20
18.47601696198875
  0
TEXT
  5
32C
330
A
100
AcDbEntity
  8
ADPDIM
100
AcDbText
 10
4.336314660622423
 20
14.40075520244399
 30
0.0
 40
0.125
  1
J U L I U S  B L U M  &  C O . ,  I N C .      ( 8 0 0 )  5 2 6 - 6 2 9 3        W W W . J U L I U S B L U M . C O M        P A R T  N O .  2 2 2
 41
1.25
  7
ARIAL_WIDE
 72
     1
 11
10.79521643415584
 21
14.52575520244399
 31
0.0
100
AcDbText
 73
     3
  0
DIMENSION
  5
440
330
A
100
AcDbEntity
  8
ADPDIM
  6
Continuous
 62
     3
100
AcDbDimension
  2
*D0
 10
7.263257423244747
 20
18.72763224057731
 30
0.0
 11
8.388257423244747
 21
18.72763224057731
 31
0.0
 70
    32
 71
     5
 42
2.25
  3
STANDARD
100
AcDbAlignedDimension
 13
9.513257423244747
 23
18.06299031577345
 33
0.0
 14
7.263257423244747
 24
17.36200107967817
 34
0.0
100
AcDbRotatedDimension
1001
ACAD
1000
DSTYLE
1002
{
1070
   276
1070
     2
1070
   140
1040
0.125
1070
   277
1070
     5
1070
   289
1070
     3
1002
}
  0
LINE
  5
51B
330
A
100
AcDbEntity
  8
0
 62
     7
370
     0
100
AcDbLine
 10
7.032256666809189
 20
17.05321074296148
 30
0.0
 11
6.999676125687487
 21
17.11835757299967
 31
0.0
  0
LINE
  5
51C
330
A
100
AcDbEntity
  8
0
 62
     7
370
     0
100
AcDbLine
 10
7.029890800743483
 20
16.59296427995048
 30
0.0
 11
6.997338764032211
 21
16.65811110998867
 31
0.0
  0
LINE
  5
51D
330
A
100
AcDbEntity
  8
0
 62
     7
370
     0
100
AcDbLine
 10
6.602980245730587
 20
17.11835757299967
 30
0.0
 11
6.602980245730587
 21
16.65705644680275
 31
0.0
  0
LINE
  5
51E
330
A
100
AcDbEntity
  8
0
 62
     7
370
     0
100
AcDbLine
 10
6.965499337581695
 20
17.05321074296148
 30
0.0
 11
6.997338764032211
 21
16.65811110998867
 31
0.0
  0
LINE
  5
51F
330
A
100
AcDbEntity
  8
0
 62
     7
370
     0
100
AcDbLine
 10
6.898770512764627
 20
17.05321074296148
 30
0.0
 11
6.930581434804715
 21
16.65811110998867
 31
0.0
  0
LINE
  5
520
330
A
100
AcDbEntity
  8
0
 62
     7
370
     0
100
AcDbLine
 10
6.832041687947564
 20
17.05321074296148
 30
0.0
 11
6.863852609987651
 21
16.65811110998867
 31
0.0
  0
LINE
  5
521
330
A
100
AcDbEntity
  8
0
 62
     7
370
     0
100
AcDbLine
 10
6.765312863130496
 20
17.05321074296148
 30
0.0
 11
6.797123785170585
 21
16.65811110998867
 31
0.0
  0
LINE
  5
522
330
A
100
AcDbEntity
  8
0
 62
     7
370
     0
100
AcDbLine
 10
6.704655477735062
 20
17.05321074296148
 30
0.0
 11
6.736466399775149
 21
16.65811110998867
 31
0.0
  0
LINE
  5
523
330
A
100
AcDbEntity
  8
0
 62
     7
370
     0
100
AcDbLine
 10
6.637926652917995
 20
17.05321074296148
 30
0.0
 11
6.669737574958084
 21
16.65811110998867
 31
0.0
  0
LINE
  5
524
330
A
100
AcDbEntity
  8
0
 62
     7
370
     0
100
AcDbLine
 10
6.764543244048882
 20
16.59296427995048
 30
0.0
 11
6.736466399775149
 21
16.65811110998867
 31
0.0
  0
LINE
  5
525
330
A
100
AcDbEntity
  8
0
 62
     7
370
     0
100
AcDbLine
 10
6.602980245730587
 20
16.65705644680275
 30
0.0
 11
6.637157033836381
 21
16.59296427995048
 31
0.0
  0
LINE
  5
526
330
A
100
AcDbEntity
  8
0
 62
     7
370
     0
100
AcDbLine
 10
6.702318116079785
 20
16.59296427995048
 30
0.0
 11
6.669737574958084
 21
16.65811110998867
 31
0.0
  0
LINE
  5
527
330
A
100
AcDbEntity
  8
0
 62
     7
370
     0
100
AcDbLine
 10
6.669737574958084
 20
16.65811110998867
 30
0.0
 11
6.637157033836381
 21
16.59296427995048
 31
0.0
  0
LINE
  5
528
330
A
100
AcDbEntity
  8
0
 62
     7
370
     0
100
AcDbLine
 10
6.736466399775149
 20
16.65811110998867
 30
0.0
 11
6.703885858653447
 21
16.59296427995048
 31
0.0
  0
LINE
  5
529
330
A
100
AcDbEntity
  8
0
 62
     7
370
     0
100
AcDbLine
 10
6.896433151109354
 20
16.59296427995048
 30
0.0
 11
6.863852609987651
 21
16.65811110998867
 31
0.0
  0
LINE
  5
52A
330
A
100
AcDbEntity
  8
0
 62
     7
370
     0
100
AcDbLine
 10
6.829704326292286
 20
16.59296427995048
 30
0.0
 11
6.797123785170585
 21
16.65811110998867
 31
0.0
  0
LINE
  5
52B
330
A
100
AcDbEntity
  8
0
 62
     7
370
     0
100
AcDbLine
 10
6.797123785170585
 20
16.65811110998867
 30
0.0
 11
6.764543244048882
 21
16.59296427995048
 31
0.0
  0
LINE
  5
52C
330
A
100
AcDbEntity
  8
0
 62
     7
370
     0
100
AcDbLine
 10
6.863852609987651
 20
16.65811110998867
 30
0.0
 11
6.831300573276378
 21
16.59296427995048
 31
0.0
  0
LINE
  5
52D
330
A
100
AcDbEntity
  8
0
 62
     7
370
     0
100
AcDbLine
 10
6.963161975926419
 20
16.59296427995048
 30
0.0
 11
6.930581434804715
 21
16.65811110998867
 31
0.0
  0
LINE
  5
52E
330
A
100
AcDbEntity
  8
0
 62
     7
370
     0
100
AcDbLine
 10
6.930581434804715
 20
16.65811110998867
 30
0.0
 11
6.898029398093443
 21
16.59296427995048
 31
0.0
  0
LINE
  5
52F
330
A
100
AcDbEntity
  8
0
 62
     7
370
     0
100
AcDbLine
 10
6.997338764032211
 20
16.65811110998867
 30
0.0
 11
6.964758222910507
 21
16.59296427995048
 31
0.0
  0
LINE
  5
530
330
A
100
AcDbEntity
  8
0
 62
     7
370
     0
100
AcDbLine
 10
6.765312863130496
 20
17.05321074296148
 30
0.0
 11
6.732732322008795
 21
17.11835757299967
 31
0.0
  0
LINE
  5
531
330
A
100
AcDbEntity
  8
0
 62
     7
370
     0
100
AcDbLine
 10
6.637926652917995
 20
17.05321074296148
 30
0.0
 11
6.605346111796293
 21
17.11835757299967
 31
0.0
  0
LINE
  5
532
330
A
100
AcDbEntity
  8
0
 62
     7
370
     0
100
AcDbLine
 10
6.704655477735062
 20
17.05321074296148
 30
0.0
 11
6.672074936613357
 21
17.11835757299967
 31
0.0
  0
LINE
  5
533
330
A
100
AcDbEntity
  8
0
 62
     7
370
     0
100
AcDbLine
 10
6.732732322008795
 20
17.11835757299967
 30
0.0
 11
6.704655477735062
 21
17.05321074296148
 31
0.0
  0
LINE
  5
534
330
A
100
AcDbEntity
  8
0
 62
     7
370
     0
100
AcDbLine
 10
6.670507194039698
 20
17.11835757299967
 30
0.0
 11
6.637926652917995
 21
17.05321074296148
 31
0.0
  0
LINE
  5
535
330
A
100
AcDbEntity
  8
0
 62
     7
370
     0
100
AcDbLine
 10
6.898770512764627
 20
17.05321074296148
 30
0.0
 11
6.866218476053356
 21
17.11835757299967
 31
0.0
  0
LINE
  5
536
330
A
100
AcDbEntity
  8
0
 62
     7
370
     0
100
AcDbLine
 10
6.832041687947564
 20
17.05321074296148
 30
0.0
 11
6.799489651236289
 21
17.11835757299967
 31
0.0
  0
LINE
  5
537
330
A
100
AcDbEntity
  8
0
 62
     7
370
     0
100
AcDbLine
 10
6.864622229069265
 20
17.11835757299967
 30
0.0
 11
6.832041687947564
 21
17.05321074296148
 31
0.0
  0
LINE
  5
538
330
A
100
AcDbEntity
  8
0
 62
     7
370
     0
100
AcDbLine
 10
6.7978934042522
 20
17.11835757299967
 30
0.0
 11
6.765312863130496
 21
17.05321074296148
 31
0.0
  0
LINE
  5
539
330
A
100
AcDbEntity
  8
0
 62
     7
370
     0
100
AcDbLine
 10
6.965499337581695
 20
17.05321074296148
 30
0.0
 11
6.93294730087042
 21
17.11835757299967
 31
0.0
  0
LINE
  5
53A
330
A
100
AcDbEntity
  8
0
 62
     7
370
     0
100
AcDbLine
 10
6.998079878703396
 20
17.11835757299967
 30
0.0
 11
6.965499337581695
 21
17.05321074296148
 31
0.0
  0
LINE
  5
53B
330
A
100
AcDbEntity
  8
0
 62
     7
370
     0
100
AcDbLine
 10
6.931351053886332
 20
17.11835757299967
 30
0.0
 11
6.898770512764627
 21
17.05321074296148
 31
0.0
  0
LINE
  5
53C
330
A
100
AcDbEntity
  8
0
 62
     7
370
     0
100
AcDbLine
 10
7.227141320920372
 20
17.05321074296148
 30
0.0
 11
7.258952242960459
 21
16.65811110998867
 31
0.0
  0
LINE
  5
53D
330
A
100
AcDbEntity
  8
0
 62
     7
370
     0
100
AcDbLine
 10
7.161980238676966
 20
17.05321074296148
 30
0.0
 11
7.193791160717053
 21
16.65811110998867
 31
0.0
  0
LINE
  5
53E
330
A
100
AcDbEntity
  8
0
 62
     7
370
     0
100
AcDbLine
 10
7.096847660843991
 20
17.05321074296148
 30
0.0
 11
7.128658582884077
 21
16.65811110998867
 31
0.0
  0
LINE
  5
53F
330
A
100
AcDbEntity
  8
0
 62
     7
370
     0
100
AcDbLine
 10
7.032256666809189
 20
17.05321074296148
 30
0.0
 11
7.064067588849276
 21
16.65811110998867
 31
0.0
  0
LINE
  5
540
330
A
100
AcDbEntity
  8
0
 62
     7
370
     0
100
AcDbLine
 10
7.161210619595352
 20
16.59296427995048
 30
0.0
 11
7.128658582884077
 21
16.65811110998867
 31
0.0
  0
LINE
  5
541
330
A
100
AcDbEntity
  8
0
 62
     7
370
     0
100
AcDbLine
 10
7.096619625560551
 20
16.59296427995048
 30
0.0
 11
7.064067588849276
 21
16.65811110998867
 31
0.0
  0
LINE
  5
542
330
A
100
AcDbEntity
  8
0
 62
     7
370
     0
100
AcDbLine
 10
7.064067588849276
 20
16.65811110998867
 30
0.0
 11
7.031487047727575
 21
16.59296427995048
 31
0.0
  0
LINE
  5
543
330
A
100
AcDbEntity
  8
0
 62
     7
370
     0
100
AcDbLine
 10
7.128658582884077
 20
16.65811110998867
 30
0.0
 11
7.096078041762376
 21
16.59296427995048
 31
0.0
  0
LINE
  5
544
330
A
100
AcDbEntity
  8
0
 62
     7
370
     0
100
AcDbLine
 10
7.193791160717053
 20
16.65811110998867
 30
0.0
 11
7.161210619595352
 21
16.59296427995048
 31
0.0
  0
LINE
  5
545
330
A
100
AcDbEntity
  8
0
 62
     7
370
     0
100
AcDbLine
 10
7.226371701838758
 20
16.59296427995048
 30
0.0
 11
7.193791160717053
 21
16.65811110998867
 31
0.0
  0
LINE
  5
546
330
A
100
AcDbEntity
  8
0
 62
     7
370
     0
100
AcDbLine
 10
7.258952242960459
 20
16.65811110998867
 30
0.0
 11
7.226371701838758
 21
16.59296427995048
 31
0.0
  0
LINE
  5
547
330
A
100
AcDbEntity
  8
0
 62
     7
370
     0
100
AcDbLine
 10
7.161980238676966
 20
17.05321074296148
 30
0.0
 11
7.129399697555262
 21
17.11835757299967
 31
0.0
  0
LINE
  5
548
330
A
100
AcDbEntity
  8
0
 62
     7
370
     0
100
AcDbLine
 10
7.096847660843991
 20
17.05321074296148
 30
0.0
 11
7.064267119722289
 21
17.11835757299967
 31
0.0
  0
LINE
  5
549
330
A
100
AcDbEntity
  8
0
 62
     7
370
     0
100
AcDbLine
 10
7.129399697555262
 20
17.11835757299967
 30
0.0
 11
7.096847660843991
 21
17.05321074296148
 31
0.0
  0
LINE
  5
54A
330
A
100
AcDbEntity
  8
0
 62
     7
370
     0
100
AcDbLine
 10
7.06480870352046
 20
17.11835757299967
 30
0.0
 11
7.032256666809189
 21
17.05321074296148
 31
0.0
  0
LINE
  5
54B
330
A
100
AcDbEntity
  8
0
 62
     7
370
     0
100
AcDbLine
 10
7.259721862042074
 20
17.11835757299967
 30
0.0
 11
7.227141320920372
 21
17.05321074296148
 31
0.0
  0
LINE
  5
54C
330
A
100
AcDbEntity
  8
0
 62
     7
370
     0
100
AcDbLine
 10
7.227141320920372
 20
17.05321074296148
 30
0.0
 11
7.194560779798668
 21
17.11835757299967
 31
0.0
  0
LINE
  5
54D
330
A
100
AcDbEntity
  8
0
 62
     7
370
     0
100
AcDbLine
 10
7.194560779798668
 20
17.11835757299967
 30
0.0
 11
7.161980238676966
 21
17.05321074296148
 31
0.0
  0
ENDSEC
  0
SECTION
  2
OBJECTS
  0
DICTIONARY
  5
19
330
0
100
AcDbDictionary
281
     1
  3
ACAD_COLOR
350
43A
  3
ACAD_GROUP
350
1A
  3
ACAD_LAYOUT
350
285
  3
ACAD_MATERIAL
350
425
  3
ACAD_MLINESTYLE
350
1B
  3
ACAD_PLOTSETTINGS
350
286
  3
ACAD_PLOTSTYLENAME
350
283
  3
ACAD_TABLESTYLE
350
43B
  3
ACAD_VISUALSTYLE
350
429
  3
AcDbVariableDictionary
350
2F3
  3
ASE_INDEX_DICTIONARY
350
581
  3
DWGPROPS
350
5A2
  0
DICTIONARY
  5
2E7
330
A
100
AcDbDictionary
280
     1
281
     1
  3
ACAD_LAYOUTSELFREF
360
418
  0
DICTIONARY
  5
2E9
330
B
100
AcDbDictionary
280
     1
281
     1
  3
ACAD_LAYOUTSELFREF
360
419
  0
DICTIONARY
  5
43A
102
{ACAD_REACTORS
330
19
102
}
330
19
100
AcDbDictionary
281
     1
  0
DICTIONARY
  5
1A
102
{ACAD_REACTORS
330
19
102
}
330
19
100
AcDbDictionary
281
     1
  0
DICTIONARY
  5
285
102
{ACAD_REACTORS
330
19
102
}
330
19
100
AcDbDictionary
281
     1
  3
Layout1
350
288
  3
Model
350
287
  0
DICTIONARY
  5
425
102
{ACAD_REACTORS
330
19
102
}
330
19
100
AcDbDictionary
281
     1
  3
ByBlock
350
427
  3
ByLayer
350
426
  3
Global
350
428
  0
DICTIONARY
  5
1B
102
{ACAD_REACTORS
330
19
102
}
330
19
100
AcDbDictionary
281
     1
  3
STANDARD
350
1C
  0
DICTIONARY
  5
286
102
{ACAD_REACTORS
330
19
102
}
330
19
100
AcDbDictionary
281
     1
  0
ACDBDICTIONARYWDFLT
  5
283
102
{ACAD_REACTORS
330
19
102
}
330
19
100
AcDbDictionary
281
     1
  3
Normal
350
284
100
AcDbDictionaryWithDefault
340
284
  0
DICTIONARY
  5
43B
102
{ACAD_REACTORS
330
19
102
}
330
19
100
AcDbDictionary
281
     1
  3
Standard
350
43C
  0
DICTIONARY
  5
429
102
{ACAD_REACTORS
330
19
102
}
330
19
100
AcDbDictionary
281
     1
  3
2dWireframe
350
42F
  3
3D Hidden
350
431
  3
3dWireframe
350
430
  3
Basic
350
42E
  3
Brighten
350
435
  3
ColorChange
350
439
  3
Conceptual
350
432
  3
Dim
350
434
  3
Facepattern
350
438
  3
Flat
350
42A
  3
FlatWithEdges
350
42B
  3
Gouraud
350
42C
  3
GouraudWithEdges
350
42D
  3
Linepattern
350
437
  3
Realistic
350
433
  3
Thicken
350
436
  0
DICTIONARY
  5
2F3
102
{ACAD_REACTORS
330
19
102
}
330
19
100
AcDbDictionary
281
     1
  3
CTABLESTYLE
350
59F
  3
DIMASSOC
350
2F4
  3
INDEXCTL
350
5A1
  3
SORTENTS
350
5A0
  0
DICTIONARY
  5
581
102
{ACAD_REACTORS
330
19
102
}
330
19
100
AcDbDictionary
281
     1
  3
ASEBlockHierarchyIndexRecord
350
582
1001
DCO15
1040
1567883652.779
  0
XRECORD
  5
5A2
102
{ACAD_REACTORS
330
19
102
}
330
19
100
AcDbXrecord
280
     1
  1
DWGPROPS COOKIE
  2

  3

  4

  6

  7

  8
Yu Hu
  9

300
=
301
=
302
=
303
=
304
=
305
=
306
=
307
=
308
=
309
=
 40
0.0329015277777778
 41
2444971.791666667
 42
2453950.013388646
  1

 90
        0
  0
XRECORD
  5
418
102
{ACAD_REACTORS
330
2E7
102
}
330
2E7
100
AcDbXrecord
280
     1
340
A
  0
XRECORD
  5
419
102
{ACAD_REACTORS
330
2E9
102
}
330
2E9
100
AcDbXrecord
280
     1
340
B
  0
LAYOUT
  5
288
102
{ACAD_XDICTIONARY
360
5A5
102
}
102
{ACAD_REACTORS
330
285
102
}
330
285
100
AcDbPlotSettings
  1

  2
Fax
  4

  6

 40
0.0
 41
0.0
 42
0.0
 43
0.0
 44
0.0
 45
0.0
 46
0.0
 47
0.0
 48
0.0
 49
0.0
140
0.0
141
0.0
142
1.0
143
1.0
 70
   688
 72
     0
 73
     0
 74
     5
  7
Default R14 pen assignments.ctb
 75
    16
147
1.0
148
0.0
149
0.0
100
AcDbLayout
  1
Layout1
 70
     0
 71
     1
 10
0.0
 20
0.0
 11
12.0
 21
9.0
 12
0.0
 22
0.0
 32
0.0
 14
1.000000000000000E+20
 24
1.000000000000000E+20
 34
1.000000000000000E+20
 15
-1.000000000000000E+20
 25
-1.000000000000000E+20
 35
-1.000000000000000E+20
146
0.0
 13
0.0
 23
0.0
 33
0.0
 16
1.0
 26
0.0
 36
0.0
 17
0.0
 27
1.0
 37
0.0
 76
     0
330
B
  0
LAYOUT
  5
287
102
{ACAD_XDICTIONARY
360
5A3
102
}
102
{ACAD_REACTORS
330
285
102
}
330
285
100
AcDbPlotSettings
  1

  2
Fax
  4

  6

 40
0.0
 41
0.0
 42
0.0
 43
0.0
 44
0.0
 45
0.0
 46
0.0
 47
0.0
 48
0.0
 49
0.0
140
0.0
141
0.0
142
1.0
143
1.0
 70
  1712
 72
     0
 73
     0
 74
     0
  7
Default R14 pen assignments.ctb
 75
     0
147
1.0
148
0.0
149
0.0
100
AcDbLayout
  1
Model
 70
     1
 71
     0
 10
0.0
 20
0.0
 11
12.0
 21
9.0
 12
0.0
 22
0.0
 32
0.0
 14
0.0
 24
0.0
 34
0.0
 15
0.0
 25
0.0
 35
0.0
146
0.0
 13
0.0
 23
0.0
 33
0.0
 16
1.0
 26
0.0
 36
0.0
 17
0.0
 27
1.0
 37
0.0
 76
     0
330
A
331
3F5
  0
MATERIAL
  5
427
102
{ACAD_XDICTIONARY
360
5A9
102
}
102
{ACAD_REACTORS
330
425
102
}
330
425
100
AcDbMaterial
  1
ByBlock
  0
MATERIAL
  5
426
102
{ACAD_XDICTIONARY
360
5A7
102
}
102
{ACAD_REACTORS
330
425
102
}
330
425
100
AcDbMaterial
  1
ByLayer
  0
MATERIAL
  5
428
102
{ACAD_XDICTIONARY
360
5AB
102
}
102
{ACAD_REACTORS
330
425
102
}
330
425
100
AcDbMaterial
  1
Global
  0
MLINESTYLE
  5
1C
102
{ACAD_REACTORS
330
1B
102
}
330
1B
100
AcDbMlineStyle
  2
STANDARD
 70
     0
  3

 62
     0
 51
90.00000000000019
 52
90.00000000000019
 71
     2
 49
0.5
 62
   256
  6
BYLAYER
 49
-0.5
 62
   256
  6
BYLAYER
  0
ACDBPLACEHOLDER
  5
284
102
{ACAD_REACTORS
330
283
102
}
330
283
  0
TABLESTYLE
  5
43C
102
{ACAD_XDICTIONARY
360
5AD
102
}
102
{ACAD_REACTORS
330
43B
102
}
330
43B
100
AcDbTableStyle
  3
Standard
 70
     0
 71
     0
 40
0.06
 41
0.06
280
     0
281
     0
  7
STANDARD
140
0.18
170
     2
 62
     0
 63
     7
283
     0
274
    -2
284
     1
 64
     0
275
    -2
285
     1
 65
     0
276
    -2
286
     1
 66
     0
277
    -2
287
     1
 67
     0
278
    -2
288
     1
 68
     0
279
    -2
289
     1
 69
     0
  7
STANDARD
140
0.25
170
     5
 62
     0
 63
     7
283
     0
274
    -2
284
     1
 64
     0
275
    -2
285
     1
 65
     0
276
    -2
286
     1
 66
     0
277
    -2
287
     1
 67
     0
278
    -2
288
     1
 68
     0
279
    -2
289
     1
 69
     0
  7
STANDARD
140
0.18
170
     5
 62
     0
 63
     7
283
     0
274
    -2
284
     1
 64
     0
275
    -2
285
     1
 65
     0
276
    -2
286
     1
 66
     0
277
    -2
287
     1
 67
     0
278
    -2
288
     1
 68
     0
279
    -2
289
     1
 69
     0
  0
VISUALSTYLE
  5
42F
102
{ACAD_REACTORS
330
429
102
}
330
429
100
AcDbVisualStyle
  2
2dWireframe
 70
     4
 71
     0
 72
     2
 73
     0
 90
        0
 40
-0.6
 41
-30.0
 62
     5
 63
     7
 74
     1
 91
        4
 64
     7
 65
   257
 75
     1
175
     1
 42
1.0
 92
        0
 66
   257
 43
1.0
 76
     1
 77
     6
 78
     2
 67
     7
 79
     5
170
     0
171
     0
290
     0
174
     0
 93
        1
 44
0.0
173
     0
291
     0
 45
0.0
1001
ACAD
1000
AcDbSavedByObjectVersion
1070
     0
  0
VISUALSTYLE
  5
431
102
{ACAD_REACTORS
330
429
102
}
330
429
100
AcDbVisualStyle
  2
3D Hidden
 70
     6
 71
     1
 72
     2
 73
     2
 90
        0
 40
-0.6
 41
-30.0
 62
     5
 63
     7
 74
     2
 91
        2
 64
     7
 65
   257
 75
     2
175
     1
 42
40.0
 92
        0
 66
   257
 43
1.0
 76
     1
 77
     6
 78
     2
 67
     7
 79
     3
170
     0
171
     0
290
     0
174
     0
 93
        1
 44
0.0
173
     0
291
     0
 45
0.0
1001
ACAD
1000
AcDbSavedByObjectVersion
1070
     0
  0
VISUALSTYLE
  5
430
102
{ACAD_REACTORS
330
429
102
}
330
429
100
AcDbVisualStyle
  2
3dWireframe
 70
     5
 71
     0
 72
     2
 73
     0
 90
        0
 40
-0.6
 41
-30.0
 62
     5
 63
     7
 74
     1
 91
        4
 64
     7
 65
   257
 75
     1
175
     1
 42
1.0
 92
        0
 66
   257
 43
1.0
 76
     1
 77
     6
 78
     2
 67
     7
 79
     5
170
     0
171
     0
290
     0
174
     0
 93
        1
 44
0.0
173
     0
291
     0
 45
0.0
1001
ACAD
1000
AcDbSavedByObjectVersion
1070
     0
  0
VISUALSTYLE
  5
42E
102
{ACAD_REACTORS
330
429
102
}
330
429
100
AcDbVisualStyle
  2
Basic
 70
     7
 71
     1
 72
     0
 73
     1
 90
        0
 40
-0.6
 41
-30.0
 62
     5
 63
     7
 74
     0
 91
        4
 64
     7
 65
   257
 75
     1
175
     1
 42
1.0
 92
        8
 66
     7
 43
1.0
 76
     1
 77
     6
 78
     2
 67
     7
 79
     5
170
     0
171
     0
290
     0
174
     0
 93
        1
 44
0.0
173
     0
291
     1
 45
0.0
1001
ACAD
1000
AcDbSavedByObjectVersion
1070
     0
  0
VISUALSTYLE
  5
435
102
{ACAD_REACTORS
330
429
102
}
330
429
100
AcDbVisualStyle
  2
Brighten
 70
    12
 71
     2
 72
     2
 73
     0
 90
        0
 40
-0.6
 41
-30.0
 62
     5
 63
     7
 74
     1
 91
        4
 64
     7
 65
   257
 75
     1
175
     1
 42
1.0
 92
        8
 66
     7
 43
1.0
 76
     1
 77
     6
 78
     2
 67
     7
 79
     5
170
     0
171
     0
290
     0
174
     0
 93
        1
 44
50.0
173
     0
291
     1
 45
0.0
1001
ACAD
1000
AcDbSavedByObjectVersion
1070
     0
  0
VISUALSTYLE
  5
439
102
{ACAD_REACTORS
330
429
102
}
330
429
100
AcDbVisualStyle
  2
ColorChange
 70
    16
 71
     2
 72
     2
 73
     3
 90
        0
 40
-0.6
 41
-30.0
 62
     5
 63
     8
 74
     1
 91
        4
 64
     7
 65
   257
 75
     1
175
     1
 42
1.0
 92
        8
 66
     8
 43
1.0
 76
     1
 77
     6
 78
     2
 67
     7
 79
     5
170
     0
171
     0
290
     0
174
     0
 93
        1
 44
0.0
173
     0
291
     1
 45
0.0
1001
ACAD
1000
AcDbSavedByObjectVersion
1070
     0
  0
VISUALSTYLE
  5
432
102
{ACAD_REACTORS
330
429
102
}
330
429
100
AcDbVisualStyle
  2
Conceptual
 70
     9
 71
     3
 72
     2
 73
     0
 90
        0
 40
-0.6
 41
-30.0
 62
     5
 63
     7
 74
     2
 91
        2
 64
     7
 65
   257
 75
     1
175
     1
 42
40.0
 92
        8
 66
     7
 43
1.0
 76
     1
 77
     6
 78
     2
 67
     7
 79
     3
170
     0
171
     0
290
     0
174
     0
 93
        1
 44
0.0
173
     0
291
     0
 45
0.0
1001
ACAD
1000
AcDbSavedByObjectVersion
1070
     0
  0
VISUALSTYLE
  5
434
102
{ACAD_REACTORS
330
429
102
}
330
429
100
AcDbVisualStyle
  2
Dim
 70
    11
 71
     2
 72
     2
 73
     0
 90
        0
 40
-0.6
 41
-30.0
 62
     5
 63
     7
 74
     1
 91
        4
 64
     7
 65
   257
 75
     1
175
     1
 42
1.0
 92
        8
 66
     7
 43
1.0
 76
     1
 77
     6
 78
     2
 67
     7
 79
     5
170
     0
171
     0
290
     0
174
     0
 93
        1
 44
-50.0
173
     0
291
     1
 45
0.0
1001
ACAD
1000
AcDbSavedByObjectVersion
1070
     0
  0
VISUALSTYLE
  5
438
102
{ACAD_REACTORS
330
429
102
}
330
429
100
AcDbVisualStyle
  2
Facepattern
 70
    15
 71
     2
 72
     2
 73
     0
 90
        0
 40
-0.6
 41
-30.0
 62
     5
 63
     7
 74
     1
 91
        4
 64
     7
 65
   257
 75
     1
175
     1
 42
1.0
 92
        8
 66
     7
 43
1.0
 76
     1
 77
     6
 78
     2
 67
     7
 79
     5
170
     0
171
     0
290
     0
174
     0
 93
        1
 44
0.0
173
     0
291
     1
 45
0.0
1001
ACAD
1000
AcDbSavedByObjectVersion
1070
     0
  0
VISUALSTYLE
  5
42A
102
{ACAD_REACTORS
330
429
102
}
330
429
100
AcDbVisualStyle
  2
Flat
 70
     0
 71
     2
 72
     1
 73
     1
 90
        2
 40
-0.6
 41
30.0
 62
     5
 63
     7
 74
     0
 91
        4
 64
     7
 65
   257
 75
     1
175
     1
 42
1.0
 92
        8
 66
     7
 43
1.0
 76
     1
 77
     6
 78
     2
 67
     7
 79
     5
170
     0
171
     0
290
     0
174
     0
 93
       13
 44
0.0
173
     0
291
     1
 45
0.0
1001
ACAD
1000
AcDbSavedByObjectVersion
1070
     0
  0
VISUALSTYLE
  5
42B
102
{ACAD_REACTORS
330
429
102
}
330
429
100
AcDbVisualStyle
  2
FlatWithEdges
 70
     1
 71
     2
 72
     1
 73
     1
 90
        2
 40
-0.6
 41
30.0
 62
     5
 63
     7
 74
     1
 91
        4
 64
     7
 65
   257
 75
     1
175
     1
 42
1.0
 92
        0
 66
   257
 43
1.0
 76
     1
 77
     6
 78
     2
 67
     7
 79
     5
170
     0
171
     0
290
     0
174
     0
 93
       13
 44
0.0
173
     0
291
     1
 45
0.0
1001
ACAD
1000
AcDbSavedByObjectVersion
1070
     0
  0
VISUALSTYLE
  5
42C
102
{ACAD_REACTORS
330
429
102
}
330
429
100
AcDbVisualStyle
  2
Gouraud
 70
     2
 71
     2
 72
     2
 73
     1
 90
        2
 40
-0.6
 41
30.0
 62
     5
 63
     7
 74
     0
 91
        4
 64
     7
 65
   257
 75
     1
175
     1
 42
1.0
 92
        0
 66
     7
 43
1.0
 76
     1
 77
     6
 78
     2
 67
     7
 79
     5
170
     0
171
     0
290
     0
174
     0
 93
       13
 44
0.0
173
     0
291
     1
 45
0.0
1001
ACAD
1000
AcDbSavedByObjectVersion
1070
     0
  0
VISUALSTYLE
  5
42D
102
{ACAD_REACTORS
330
429
102
}
330
429
100
AcDbVisualStyle
  2
GouraudWithEdges
 70
     3
 71
     2
 72
     2
 73
     1
 90
        2
 40
-0.6
 41
30.0
 62
     5
 63
     7
 74
     1
 91
        4
 64
     7
 65
   257
 75
     1
175
     1
 42
1.0
 92
        0
 66
   257
 43
1.0
 76
     1
 77
     6
 78
     2
 67
     7
 79
     5
170
     0
171
     0
290
     0
174
     0
 93
       13
 44
0.0
173
     0
291
     1
 45
0.0
1001
ACAD
1000
AcDbSavedByObjectVersion
1070
     0
  0
VISUALSTYLE
  5
437
102
{ACAD_REACTORS
330
429
102
}
330
429
100
AcDbVisualStyle
  2
Linepattern
 70
    14
 71
     2
 72
     2
 73
     0
 90
        0
 40
-0.6
 41
-30.0
 62
     5
 63
     7
 74
     1
 91
        4
 64
     7
 65
   257
 75
     7
175
     7
 42
1.0
 92
        8
 66
     7
 43
1.0
 76
     1
 77
     6
 78
     2
 67
     7
 79
     5
170
     0
171
     0
290
     0
174
     0
 93
        1
 44
0.0
173
     0
291
     1
 45
0.0
1001
ACAD
1000
AcDbSavedByObjectVersion
1070
     0
  0
VISUALSTYLE
  5
433
102
{ACAD_REACTORS
330
429
102
}
330
429
100
AcDbVisualStyle
  2
Realistic
 70
     8
 71
     2
 72
     2
 73
     0
 90
        0
 40
-0.6
 41
-30.0
 62
     5
 63
     7
 74
     1
 91
        0
 64
     7
 65
   257
 75
     1
175
     1
 42
1.0
 92
        8
 66
     8
 43
1.0
 76
     1
 77
     6
 78
     2
 67
     7
 79
     5
170
     0
171
     0
290
     0
174
     0
 93
       13
 44
0.0
173
     0
291
     0
 45
0.0
1001
ACAD
1000
AcDbSavedByObjectVersion
1070
     0
  0
VISUALSTYLE
  5
436
102
{ACAD_REACTORS
330
429
102
}
330
429
100
AcDbVisualStyle
  2
Thicken
 70
    13
 71
     2
 72
     2
 73
     0
 90
        0
 40
-0.6
 41
-30.0
 62
     5
 63
     7
 74
     1
 91
        4
 64
     7
 65
   257
 75
     1
175
     1
 42
1.0
 92
       12
 66
     7
 43
1.0
 76
     1
 77
     6
 78
     2
 67
     7
 79
     5
170
     0
171
     0
290
     0
174
     0
 93
        1
 44
0.0
173
     0
291
     1
 45
0.0
1001
ACAD
1000
AcDbSavedByObjectVersion
1070
     0
  0
DICTIONARYVAR
  5
59F
102
{ACAD_REACTORS
330
2F3
102
}
330
2F3
100
DictionaryVariables
280
     0
  1
STANDARD
  0
DICTIONARYVAR
  5
2F4
102
{ACAD_REACTORS
330
2F3
102
}
330
2F3
100
DictionaryVariables
280
     0
  1
1
  0
DICTIONARYVAR
  5
5A1
102
{ACAD_REACTORS
330
2F3
102
}
330
2F3
100
DictionaryVariables
280
     0
  1
0
  0
DICTIONARYVAR
  5
5A0
102
{ACAD_REACTORS
330
2F3
102
}
330
2F3
100
DictionaryVariables
280
     0
  1
127
  0
XRECORD
  5
582
102
{ACAD_REACTORS
330
581
102
}
330
581
100
AcDbXrecord
280
     1
  0
DICTIONARY
  5
5A5
330
288
100
AcDbDictionary
280
     1
281
     1
  3
ACAD_XREC_ROUNDTRIP
360
5A6
  0
DICTIONARY
  5
5A3
330
287
100
AcDbDictionary
280
     1
281
     1
  3
ACAD_XREC_ROUNDTRIP
360
5A4
  0
DICTIONARY
  5
5A9
330
427
100
AcDbDictionary
280
     1
281
     1
  3
ACAD_XREC_ROUNDTRIP
360
5AA
  0
DICTIONARY
  5
5A7
330
426
100
AcDbDictionary
280
     1
281
     1
  3
ACAD_XREC_ROUNDTRIP
360
5A8
  0
DICTIONARY
  5
5AB
330
428
100
AcDbDictionary
280
     1
281
     1
  3
ACAD_XREC_ROUNDTRIP
360
5AC
  0
DICTIONARY
  5
5AD
330
43C
100
AcDbDictionary
280
     1
281
     1
  3
ACAD_XREC_ROUNDTRIP
360
5AE
  0
XRECORD
  5
5A6
102
{ACAD_REACTORS
330
5A5
102
}
330
5A5
100
AcDbXrecord
280
     1
102
SHADEPLOT
 70
     0
102
SHADEPLOTRESLEVEL
 70
     2
102
SHADEPLOTCUSTOMDPI
 70
   300
  0
XRECORD
  5
5A4
102
{ACAD_REACTORS
330
5A3
102
}
330
5A3
100
AcDbXrecord
280
     1
102
SHADEPLOT
 70
     0
102
SHADEPLOTRESLEVEL
 70
     2
102
SHADEPLOTCUSTOMDPI
 70
   300
  0
XRECORD
  5
5AA
102
{ACAD_REACTORS
330
5A9
102
}
330
5A9
100
AcDbXrecord
280
     1
102
MATERIAL
148
0.0
149
0.0
149
0.0
 93
        0
 94
       63
282
     0
 72
     1
 77
     1
171
     1
175
     1
179
     1
273
     0
  0
XRECORD
  5
5A8
102
{ACAD_REACTORS
330
5A7
102
}
330
5A7
100
AcDbXrecord
280
     1
102
MATERIAL
148
0.0
149
0.0
149
0.0
 93
        0
 94
       63
282
     0
 72
     1
 77
     1
171
     1
175
     1
179
     1
273
     0
  0
XRECORD
  5
5AC
102
{ACAD_REACTORS
330
5AB
102
}
330
5AB
100
AcDbXrecord
280
     1
102
MATERIAL
148
0.0
149
0.0
149
0.0
 93
        0
 94
       63
282
     0
 72
     1
 77
     1
171
     1
175
     1
179
     1
273
     0
  0
XRECORD
  5
5AE
102
{ACAD_REACTORS
330
5AD
102
}
330
5AD
100
AcDbXrecord
280
     1
102
ACAD_ROUNDTRIP_PRE2007_TABLESTYLE
 90
      512
 91
        0
  1

 92
      512
 93
        0
  2

 94
      512
 95
        0
  3

  0
ENDSEC
  0
EOF
