  0
SECTION
  2
HEADER
  9
$ACADVER
  1
AC1014
  9
$ACADMAINTVER
 70
     9
  9
$DWGCODEPAGE
  3
ANSI_1252
  9
$INSBASE
 10
10.43213999689784
 20
9.152584862910037
 30
0.0
  9
$EXTMIN
 10
-3.476593452050888
 20
7.64010273468259
 30
0.0
  9
$EXTMAX
 10
15.90011186854938
 20
17.45600981486414
 30
0.0
  9
$LIMMIN
 10
0.0
 20
0.0
  9
$LIMMAX
 10
36.0
 20
36.0
  9
$ORTHOMODE
 70
     1
  9
$REGENMODE
 70
     1
  9
$FILLMODE
 70
     1
  9
$QTEXTMODE
 70
     0
  9
$MIRRTEXT
 70
     1
  9
$DRAGMODE
 70
     0
  9
$LTSCALE
 40
1.0
  9
$OSMODE
 70
    37
  9
$ATTMODE
 70
     1
  9
$TEXTSIZE
 40
0.2
  9
$TRACEWID
 40
0.05
  9
$TEXTSTYLE
  7
STANDARD
  9
$CLAYER
  8
ADPDIM
  9
$CELTYPE
  6
BYLAYER
  9
$CECOLOR
 62
   256
  9
$CELTSCALE
 40
1.0
  9
$DELOBJ
 70
     1
  9
$DISPSILH
 70
     0
  9
$DIMSCALE
 40
1.0
  9
$DIMASZ
 40
0.125
  9
$DIMEXO
 40
0.0625
  9
$DIMDLI
 40
0.38
  9
$DIMRND
 40
0.0
  9
$DIMDLE
 40
0.0
  9
$DIMEXE
 40
0.18
  9
$DIMTP
 40
0.0
  9
$DIMTM
 40
0.0
  9
$DIMTXT
 40
0.125
  9
$DIMCEN
 40
0.1875
  9
$DIMTSZ
 40
0.125
  9
$DIMTOL
 70
     0
  9
$DIMLIM
 70
     0
  9
$DIMTIH
 70
     0
  9
$DIMTOH
 70
     0
  9
$DIMSE1
 70
     0
  9
$DIMSE2
 70
     0
  9
$DIMTAD
 70
     0
  9
$DIMZIN
 70
     3
  9
$DIMBLK
  1

  9
$DIMASO
 70
     1
  9
$DIMSHO
 70
     1
  9
$DIMPOST
  1

  9
$DIMAPOST
  1

  9
$DIMALT
 70
     0
  9
$DIMALTD
 70
     1
  9
$DIMALTF
 40
25.4
  9
$DIMLFAC
 40
1.0
  9
$DIMTOFL
 70
     0
  9
$DIMTVP
 40
0.0
  9
$DIMTIX
 70
     0
  9
$DIMSOXD
 70
     0
  9
$DIMSAH
 70
     0
  9
$DIMBLK1
  1

  9
$DIMBLK2
  1

  9
$DIMSTYLE
  2
STANDARD
  9
$DIMCLRD
 70
     0
  9
$DIMCLRE
 70
     0
  9
$DIMCLRT
 70
     0
  9
$DIMTFAC
 40
1.0
  9
$DIMGAP
 40
0.125
  9
$DIMJUST
 70
     0
  9
$DIMSD1
 70
     0
  9
$DIMSD2
 70
     0
  9
$DIMTOLJ
 70
     1
  9
$DIMTZIN
 70
     3
  9
$DIMALTZ
 70
     3
  9
$DIMALTTZ
 70
     3
  9
$DIMFIT
 70
     5
  9
$DIMUPT
 70
     0
  9
$DIMUNIT
 70
     5
  9
$DIMDEC
 70
     4
  9
$DIMTDEC
 70
     4
  9
$DIMALTU
 70
     5
  9
$DIMALTTD
 70
     1
  9
$DIMTXSTY
  7
STANDARD
  9
$DIMAUNIT
 70
     0
  9
$LUNITS
 70
     5
  9
$LUPREC
 70
     4
  9
$SKETCHINC
 40
0.1
  9
$FILLETRAD
 40
0.01
  9
$AUNITS
 70
     0
  9
$AUPREC
 70
     0
  9
$MENU
  1
acad
  9
$ELEVATION
 40
0.0
  9
$PELEVATION
 40
0.0
  9
$THICKNESS
 40
0.0
  9
$LIMCHECK
 70
     0
  9
$BLIPMODE
 70
     0
  9
$CHAMFERA
 40
0.0
  9
$CHAMFERB
 40
0.0
  9
$CHAMFERC
 40
0.0
  9
$CHAMFERD
 40
0.0
  9
$SKPOLY
 70
     0
  9
$TDCREATE
 40
2450318.604412222
  9
$TDUPDATE
 40
2452297.065115914
  9
$TDINDWG
 40
0.0279796991
  9
$TDUSRTIMER
 40
0.0279796991
  9
$USRTIMER
 70
     1
  9
$ANGBASE
 50
0.0
  9
$ANGDIR
 70
     0
  9
$PDMODE
 70
     0
  9
$PDSIZE
 40
0.0
  9
$PLINEWID
 40
0.0
  9
$COORDS
 70
     2
  9
$SPLFRAME
 70
     0
  9
$SPLINETYPE
 70
     6
  9
$SPLINESEGS
 70
     8
  9
$ATTDIA
 70
     0
  9
$ATTREQ
 70
     1
  9
$HANDLING
 70
 22529
  9
$HANDSEED
  5
21B
  9
$SURFTAB1
 70
     6
  9
$SURFTAB2
 70
     6
  9
$SURFTYPE
 70
     6
  9
$SURFU
 70
     6
  9
$SURFV
 70
     6
  9
$UCSNAME
  2

  9
$UCSORG
 10
0.0
 20
0.0
 30
0.0
  9
$UCSXDIR
 10
1.0
 20
0.0
 30
0.0
  9
$UCSYDIR
 10
0.0
 20
1.0
 30
0.0
  9
$PUCSNAME
  2

  9
$PUCSORG
 10
0.0
 20
0.0
 30
0.0
  9
$PUCSXDIR
 10
1.0
 20
0.0
 30
0.0
  9
$PUCSYDIR
 10
0.0
 20
1.0
 30
0.0
  9
$USERI1
 70
     0
  9
$USERI2
 70
     0
  9
$USERI3
 70
     0
  9
$USERI4
 70
     0
  9
$USERI5
 70
     0
  9
$USERR1
 40
0.0
  9
$USERR2
 40
0.0
  9
$USERR3
 40
0.0
  9
$USERR4
 40
0.0
  9
$USERR5
 40
0.0
  9
$WORLDVIEW
 70
     1
  9
$SHADEDGE
 70
     3
  9
$SHADEDIF
 70
    70
  9
$TILEMODE
 70
     1
  9
$MAXACTVP
 70
    15
  9
$PINSBASE
 10
0.0
 20
0.0
 30
0.0
  9
$PLIMCHECK
 70
     0
  9
$PEXTMIN
 10
1.000000000000000E+20
 20
1.000000000000000E+20
 30
1.000000000000000E+20
  9
$PEXTMAX
 10
-1.000000000000000E+20
 20
-1.000000000000000E+20
 30
-1.000000000000000E+20
  9
$PLIMMIN
 10
0.0
 20
0.0
  9
$PLIMMAX
 10
12.0
 20
9.0
  9
$UNITMODE
 70
     0
  9
$VISRETAIN
 70
     0
  9
$PLINEGEN
 70
     0
  9
$PSLTSCALE
 70
     1
  9
$TREEDEPTH
 70
  3020
  9
$PICKSTYLE
 70
     1
  9
$CMLSTYLE
  2
STANDARD
  9
$CMLJUST
 70
     0
  9
$CMLSCALE
 40
1.0
  9
$PROXYGRAPHICS
 70
     1
  9
$MEASUREMENT
 70
     0
  0
ENDSEC
  0
SECTION
  2
CLASSES
  0
CLASS
  1
ACDBDICTIONARYWDFLT
  2
AcDbDictionaryWithDefault
  3
AutoCAD 2000
 90
        0
280
     0
281
     0
  0
CLASS
  1
ACDBPLACEHOLDER
  2
AcDbPlaceHolder
  3
AutoCAD 2000
 90
        0
280
     0
281
     0
  0
CLASS
  1
LAYOUT
  2
AcDbLayout
  3
AutoCAD 2000
 90
        0
280
     0
281
     0
  0
CLASS
  1
DICTIONARYVAR
  2
AcDbDictionaryVar
  3
AutoCAD 2000
 90
        0
280
     0
281
     0
  0
CLASS
  1
LONG_TRANSACTION
  2
AcDbLongTransaction
  3
AutoCAD 2000
 90
        0
280
     0
281
     0
  0
CLASS
  1
LWPOLYLINE
  2
AcDbPolyline
  3
AutoCAD 2000
 90
        0
280
     0
281
     1
  0
CLASS
  1
HATCH
  2
AcDbHatch
  3
AutoCAD 2000
 90
        0
280
     0
281
     1
  0
CLASS
  1
XRECORD
  2
AcDbXrecord
  3
AutoCAD 2000
 90
        0
280
     0
281
     0
  0
CLASS
  1
LONG_TRANSACTION
  2
AcDbLongTransaction
  3
AutoCAD 2000
 90
        0
280
     0
281
     0
  0
CLASS
  1
LWPOLYLINE
  2
AcDbPolyline
  3
AutoCAD 2000
 90
        0
280
     0
281
     1
  0
CLASS
  1
HATCH
  2
AcDbHatch
  3
AutoCAD 2000
 90
        0
280
     0
281
     1
  0
CLASS
  1
XRECORD
  2
AcDbXrecord
  3
AutoCAD 2000
 90
        0
280
     0
281
     0
  0
CLASS
  1
LONG_TRANSACTION
  2
AcDbLongTransaction
  3
AutoCAD 2000
 90
        0
280
     0
281
     0
  0
CLASS
  1
LWPOLYLINE
  2
AcDbPolyline
  3
AutoCAD 2000
 90
        0
280
     0
281
     1
  0
CLASS
  1
HATCH
  2
AcDbHatch
  3
AutoCAD 2000
 90
        0
280
     0
281
     1
  0
CLASS
  1
XRECORD
  2
AcDbXrecord
  3
AutoCAD 2000
 90
        0
280
     0
281
     0
  0
CLASS
  1
LONG_TRANSACTION
  2
AcDbLongTransaction
  3
AutoCAD 2000
 90
        0
280
     0
281
     0
  0
CLASS
  1
LWPOLYLINE
  2
AcDbPolyline
  3
AutoCAD 2000
 90
        0
280
     0
281
     1
  0
CLASS
  1
HATCH
  2
AcDbHatch
  3
AutoCAD 2000
 90
        0
280
     0
281
     1
  0
CLASS
  1
XRECORD
  2
AcDbXrecord
  3
AutoCAD 2000
 90
        0
280
     0
281
     0
  0
CLASS
  1
LONG_TRANSACTION
  2
AcDbLongTransaction
  3
AutoCAD 2000
 90
        0
280
     0
281
     0
  0
CLASS
  1
LWPOLYLINE
  2
AcDbPolyline
  3
AutoCAD 2000
 90
        0
280
     0
281
     1
  0
CLASS
  1
HATCH
  2
AcDbHatch
  3
AutoCAD 2000
 90
        0
280
     0
281
     1
  0
CLASS
  1
XRECORD
  2
AcDbXrecord
  3
AutoCAD 2000
 90
        0
280
     0
281
     0
  0
CLASS
  1
LONG_TRANSACTION
  2
AcDbLongTransaction
  3
AutoCAD 2000
 90
        0
280
     0
281
     0
  0
CLASS
  1
LWPOLYLINE
  2
AcDbPolyline
  3
AutoCAD 2000
 90
        0
280
     0
281
     1
  0
CLASS
  1
HATCH
  2
AcDbHatch
  3
AutoCAD 2000
 90
        0
280
     0
281
     1
  0
CLASS
  1
XRECORD
  2
AcDbXrecord
  3
AutoCAD 2000
 90
        0
280
     0
281
     0
  0
ENDSEC
  0
SECTION
  2
TABLES
  0
TABLE
  2
VPORT
  5
8
330
0
100
AcDbSymbolTable
 70
     2
  0
VPORT
  5
1F7
330
8
100
AcDbSymbolTableRecord
100
AcDbViewportTableRecord
  2
*ACTIVE
 70
     0
 10
0.0
 20
0.0
 11
1.0
 21
1.0
 12
6.212089801779795
 22
12.54803474544086
 13
0.0
 23
0.0
 14
0.5740882589684922
 24
0.5740882589684922
 15
0.5
 25
0.5
 16
0.0
 26
0.0
 36
1.0
 17
0.0
 27
0.0
 37
0.0
 40
12.39881116541722
 41
1.570528967254408
 42
50.0
 43
0.0
 44
0.0
 50
0.0
 51
0.0
 71
     0
 72
   100
 73
     1
 74
     1
 75
     0
 76
     0
 77
     0
 78
     0
  0
ENDTAB
  0
TABLE
  2
LTYPE
  5
5
330
0
100
AcDbSymbolTable
 70
     3
  0
LTYPE
  5
13
330
5
100
AcDbSymbolTableRecord
100
AcDbLinetypeTableRecord
  2
BYBLOCK
 70
     0
  3

 72
    65
 73
     0
 40
0.0
  0
LTYPE
  5
14
330
5
100
AcDbSymbolTableRecord
100
AcDbLinetypeTableRecord
  2
BYLAYER
 70
     0
  3

 72
    65
 73
     0
 40
0.0
  0
LTYPE
  5
15
330
5
100
AcDbSymbolTableRecord
100
AcDbLinetypeTableRecord
  2
CONTINUOUS
 70
     0
  3
Solid line
 72
    65
 73
     0
 40
0.0
  0
LTYPE
  5
25
330
5
100
AcDbSymbolTableRecord
100
AcDbLinetypeTableRecord
  2
CENTER2
 70
     0
  3
___ _ ___ _ ___ _ ___ _ ___ _ ___ _ ___ _ ___ _
 72
    65
 73
     4
 40
1.125
 49
0.75
 74
     0
 49
-0.125
 74
     0
 49
0.125
 74
     0
 49
-0.125
 74
     0
  0
LTYPE
  5
26
330
5
100
AcDbSymbolTableRecord
100
AcDbLinetypeTableRecord
  2
HIDDEN2
 70
     0
  3
_ _ _ _ _ _ _ _ _ _ _ _ _ _ _ _ _ _ _ _ _ _ _ _
 72
    65
 73
     2
 40
0.1875
 49
0.125
 74
     0
 49
-0.0625
 74
     0
  0
ENDTAB
  0
TABLE
  2
LAYER
  5
2
330
0
100
AcDbSymbolTable
 70
     6
  0
LAYER
  5
10
330
2
100
AcDbSymbolTableRecord
100
AcDbLayerTableRecord
  2
0
 70
     0
 62
     7
  6
CONTINUOUS
  0
LAYER
  5
28
330
2
100
AcDbSymbolTableRecord
100
AcDbLayerTableRecord
  2
ADP2DETAIL
 70
     0
 62
     5
  6
CONTINUOUS
  0
LAYER
  5
29
330
2
100
AcDbSymbolTableRecord
100
AcDbLayerTableRecord
  2
ADPDIM
 70
     0
 62
     3
  6
CONTINUOUS
  0
LAYER
  5
2A
330
2
100
AcDbSymbolTableRecord
100
AcDbLayerTableRecord
  2
ADP1DETAIL
 70
     0
 62
     7
  6
CONTINUOUS
  0
LAYER
  5
2B
330
2
100
AcDbSymbolTableRecord
100
AcDbLayerTableRecord
  2
ADP3DETAIL
 70
     0
 62
     1
  6
CONTINUOUS
  0
LAYER
  5
2C
330
2
100
AcDbSymbolTableRecord
100
AcDbLayerTableRecord
  2
DEFPOINTS
 70
     0
 62
     7
  6
CONTINUOUS
  0
ENDTAB
  0
TABLE
  2
STYLE
  5
3
330
0
100
AcDbSymbolTable
 70
     2
  0
STYLE
  5
11
330
3
100
AcDbSymbolTableRecord
100
AcDbTextStyleTableRecord
  2
STANDARD
 70
     0
 40
0.0
 41
1.0
 50
0.0
 71
     0
 42
0.2
  3
txt
  4

  0
STYLE
  5
85
330
3
100
AcDbSymbolTableRecord
100
AcDbTextStyleTableRecord
  2
ARIAL_WIDE
 70
     0
 40
0.0
 41
1.25
 50
0.0
 71
     0
 42
0.2
  3
ARIAL.TTF
  4

1001
ACAD
1000
Arial
1071
       34
  0
ENDTAB
  0
TABLE
  2
VIEW
  5
6
330
0
100
AcDbSymbolTable
 70
     0
  0
ENDTAB
  0
TABLE
  2
UCS
  5
7
330
0
100
AcDbSymbolTable
 70
     0
  0
ENDTAB
  0
TABLE
  2
APPID
  5
9
330
0
100
AcDbSymbolTable
 70
     1
  0
APPID
  5
12
330
9
100
AcDbSymbolTableRecord
100
AcDbRegAppTableRecord
  2
ACAD
 70
     0
  0
ENDTAB
  0
TABLE
  2
DIMSTYLE
  5
A
330
0
100
AcDbSymbolTable
 70
     1
  0
DIMSTYLE
105
83
330
A
100
AcDbSymbolTableRecord
100
AcDbDimStyleTableRecord
  2
STANDARD
 70
     0
  3

  4

  5

  6

  7

 40
1.0
 41
0.18
 42
0.0625
 43
0.38
 44
0.18
 45
0.0
 46
0.0
 47
0.0
 48
0.0
140
0.18
141
0.09
142
0.0
143
25.4
144
1.0
145
0.0
146
1.0
147
0.09
 71
     0
 72
     0
 73
     1
 74
     1
 75
     0
 76
     0
 77
     0
 78
     0
170
     0
171
     2
172
     0
173
     0
174
     0
175
     0
176
     0
177
     0
178
     0
270
     2
271
     4
272
     4
273
     2
274
     2
340
11
275
     0
280
     0
281
     0
282
     0
283
     1
284
     0
285
     0
286
     0
287
     3
288
     0
  0
ENDTAB
  0
TABLE
  2
BLOCK_RECORD
  5
1
330
0
100
AcDbSymbolTable
 70
     3
  0
BLOCK_RECORD
  5
1E
102
{ACAD_XDICTIONARY
360
96
102
}
330
1
100
AcDbSymbolTableRecord
100
AcDbBlockTableRecord
  2
*MODEL_SPACE
  0
BLOCK_RECORD
  5
1A
102
{ACAD_XDICTIONARY
360
98
102
}
330
1
100
AcDbSymbolTableRecord
100
AcDbBlockTableRecord
  2
*PAPER_SPACE
  0
BLOCK_RECORD
  5
22
330
1
100
AcDbSymbolTableRecord
100
AcDbBlockTableRecord
  2
*D0
  0
BLOCK_RECORD
  5
23
330
1
100
AcDbSymbolTableRecord
100
AcDbBlockTableRecord
  2
*D1
  0
BLOCK_RECORD
  5
24
330
1
100
AcDbSymbolTableRecord
100
AcDbBlockTableRecord
  2
*D2
  0
ENDTAB
  0
ENDSEC
  0
SECTION
  2
BLOCKS
  0
BLOCK
  5
2F
330
1E
100
AcDbEntity
  8
0
100
AcDbBlockBegin
  2
*MODEL_SPACE
 70
     0
 10
0.0
 20
0.0
 30
0.0
  3
*MODEL_SPACE
  1

  0
ENDBLK
  5
30
330
1E
100
AcDbEntity
  8
0
100
AcDbBlockEnd
  0
BLOCK
  5
2D
330
1A
100
AcDbEntity
 67
     1
  8
0
100
AcDbBlockBegin
  2
*PAPER_SPACE
 70
     0
 10
0.0
 20
0.0
 30
0.0
  3
*PAPER_SPACE
  1

  0
ENDBLK
  5
2E
330
1A
100
AcDbEntity
 67
     1
  8
0
100
AcDbBlockEnd
  0
BLOCK
  5
31
330
22
100
AcDbEntity
  8
0
100
AcDbBlockBegin
  2
*D0
 70
     1
 10
0.0
 20
0.0
 30
0.0
  3
*D0
  1

  0
LINE
  5
32
330
22
100
AcDbEntity
  8
0
  6
BYBLOCK
 62
     0
100
AcDbLine
 10
3.48835322981133
 20
11.65213178902582
 30
0.0
 11
3.086736202375426
 21
11.65213178902582
 31
0.0
  0
LINE
  5
33
330
22
100
AcDbEntity
  8
0
  6
BYBLOCK
 62
     0
100
AcDbLine
 10
6.869639996897837
 20
9.152584862910037
 30
0.0
 11
3.086736202375426
 21
9.152584862910037
 31
0.0
  0
LINE
  5
34
330
22
100
AcDbEntity
  8
0
  6
BYBLOCK
 62
     0
100
AcDbLine
 10
3.266736202375426
 20
11.65213178902582
 30
0.0
 11
3.266736202375426
 21
10.79819165930126
 31
0.0
  0
LINE
  5
35
330
22
100
AcDbEntity
  8
0
  6
BYBLOCK
 62
     0
100
AcDbLine
 10
3.266736202375426
 20
9.152584862910037
 30
0.0
 11
3.266736202375426
 21
10.00652499263459
 31
0.0
  0
LINE
  5
36
330
22
100
AcDbEntity
  8
0
  6
BYBLOCK
 62
     0
100
AcDbLine
 10
3.391736202375426
 20
11.52713178902582
 30
0.0
 11
3.141736202375426
 21
11.77713178902582
 31
0.0
  0
LINE
  5
37
330
22
100
AcDbEntity
  8
0
  6
BYBLOCK
 62
     0
100
AcDbLine
 10
3.391736202375426
 20
9.027584862910037
 30
0.0
 11
3.141736202375426
 21
9.277584862910037
 31
0.0
  0
TEXT
  5
38
330
22
100
AcDbEntity
  8
0
  6
BYBLOCK
 62
     0
100
AcDbText
 10
3.329236202375426
 20
10.13152499263459
 30
0.0
 40
0.125
  1
2 1/2
 50
90.0
 72
     1
 11
3.266736202375426
 21
10.40235832596793
 31
0.0
100
AcDbText
 73
     2
  0
POINT
  5
3A
330
22
100
AcDbEntity
  8
DEFPOINTS
  6
BYBLOCK
 62
     0
100
AcDbPoint
 10
3.55085322981133
 20
11.65213178902582
 30
0.0
  0
POINT
  5
3B
330
22
100
AcDbEntity
  8
DEFPOINTS
  6
BYBLOCK
 62
     0
100
AcDbPoint
 10
6.932139996897837
 20
9.152584862910037
 30
0.0
  0
POINT
  5
3C
330
22
100
AcDbEntity
  8
DEFPOINTS
  6
BYBLOCK
 62
     0
100
AcDbPoint
 10
3.266736202375426
 20
9.152584862910037
 30
0.0
  0
ENDBLK
  5
3D
330
22
100
AcDbEntity
  8
0
100
AcDbBlockEnd
  0
BLOCK
  5
3E
330
23
100
AcDbEntity
  8
0
100
AcDbBlockBegin
  2
*D1
 70
     1
 10
0.0
 20
0.0
 30
0.0
  3
*D1
  1

  0
LINE
  5
3F
330
23
100
AcDbEntity
  8
0
  6
BYBLOCK
 62
     0
100
AcDbLine
 10
6.932139996897837
 20
9.090084862910037
 30
0.0
 11
6.932139996897837
 21
8.72678661017942
 31
0.0
  0
LINE
  5
40
330
23
100
AcDbEntity
  8
0
  6
BYBLOCK
 62
     0
100
AcDbLine
 10
10.43213999689784
 20
9.090084862910037
 30
0.0
 11
10.43213999689784
 21
8.72678661017942
 31
0.0
  0
LINE
  5
41
330
23
100
AcDbEntity
  8
0
  6
BYBLOCK
 62
     0
100
AcDbLine
 10
6.932139996897837
 20
8.90678661017942
 30
0.0
 11
8.286306663564504
 21
8.90678661017942
 31
0.0
  0
LINE
  5
42
330
23
100
AcDbEntity
  8
0
  6
BYBLOCK
 62
     0
100
AcDbLine
 10
10.43213999689784
 20
8.90678661017942
 30
0.0
 11
9.077973330231172
 21
8.90678661017942
 31
0.0
  0
LINE
  5
43
330
23
100
AcDbEntity
  8
0
  6
BYBLOCK
 62
     0
100
AcDbLine
 10
6.807139996897837
 20
8.78178661017942
 30
0.0
 11
7.057139996897837
 21
9.03178661017942
 31
0.0
  0
LINE
  5
44
330
23
100
AcDbEntity
  8
0
  6
BYBLOCK
 62
     0
100
AcDbLine
 10
10.30713999689784
 20
8.78178661017942
 30
0.0
 11
10.55713999689783
 21
9.03178661017942
 31
0.0
  0
TEXT
  5
45
330
23
100
AcDbEntity
  8
0
  6
BYBLOCK
 62
     0
100
AcDbText
 10
8.411306663564504
 20
8.84428661017942
 30
0.0
 40
0.125
  1
3 1/2
 72
     1
 11
8.682139996897838
 21
8.90678661017942
 31
0.0
100
AcDbText
 73
     2
  0
POINT
  5
46
330
23
100
AcDbEntity
  8
DEFPOINTS
  6
BYBLOCK
 62
     0
100
AcDbPoint
 10
6.932139996897837
 20
9.152584862910037
 30
0.0
  0
POINT
  5
47
330
23
100
AcDbEntity
  8
DEFPOINTS
  6
BYBLOCK
 62
     0
100
AcDbPoint
 10
10.43213999689784
 20
9.152584862910037
 30
0.0
  0
POINT
  5
48
330
23
100
AcDbEntity
  8
DEFPOINTS
  6
BYBLOCK
 62
     0
100
AcDbPoint
 10
10.43213999689784
 20
8.90678661017942
 30
0.0
  0
ENDBLK
  5
49
330
23
100
AcDbEntity
  8
0
100
AcDbBlockEnd
  0
BLOCK
  5
4A
330
24
100
AcDbEntity
  8
0
100
AcDbBlockBegin
  2
*D2
 70
     1
 10
0.0
 20
0.0
 30
0.0
  3
*D2
  1

  0
LINE
  5
4B
330
24
100
AcDbEntity
  8
0
  6
BYBLOCK
 62
     0
100
AcDbLine
 10
5.080714475590694
 20
13.22729253380842
 30
0.0
 11
5.080714475590694
 21
13.56315184359512
 31
0.0
  0
LINE
  5
4C
330
24
100
AcDbEntity
  8
0
  6
BYBLOCK
 62
     0
100
AcDbLine
 10
7.080714475590694
 20
13.22729253380842
 30
0.0
 11
7.080714475590694
 21
13.56315184359512
 31
0.0
  0
LINE
  5
4D
330
24
100
AcDbEntity
  8
0
  6
BYBLOCK
 62
     0
100
AcDbLine
 10
5.080714475590694
 20
13.38315184359512
 30
0.0
 11
5.914047808924027
 21
13.38315184359512
 31
0.0
  0
LINE
  5
4E
330
24
100
AcDbEntity
  8
0
  6
BYBLOCK
 62
     0
100
AcDbLine
 10
7.080714475590694
 20
13.38315184359512
 30
0.0
 11
6.247381142257361
 21
13.38315184359512
 31
0.0
  0
LINE
  5
4F
330
24
100
AcDbEntity
  8
0
  6
BYBLOCK
 62
     0
100
AcDbLine
 10
4.955714475590694
 20
13.25815184359512
 30
0.0
 11
5.205714475590694
 21
13.50815184359512
 31
0.0
  0
LINE
  5
50
330
24
100
AcDbEntity
  8
0
  6
BYBLOCK
 62
     0
100
AcDbLine
 10
6.955714475590694
 20
13.25815184359512
 30
0.0
 11
7.205714475590694
 21
13.50815184359512
 31
0.0
  0
TEXT
  5
51
330
24
100
AcDbEntity
  8
0
  6
BYBLOCK
 62
     0
100
AcDbText
 10
6.039047808924027
 20
13.32065184359512
 30
0.0
 40
0.125
  1
2
 72
     1
 11
6.080714475590694
 21
13.38315184359512
 31
0.0
100
AcDbText
 73
     2
  0
POINT
  5
52
330
24
100
AcDbEntity
  8
DEFPOINTS
  6
BYBLOCK
 62
     0
100
AcDbPoint
 10
5.080714475590694
 20
13.16479253380842
 30
0.0
  0
POINT
  5
53
330
24
100
AcDbEntity
  8
DEFPOINTS
  6
BYBLOCK
 62
     0
100
AcDbPoint
 10
7.080714475590694
 20
13.16479253380842
 30
0.0
  0
POINT
  5
54
330
24
100
AcDbEntity
  8
DEFPOINTS
  6
BYBLOCK
 62
     0
100
AcDbPoint
 10
7.080714475590694
 20
13.38315184359512
 30
0.0
  0
ENDBLK
  5
55
330
24
100
AcDbEntity
  8
0
100
AcDbBlockEnd
  0
ENDSEC
  0
SECTION
  2
ENTITIES
  0
ARC
  5
56
330
1E
100
AcDbEntity
  8
ADP1DETAIL
100
AcDbCircle
 10
8.290709216626472
 20
15.70600981486414
 30
0.0
 40
0.95
100
AcDbArc
 50
262.3405950977578
 51
95.47863202549633
  0
ARC
  5
57
330
1E
100
AcDbEntity
  8
ADP2DETAIL
  6
HIDDEN2
100
AcDbCircle
 10
8.700709216626473
 20
15.70600981486414
 30
0.0
 40
1.75
100
AcDbArc
 50
153.4477377993527
 51
206.9003452274264
  0
CIRCLE
  5
58
330
1E
100
AcDbEntity
  8
ADP2DETAIL
  6
HIDDEN2
100
AcDbCircle
 10
8.290709216626472
 20
15.70600981486414
 30
0.0
 40
0.8099999999999999
  0
ARC
  5
59
330
1E
100
AcDbEntity
  8
ADP2DETAIL
  6
HIDDEN2
100
AcDbCircle
 10
8.290709216626472
 20
15.70600981486414
 30
0.0
 40
0.95
100
AcDbArc
 50
105.0572890979709
 51
253.3843053168127
  0
CIRCLE
  5
5A
330
1E
100
AcDbEntity
  8
ADP2DETAIL
  6
HIDDEN2
100
AcDbCircle
 10
8.700709216626473
 20
15.70600981486414
 30
0.0
 40
1.615
  0
ARC
  5
5B
330
1E
100
AcDbEntity
  8
ADP1DETAIL
100
AcDbCircle
 10
8.700709216626473
 20
15.70600981486414
 30
0.0
 40
1.75
100
AcDbArc
 50
208.3361317892823
 51
152.0539406897884
  0
LINE
  5
5C
330
1E
100
AcDbEntity
  8
ADP1DETAIL
100
AcDbLine
 10
3.854639996897842
 20
14.75600981486414
 30
0.0
 11
3.85463999689784
 21
16.65600981486413
 31
0.0
  0
DIMENSION
  5
5D
330
1E
100
AcDbEntity
  8
ADPDIM
100
AcDbDimension
  2
*D1
 10
10.43213999689784
 20
8.90678661017942
 30
0.0
 11
8.682139996897838
 21
8.90678661017942
 31
0.0
100
AcDbAlignedDimension
 13
6.932139996897837
 23
9.152584862910037
 33
0.0
 14
10.43213999689784
 24
9.152584862910037
 34
0.0
100
AcDbRotatedDimension
  0
LINE
  5
5E
330
1E
100
AcDbEntity
  8
ADP3DETAIL
  6
CENTER2
100
AcDbLine
 10
9.834639996897839
 20
9.058731258929872
 30
0.0
 11
9.834639996897839
 21
8.764853291049693
 31
0.0
  0
DIMENSION
  5
5F
330
1E
100
AcDbEntity
  8
ADPDIM
100
AcDbDimension
  2
*D0
 10
3.266736202375426
 20
9.152584862910037
 30
0.0
 11
3.266736202375426
 21
10.40235832596793
 31
0.0
100
AcDbAlignedDimension
 13
3.55085322981133
 23
11.65213178902582
 33
0.0
 14
6.932139996897837
 24
9.152584862910037
 34
0.0
 50
90.0
100
AcDbRotatedDimension
  0
ARC
  5
60
330
1E
100
AcDbEntity
  8
ADP3DETAIL
  6
CENTER2
100
AcDbCircle
 10
6.030709216626473
 20
9.392584862910036
 30
0.0
 40
2.259999999999999
100
AcDbArc
 50
0.0
 51
88.63261086790673
  0
LINE
  5
61
330
1E
100
AcDbEntity
  8
ADP2DETAIL
  6
HIDDEN2
100
AcDbLine
 10
8.290709216626472
 20
14.89600981486414
 30
0.0
 11
3.854639996897842
 21
14.89600981486414
 31
0.0
  0
ARC
  5
62
330
1E
100
AcDbEntity
  8
ADP2DETAIL
  6
HIDDEN2
100
AcDbCircle
 10
6.030709216626473
 20
9.392584862910036
 30
0.0
 40
1.449999999999999
100
AcDbArc
 50
0.0
 51
87.64054991577181
  0
ARC
  5
63
330
1E
100
AcDbEntity
  8
ADP2DETAIL
  6
HIDDEN2
100
AcDbCircle
 10
6.030709216626473
 20
9.392584862910036
 30
0.0
 40
3.069999999999999
100
AcDbArc
 50
0.0
 51
89.03733598668551
  0
ARC
  5
64
330
1E
100
AcDbEntity
  8
ADP1DETAIL
100
AcDbCircle
 10
6.030709216626473
 20
9.392584862910036
 30
0.0
 40
3.209999999999999
100
AcDbArc
 50
0.0
 51
89.03733598668551
  0
ARC
  5
65
330
1E
100
AcDbEntity
  8
ADP1DETAIL
100
AcDbCircle
 10
6.030709216626473
 20
9.392584862910036
 30
0.0
 40
1.309999999999999
100
AcDbArc
 50
0.0
 51
87.64054991577181
  0
LINE
  5
66
330
1E
100
AcDbEntity
  8
ADP1DETAIL
100
AcDbLine
 10
8.290709216626472
 20
14.75600981486414
 30
0.0
 11
3.854639996897842
 21
14.75600981486414
 31
0.0
  0
LINE
  5
67
330
1E
100
AcDbEntity
  8
ADP1DETAIL
100
AcDbLine
 10
3.854639996897842
 20
12.60213178902582
 30
0.0
 11
3.85463999689784
 21
10.70147426654172
 31
0.0
  0
LINE
  5
68
330
1E
100
AcDbEntity
  8
ADP3DETAIL
  6
CENTER2
100
AcDbLine
 10
6.084639996897842
 20
11.65213178902582
 30
0.0
 11
3.55085322981133
 21
11.65213178902582
 31
0.0
  0
LINE
  5
69
330
1E
100
AcDbEntity
  8
ADP2DETAIL
  6
HIDDEN2
100
AcDbLine
 10
6.084639996897842
 20
10.84713178902582
 30
0.0
 11
3.854639996897842
 21
10.84713178902582
 31
0.0
  0
LINE
  5
6A
330
1E
100
AcDbEntity
  8
ADP1DETAIL
100
AcDbLine
 10
6.084639996897842
 20
10.70213178902582
 30
0.0
 11
3.854639996897842
 21
10.70213178902582
 31
0.0
  0
DIMENSION
  5
6B
330
1E
100
AcDbEntity
  8
ADPDIM
100
AcDbDimension
  2
*D2
 10
5.854639996897842
 20
12.82049109881252
 30
0.0
 11
4.854639996897842
 21
12.82049109881252
 31
0.0
 12
-1.226074478692852
 22
-0.5626607447825976
 32
0.0
100
AcDbAlignedDimension
 13
3.854639996897842
 23
12.60213178902582
 33
0.0
 14
5.854639996897842
 24
12.60213178902582
 34
0.0
100
AcDbRotatedDimension
  0
LINE
  5
6C
330
1E
100
AcDbEntity
  8
ADP2DETAIL
  6
HIDDEN2
100
AcDbLine
 10
6.084639996897842
 20
12.45713178902582
 30
0.0
 11
3.854639996897842
 21
12.45713178902582
 31
0.0
  0
LINE
  5
6D
330
1E
100
AcDbEntity
  8
ADP1DETAIL
100
AcDbLine
 10
6.084639996897842
 20
12.60213178902582
 30
0.0
 11
3.854639996897842
 21
12.60213178902582
 31
0.0
  0
LINE
  5
6E
330
1E
100
AcDbEntity
  8
ADP1DETAIL
100
AcDbLine
 10
6.932139996897837
 20
9.152584862910037
 30
0.0
 11
10.43213999689784
 21
9.152584862910037
 31
0.0
  0
LINE
  5
6F
330
1E
100
AcDbEntity
  8
ADP2DETAIL
  6
HIDDEN2
100
AcDbLine
 10
10.24713999689783
 20
9.397584862910036
 30
0.0
 11
7.117139996897839
 21
9.397584862910036
 31
0.0
  0
LINE
  5
70
330
1E
100
AcDbEntity
  8
ADP1DETAIL
100
AcDbLine
 10
10.28213999689783
 20
9.532584862910036
 30
0.0
 11
7.082139996897839
 21
9.532584862910036
 31
0.0
  0
ARC
  5
71
330
1E
100
AcDbEntity
  8
ADP1DETAIL
100
AcDbCircle
 10
7.082139996897839
 20
9.382584862910038
 30
0.0
 40
0.15
100
AcDbArc
 50
90.0
 51
180.0
  0
LINE
  5
72
330
1E
100
AcDbEntity
  8
ADP1DETAIL
100
AcDbLine
 10
6.932139996897837
 20
9.382584862910038
 30
0.0
 11
6.932139996897837
 21
9.152584862910037
 31
0.0
  0
LINE
  5
73
330
1E
100
AcDbEntity
  8
ADP2DETAIL
  6
HIDDEN2
100
AcDbLine
 10
7.067139996897839
 20
9.347584862910037
 30
0.0
 11
7.067139996897839
 21
9.152584862910037
 31
0.0
  0
ARC
  5
74
330
1E
100
AcDbEntity
  8
ADP2DETAIL
  6
HIDDEN2
100
AcDbCircle
 10
7.117139996897839
 20
9.347584862910037
 30
0.0
 40
0.05
100
AcDbArc
 50
90.0
 51
180.0
  0
LINE
  5
75
330
1E
100
AcDbEntity
  8
ADP3DETAIL
  6
CENTER2
100
AcDbLine
 10
9.834639996897839
 20
9.941537673643756
 30
0.0
 11
9.834639996897839
 21
9.618616763022796
 31
0.0
  0
LINE
  5
76
330
1E
100
AcDbEntity
  8
ADP3DETAIL
  6
CENTER2
100
AcDbLine
 10
9.834639996897839
 20
9.458132827655022
 30
0.0
 11
9.834639996897839
 21
9.22260569997443
 31
0.0
  0
LINE
  5
77
330
1E
100
AcDbEntity
  8
ADP2DETAIL
  6
HIDDEN2
100
AcDbLine
 10
9.624639996897839
 20
9.532584862910036
 30
0.0
 11
9.624639996897839
 21
9.492263918134648
 31
0.0
  0
LINE
  5
78
330
1E
100
AcDbEntity
  8
ADP2DETAIL
  6
HIDDEN2
100
AcDbLine
 10
9.624639996897839
 20
9.430782748528965
 30
0.0
 11
9.624639996897839
 21
9.397584862910036
 31
0.0
  0
LINE
  5
79
330
1E
100
AcDbEntity
  8
ADP2DETAIL
  6
HIDDEN2
100
AcDbLine
 10
10.04463999689783
 20
9.532584862910036
 30
0.0
 11
10.04463999689783
 21
9.485482906781079
 31
0.0
  0
LINE
  5
7A
330
1E
100
AcDbEntity
  8
ADP2DETAIL
  6
HIDDEN2
100
AcDbLine
 10
10.04463999689783
 20
9.427392242852182
 30
0.0
 11
10.04463999689783
 21
9.397584862910036
 31
0.0
  0
ARC
  5
7B
330
1E
100
AcDbEntity
  8
ADP2DETAIL
  6
HIDDEN2
100
AcDbCircle
 10
10.24713999689783
 20
9.347584862910037
 30
0.0
 40
0.05
100
AcDbArc
 50
0.0
 51
90.0
  0
LINE
  5
7C
330
1E
100
AcDbEntity
  8
ADP2DETAIL
  6
HIDDEN2
100
AcDbLine
 10
10.29713999689783
 20
9.152584862910037
 30
0.0
 11
10.29713999689783
 21
9.347584862910037
 31
0.0
  0
ARC
  5
7D
330
1E
100
AcDbEntity
  8
ADP1DETAIL
100
AcDbCircle
 10
10.28213999689783
 20
9.382584862910038
 30
0.0
 40
0.15
100
AcDbArc
 50
0.0
 51
90.0
  0
LINE
  5
7E
330
1E
100
AcDbEntity
  8
ADP1DETAIL
100
AcDbLine
 10
10.43213999689784
 20
9.152584862910037
 30
0.0
 11
10.43213999689783
 21
9.382584862910038
 31
0.0
  0
LINE
  5
7F
330
1E
100
AcDbEntity
  8
ADP3DETAIL
  6
CENTER2
100
AcDbLine
 10
8.290709216626472
 20
15.70600981486414
 30
0.0
 11
3.441577358690289
 21
15.70600981486414
 31
0.0
  0
LINE
  5
80
330
1E
100
AcDbEntity
  8
ADP2DETAIL
  6
HIDDEN2
100
AcDbLine
 10
8.290709216626472
 20
16.51600981486414
 30
0.0
 11
3.85463999689784
 21
16.51600981486413
 31
0.0
  0
LINE
  5
81
330
1E
100
AcDbEntity
  8
ADP1DETAIL
100
AcDbLine
 10
8.290709216626472
 20
16.65600981486414
 30
0.0
 11
3.85463999689784
 21
16.65600981486413
 31
0.0
  0
CIRCLE
  5
82
330
1E
100
AcDbEntity
  8
ADP1DETAIL
100
AcDbCircle
 10
9.853209216626472
 20
15.70600981486414
 30
0.0
 40
0.205
  0
TEXT
  5
D1
330
1E
100
AcDbEntity
  8
ADPDIM
100
AcDbText
 10
-3.476593452050888
 20
7.695610920221471
 30
0.0
 40
0.1875
  1
J U L I U S  B L U M  &  C O . ,  I N C .      ( 8 0 0 )  5 2 6 - 6 2 9 3        W W W . J U L I U S B L U M . C O M        P A R T  N O .  2 1 6
 41
1.25
  7
ARIAL_WIDE
 72
     1
 11
6.211759208249247
 21
7.883110920221471
 31
0.0
100
AcDbText
 73
     3
  0
ENDSEC
  0
SECTION
  2
OBJECTS
  0
DICTIONARY
  5
C
330
0
100
AcDbDictionary
  3
ACAD_GROUP
350
D
  3
ACAD_LAYOUT
350
19
  3
ACAD_MLINESTYLE
350
16
  3
ACAD_PLOTSETTINGS
350
18
  3
ACAD_PLOTSTYLENAME
350
E
  3
ACDBHEADERROUNDTRIPXREC
350
1F8
  3
ACDBVARIABLEDICTIONARY
350
8D
  3
BNS_SELSET
350
D2
  0
DICTIONARY
  5
96
330
1E
100
AcDbDictionary
280
     1
  3
ACAD_LAYOUTSELFREF
360
21A
  0
DICTIONARY
  5
98
330
1A
100
AcDbDictionary
280
     1
  3
ACAD_LAYOUTSELFREF
360
219
  0
DICTIONARY
  5
D
102
{ACAD_REACTORS
330
C
102
}
330
C
100
AcDbDictionary
  0
DICTIONARY
  5
19
102
{ACAD_REACTORS
330
C
102
}
330
C
100
AcDbDictionary
  0
DICTIONARY
  5
16
102
{ACAD_REACTORS
330
C
102
}
330
C
100
AcDbDictionary
  3
STANDARD
350
17
  0
DICTIONARY
  5
18
102
{ACAD_REACTORS
330
C
102
}
330
C
100
AcDbDictionary
  0
ACDBDICTIONARYWDFLT
  5
E
102
{ACAD_REACTORS
330
C
102
}
330
C
100
AcDbDictionary
281
     1
  3
Normal
350
F
100
AcDbDictionaryWithDefault
340
F
  0
DICTIONARY
  5
1F8
102
{ACAD_REACTORS
330
C
102
}
330
C
100
AcDbDictionary
  3
CEPSNTYPE
350
202
  3
DIMSTYLEDATA
350
206
  3
FINGERPRINTGUID
350
203
  3
HYPERLINKBASE
350
1FB
  3
INSUNITS
350
201
  3
LAYOUTDICT
350
1FD
  3
LWETCUNION
350
200
  3
PLOTSETDICT
350
1FE
  3
PLOTSTYLNAMDICT
350
1FF
  3
PSVPSCALE
350
205
  3
PUCSBASE
350
209
  3
PUCSORGBACK
350
20F
  3
PUCSORGBOTTOM
350
20B
  3
PUCSORGFRONT
350
20E
  3
PUCSORGLEFT
350
20C
  3
PUCSORGRIGHT
350
20D
  3
PUCSORGTOP
350
20A
  3
PUCSORTHOREF
350
207
  3
PUCSORTHOVIEW
350
208
  3
STYLESHEET
350
1FC
  3
TSTACKALIGN
350
1F9
  3
TSTACKSIZE
350
1FA
  3
UCSBASE
350
212
  3
UCSORGBACK
350
218
  3
UCSORGBOTTOM
350
214
  3
UCSORGFRONT
350
217
  3
UCSORGLEFT
350
215
  3
UCSORGRIGHT
350
216
  3
UCSORGTOP
350
213
  3
UCSORTHOREF
350
210
  3
UCSORTHOVIEW
350
211
  3
VERSIONGUID
350
204
  0
DICTIONARY
  5
8D
102
{ACAD_REACTORS
330
C
102
}
330
C
100
AcDbDictionary
  3
DIMASSOC
350
8F
  3
HIDETEXT
350
8E
  0
DICTIONARY
  5
D2
102
{ACAD_REACTORS
330
C
102
}
330
0
100
AcDbDictionary
  3
BNS_SS01
350
D3
  0
XRECORD
  5
21A
102
{ACAD_REACTORS
330
96
102
}
330
96
100
AcDbXrecord
340
1E
  0
XRECORD
  5
219
102
{ACAD_REACTORS
330
98
102
}
330
98
100
AcDbXrecord
340
1A
  0
MLINESTYLE
  5
17
102
{ACAD_REACTORS
330
16
102
}
330
16
100
AcDbMlineStyle
  2
STANDARD
 70
     0
  3

 62
   256
 51
90.0
 52
90.0
 71
     2
 49
0.5
 62
   256
  6
BYLAYER
 49
-0.5
 62
   256
  6
BYLAYER
  0
ACDBPLACEHOLDER
  5
F
102
{ACAD_REACTORS
330
E
102
}
330
E
100
AcDbPlaceHolder
280
     0
  0
XRECORD
  5
202
102
{ACAD_REACTORS
330
1F8
102
}
330
1F8
100
AcDbXrecord
 90
        0
  0
XRECORD
  5
206
102
{ACAD_REACTORS
330
1F8
102
}
330
1F8
100
AcDbXrecord
1000
DSTYLE
1002
{
1070
   277
 70
     5
1070
   279
 70
     2
1002
}
  0
XRECORD
  5
203
102
{ACAD_REACTORS
330
1F8
102
}
330
1F8
100
AcDbXrecord
  1
{C08B51EC-86BD-4970-81BD-ED9209FE8683}
  0
XRECORD
  5
1FB
102
{ACAD_REACTORS
330
1F8
102
}
330
1F8
100
AcDbXrecord
  1

  0
XRECORD
  5
201
102
{ACAD_REACTORS
330
1F8
102
}
330
1F8
100
AcDbXrecord
 90
        0
  0
XRECORD
  5
1FD
102
{ACAD_REACTORS
330
1F8
102
}
330
1F8
100
AcDbXrecord
340
19
  0
XRECORD
  5
200
102
{ACAD_REACTORS
330
1F8
102
}
330
1F8
100
AcDbXrecord
 90
    14877
  0
XRECORD
  5
1FE
102
{ACAD_REACTORS
330
1F8
102
}
330
1F8
100
AcDbXrecord
340
18
  0
XRECORD
  5
1FF
102
{ACAD_REACTORS
330
1F8
102
}
330
1F8
100
AcDbXrecord
340
E
  0
XRECORD
  5
205
102
{ACAD_REACTORS
330
1F8
102
}
330
1F8
100
AcDbXrecord
 40
0.0
  0
XRECORD
  5
209
102
{ACAD_REACTORS
330
1F8
102
}
330
1F8
100
AcDbXrecord
340
0
  0
XRECORD
  5
20F
102
{ACAD_REACTORS
330
1F8
102
}
330
1F8
100
AcDbXrecord
 10
0.0
 20
0.0
 30
0.0
  0
XRECORD
  5
20B
102
{ACAD_REACTORS
330
1F8
102
}
330
1F8
100
AcDbXrecord
 10
0.0
 20
0.0
 30
0.0
  0
XRECORD
  5
20E
102
{ACAD_REACTORS
330
1F8
102
}
330
1F8
100
AcDbXrecord
 10
0.0
 20
0.0
 30
0.0
  0
XRECORD
  5
20C
102
{ACAD_REACTORS
330
1F8
102
}
330
1F8
100
AcDbXrecord
 10
0.0
 20
0.0
 30
0.0
  0
XRECORD
  5
20D
102
{ACAD_REACTORS
330
1F8
102
}
330
1F8
100
AcDbXrecord
 10
0.0
 20
0.0
 30
0.0
  0
XRECORD
  5
20A
102
{ACAD_REACTORS
330
1F8
102
}
330
1F8
100
AcDbXrecord
 10
0.0
 20
0.0
 30
0.0
  0
XRECORD
  5
207
102
{ACAD_REACTORS
330
1F8
102
}
330
1F8
100
AcDbXrecord
340
0
  0
XRECORD
  5
208
102
{ACAD_REACTORS
330
1F8
102
}
330
1F8
100
AcDbXrecord
 70
     0
  0
XRECORD
  5
1FC
102
{ACAD_REACTORS
330
1F8
102
}
330
1F8
100
AcDbXrecord
  1

  0
XRECORD
  5
1F9
102
{ACAD_REACTORS
330
1F8
102
}
330
1F8
100
AcDbXrecord
 90
        1
  0
XRECORD
  5
1FA
102
{ACAD_REACTORS
330
1F8
102
}
330
1F8
100
AcDbXrecord
 90
       70
  0
XRECORD
  5
212
102
{ACAD_REACTORS
330
1F8
102
}
330
1F8
100
AcDbXrecord
340
0
  0
XRECORD
  5
218
102
{ACAD_REACTORS
330
1F8
102
}
330
1F8
100
AcDbXrecord
 10
0.0
 20
0.0
 30
0.0
  0
XRECORD
  5
214
102
{ACAD_REACTORS
330
1F8
102
}
330
1F8
100
AcDbXrecord
 10
0.0
 20
0.0
 30
0.0
  0
XRECORD
  5
217
102
{ACAD_REACTORS
330
1F8
102
}
330
1F8
100
AcDbXrecord
 10
0.0
 20
0.0
 30
0.0
  0
XRECORD
  5
215
102
{ACAD_REACTORS
330
1F8
102
}
330
1F8
100
AcDbXrecord
 10
0.0
 20
0.0
 30
0.0
  0
XRECORD
  5
216
102
{ACAD_REACTORS
330
1F8
102
}
330
1F8
100
AcDbXrecord
 10
0.0
 20
0.0
 30
0.0
  0
XRECORD
  5
213
102
{ACAD_REACTORS
330
1F8
102
}
330
1F8
100
AcDbXrecord
 10
0.0
 20
0.0
 30
0.0
  0
XRECORD
  5
210
102
{ACAD_REACTORS
330
1F8
102
}
330
1F8
100
AcDbXrecord
340
0
  0
XRECORD
  5
211
102
{ACAD_REACTORS
330
1F8
102
}
330
1F8
100
AcDbXrecord
 70
     0
  0
XRECORD
  5
204
102
{ACAD_REACTORS
330
1F8
102
}
330
1F8
100
AcDbXrecord
  1
{7CE54FD3-F146-4099-B81E-0AF5061908C7}
  0
DICTIONARYVAR
  5
8F
102
{ACAD_REACTORS
330
8D
102
}
330
8D
100
DictionaryVariables
280
     0
  1
2
  0
DICTIONARYVAR
  5
8E
102
{ACAD_REACTORS
330
8D
102
}
330
8D
100
DictionaryVariables
280
     0
  1
1
  0
XRECORD
  5
D3
102
{ACAD_REACTORS
330
D2
102
}
330
0
100
AcDbXrecord
330
D1
  0
ENDSEC
  0
EOF
