  0
SECTION
  2
HEADER
  9
$ACADVER
  1
AC1015
  9
$ACADMAINTVER
 70
    20
  9
$DWGCODEPAGE
  3
ANSI_936
  9
$INSBASE
 10
8.260029202763998
 20
4.751429217911166
 30
0.0
  9
$EXTMIN
 10
4.343994229501106
 20
1.943481531394041
 30
-0.0000000000000053
  9
$EXTMAX
 10
17.26391607763236
 20
9.999206596518874
 30
0.0000000000000099
  9
$LIMMIN
 10
0.0
 20
0.0
  9
$LIMMAX
 10
36.0
 20
36.0
  9
$ORTHOMODE
 70
     0
  9
$REGENMODE
 70
     1
  9
$FILLMODE
 70
     1
  9
$QTEXTMODE
 70
     0
  9
$MIRRTEXT
 70
     1
  9
$LTSCALE
 40
1.0
  9
$ATTMODE
 70
     1
  9
$TEXTSIZE
 40
0.2
  9
$TRACEWID
 40
0.05
  9
$TEXTSTYLE
  7
STANDARD
  9
$CLAYER
  8
ADPDIM
  9
$CELTYPE
  6
BYLAYER
  9
$CECOLOR
 62
   256
  9
$CELTSCALE
 40
1.0
  9
$DISPSILH
 70
     0
  9
$DIMSCALE
 40
1.0
  9
$DIMASZ
 40
0.125
  9
$DIMEXO
 40
0.0625
  9
$DIMDLI
 40
0.38
  9
$DIMRND
 40
0.0
  9
$DIMDLE
 40
0.0
  9
$DIMEXE
 40
0.18
  9
$DIMTP
 40
0.0
  9
$DIMTM
 40
0.0
  9
$DIMTXT
 40
0.125
  9
$DIMCEN
 40
0.1875
  9
$DIMTSZ
 40
0.125
  9
$DIMTOL
 70
     0
  9
$DIMLIM
 70
     0
  9
$DIMTIH
 70
     0
  9
$DIMTOH
 70
     0
  9
$DIMSE1
 70
     0
  9
$DIMSE2
 70
     0
  9
$DIMTAD
 70
     0
  9
$DIMZIN
 70
     3
  9
$DIMBLK
  1

  9
$DIMASO
 70
     1
  9
$DIMSHO
 70
     1
  9
$DIMPOST
  1

  9
$DIMAPOST
  1

  9
$DIMALT
 70
     0
  9
$DIMALTD
 70
     1
  9
$DIMALTF
 40
25.4
  9
$DIMLFAC
 40
1.0
  9
$DIMTOFL
 70
     0
  9
$DIMTVP
 40
0.0
  9
$DIMTIX
 70
     0
  9
$DIMSOXD
 70
     0
  9
$DIMSAH
 70
     0
  9
$DIMBLK1
  1

  9
$DIMBLK2
  1

  9
$DIMSTYLE
  2
STANDARD
  9
$DIMCLRD
 70
     0
  9
$DIMCLRE
 70
     0
  9
$DIMCLRT
 70
     0
  9
$DIMTFAC
 40
1.0
  9
$DIMGAP
 40
0.125
  9
$DIMJUST
 70
     0
  9
$DIMSD1
 70
     0
  9
$DIMSD2
 70
     0
  9
$DIMTOLJ
 70
     1
  9
$DIMTZIN
 70
     3
  9
$DIMALTZ
 70
     3
  9
$DIMALTTZ
 70
     3
  9
$DIMUPT
 70
     0
  9
$DIMDEC
 70
     4
  9
$DIMTDEC
 70
     4
  9
$DIMALTU
 70
     5
  9
$DIMALTTD
 70
     1
  9
$DIMTXSTY
  7
STANDARD
  9
$DIMAUNIT
 70
     0
  9
$DIMADEC
 70
     0
  9
$DIMALTRND
 40
0.0
  9
$DIMAZIN
 70
     0
  9
$DIMDSEP
 70
    46
  9
$DIMATFIT
 70
     3
  9
$DIMFRAC
 70
     0
  9
$DIMLDRBLK
  1

  9
$DIMLUNIT
 70
     5
  9
$DIMLWD
 70
    -2
  9
$DIMLWE
 70
    -2
  9
$DIMTMOVE
 70
     2
  9
$LUNITS
 70
     5
  9
$LUPREC
 70
     4
  9
$SKETCHINC
 40
0.1
  9
$FILLETRAD
 40
0.0
  9
$AUNITS
 70
     0
  9
$AUPREC
 70
     0
  9
$MENU
  1
acad
  9
$ELEVATION
 40
0.0
  9
$PELEVATION
 40
0.0
  9
$THICKNESS
 40
0.0
  9
$LIMCHECK
 70
     0
  9
$CHAMFERA
 40
0.062
  9
$CHAMFERB
 40
0.062
  9
$CHAMFERC
 40
0.0
  9
$CHAMFERD
 40
0.0
  9
$SKPOLY
 70
     0
  9
$TDCREATE
 40
2450242.475062882
  9
$TDUCREATE
 40
2450242.683396215
  9
$TDUPDATE
 40
2455237.731799155
  9
$TDUUPDATE
 40
2455237.940132489
  9
$TDINDWG
 40
0.1444949653
  9
$TDUSRTIMER
 40
0.1444949653
  9
$USRTIMER
 70
     1
  9
$ANGBASE
 50
0.0
  9
$ANGDIR
 70
     0
  9
$PDMODE
 70
     0
  9
$PDSIZE
 40
0.0
  9
$PLINEWID
 40
0.0
  9
$SPLFRAME
 70
     0
  9
$SPLINETYPE
 70
     6
  9
$SPLINESEGS
 70
     8
  9
$HANDSEED
  5
793
  9
$SURFTAB1
 70
     6
  9
$SURFTAB2
 70
     6
  9
$SURFTYPE
 70
     6
  9
$SURFU
 70
     6
  9
$SURFV
 70
     6
  9
$UCSBASE
  2

  9
$UCSNAME
  2

  9
$UCSORG
 10
0.0
 20
0.0
 30
0.0
  9
$UCSXDIR
 10
1.0
 20
0.0
 30
0.0
  9
$UCSYDIR
 10
0.0
 20
1.0
 30
0.0
  9
$UCSORTHOREF
  2

  9
$UCSORTHOVIEW
 70
     0
  9
$UCSORGTOP
 10
0.0
 20
0.0
 30
0.0
  9
$UCSORGBOTTOM
 10
0.0
 20
0.0
 30
0.0
  9
$UCSORGLEFT
 10
0.0
 20
0.0
 30
0.0
  9
$UCSORGRIGHT
 10
0.0
 20
0.0
 30
0.0
  9
$UCSORGFRONT
 10
0.0
 20
0.0
 30
0.0
  9
$UCSORGBACK
 10
0.0
 20
0.0
 30
0.0
  9
$PUCSBASE
  2

  9
$PUCSNAME
  2

  9
$PUCSORG
 10
0.0
 20
0.0
 30
0.0
  9
$PUCSXDIR
 10
1.0
 20
0.0
 30
0.0
  9
$PUCSYDIR
 10
0.0
 20
1.0
 30
0.0
  9
$PUCSORTHOREF
  2

  9
$PUCSORTHOVIEW
 70
     0
  9
$PUCSORGTOP
 10
0.0
 20
0.0
 30
0.0
  9
$PUCSORGBOTTOM
 10
0.0
 20
0.0
 30
0.0
  9
$PUCSORGLEFT
 10
0.0
 20
0.0
 30
0.0
  9
$PUCSORGRIGHT
 10
0.0
 20
0.0
 30
0.0
  9
$PUCSORGFRONT
 10
0.0
 20
0.0
 30
0.0
  9
$PUCSORGBACK
 10
0.0
 20
0.0
 30
0.0
  9
$USERI1
 70
     0
  9
$USERI2
 70
     0
  9
$USERI3
 70
     0
  9
$USERI4
 70
     0
  9
$USERI5
 70
     0
  9
$USERR1
 40
0.0
  9
$USERR2
 40
0.0
  9
$USERR3
 40
0.0
  9
$USERR4
 40
0.0
  9
$USERR5
 40
0.0
  9
$WORLDVIEW
 70
     1
  9
$SHADEDGE
 70
     3
  9
$SHADEDIF
 70
    70
  9
$TILEMODE
 70
     1
  9
$MAXACTVP
 70
    15
  9
$PINSBASE
 10
0.0004882961511612
 20
1.000276130627782
 30
0.0
  9
$PLIMCHECK
 70
     0
  9
$PEXTMIN
 10
1.000000000000000E+20
 20
1.000000000000000E+20
 30
1.000000000000000E+20
  9
$PEXTMAX
 10
-1.000000000000000E+20
 20
-1.000000000000000E+20
 30
-1.000000000000000E+20
  9
$PLIMMIN
 10
0.0
 20
0.0
  9
$PLIMMAX
 10
12.0
 20
9.0
  9
$UNITMODE
 70
     0
  9
$VISRETAIN
 70
     0
  9
$PLINEGEN
 70
     0
  9
$PSLTSCALE
 70
     1
  9
$TREEDEPTH
 70
  3020
  9
$CMLSTYLE
  2
STANDARD
  9
$CMLJUST
 70
     0
  9
$CMLSCALE
 40
1.0
  9
$PROXYGRAPHICS
 70
     1
  9
$MEASUREMENT
 70
     0
  9
$CELWEIGHT
370
    -1
  9
$ENDCAPS
280
     0
  9
$JOINSTYLE
280
     0
  9
$LWDISPLAY
290
     0
  9
$INSUNITS
 70
     0
  9
$HYPERLINKBASE
  1

  9
$STYLESHEET
  1

  9
$XEDIT
290
     1
  9
$CEPSNTYPE
380
     0
  9
$PSTYLEMODE
290
     1
  9
$FINGERPRINTGUID
  2
{4F9CE08E-89ED-49A9-8A58-1576B7A292E2}
  9
$VERSIONGUID
  2
{7E76F55A-3C9F-4D3D-8A89-711802A2BD0F}
  9
$EXTNAMES
290
     1
  9
$PSVPSCALE
 40
0.0
  9
$OLESTARTUP
290
     0
  0
ENDSEC
  0
SECTION
  2
CLASSES
  0
CLASS
  1
DICTIONARYVAR
  2
AcDbDictionaryVar
  3
ObjectDBX Classes
 90
        0
280
     0
281
     0
  0
CLASS
  1
ACDBDICTIONARYWDFLT
  2
AcDbDictionaryWithDefault
  3
ObjectDBX Classes
 90
        0
280
     0
281
     0
  0
CLASS
  1
ACDBPLACEHOLDER
  2
AcDbPlaceHolder
  3
ObjectDBX Classes
 90
        0
280
     0
281
     0
  0
CLASS
  1
LAYOUT
  2
AcDbLayout
  3
ObjectDBX Classes
 90
        0
280
     0
281
     0
  0
CLASS
  1
MATERIAL
  2
AcDbMaterial
  3
ObjectDBX Classes
 90
     1024
280
     0
281
     0
  0
CLASS
  1
VISUALSTYLE
  2
AcDbVisualStyle
  3
ObjectDBX Classes
 90
     4095
280
     0
281
     0
  0
CLASS
  1
TABLESTYLE
  2
AcDbTableStyle
  3
ObjectDBX Classes
 90
     4095
280
     0
281
     0
  0
CLASS
  1
SORTENTSTABLE
  2
AcDbSortentsTable
  3
ObjectDBX Classes
 90
        0
280
     0
281
     0
  0
ENDSEC
  0
SECTION
  2
TABLES
  0
TABLE
  2
VPORT
  5
8
102
{ACAD_XDICTIONARY
360
21C
102
}
330
0
100
AcDbSymbolTable
 70
     1
  0
VPORT
  5
190
330
8
100
AcDbSymbolTableRecord
100
AcDbViewportTableRecord
  2
*Active
 70
     0
 10
0.0
 20
0.0
 11
1.0
 21
1.0
 12
10.80395515356673
 22
5.971344063956458
 13
0.0
 23
0.0
 14
0.5740882589684922
 24
0.5740882589684922
 15
0.5
 25
0.5
 16
0.0
 26
0.0
 36
1.0
 17
0.0
 27
0.0
 37
0.0
 40
8.145565865107638
 41
2.426443202979515
 42
50.0
 43
0.0
 44
0.0
 50
0.0
 51
0.0
 71
     0
 72
   100
 73
     1
 74
     0
 75
     0
 76
     0
 77
     0
 78
     0
281
     0
 65
     1
110
0.0
120
0.0
130
0.0
111
1.0
121
0.0
131
0.0
112
0.0
122
1.0
132
0.0
 79
     0
146
0.0
  0
ENDTAB
  0
TABLE
  2
LTYPE
  5
5
330
0
100
AcDbSymbolTable
 70
     3
  0
LTYPE
  5
11
330
5
100
AcDbSymbolTableRecord
100
AcDbLinetypeTableRecord
  2
BYBLOCK
 70
     0
  3

 72
    65
 73
     0
 40
0.0
  0
LTYPE
  5
12
330
5
100
AcDbSymbolTableRecord
100
AcDbLinetypeTableRecord
  2
BYLAYER
 70
     0
  3

 72
    65
 73
     0
 40
0.0
  0
LTYPE
  5
13
330
5
100
AcDbSymbolTableRecord
100
AcDbLinetypeTableRecord
  2
CONTINUOUS
 70
     0
  3
Solid line
 72
    65
 73
     0
 40
0.0
  0
LTYPE
  5
22
330
5
100
AcDbSymbolTableRecord
100
AcDbLinetypeTableRecord
  2
HIDDEN2
 70
     0
  3
_ _ _ _ _ _ _ _ _ _ _ _ _ _ _ _ _ _ _ _ _ _ _ _
 72
    65
 73
     2
 40
0.1875
 49
0.125
 74
     0
 49
-0.0625
 74
     0
  0
ENDTAB
  0
TABLE
  2
LAYER
  5
2
330
0
100
AcDbSymbolTable
 70
     5
  0
LAYER
  5
E
330
2
100
AcDbSymbolTableRecord
100
AcDbLayerTableRecord
  2
0
 70
     0
 62
     7
  6
CONTINUOUS
370
    -3
390
D1
  0
LAYER
  5
24
330
2
100
AcDbSymbolTableRecord
100
AcDbLayerTableRecord
  2
ADP2DETAIL
 70
     0
 62
     5
  6
CONTINUOUS
370
    -3
390
D1
  0
LAYER
  5
25
330
2
100
AcDbSymbolTableRecord
100
AcDbLayerTableRecord
  2
ADPDIM
 70
     0
 62
     3
  6
CONTINUOUS
370
    -3
390
D1
  0
LAYER
  5
26
330
2
100
AcDbSymbolTableRecord
100
AcDbLayerTableRecord
  2
ADP1DETAIL
 70
     0
 62
     7
  6
CONTINUOUS
370
    -3
390
D1
  0
LAYER
  5
27
330
2
100
AcDbSymbolTableRecord
100
AcDbLayerTableRecord
  2
DEFPOINTS
 70
     0
 62
     7
  6
CONTINUOUS
290
     0
370
    -3
390
D1
  0
ENDTAB
  0
TABLE
  2
STYLE
  5
3
330
0
100
AcDbSymbolTable
 70
     2
  0
STYLE
  5
F
330
3
100
AcDbSymbolTableRecord
100
AcDbTextStyleTableRecord
  2
STANDARD
 70
     0
 40
0.0
 41
1.0
 50
0.0
 71
     0
 42
0.2
  3
txt
  4

  0
STYLE
  5
C6
330
3
100
AcDbSymbolTableRecord
100
AcDbTextStyleTableRecord
  2
ARIAL_WIDE
 70
     0
 40
0.0
 41
1.25
 50
0.0
 71
     0
 42
0.2
  3
arial.ttf
  4

1001
ACAD
1000
Arial
1071
       34
  0
ENDTAB
  0
TABLE
  2
VIEW
  5
6
330
0
100
AcDbSymbolTable
 70
     0
  0
ENDTAB
  0
TABLE
  2
UCS
  5
7
330
0
100
AcDbSymbolTable
 70
     0
  0
ENDTAB
  0
TABLE
  2
APPID
  5
9
330
0
100
AcDbSymbolTable
 70
     2
  0
APPID
  5
10
330
9
100
AcDbSymbolTableRecord
100
AcDbRegAppTableRecord
  2
ACAD
 70
     0
  0
APPID
  5
203
330
9
100
AcDbSymbolTableRecord
100
AcDbRegAppTableRecord
  2
ACAD_EXEMPT_FROM_CAD_STANDARDS
 70
     0
  0
ENDTAB
  0
TABLE
  2
DIMSTYLE
  5
A
330
0
100
AcDbSymbolTable
 70
     2
100
AcDbDimStyleTable
 71
     1
340
C4
  0
DIMSTYLE
105
C4
102
{ACAD_REACTORS
330
81
330
8F
330
31A
330
AD
330
78
330
AC
102
}
330
A
100
AcDbSymbolTableRecord
100
AcDbDimStyleTableRecord
  2
STANDARD
 70
     0
340
F
  0
ENDTAB
  0
TABLE
  2
BLOCK_RECORD
  5
1
330
0
100
AcDbSymbolTable
 70
     8
  0
BLOCK_RECORD
  5
17
102
{ACAD_XDICTIONARY
360
FF
102
}
330
1
100
AcDbSymbolTableRecord
100
AcDbBlockTableRecord
  2
*MODEL_SPACE
340
D4
  0
BLOCK_RECORD
  5
14
102
{ACAD_XDICTIONARY
360
FD
102
}
330
1
100
AcDbSymbolTableRecord
100
AcDbBlockTableRecord
  2
*PAPER_SPACE
340
D5
  0
BLOCK_RECORD
  5
262
330
1
100
AcDbSymbolTableRecord
100
AcDbBlockTableRecord
  2
*D0
340
0
  0
BLOCK_RECORD
  5
294
330
1
100
AcDbSymbolTableRecord
100
AcDbBlockTableRecord
  2
*D1
340
0
  0
BLOCK_RECORD
  5
31B
330
1
100
AcDbSymbolTableRecord
100
AcDbBlockTableRecord
  2
*D2
340
0
  0
BLOCK_RECORD
  5
3A9
330
1
100
AcDbSymbolTableRecord
100
AcDbBlockTableRecord
  2
*D3
340
0
  0
BLOCK_RECORD
  5
492
330
1
100
AcDbSymbolTableRecord
100
AcDbBlockTableRecord
  2
*D4
340
0
  0
BLOCK_RECORD
  5
5C2
102
{ACAD_XDICTIONARY
360
5D0
102
}
330
1
100
AcDbSymbolTableRecord
100
AcDbBlockTableRecord
  2
A$C00294823
340
0
102
{BLKREFS
331
5D3
331
633
102
}
  0
BLOCK_RECORD
  5
648
330
1
100
AcDbSymbolTableRecord
100
AcDbBlockTableRecord
  2
*D6
340
0
  0
ENDTAB
  0
ENDSEC
  0
SECTION
  2
BLOCKS
  0
BLOCK
  5
2A
330
17
100
AcDbEntity
  8
0
100
AcDbBlockBegin
  2
*MODEL_SPACE
 70
     0
 10
0.0
 20
0.0
 30
0.0
  3
*MODEL_SPACE
  1

  0
ENDBLK
  5
2B
330
17
100
AcDbEntity
  8
0
100
AcDbBlockEnd
  0
BLOCK
  5
28
330
14
100
AcDbEntity
 67
     1
  8
0
100
AcDbBlockBegin
  2
*PAPER_SPACE
 70
     0
 10
0.0
 20
0.0
 30
0.0
  3
*PAPER_SPACE
  1

  0
ENDBLK
  5
29
330
14
100
AcDbEntity
 67
     1
  8
0
100
AcDbBlockEnd
  0
BLOCK
  5
26D
330
262
100
AcDbEntity
  8
0
100
AcDbBlockBegin
  2
*D0
 70
     1
 10
0.0
 20
0.0
 30
0.0
  3
*D0
  1

  0
LINE
  5
738
330
262
100
AcDbEntity
  8
ADPDIM
 62
     0
370
    -2
100
AcDbLine
 10
11.54075732867259
 20
8.506025703727029
 30
0.0
 11
11.54075732867259
 21
9.998341554307568
 31
0.0
  0
LINE
  5
739
330
262
100
AcDbEntity
  8
ADPDIM
 62
     0
370
    -2
100
AcDbLine
 10
13.35408909934131
 20
8.506025703727029
 30
0.0
 11
13.35408909934131
 21
9.998341554307568
 31
0.0
  0
LINE
  5
73A
330
262
100
AcDbEntity
  8
ADPDIM
 62
     0
370
    -2
100
AcDbLine
 10
11.54075732867259
 20
9.818341554307568
 30
0.0
 11
12.11408988067362
 21
9.818341554307568
 31
0.0
  0
LINE
  5
73B
330
262
100
AcDbEntity
  8
ADPDIM
 62
     0
370
    -2
100
AcDbLine
 10
13.35408909934131
 20
9.818341554307568
 30
0.0
 11
12.78075654734029
 21
9.818341554307568
 31
0.0
  0
LINE
  5
73C
330
262
100
AcDbEntity
  8
ADPDIM
 62
     0
370
    -2
100
AcDbLine
 10
13.2290890993413
 20
9.693341554307568
 30
0.0
 11
13.47908909934131
 21
9.943341554307568
 31
0.0
  0
LINE
  5
73D
330
262
100
AcDbEntity
  8
ADPDIM
 62
     0
370
    -2
100
AcDbLine
 10
11.41575732867259
 20
9.693341554307568
 30
0.0
 11
11.6657573286726
 21
9.943341554307568
 31
0.0
  0
MTEXT
  5
73E
330
262
100
AcDbEntity
  8
ADPDIM
 62
     0
100
AcDbMText
 10
12.44742321400695
 20
9.818341554307568
 30
0.0
 40
0.125
 41
0.0
 71
     5
 72
     1
  1
\A1;1.900
 73
     1
 44
1.0
1001
ACAD
1000
MTEXTBEGIN
1070
    73
1070
     1
1070
    44
1040
1.0
1070
    74
1070
     0
1000
MTEXTEND
  0
POINT
  5
73F
330
262
100
AcDbEntity
  8
DEFPOINTS
 62
     0
100
AcDbPoint
 10
11.54075732867259
 20
8.443525703727029
 30
0.0
  0
POINT
  5
740
330
262
100
AcDbEntity
  8
DEFPOINTS
 62
     0
100
AcDbPoint
 10
13.35408909934131
 20
8.443525703727029
 30
0.0
  0
POINT
  5
741
330
262
100
AcDbEntity
  8
DEFPOINTS
 62
     0
100
AcDbPoint
 10
13.35408909934131
 20
9.818341554307568
 30
0.0
  0
ENDBLK
  5
26E
330
262
100
AcDbEntity
  8
0
100
AcDbBlockEnd
  0
BLOCK
  5
29F
330
294
100
AcDbEntity
  8
0
100
AcDbBlockBegin
  2
*D1
 70
     1
 10
0.0
 20
0.0
 30
0.0
  3
*D1
  1

  0
LINE
  5
75E
330
294
100
AcDbEntity
  8
ADPDIM
 62
     0
370
    -2
100
AcDbLine
 10
8.197529202763998
 20
7.625895372533278
 30
0.0
 11
7.44930567505205
 21
7.625895372533278
 31
0.0
  0
LINE
  5
75F
330
294
100
AcDbEntity
  8
ADPDIM
 62
     0
370
    -2
100
AcDbLine
 10
8.197529202763998
 20
6.493218184976322
 30
0.0
 11
7.44930567505205
 21
6.493218184976322
 31
0.0
  0
LINE
  5
760
330
294
100
AcDbEntity
  8
ADPDIM
 62
     0
370
    -2
100
AcDbLine
 10
7.62930567505205
 20
7.625895372533278
 30
0.0
 11
7.62930567505205
 21
7.4345567787548
 31
0.0
  0
LINE
  5
761
330
294
100
AcDbEntity
  8
ADPDIM
 62
     0
370
    -2
100
AcDbLine
 10
7.62930567505205
 20
6.493218184976322
 30
0.0
 11
7.62930567505205
 21
6.6845567787548
 31
0.0
  0
LINE
  5
762
330
294
100
AcDbEntity
  8
ADPDIM
 62
     0
370
    -2
100
AcDbLine
 10
7.75430567505205
 20
6.368218184976322
 30
0.0
 11
7.50430567505205
 21
6.618218184976322
 31
0.0
  0
LINE
  5
763
330
294
100
AcDbEntity
  8
ADPDIM
 62
     0
370
    -2
100
AcDbLine
 10
7.75430567505205
 20
7.500895372533278
 30
0.0
 11
7.50430567505205
 21
7.750895372533278
 31
0.0
  0
MTEXT
  5
764
330
294
100
AcDbEntity
  8
ADPDIM
 62
     0
100
AcDbMText
 10
7.629305675052048
 20
7.059556778754801
 30
0.0
 40
0.125
 41
0.0
 71
     5
 72
     1
  1
\A1;1 1/8
 11
0.0000000000000001
 21
1.0
 31
0.0
 73
     1
 44
1.0
1001
ACAD
1000
MTEXTBEGIN
1070
    73
1070
     1
1070
    44
1040
1.0
1070
    74
1070
     0
1000
MTEXTEND
  0
POINT
  5
765
330
294
100
AcDbEntity
  8
DEFPOINTS
 62
     0
100
AcDbPoint
 10
8.260029202763998
 20
7.625895372533278
 30
0.0
  0
POINT
  5
766
330
294
100
AcDbEntity
  8
DEFPOINTS
 62
     0
100
AcDbPoint
 10
8.260029202763998
 20
6.493218184976322
 30
0.0
  0
POINT
  5
767
330
294
100
AcDbEntity
  8
DEFPOINTS
 62
     0
100
AcDbPoint
 10
7.62930567505205
 20
6.493218184976322
 30
0.0
  0
ENDBLK
  5
2A0
330
294
100
AcDbEntity
  8
0
100
AcDbBlockEnd
  0
BLOCK
  5
326
330
31B
100
AcDbEntity
  8
0
100
AcDbBlockBegin
  2
*D2
 70
     1
 10
0.0
 20
0.0
 30
0.0
  3
*D2
  1

  0
LINE
  5
6FE
330
31B
100
AcDbEntity
  8
ADPDIM
 62
     0
370
    -2
100
AcDbLine
 10
8.23653847955369
 20
9.25089540450846
 30
0.0
 11
8.23653847955369
 21
9.616653013650466
 31
0.0
  0
LINE
  5
6FF
330
31B
100
AcDbEntity
  8
ADPDIM
 62
     0
370
    -2
100
AcDbLine
 10
10.00125170761993
 20
9.266781167853368
 30
0.0
 11
10.00125170761993
 21
9.616653013650466
 31
0.0
  0
LINE
  5
700
330
31B
100
AcDbEntity
  8
ADPDIM
 62
     0
370
    -2
100
AcDbLine
 10
8.23653847955369
 20
9.436653013650467
 30
0.0
 11
8.723061760253477
 21
9.436653013650467
 31
0.0
  0
LINE
  5
701
330
31B
100
AcDbEntity
  8
ADPDIM
 62
     0
370
    -2
100
AcDbLine
 10
10.00125170761993
 20
9.436653013650467
 30
0.0
 11
9.514728426920145
 21
9.436653013650467
 31
0.0
  0
LINE
  5
702
330
31B
100
AcDbEntity
  8
ADPDIM
 62
     0
370
    -2
100
AcDbLine
 10
9.876251707619932
 20
9.311653013650467
 30
0.0
 11
10.12625170761993
 21
9.561653013650467
 31
0.0
  0
LINE
  5
703
330
31B
100
AcDbEntity
  8
ADPDIM
 62
     0
370
    -2
100
AcDbLine
 10
8.11153847955369
 20
9.311653013650467
 30
0.0
 11
8.36153847955369
 21
9.561653013650467
 31
0.0
  0
MTEXT
  5
704
330
31B
100
AcDbEntity
  8
ADPDIM
 62
     0
100
AcDbMText
 10
9.118895093586811
 20
9.436653013650467
 30
0.0
 40
0.125
 41
0.0
 71
     5
 72
     1
  1
\A1;1 3/4
 73
     1
 44
1.0
1001
ACAD
1000
MTEXTBEGIN
1070
    73
1070
     1
1070
    44
1040
1.0
1070
    74
1070
     0
1000
MTEXTEND
  0
POINT
  5
705
330
31B
100
AcDbEntity
  8
DEFPOINTS
 62
     0
100
AcDbPoint
 10
8.23653847955369
 20
9.18839540450846
 30
0.0
  0
POINT
  5
706
330
31B
100
AcDbEntity
  8
DEFPOINTS
 62
     0
100
AcDbPoint
 10
10.00125170761993
 20
9.204281167853368
 30
0.0
  0
POINT
  5
707
330
31B
100
AcDbEntity
  8
DEFPOINTS
 62
     0
100
AcDbPoint
 10
10.00125170761993
 20
9.436653013650467
 30
0.0
  0
ENDBLK
  5
327
330
31B
100
AcDbEntity
  8
0
100
AcDbBlockEnd
  0
BLOCK
  5
3B4
330
3A9
100
AcDbEntity
  8
0
100
AcDbBlockBegin
  2
*D3
 70
     1
 10
0.0
 20
0.0
 30
0.0
  3
*D3
  1

  0
LINE
  5
6F4
330
3A9
100
AcDbEntity
  8
ADPDIM
 62
     0
370
    -2
100
AcDbLine
 10
7.871580132026943
 20
9.191957280402318
 30
0.0
 11
7.871580132026943
 21
9.998341554307566
 31
0.0
  0
LINE
  5
6F5
330
3A9
100
AcDbEntity
  8
ADPDIM
 62
     0
370
    -2
100
AcDbLine
 10
10.37158013202694
 20
9.191957280402318
 30
0.0
 11
10.37158013202694
 21
9.998341554307566
 31
0.0
  0
LINE
  5
6F6
330
3A9
100
AcDbEntity
  8
ADPDIM
 62
     0
370
    -2
100
AcDbLine
 10
7.871580132026943
 20
9.818341554307567
 30
0.0
 11
8.725746798693609
 21
9.818341554307567
 31
0.0
  0
LINE
  5
6F7
330
3A9
100
AcDbEntity
  8
ADPDIM
 62
     0
370
    -2
100
AcDbLine
 10
10.37158013202694
 20
9.818341554307567
 30
0.0
 11
9.517413465360277
 21
9.818341554307567
 31
0.0
  0
LINE
  5
6F8
330
3A9
100
AcDbEntity
  8
ADPDIM
 62
     0
370
    -2
100
AcDbLine
 10
10.24658013202694
 20
9.693341554307567
 30
0.0
 11
10.49658013202694
 21
9.943341554307567
 31
0.0
  0
LINE
  5
6F9
330
3A9
100
AcDbEntity
  8
ADPDIM
 62
     0
370
    -2
100
AcDbLine
 10
7.746580132026943
 20
9.693341554307567
 30
0.0
 11
7.996580132026943
 21
9.943341554307567
 31
0.0
  0
MTEXT
  5
6FA
330
3A9
100
AcDbEntity
  8
ADPDIM
 62
     0
100
AcDbMText
 10
9.121580132026943
 20
9.818341554307567
 30
0.0
 40
0.125
 41
0.0
 71
     5
 72
     1
  1
\A1;2 1/2
 73
     1
 44
1.0
1001
ACAD
1000
MTEXTBEGIN
1070
    73
1070
     1
1070
    44
1040
1.0
1070
    74
1070
     0
1000
MTEXTEND
  0
POINT
  5
6FB
330
3A9
100
AcDbEntity
  8
DEFPOINTS
 62
     0
100
AcDbPoint
 10
7.871580132026943
 20
9.129457280402318
 30
0.0
  0
POINT
  5
6FC
330
3A9
100
AcDbEntity
  8
DEFPOINTS
 62
     0
100
AcDbPoint
 10
10.37158013202694
 20
9.129457280402318
 30
0.0
  0
POINT
  5
6FD
330
3A9
100
AcDbEntity
  8
DEFPOINTS
 62
     0
100
AcDbPoint
 10
10.37158013202694
 20
9.818341554307567
 30
0.0
  0
ENDBLK
  5
3B5
330
3A9
100
AcDbEntity
  8
0
100
AcDbBlockEnd
  0
BLOCK
  5
49D
330
492
100
AcDbEntity
  8
0
100
AcDbBlockBegin
  2
*D4
 70
     1
 10
0.0
 20
0.0
 30
0.0
  3
*D4
  1

  0
LINE
  5
6CC
330
492
100
AcDbEntity
  8
ADPDIM
 62
     0
370
    -2
100
AcDbLine
 10
9.056722432908825
 20
8.023381629758857
 30
0.0
 11
7.455058891571392
 21
8.023381629758857
 31
0.0
  0
LINE
  5
6CD
330
492
100
AcDbEntity
  8
ADPDIM
 62
     0
370
    -2
100
AcDbLine
 10
7.848930658303525
 20
9.13250342736573
 30
0.0
 11
7.455058891571392
 21
9.13250342736573
 31
0.0
  0
LINE
  5
6CE
330
492
100
AcDbEntity
  8
ADPDIM
 62
     0
370
    -2
100
AcDbLine
 10
7.635058891571391
 20
8.023381629758857
 30
0.0
 11
7.635058891571391
 21
8.202942528562294
 31
0.0
  0
LINE
  5
6CF
330
492
100
AcDbEntity
  8
ADPDIM
 62
     0
370
    -2
100
AcDbLine
 10
7.635058891571391
 20
9.13250342736573
 30
0.0
 11
7.635058891571391
 21
8.952942528562294
 31
0.0
  0
LINE
  5
6D0
330
492
100
AcDbEntity
  8
ADPDIM
 62
     0
370
    -2
100
AcDbLine
 10
7.760058891571391
 20
9.00750342736573
 30
0.0
 11
7.510058891571391
 21
9.25750342736573
 31
0.0
  0
LINE
  5
6D1
330
492
100
AcDbEntity
  8
ADPDIM
 62
     0
370
    -2
100
AcDbLine
 10
7.760058891571391
 20
7.898381629758857
 30
0.0
 11
7.510058891571391
 21
8.148381629758857
 31
0.0
  0
MTEXT
  5
6D2
330
492
100
AcDbEntity
  8
ADPDIM
 62
     0
100
AcDbMText
 10
7.63505889157139
 20
8.577942528562296
 30
0.0
 40
0.125
 41
0.0
 71
     5
 72
     1
  1
\A1;1 1/8
 11
0.0000000000000001
 21
1.0
 31
0.0
 73
     1
 44
1.0
1001
ACAD
1000
MTEXTBEGIN
1070
    73
1070
     1
1070
    44
1040
1.0
1070
    74
1070
     0
1000
MTEXTEND
  0
POINT
  5
6D3
330
492
100
AcDbEntity
  8
DEFPOINTS
 62
     0
100
AcDbPoint
 10
9.119222432908825
 20
8.023381629758857
 30
0.0
  0
POINT
  5
6D4
330
492
100
AcDbEntity
  8
DEFPOINTS
 62
     0
100
AcDbPoint
 10
7.911430658303525
 20
9.13250342736573
 30
0.0
  0
POINT
  5
6D5
330
492
100
AcDbEntity
  8
DEFPOINTS
 62
     0
100
AcDbPoint
 10
7.635058891571391
 20
9.13250342736573
 30
0.0
  0
ENDBLK
  5
49E
330
492
100
AcDbEntity
  8
0
100
AcDbBlockEnd
  0
BLOCK
  5
5D1
330
5C2
100
AcDbEntity
  8
0
100
AcDbBlockBegin
  2
A$C00294823
 70
     0
 10
0.0
 20
0.0
 30
0.0
  3
A$C00294823
  1

  0
LINE
  5
5C3
330
5C2
100
AcDbEntity
  8
ADP2DETAIL
  6
HIDDEN2
100
AcDbLine
 10
0.0624999929307713
 20
1.50331880882622
 30
0.0
 11
4.937499992930771
 21
1.50331880882622
 31
0.0
  0
LINE
  5
5C5
330
5C2
100
AcDbEntity
  8
ADP2DETAIL
  6
HIDDEN2
100
AcDbLine
 10
-0.0000000070692252
 20
-0.2028496871421233
 30
0.0
 11
-0.0000000070692292
 21
1.44081880882622
 31
0.0
  0
LINE
  5
5C6
330
5C2
100
AcDbEntity
  8
ADP2DETAIL
  6
HIDDEN2
100
AcDbLine
 10
0.0624999929307753
 20
-0.266681191173781
 30
0.0
 11
0.0624999929307713
 21
1.50331880882622
 31
0.0
  0
LINE
  5
5C7
330
5C2
100
AcDbEntity
  8
ADP2DETAIL
  6
HIDDEN2
100
AcDbLine
 10
-0.0000000070692252
 20
-0.2028496871421233
 30
0.0
 11
0.0624999929307748
 21
-0.2653496871421233
 31
0.0
  0
LINE
  5
5C8
330
5C2
100
AcDbEntity
  8
ADP2DETAIL
  6
HIDDEN2
100
AcDbLine
 10
0.0624999929307713
 20
1.50331880882622
 30
0.0
 11
-0.0000000070692292
 21
1.44081880882622
 31
0.0
  0
LINE
  5
5C9
330
5C2
100
AcDbEntity
  8
ADP2DETAIL
  6
HIDDEN2
100
AcDbLine
 10
4.999999992930771
 20
1.44081880882622
 30
0.0
 11
4.999999992930771
 21
-0.2059668211639369
 31
0.0
  0
LINE
  5
5CA
330
5C2
100
AcDbEntity
  8
ADP2DETAIL
  6
HIDDEN2
100
AcDbLine
 10
4.937499992930771
 20
1.50331880882622
 30
0.0
 11
4.937499992930771
 21
-0.266681191173781
 31
0.0
  0
LINE
  5
5CB
330
5C2
100
AcDbEntity
  8
ADP2DETAIL
  6
HIDDEN2
100
AcDbLine
 10
4.999999992930771
 20
-0.2059668211639369
 30
0.0
 11
4.937499992930771
 21
-0.2684668211639369
 31
0.0
  0
LINE
  5
5CC
330
5C2
100
AcDbEntity
  8
ADP2DETAIL
  6
HIDDEN2
100
AcDbLine
 10
4.937499992930771
 20
1.50331880882622
 30
0.0
 11
4.999999992930771
 21
1.44081880882622
 31
0.0
  0
LINE
  5
5CD
330
5C2
100
AcDbEntity
  8
ADP2DETAIL
  6
HIDDEN2
100
AcDbLine
 10
4.937499992930771
 20
-0.266681191173781
 30
0.0
 11
0.0624999929307748
 21
-0.2653496871421233
 31
0.0
  0
POINT
  5
5CE
330
5C2
100
AcDbEntity
  8
ADP2DETAIL
  6
HIDDEN2
100
AcDbPoint
 10
-0.0000000070692292
 20
1.44081880882622
 30
0.0
 50
360.0
  0
POINT
  5
5CF
330
5C2
100
AcDbEntity
  8
ADP2DETAIL
  6
HIDDEN2
100
AcDbPoint
 10
4.999999992930771
 20
1.44081880882622
 30
0.0
 50
360.0
  0
ENDBLK
  5
5D2
330
5C2
100
AcDbEntity
  8
0
100
AcDbBlockEnd
  0
BLOCK
  5
653
330
648
100
AcDbEntity
  8
0
100
AcDbBlockBegin
  2
*D6
 70
     1
 10
0.0
 20
0.0
 30
0.0
  3
*D6
  1

  0
LINE
  5
72E
330
648
100
AcDbEntity
  8
ADPDIM
 62
     0
370
    -2
100
AcDbLine
 10
12.06944109459379
 20
9.205326264359538
 30
0.0
 11
12.06944109459379
 21
9.616653013650466
 31
0.0
  0
LINE
  5
72F
330
648
100
AcDbEntity
  8
ADPDIM
 62
     0
370
    -2
100
AcDbLine
 10
12.82478868817667
 20
9.205326264359538
 30
0.0
 11
12.82478868817667
 21
9.616653013650466
 31
0.0
  0
LINE
  5
730
330
648
100
AcDbEntity
  8
ADPDIM
 62
     0
370
    -2
100
AcDbLine
 10
12.06944109459379
 20
9.436653013650467
 30
0.0
 11
11.81944109459379
 21
9.436653013650467
 31
0.0
  0
LINE
  5
731
330
648
100
AcDbEntity
  8
ADPDIM
 62
     0
370
    -2
100
AcDbLine
 10
12.82478868817667
 20
9.436653013650467
 30
0.0
 11
13.07478868817667
 21
9.436653013650467
 31
0.0
  0
LINE
  5
732
330
648
100
AcDbEntity
  8
ADPDIM
 62
     0
370
    -2
100
AcDbLine
 10
12.69978868817667
 20
9.311653013650467
 30
0.0
 11
12.94978868817667
 21
9.561653013650467
 31
0.0
  0
LINE
  5
733
330
648
100
AcDbEntity
  8
ADPDIM
 62
     0
370
    -2
100
AcDbLine
 10
11.94444109459379
 20
9.311653013650467
 30
0.0
 11
12.19444109459379
 21
9.561653013650467
 31
0.0
  0
MTEXT
  5
734
330
648
100
AcDbEntity
  8
ADPDIM
 62
     0
100
AcDbMText
 10
12.44711489138523
 20
9.436653013650467
 30
0.0
 40
0.125
 41
0.0
 71
     5
 72
     1
  1
\A1;3/4
 73
     1
 44
1.0
1001
ACAD
1000
MTEXTBEGIN
1070
    73
1070
     1
1070
    44
1040
1.0
1070
    74
1070
     0
1000
MTEXTEND
  0
POINT
  5
735
330
648
100
AcDbEntity
  8
DEFPOINTS
 62
     0
100
AcDbPoint
 10
12.06944109459379
 20
9.142826264359538
 30
0.0
  0
POINT
  5
736
330
648
100
AcDbEntity
  8
DEFPOINTS
 62
     0
100
AcDbPoint
 10
12.82478868817667
 20
9.142826264359538
 30
0.0
  0
POINT
  5
737
330
648
100
AcDbEntity
  8
DEFPOINTS
 62
     0
100
AcDbPoint
 10
12.82478868817667
 20
9.436653013650467
 30
0.0
  0
ENDBLK
  5
654
330
648
100
AcDbEntity
  8
0
100
AcDbBlockEnd
  0
ENDSEC
  0
SECTION
  2
ENTITIES
  0
DIMENSION
  5
78
330
17
100
AcDbEntity
  8
ADPDIM
100
AcDbDimension
  2
*D4
 10
7.635058891571391
 20
9.13250342736573
 30
0.0
 11
7.63505889157139
 21
8.577942528562296
 31
0.0
 70
    32
 71
     5
 42
1.109121797606873
  3
STANDARD
100
AcDbAlignedDimension
 13
9.119222432908825
 23
8.023381629758857
 33
0.0
 14
7.911430658303525
 24
9.13250342736573
 34
0.0
 50
90.0
100
AcDbRotatedDimension
1001
ACAD
1000
DSTYLE
1002
{
1070
   276
1070
     2
1070
    41
1040
0.125
1070
    73
1070
     0
1070
    74
1070
     0
1070
    78
1070
     3
1070
   140
1040
0.125
1070
   141
1040
0.1875
1070
   142
1040
0.125
1070
   147
1040
0.125
1070
   171
1070
     1
1070
   273
1070
     5
1070
   274
1070
     1
1070
   277
1070
     5
1070
   279
1070
     2
1070
   284
1070
     3
1070
   285
1070
     3
1070
   286
1070
     3
1002
}
  0
LINE
  5
79
330
17
100
AcDbEntity
  8
ADP1DETAIL
 62
     7
100
AcDbLine
 10
9.495911682829083
 20
8.685793556984833
 30
0.0
 11
9.495911682829083
 21
8.447639098584136
 31
0.0
  0
LINE
  5
7A
330
17
100
AcDbEntity
  8
ADP1DETAIL
 62
     7
100
AcDbLine
 10
9.308745907428013
 20
8.440954606605528
 30
0.0
 11
9.308745907428013
 21
9.129457280402318
 31
0.0
  0
LINE
  5
7B
330
17
100
AcDbEntity
  8
ADP1DETAIL
 62
     7
100
AcDbLine
 10
9.308745907428013
 20
8.440954606605528
 30
0.0
 11
9.308745907428013
 21
9.156195248316755
 31
0.0
  0
LINE
  5
7C
330
17
100
AcDbEntity
  8
ADP1DETAIL
 62
     7
100
AcDbLine
 10
8.747248581224804
 20
8.440954606605528
 30
0.0
 11
8.747248581224804
 21
8.685793556984833
 31
0.0
  0
LINE
  5
7D
330
17
100
AcDbEntity
  8
ADP1DETAIL
 62
     7
100
AcDbLine
 10
8.934414356625874
 20
9.129457280402318
 30
0.0
 11
8.934414356625874
 21
8.454323590562745
 31
0.0
  0
LINE
  5
7E
330
17
100
AcDbEntity
  8
ADP1DETAIL
 62
     7
100
AcDbLine
 10
8.934414356625874
 20
9.156195248316755
 30
0.0
 11
8.934414356625874
 21
8.454323590562745
 31
0.0
  0
LINE
  5
7F
330
17
100
AcDbEntity
  8
ADP1DETAIL
 62
     7
100
AcDbLine
 10
12.82478868817667
 20
7.705660488958468
 30
0.0
 11
12.82478868817667
 21
9.142826264359538
 31
0.0
  0
LINE
  5
80
330
17
100
AcDbEntity
  8
ADP1DETAIL
 62
     7
100
AcDbLine
 10
12.06944109459379
 20
9.142826264359538
 30
0.0
 11
12.06944109459379
 21
7.705660488958468
 31
0.0
  0
DIMENSION
  5
81
330
17
100
AcDbEntity
  8
ADPDIM
100
AcDbDimension
  2
*D0
 10
13.35408909934131
 20
9.818341554307568
 30
0.0
 11
12.44742321400695
 21
9.818341554307568
 31
0.0
 70
    32
  1
1.900
 71
     5
 42
1.813331770668709
  3
STANDARD
100
AcDbAlignedDimension
 13
11.54075732867259
 23
8.443525703727029
 33
0.0
 14
13.35408909934131
 24
8.443525703727029
 34
0.0
100
AcDbRotatedDimension
1001
ACAD
1000
DSTYLE
1002
{
1070
   276
1070
     2
1070
    41
1040
0.125
1070
    73
1070
     0
1070
    74
1070
     0
1070
    78
1070
     3
1070
   140
1040
0.125
1070
   141
1040
0.1875
1070
   142
1040
0.125
1070
   147
1040
0.125
1070
   171
1070
     1
1070
   273
1070
     5
1070
   274
1070
     1
1070
   277
1070
     2
1070
   279
1070
     2
1070
   284
1070
     3
1070
   285
1070
     3
1070
   286
1070
     3
1002
}
  0
LINE
  5
83
330
17
100
AcDbEntity
  8
ADP2DETAIL
  6
HIDDEN2
100
AcDbLine
 10
12.06275660261518
 20
8.253788831204458
 30
0.0
 11
12.83147318015528
 21
8.253788831204458
 31
0.0
  0
LINE
  5
84
330
17
100
AcDbEntity
  8
ADP2DETAIL
  6
HIDDEN2
100
AcDbLine
 10
12.06275660261518
 20
7.879457280402318
 30
0.0
 11
12.83147318015528
 21
7.879457280402318
 31
0.0
  0
LINE
  5
87
330
17
100
AcDbEntity
  8
ADP1DETAIL
 62
     7
100
AcDbLine
 10
12.06275660261518
 20
8.428449348566484
 30
0.0
 11
11.54044900605088
 21
8.428449348566482
 31
0.0
  0
LINE
  5
88
330
17
100
AcDbEntity
  8
ADP1DETAIL
 62
     7
100
AcDbLine
 10
12.06944109459379
 20
7.705660488958468
 30
0.0
 11
12.82478868817667
 21
7.705660488958468
 31
0.0
  0
LINE
  5
89
330
17
100
AcDbEntity
  8
ADP1DETAIL
 62
     7
100
AcDbLine
 10
12.83147318015528
 20
7.625446585215152
 30
0.0
 11
12.06275660261518
 21
7.625446585215152
 31
0.0
  0
LINE
  5
8B
330
17
100
AcDbEntity
  8
ADP1DETAIL
 62
     7
100
AcDbLine
 10
10.07336097343271
 20
8.440954606605529
 30
0.0
 11
8.260029202763998
 21
8.440954606605526
 31
0.0
  0
LINE
  5
8C
330
17
100
AcDbEntity
  8
ADP1DETAIL
 62
     7
100
AcDbLine
 10
8.260029202763998
 20
6.493218184976322
 30
0.0
 11
10.07336097343271
 21
6.493218184976323
 31
0.0
  0
LINE
  5
8E
330
17
100
AcDbEntity
  8
ADP2DETAIL
  6
HIDDEN2
100
AcDbLine
 10
10.07415222605491
 20
7.636562824954618
 30
0.0
 11
8.262127477065295
 21
7.634172916916936
 31
0.0
  0
DIMENSION
  5
8F
330
17
100
AcDbEntity
  8
ADPDIM
100
AcDbDimension
  2
*D1
 10
7.62930567505205
 20
6.493218184976322
 30
0.0
 11
7.629305675052048
 21
7.059556778754801
 31
0.0
 70
    32
 71
     5
 42
1.132677187556955
  3
STANDARD
100
AcDbAlignedDimension
 13
8.260029202763998
 23
7.625895372533278
 33
0.0
 14
8.260029202763998
 24
6.493218184976322
 34
0.0
 50
90.0
100
AcDbRotatedDimension
1001
ACAD
1000
DSTYLE
1002
{
1070
   276
1070
     2
1070
    41
1040
0.125
1070
    73
1070
     0
1070
    74
1070
     0
1070
    78
1070
     3
1070
   140
1040
0.125
1070
   141
1040
0.1875
1070
   142
1040
0.125
1070
   147
1040
0.125
1070
   171
1070
     1
1070
   273
1070
     5
1070
   274
1070
     1
1070
   277
1070
     5
1070
   279
1070
     2
1070
   284
1070
     3
1070
   285
1070
     3
1070
   286
1070
     3
1002
}
  0
LWPOLYLINE
  5
92
330
17
100
AcDbEntity
  8
ADP2DETAIL
  6
HIDDEN2
100
AcDbPolyline
 90
        4
 70
     0
 43
0.0
 10
8.746968593456246
 20
8.395310312698402
 10
8.746968593456246
 20
7.946957923401233
 42
0.8214597401204796
 10
9.491476272361401
 20
7.967337576958607
 10
9.491476272361401
 20
8.395310312698402
  0
LINE
  5
98
330
17
100
AcDbEntity
  8
ADP1DETAIL
 62
     7
100
AcDbLine
 10
8.260029202763998
 20
6.493218184976322
 30
0.0
 11
8.260029202763998
 21
8.440954606605526
 31
0.0
  0
CIRCLE
  5
99
330
17
100
AcDbEntity
  8
ADP2DETAIL
  6
HIDDEN2
100
AcDbCircle
 10
9.119222432908825
 20
8.023381629758857
 30
0.0
 40
0.1885807590099206
  0
LINE
  5
9A
330
17
100
AcDbEntity
  8
ADP2DETAIL
  6
HIDDEN2
100
AcDbLine
 10
8.930275816101984
 20
8.412971404201316
 30
0.0
 11
8.930275816101984
 21
8.112169265163883
 31
0.0
  0
LINE
  5
9B
330
17
100
AcDbEntity
  8
ADP2DETAIL
  6
HIDDEN2
100
AcDbLine
 10
9.304607366904123
 20
8.112169265163883
 30
0.0
 11
9.304607366904123
 21
8.399602420244098
 31
0.0
  0
LINE
  5
9E
330
17
100
AcDbEntity
  8
ADP1DETAIL
 62
     7
100
AcDbLine
 10
10.07336097343271
 20
6.493218184976323
 30
0.0
 11
10.07336097343271
 21
8.440954606605529
 31
0.0
  0
LINE
  5
9F
330
17
100
AcDbEntity
  8
ADP1DETAIL
 62
     7
100
AcDbLine
 10
9.609548046465446
 20
8.440954606605528
 30
0.0
 11
9.609548046465446
 21
8.440954606605528
 31
0.0
  0
LINE
  5
A2
330
17
100
AcDbEntity
  8
ADP1DETAIL
 62
     7
100
AcDbLine
 10
11.54044900605088
 20
6.493218184976323
 30
0.0
 11
11.54044900605088
 21
8.428449348566482
 31
0.0
  0
LINE
  5
A3
330
17
100
AcDbEntity
  8
ADP1DETAIL
 62
     7
100
AcDbLine
 10
12.06275660261518
 20
7.625446585215152
 30
0.0
 11
12.06275660261518
 21
8.428449348566484
 31
0.0
  0
LINE
  5
A7
330
17
100
AcDbEntity
  8
ADP1DETAIL
 62
     7
100
AcDbLine
 10
12.83147318015528
 20
8.428449348566484
 30
0.0
 11
12.83147318015528
 21
7.625446585215152
 31
0.0
  0
LINE
  5
A9
330
17
100
AcDbEntity
  8
ADP1DETAIL
 62
     7
100
AcDbLine
 10
13.35378077671959
 20
6.493218184976323
 30
0.0
 11
13.35378077671959
 21
8.428449348566484
 31
0.0
  0
LINE
  5
AA
330
17
100
AcDbEntity
  8
ADP1DETAIL
 62
     7
100
AcDbLine
 10
12.82478868817667
 20
8.948975996979857
 30
0.0
 11
12.08281007855101
 21
8.948975996979857
 31
0.0
  0
LINE
  5
AB
330
17
100
AcDbEntity
  8
ADP1DETAIL
 62
     7
100
AcDbLine
 10
12.82478868817667
 20
9.142826264359538
 30
0.0
 11
12.06944109459379
 21
9.142826264359538
 31
0.0
  0
DIMENSION
  5
AC
330
17
100
AcDbEntity
  8
ADPDIM
100
AcDbDimension
  2
*D6
 10
12.82478868817667
 20
9.436653013650467
 30
0.0
 11
12.44711489138523
 21
9.436653013650467
 31
0.0
 70
    32
 71
     5
 42
0.7553475935828829
  3
STANDARD
100
AcDbAlignedDimension
 13
12.06944109459379
 23
9.142826264359538
 33
0.0
 14
12.82478868817667
 24
9.142826264359538
 34
0.0
100
AcDbRotatedDimension
1001
ACAD
1000
DSTYLE
1002
{
1070
   276
1070
     2
1070
    41
1040
0.125
1070
    73
1070
     0
1070
    74
1070
     0
1070
    78
1070
     3
1070
   140
1040
0.125
1070
   141
1040
0.1875
1070
   142
1040
0.125
1070
   147
1040
0.125
1070
   171
1070
     1
1070
   273
1070
     5
1070
   274
1070
     1
1070
   277
1070
     5
1070
   279
1070
     2
1070
   284
1070
     3
1070
   285
1070
     3
1070
   286
1070
     3
1002
}
  0
DIMENSION
  5
AD
330
17
100
AcDbEntity
  8
ADPDIM
100
AcDbDimension
  2
*D3
 10
10.37158013202694
 20
9.818341554307567
 30
0.0
 11
9.121580132026943
 21
9.818341554307567
 31
0.0
 70
    32
 71
     5
 42
2.5
  3
STANDARD
100
AcDbAlignedDimension
 13
7.871580132026943
 23
9.129457280402318
 33
0.0
 14
10.37158013202694
 24
9.129457280402318
 34
0.0
100
AcDbRotatedDimension
1001
ACAD
1000
DSTYLE
1002
{
1070
   276
1070
     2
1070
    41
1040
0.125
1070
    73
1070
     0
1070
    74
1070
     0
1070
    78
1070
     3
1070
   140
1040
0.125
1070
   141
1040
0.1875
1070
   142
1040
0.125
1070
   147
1040
0.125
1070
   171
1070
     1
1070
   273
1070
     5
1070
   274
1070
     1
1070
   277
1070
     5
1070
   279
1070
     2
1070
   284
1070
     3
1070
   285
1070
     3
1070
   286
1070
     3
1002
}
  0
LINE
  5
AE
330
17
100
AcDbEntity
  8
ADP1DETAIL
 62
     7
100
AcDbLine
 10
9.683745907428013
 20
9.129457280402318
 30
0.0
 11
10.37158013202694
 21
9.129457280402318
 31
0.0
  0
ARC
  5
AF
330
17
100
AcDbEntity
  8
ADP1DETAIL
 62
     7
100
AcDbCircle
 10
9.734144451631447
 20
8.704058736198888
 30
0.0
 40
0.2389319336190975
100
AcDbArc
 50
85.61574027381739
 51
184.384259726183
  0
LINE
  5
B0
330
17
100
AcDbEntity
  8
ADP2DETAIL
  6
HIDDEN2
100
AcDbLine
 10
8.149989222936037
 20
9.002451932808735
 30
0.0
 11
8.089828795128548
 21
8.94229150500125
 31
0.0
  0
LINE
  5
B1
330
17
100
AcDbEntity
  8
ADP1DETAIL
 62
     7
100
AcDbLine
 10
7.871580132026943
 20
9.129457280402318
 30
0.0
 11
8.559414356625874
 21
9.129457280402318
 31
0.0
  0
LINE
  5
B2
330
17
100
AcDbEntity
  8
ADP1DETAIL
 62
     7
100
AcDbLine
 10
8.49075063320839
 20
8.94229150500125
 30
0.0
 11
7.871580132026943
 21
8.94229150500125
 31
0.0
  0
LINE
  5
B3
330
17
100
AcDbEntity
  8
ADP1DETAIL
 62
     7
100
AcDbLine
 10
7.871580132026943
 20
8.94229150500125
 30
0.0
 11
7.871580132026943
 21
9.129457280402318
 31
0.0
  0
ARC
  5
B4
330
17
100
AcDbEntity
  8
ADP1DETAIL
 62
     7
100
AcDbCircle
 10
8.517145850633633
 20
8.712188774410076
 30
0.0
 40
0.2316116882379628
100
AcDbArc
 50
353.4561703034176
 51
96.54382969658255
  0
LINE
  5
B5
330
17
100
AcDbEntity
  8
ADP2DETAIL
  6
HIDDEN2
100
AcDbLine
 10
8.149989222936037
 20
9.122772788423707
 30
0.0
 11
8.149989222936037
 21
9.002451932808735
 31
0.0
  0
LINE
  5
B6
330
17
100
AcDbEntity
  8
ADP2DETAIL
  6
HIDDEN2
100
AcDbLine
 10
8.343839490315717
 20
9.122772788423707
 30
0.0
 11
8.343839490315717
 21
9.002451932808735
 31
0.0
  0
LINE
  5
B7
330
17
100
AcDbEntity
  8
ADP2DETAIL
  6
HIDDEN2
100
AcDbLine
 10
8.343839490315717
 20
9.002451932808735
 30
0.0
 11
8.397315426144588
 21
8.94229150500125
 31
0.0
  0
LINE
  5
B8
330
17
100
AcDbEntity
  8
ADP1DETAIL
 62
     7
100
AcDbLine
 10
9.308745907428013
 20
9.156195248316755
 30
0.0
 11
8.934414356625874
 21
9.156195248316755
 31
0.0
  0
LINE
  5
B9
330
17
100
AcDbEntity
  8
ADP1DETAIL
 62
     7
100
AcDbLine
 10
10.37158013202694
 20
8.94229150500125
 30
0.0
 11
9.7524096308455
 21
8.94229150500125
 31
0.0
  0
LINE
  5
BA
330
17
100
AcDbEntity
  8
ADP2DETAIL
  6
HIDDEN2
100
AcDbLine
 10
9.905966010489159
 20
9.120557983131979
 30
0.0
 11
9.905966010489159
 21
9.000237127517006
 31
0.0
  0
LINE
  5
BB
330
17
100
AcDbEntity
  8
ADP2DETAIL
  6
HIDDEN2
100
AcDbLine
 10
9.905966010489159
 20
9.000237127517006
 30
0.0
 11
9.839121090703063
 21
8.940076699709521
 31
0.0
  0
LINE
  5
BC
330
17
100
AcDbEntity
  8
ADP2DETAIL
  6
HIDDEN2
100
AcDbLine
 10
10.09313178589022
 20
9.120557983131979
 30
0.0
 11
10.09313178589022
 21
9.000237127517006
 31
0.0
  0
LINE
  5
BD
330
17
100
AcDbEntity
  8
ADP2DETAIL
  6
HIDDEN2
100
AcDbLine
 10
10.09313178589022
 20
9.000237127517006
 30
0.0
 11
10.15329221369771
 21
8.940076699709521
 31
0.0
  0
LINE
  5
BE
330
17
100
AcDbEntity
  8
ADP1DETAIL
 62
     7
100
AcDbLine
 10
10.37158013202694
 20
9.129457280402318
 30
0.0
 11
10.37158013202694
 21
8.94229150500125
 31
0.0
  0
LINE
  5
BF
330
17
100
AcDbEntity
  8
ADP1DETAIL
 62
     7
100
AcDbLine
 10
12.06944109459379
 20
9.142826264359538
 30
0.0
 11
12.06944109459379
 21
9.142826264359538
 31
0.0
  0
LINE
  5
C0
330
17
100
AcDbEntity
  8
ADP2DETAIL
  6
HIDDEN2
100
AcDbLine
 10
12.356874249674
 20
9.009136424787344
 30
0.0
 11
12.29002932988791
 21
8.948975996979857
 31
0.0
  0
LINE
  5
C1
330
17
100
AcDbEntity
  8
ADP2DETAIL
  6
HIDDEN2
100
AcDbLine
 10
12.356874249674
 20
9.136141772380927
 30
0.0
 11
12.356874249674
 21
9.009136424787344
 31
0.0
  0
LINE
  5
C2
330
17
100
AcDbEntity
  8
ADP2DETAIL
  6
HIDDEN2
100
AcDbLine
 10
12.54404002507507
 20
9.009136424787344
 30
0.0
 11
12.60420045288256
 21
8.948975996979857
 31
0.0
  0
LINE
  5
C3
330
17
100
AcDbEntity
  8
ADP2DETAIL
  6
HIDDEN2
100
AcDbLine
 10
12.54404002507507
 20
9.136141772380927
 30
0.0
 11
12.54404002507507
 21
9.009136424787344
 31
0.0
  0
TEXT
  5
CD
330
17
100
AcDbEntity
  8
ADPDIM
100
AcDbText
 10
4.344797233939085
 20
1.981771676382058
 30
0.0
 40
0.125
  1
J U L I U S  B L U M  &  C O . ,  I N C .      ( 8 0 0 )  5 2 6 - 6 2 9 3        W W W . J U L I U S B L U M . C O M        P A R T  N O .  2 0 7
 41
1.25
  7
ARIAL_WIDE
 72
     1
 11
10.80369900747251
 21
2.106771676382058
 31
0.0
100
AcDbText
 73
     3
  0
LINE
  5
284
330
17
100
AcDbEntity
  8
ADP1DETAIL
100
AcDbLine
 10
13.35378077671959
 20
6.493218184976323
 30
0.0
 11
11.54044900605088
 21
6.493218184976323
 31
0.0
  0
LINE
  5
301
330
17
100
AcDbEntity
  8
ADP1DETAIL
100
AcDbLine
 10
12.83147318015528
 20
8.428449348566484
 30
0.0
 11
13.35378077671959
 21
8.428449348566484
 31
0.0
  0
DIMENSION
  5
31A
330
17
100
AcDbEntity
  8
ADPDIM
100
AcDbDimension
  2
*D2
 10
10.00125170761993
 20
9.436653013650467
 30
0.0
 11
9.118895093586811
 21
9.436653013650467
 31
0.0
 70
    32
 71
     5
 42
1.764713228066241
  3
STANDARD
100
AcDbAlignedDimension
 13
8.23653847955369
 23
9.18839540450846
 33
0.0
 14
10.00125170761993
 24
9.204281167853368
 34
0.0
100
AcDbRotatedDimension
1001
ACAD
1000
DSTYLE
1002
{
1070
   276
1070
     2
1070
    41
1040
0.125
1070
    73
1070
     0
1070
    74
1070
     0
1070
    78
1070
     3
1070
   140
1040
0.125
1070
   141
1040
0.1875
1070
   142
1040
0.125
1070
   147
1040
0.125
1070
   171
1070
     1
1070
   273
1070
     5
1070
   274
1070
     1
1070
   277
1070
     5
1070
   279
1070
     2
1070
   284
1070
     3
1070
   285
1070
     3
1070
   286
1070
     3
1002
}
  0
ARC
  5
515
330
17
100
AcDbEntity
  8
ADP1DETAIL
100
AcDbCircle
 10
8.569711962542632
 20
8.764105374860385
 30
0.0
 40
0.3642773462075778
100
AcDbArc
 50
358.834757372048
 51
91.70736463439626
  0
ARC
  5
51C
330
17
100
AcDbEntity
  8
ADP1DETAIL
100
AcDbCircle
 10
9.673171489249364
 20
8.764105374860385
 30
0.0
 40
0.3642773462075778
100
AcDbArc
 50
88.29263536560381
 51
181.1652426279521
  0
INSERT
  5
5D3
330
17
100
AcDbEntity
  8
ADP2DETAIL
100
AcDbBlockReference
  2
A$C00294823
 10
13.06512182133982
 20
2.571591775077557
 30
0.0
 50
90.0
  0
INSERT
  5
633
330
17
100
AcDbEntity
  8
ADP2DETAIL
100
AcDbBlockReference
  2
A$C00294823
 10
9.782285620578019
 20
2.5738865913411
 30
0.0
 50
90.0
  0
ENDSEC
  0
SECTION
  2
OBJECTS
  0
DICTIONARY
  5
C
330
0
100
AcDbDictionary
281
     1
  3
ACAD_COLOR
350
1D0
  3
ACAD_GROUP
350
D
  3
ACAD_LAYOUT
350
D2
  3
ACAD_MATERIAL
350
1BB
  3
ACAD_MLINESTYLE
350
1A
  3
ACAD_PLOTSETTINGS
350
D3
  3
ACAD_PLOTSTYLENAME
350
D0
  3
ACAD_TABLESTYLE
350
1D1
  3
ACAD_VISUALSTYLE
350
1BF
  3
ACDBVARIABLEDICTIONARY
350
2C
  3
DWGPROPS
350
786
  0
DICTIONARY
  5
21C
330
8
100
AcDbDictionary
280
     1
281
     1
  0
DICTIONARY
  5
FF
330
17
100
AcDbDictionary
280
     1
281
     1
  3
ACAD_LAYOUTSELFREF
360
1B5
  0
DICTIONARY
  5
FD
330
14
100
AcDbDictionary
280
     1
281
     1
  3
ACAD_LAYOUTSELFREF
360
1B4
  0
DICTIONARY
  5
5D0
330
5C2
100
AcDbDictionary
280
     1
281
     1
  3
ACAD_SORTENTS
360
632
  0
DICTIONARY
  5
1D0
102
{ACAD_REACTORS
330
C
102
}
330
C
100
AcDbDictionary
281
     1
  0
DICTIONARY
  5
D
102
{ACAD_REACTORS
330
C
102
}
330
C
100
AcDbDictionary
281
     1
  0
DICTIONARY
  5
D2
102
{ACAD_REACTORS
330
C
102
}
330
C
100
AcDbDictionary
281
     1
  3
Layout1
350
D5
  3
Model
350
D4
  0
DICTIONARY
  5
1BB
102
{ACAD_REACTORS
330
C
102
}
330
C
100
AcDbDictionary
281
     1
  3
ByBlock
350
1BD
  3
ByLayer
350
1BC
  3
Global
350
1BE
  0
DICTIONARY
  5
1A
102
{ACAD_REACTORS
330
C
102
}
330
C
100
AcDbDictionary
281
     1
  3
STANDARD
350
1B
  0
DICTIONARY
  5
D3
102
{ACAD_REACTORS
330
C
102
}
330
C
100
AcDbDictionary
281
     1
  0
ACDBDICTIONARYWDFLT
  5
D0
102
{ACAD_REACTORS
330
C
102
}
330
C
100
AcDbDictionary
281
     1
  3
Normal
350
D1
100
AcDbDictionaryWithDefault
340
D1
  0
DICTIONARY
  5
1D1
102
{ACAD_REACTORS
330
C
102
}
330
C
100
AcDbDictionary
281
     1
  3
Standard
350
1D2
  0
DICTIONARY
  5
1BF
102
{ACAD_REACTORS
330
C
102
}
330
C
100
AcDbDictionary
281
     1
  3
2dWireframe
350
1C5
  3
3D Hidden
350
1C7
  3
3dWireframe
350
1C6
  3
Basic
350
1C4
  3
Brighten
350
1CB
  3
ColorChange
350
1CF
  3
Conceptual
350
1C8
  3
Dim
350
1CA
  3
Facepattern
350
1CE
  3
Flat
350
1C0
  3
FlatWithEdges
350
1C1
  3
Gouraud
350
1C2
  3
GouraudWithEdges
350
1C3
  3
Linepattern
350
1CD
  3
Realistic
350
1C9
  3
Thicken
350
1CC
  0
DICTIONARY
  5
2C
102
{ACAD_REACTORS
330
C
102
}
330
C
100
AcDbDictionary
281
     1
  3
CTABLESTYLE
350
1F2
  3
DIMADEC
350
2D
  3
DIMASSOC
350
105
  3
INDEXCTL
350
1F4
  3
SORTENTS
350
1F3
  0
XRECORD
  5
786
102
{ACAD_REACTORS
330
C
102
}
330
C
100
AcDbXrecord
280
     1
  1
DWGPROPS COOKIE
  2

  3

  4

  6

  7

  8
John
  9

300
=
301
=
302
=
303
=
304
=
305
=
306
=
307
=
308
=
309
=
 40
0.1444949305555556
 41
2450242.475062882
 42
2455237.731799155
  1

 90
        0
  0
XRECORD
  5
1B5
102
{ACAD_REACTORS
330
FF
102
}
330
FF
100
AcDbXrecord
280
     1
340
17
  0
XRECORD
  5
1B4
102
{ACAD_REACTORS
330
FD
102
}
330
FD
100
AcDbXrecord
280
     1
340
14
  0
SORTENTSTABLE
  5
632
102
{ACAD_REACTORS
330
5D0
102
}
330
5D0
100
AcDbSortentsTable
330
5C2
  0
LAYOUT
  5
D5
102
{ACAD_XDICTIONARY
360
789
102
}
102
{ACAD_REACTORS
330
D2
102
}
330
D2
100
AcDbPlotSettings
  1

  2
Fax
  4

  6

 40
0.0
 41
0.0
 42
0.0
 43
0.0
 44
0.0
 45
0.0
 46
0.0
 47
0.0
 48
0.0
 49
0.0
140
0.0
141
0.0
142
1.0
143
1.0
 70
   688
 72
     0
 73
     0
 74
     5
  7
Default R14 pen assignments.ctb
 75
    16
147
1.0
148
0.0
149
0.0
100
AcDbLayout
  1
Layout1
 70
     1
 71
     1
 10
0.0
 20
0.0
 11
12.0
 21
9.0
 12
0.0004882961511612
 22
1.000276130627782
 32
0.0
 14
1.000000000000000E+20
 24
1.000000000000000E+20
 34
1.000000000000000E+20
 15
-1.000000000000000E+20
 25
-1.000000000000000E+20
 35
-1.000000000000000E+20
146
0.0
 13
0.0
 23
0.0
 33
0.0
 16
1.0
 26
0.0
 36
0.0
 17
0.0
 27
1.0
 37
0.0
 76
     0
330
14
  0
LAYOUT
  5
D4
102
{ACAD_XDICTIONARY
360
787
102
}
102
{ACAD_REACTORS
330
D2
102
}
330
D2
100
AcDbPlotSettings
  1

  2
Fax
  4

  6

 40
0.0
 41
0.0
 42
0.0
 43
0.0
 44
0.0
 45
0.0
 46
0.0
 47
0.0
 48
0.0
 49
0.0
140
0.0
141
0.0
142
1.0
143
1.0
 70
  1712
 72
     0
 73
     0
 74
     0
  7
Default R14 pen assignments.ctb
 75
     0
147
1.0
148
0.0
149
0.0
100
AcDbLayout
  1
Model
 70
     1
 71
     0
 10
0.0
 20
0.0
 11
12.0
 21
9.0
 12
0.0
 22
0.0
 32
0.0
 14
0.0
 24
0.0
 34
0.0
 15
0.0
 25
0.0
 35
0.0
146
0.0
 13
0.0
 23
0.0
 33
0.0
 16
1.0
 26
0.0
 36
0.0
 17
0.0
 27
1.0
 37
0.0
 76
     0
330
17
331
190
  0
MATERIAL
  5
1BD
102
{ACAD_XDICTIONARY
360
78D
102
}
102
{ACAD_REACTORS
330
1BB
102
}
330
1BB
100
AcDbMaterial
  1
ByBlock
  0
MATERIAL
  5
1BC
102
{ACAD_XDICTIONARY
360
78B
102
}
102
{ACAD_REACTORS
330
1BB
102
}
330
1BB
100
AcDbMaterial
  1
ByLayer
  0
MATERIAL
  5
1BE
102
{ACAD_XDICTIONARY
360
78F
102
}
102
{ACAD_REACTORS
330
1BB
102
}
330
1BB
100
AcDbMaterial
  1
Global
  0
MLINESTYLE
  5
1B
102
{ACAD_REACTORS
330
1A
102
}
330
1A
100
AcDbMlineStyle
  2
STANDARD
 70
     0
  3

 62
   256
 51
90.0
 52
90.0
 71
     2
 49
0.5
 62
   256
  6
BYLAYER
 49
-0.5
 62
   256
  6
BYLAYER
  0
ACDBPLACEHOLDER
  5
D1
102
{ACAD_REACTORS
330
D0
102
}
330
D0
  0
TABLESTYLE
  5
1D2
102
{ACAD_XDICTIONARY
360
791
102
}
102
{ACAD_REACTORS
330
1D1
102
}
330
1D1
100
AcDbTableStyle
  3
Standard
 70
     0
 71
     0
 40
0.06
 41
0.06
280
     0
281
     0
  7
STANDARD
140
0.18
170
     2
 62
     0
 63
     7
283
     0
274
    -2
284
     1
 64
     0
275
    -2
285
     1
 65
     0
276
    -2
286
     1
 66
     0
277
    -2
287
     1
 67
     0
278
    -2
288
     1
 68
     0
279
    -2
289
     1
 69
     0
  7
STANDARD
140
0.25
170
     5
 62
     0
 63
     7
283
     0
274
    -2
284
     1
 64
     0
275
    -2
285
     1
 65
     0
276
    -2
286
     1
 66
     0
277
    -2
287
     1
 67
     0
278
    -2
288
     1
 68
     0
279
    -2
289
     1
 69
     0
  7
STANDARD
140
0.18
170
     5
 62
     0
 63
     7
283
     0
274
    -2
284
     1
 64
     0
275
    -2
285
     1
 65
     0
276
    -2
286
     1
 66
     0
277
    -2
287
     1
 67
     0
278
    -2
288
     1
 68
     0
279
    -2
289
     1
 69
     0
  0
VISUALSTYLE
  5
1C5
102
{ACAD_REACTORS
330
1BF
102
}
330
1BF
100
AcDbVisualStyle
  2
2dWireframe
 70
     4
 71
     0
 72
     2
 73
     0
 90
        0
 40
-0.6
 41
-30.0
 62
     5
 63
     7
 74
     1
 91
        4
 64
     7
 65
   257
 75
     1
175
     1
 42
1.0
 92
        0
 66
   257
 43
1.0
 76
     1
 77
     6
 78
     2
 67
     7
 79
     5
170
     0
171
     0
290
     0
174
     0
 93
        1
 44
0.0
173
     0
291
     0
 45
0.0
1001
ACAD
1000
AcDbSavedByObjectVersion
1070
     0
  0
VISUALSTYLE
  5
1C7
102
{ACAD_REACTORS
330
1BF
102
}
330
1BF
100
AcDbVisualStyle
  2
3D Hidden
 70
     6
 71
     1
 72
     2
 73
     2
 90
        0
 40
-0.6
 41
-30.0
 62
     5
 63
     7
 74
     2
 91
        2
 64
     7
 65
   257
 75
     2
175
     1
 42
40.0
 92
        0
 66
   257
 43
1.0
 76
     1
 77
     6
 78
     2
 67
     7
 79
     3
170
     0
171
     0
290
     0
174
     0
 93
        1
 44
0.0
173
     0
291
     0
 45
0.0
1001
ACAD
1000
AcDbSavedByObjectVersion
1070
     0
  0
VISUALSTYLE
  5
1C6
102
{ACAD_REACTORS
330
1BF
102
}
330
1BF
100
AcDbVisualStyle
  2
3dWireframe
 70
     5
 71
     0
 72
     2
 73
     0
 90
        0
 40
-0.6
 41
-30.0
 62
     5
 63
     7
 74
     1
 91
        4
 64
     7
 65
   257
 75
     1
175
     1
 42
1.0
 92
        0
 66
   257
 43
1.0
 76
     1
 77
     6
 78
     2
 67
     7
 79
     5
170
     0
171
     0
290
     0
174
     0
 93
        1
 44
0.0
173
     0
291
     0
 45
0.0
1001
ACAD
1000
AcDbSavedByObjectVersion
1070
     0
  0
VISUALSTYLE
  5
1C4
102
{ACAD_REACTORS
330
1BF
102
}
330
1BF
100
AcDbVisualStyle
  2
Basic
 70
     7
 71
     1
 72
     0
 73
     1
 90
        0
 40
-0.6
 41
-30.0
 62
     5
 63
     7
 74
     0
 91
        4
 64
     7
 65
   257
 75
     1
175
     1
 42
1.0
 92
        8
 66
     7
 43
1.0
 76
     1
 77
     6
 78
     2
 67
     7
 79
     5
170
     0
171
     0
290
     0
174
     0
 93
        1
 44
0.0
173
     0
291
     1
 45
0.0
1001
ACAD
1000
AcDbSavedByObjectVersion
1070
     0
  0
VISUALSTYLE
  5
1CB
102
{ACAD_REACTORS
330
1BF
102
}
330
1BF
100
AcDbVisualStyle
  2
Brighten
 70
    12
 71
     2
 72
     2
 73
     0
 90
        0
 40
-0.6
 41
-30.0
 62
     5
 63
     7
 74
     1
 91
        4
 64
     7
 65
   257
 75
     1
175
     1
 42
1.0
 92
        8
 66
     7
 43
1.0
 76
     1
 77
     6
 78
     2
 67
     7
 79
     5
170
     0
171
     0
290
     0
174
     0
 93
        1
 44
50.0
173
     0
291
     1
 45
0.0
1001
ACAD
1000
AcDbSavedByObjectVersion
1070
     0
  0
VISUALSTYLE
  5
1CF
102
{ACAD_REACTORS
330
1BF
102
}
330
1BF
100
AcDbVisualStyle
  2
ColorChange
 70
    16
 71
     2
 72
     2
 73
     3
 90
        0
 40
-0.6
 41
-30.0
 62
     5
 63
     8
 74
     1
 91
        4
 64
     7
 65
   257
 75
     1
175
     1
 42
1.0
 92
        8
 66
     8
 43
1.0
 76
     1
 77
     6
 78
     2
 67
     7
 79
     5
170
     0
171
     0
290
     0
174
     0
 93
        1
 44
0.0
173
     0
291
     1
 45
0.0
1001
ACAD
1000
AcDbSavedByObjectVersion
1070
     0
  0
VISUALSTYLE
  5
1C8
102
{ACAD_REACTORS
330
1BF
102
}
330
1BF
100
AcDbVisualStyle
  2
Conceptual
 70
     9
 71
     3
 72
     2
 73
     0
 90
        0
 40
-0.6
 41
-30.0
 62
     5
 63
     7
 74
     2
 91
        2
 64
     7
 65
   257
 75
     1
175
     1
 42
40.0
 92
        8
 66
     7
 43
1.0
 76
     1
 77
     6
 78
     2
 67
     7
 79
     3
170
     0
171
     0
290
     0
174
     0
 93
        1
 44
0.0
173
     0
291
     0
 45
0.0
1001
ACAD
1000
AcDbSavedByObjectVersion
1070
     0
  0
VISUALSTYLE
  5
1CA
102
{ACAD_REACTORS
330
1BF
102
}
330
1BF
100
AcDbVisualStyle
  2
Dim
 70
    11
 71
     2
 72
     2
 73
     0
 90
        0
 40
-0.6
 41
-30.0
 62
     5
 63
     7
 74
     1
 91
        4
 64
     7
 65
   257
 75
     1
175
     1
 42
1.0
 92
        8
 66
     7
 43
1.0
 76
     1
 77
     6
 78
     2
 67
     7
 79
     5
170
     0
171
     0
290
     0
174
     0
 93
        1
 44
-50.0
173
     0
291
     1
 45
0.0
1001
ACAD
1000
AcDbSavedByObjectVersion
1070
     0
  0
VISUALSTYLE
  5
1CE
102
{ACAD_REACTORS
330
1BF
102
}
330
1BF
100
AcDbVisualStyle
  2
Facepattern
 70
    15
 71
     2
 72
     2
 73
     0
 90
        0
 40
-0.6
 41
-30.0
 62
     5
 63
     7
 74
     1
 91
        4
 64
     7
 65
   257
 75
     1
175
     1
 42
1.0
 92
        8
 66
     7
 43
1.0
 76
     1
 77
     6
 78
     2
 67
     7
 79
     5
170
     0
171
     0
290
     0
174
     0
 93
        1
 44
0.0
173
     0
291
     1
 45
0.0
1001
ACAD
1000
AcDbSavedByObjectVersion
1070
     0
  0
VISUALSTYLE
  5
1C0
102
{ACAD_REACTORS
330
1BF
102
}
330
1BF
100
AcDbVisualStyle
  2
Flat
 70
     0
 71
     2
 72
     1
 73
     1
 90
        2
 40
-0.6
 41
30.0
 62
     5
 63
     7
 74
     0
 91
        4
 64
     7
 65
   257
 75
     1
175
     1
 42
1.0
 92
        8
 66
     7
 43
1.0
 76
     1
 77
     6
 78
     2
 67
     7
 79
     5
170
     0
171
     0
290
     0
174
     0
 93
       13
 44
0.0
173
     0
291
     1
 45
0.0
1001
ACAD
1000
AcDbSavedByObjectVersion
1070
     0
  0
VISUALSTYLE
  5
1C1
102
{ACAD_REACTORS
330
1BF
102
}
330
1BF
100
AcDbVisualStyle
  2
FlatWithEdges
 70
     1
 71
     2
 72
     1
 73
     1
 90
        2
 40
-0.6
 41
30.0
 62
     5
 63
     7
 74
     1
 91
        4
 64
     7
 65
   257
 75
     1
175
     1
 42
1.0
 92
        0
 66
   257
 43
1.0
 76
     1
 77
     6
 78
     2
 67
     7
 79
     5
170
     0
171
     0
290
     0
174
     0
 93
       13
 44
0.0
173
     0
291
     1
 45
0.0
1001
ACAD
1000
AcDbSavedByObjectVersion
1070
     0
  0
VISUALSTYLE
  5
1C2
102
{ACAD_REACTORS
330
1BF
102
}
330
1BF
100
AcDbVisualStyle
  2
Gouraud
 70
     2
 71
     2
 72
     2
 73
     1
 90
        2
 40
-0.6
 41
30.0
 62
     5
 63
     7
 74
     0
 91
        4
 64
     7
 65
   257
 75
     1
175
     1
 42
1.0
 92
        0
 66
     7
 43
1.0
 76
     1
 77
     6
 78
     2
 67
     7
 79
     5
170
     0
171
     0
290
     0
174
     0
 93
       13
 44
0.0
173
     0
291
     1
 45
0.0
1001
ACAD
1000
AcDbSavedByObjectVersion
1070
     0
  0
VISUALSTYLE
  5
1C3
102
{ACAD_REACTORS
330
1BF
102
}
330
1BF
100
AcDbVisualStyle
  2
GouraudWithEdges
 70
     3
 71
     2
 72
     2
 73
     1
 90
        2
 40
-0.6
 41
30.0
 62
     5
 63
     7
 74
     1
 91
        4
 64
     7
 65
   257
 75
     1
175
     1
 42
1.0
 92
        0
 66
   257
 43
1.0
 76
     1
 77
     6
 78
     2
 67
     7
 79
     5
170
     0
171
     0
290
     0
174
     0
 93
       13
 44
0.0
173
     0
291
     1
 45
0.0
1001
ACAD
1000
AcDbSavedByObjectVersion
1070
     0
  0
VISUALSTYLE
  5
1CD
102
{ACAD_REACTORS
330
1BF
102
}
330
1BF
100
AcDbVisualStyle
  2
Linepattern
 70
    14
 71
     2
 72
     2
 73
     0
 90
        0
 40
-0.6
 41
-30.0
 62
     5
 63
     7
 74
     1
 91
        4
 64
     7
 65
   257
 75
     7
175
     7
 42
1.0
 92
        8
 66
     7
 43
1.0
 76
     1
 77
     6
 78
     2
 67
     7
 79
     5
170
     0
171
     0
290
     0
174
     0
 93
        1
 44
0.0
173
     0
291
     1
 45
0.0
1001
ACAD
1000
AcDbSavedByObjectVersion
1070
     0
  0
VISUALSTYLE
  5
1C9
102
{ACAD_REACTORS
330
1BF
102
}
330
1BF
100
AcDbVisualStyle
  2
Realistic
 70
     8
 71
     2
 72
     2
 73
     0
 90
        0
 40
-0.6
 41
-30.0
 62
     5
 63
     7
 74
     1
 91
        0
 64
     7
 65
   257
 75
     1
175
     1
 42
1.0
 92
        8
 66
     8
 43
1.0
 76
     1
 77
     6
 78
     2
 67
     7
 79
     5
170
     0
171
     0
290
     0
174
     0
 93
       13
 44
0.0
173
     0
291
     0
 45
0.0
1001
ACAD
1000
AcDbSavedByObjectVersion
1070
     0
  0
VISUALSTYLE
  5
1CC
102
{ACAD_REACTORS
330
1BF
102
}
330
1BF
100
AcDbVisualStyle
  2
Thicken
 70
    13
 71
     2
 72
     2
 73
     0
 90
        0
 40
-0.6
 41
-30.0
 62
     5
 63
     7
 74
     1
 91
        4
 64
     7
 65
   257
 75
     1
175
     1
 42
1.0
 92
       12
 66
     7
 43
1.0
 76
     1
 77
     6
 78
     2
 67
     7
 79
     5
170
     0
171
     0
290
     0
174
     0
 93
        1
 44
0.0
173
     0
291
     1
 45
0.0
1001
ACAD
1000
AcDbSavedByObjectVersion
1070
     0
  0
DICTIONARYVAR
  5
1F2
102
{ACAD_REACTORS
330
2C
102
}
330
2C
100
DictionaryVariables
280
     0
  1
STANDARD
  0
DICTIONARYVAR
  5
2D
102
{ACAD_REACTORS
330
2C
102
}
330
2C
100
DictionaryVariables
280
     0
  1
0
  0
DICTIONARYVAR
  5
105
102
{ACAD_REACTORS
330
2C
102
}
330
2C
100
DictionaryVariables
280
     0
  1
1
  0
DICTIONARYVAR
  5
1F4
102
{ACAD_REACTORS
330
2C
102
}
330
2C
100
DictionaryVariables
280
     0
  1
0
  0
DICTIONARYVAR
  5
1F3
102
{ACAD_REACTORS
330
2C
102
}
330
2C
100
DictionaryVariables
280
     0
  1
127
  0
DICTIONARY
  5
789
330
D5
100
AcDbDictionary
280
     1
281
     1
  3
ACAD_XREC_ROUNDTRIP
360
78A
  0
DICTIONARY
  5
787
330
D4
100
AcDbDictionary
280
     1
281
     1
  3
ACAD_XREC_ROUNDTRIP
360
788
  0
DICTIONARY
  5
78D
330
1BD
100
AcDbDictionary
280
     1
281
     1
  3
ACAD_XREC_ROUNDTRIP
360
78E
  0
DICTIONARY
  5
78B
330
1BC
100
AcDbDictionary
280
     1
281
     1
  3
ACAD_XREC_ROUNDTRIP
360
78C
  0
DICTIONARY
  5
78F
330
1BE
100
AcDbDictionary
280
     1
281
     1
  3
ACAD_XREC_ROUNDTRIP
360
790
  0
DICTIONARY
  5
791
330
1D2
100
AcDbDictionary
280
     1
281
     1
  3
ACAD_XREC_ROUNDTRIP
360
792
  0
XRECORD
  5
78A
102
{ACAD_REACTORS
330
789
102
}
330
789
100
AcDbXrecord
280
     1
102
SHADEPLOT
 70
     0
102
SHADEPLOTRESLEVEL
 70
     2
102
SHADEPLOTCUSTOMDPI
 70
   300
  0
XRECORD
  5
788
102
{ACAD_REACTORS
330
787
102
}
330
787
100
AcDbXrecord
280
     1
102
SHADEPLOT
 70
     0
102
SHADEPLOTRESLEVEL
 70
     2
102
SHADEPLOTCUSTOMDPI
 70
   300
  0
XRECORD
  5
78E
102
{ACAD_REACTORS
330
78D
102
}
330
78D
100
AcDbXrecord
280
     1
102
MATERIAL
148
0.0
149
0.0
149
0.0
 93
        0
 94
       63
282
     0
 72
     1
 77
     1
171
     1
175
     1
179
     1
273
     0
  0
XRECORD
  5
78C
102
{ACAD_REACTORS
330
78B
102
}
330
78B
100
AcDbXrecord
280
     1
102
MATERIAL
148
0.0
149
0.0
149
0.0
 93
        0
 94
       63
282
     0
 72
     1
 77
     1
171
     1
175
     1
179
     1
273
     0
  0
XRECORD
  5
790
102
{ACAD_REACTORS
330
78F
102
}
330
78F
100
AcDbXrecord
280
     1
102
MATERIAL
148
0.0
149
0.0
149
0.0
 93
        0
 94
       63
282
     0
 72
     1
 77
     1
171
     1
175
     1
179
     1
273
     0
  0
XRECORD
  5
792
102
{ACAD_REACTORS
330
791
102
}
330
791
100
AcDbXrecord
280
     1
102
ACAD_ROUNDTRIP_PRE2007_TABLESTYLE
 90
      512
 91
        0
  1

 92
      512
 93
        0
  2

 94
      512
 95
        0
  3

  0
ENDSEC
  0
EOF
