  0
SECTION
  2
HEADER
  9
$ACADVER
  1
AC1014
  9
$ACADMAINTVER
 70
     9
  9
$DWGCODEPAGE
  3
ANSI_1252
  9
$INSBASE
 10
15.96757700240279
 20
9.322783821150887
 30
0.0
  9
$EXTMIN
 10
6.139152560104658
 20
7.987239120878817
 30
0.0
  9
$EXTMAX
 10
22.28640699393821
 20
15.33443301922173
 30
0.0
  9
$LIMMIN
 10
0.0
 20
0.0
  9
$LIMMAX
 10
36.0
 20
36.0
  9
$ORTHOMODE
 70
     1
  9
$REGENMODE
 70
     1
  9
$FILLMODE
 70
     1
  9
$QTEXTMODE
 70
     0
  9
$MIRRTEXT
 70
     1
  9
$DRAGMODE
 70
     0
  9
$LTSCALE
 40
1.0
  9
$OSMODE
 70
    37
  9
$ATTMODE
 70
     1
  9
$TEXTSIZE
 40
0.2
  9
$TRACEWID
 40
0.05
  9
$TEXTSTYLE
  7
STANDARD
  9
$CLAYER
  8
ADP1DETAIL
  9
$CELTYPE
  6
BYLAYER
  9
$CECOLOR
 62
   256
  9
$CELTSCALE
 40
1.0
  9
$DELOBJ
 70
     1
  9
$DISPSILH
 70
     0
  9
$DIMSCALE
 40
1.0
  9
$DIMASZ
 40
0.125
  9
$DIMEXO
 40
0.0625
  9
$DIMDLI
 40
0.38
  9
$DIMRND
 40
0.0
  9
$DIMDLE
 40
0.0
  9
$DIMEXE
 40
0.18
  9
$DIMTP
 40
0.0
  9
$DIMTM
 40
0.0
  9
$DIMTXT
 40
0.125
  9
$DIMCEN
 40
0.1875
  9
$DIMTSZ
 40
0.125
  9
$DIMTOL
 70
     0
  9
$DIMLIM
 70
     0
  9
$DIMTIH
 70
     0
  9
$DIMTOH
 70
     0
  9
$DIMSE1
 70
     0
  9
$DIMSE2
 70
     0
  9
$DIMTAD
 70
     0
  9
$DIMZIN
 70
     3
  9
$DIMBLK
  1

  9
$DIMASO
 70
     1
  9
$DIMSHO
 70
     1
  9
$DIMPOST
  1

  9
$DIMAPOST
  1

  9
$DIMALT
 70
     0
  9
$DIMALTD
 70
     1
  9
$DIMALTF
 40
25.4
  9
$DIMLFAC
 40
1.0
  9
$DIMTOFL
 70
     0
  9
$DIMTVP
 40
0.0
  9
$DIMTIX
 70
     0
  9
$DIMSOXD
 70
     0
  9
$DIMSAH
 70
     0
  9
$DIMBLK1
  1

  9
$DIMBLK2
  1

  9
$DIMSTYLE
  2
STANDARD
  9
$DIMCLRD
 70
     0
  9
$DIMCLRE
 70
     0
  9
$DIMCLRT
 70
     0
  9
$DIMTFAC
 40
1.0
  9
$DIMGAP
 40
0.125
  9
$DIMJUST
 70
     0
  9
$DIMSD1
 70
     0
  9
$DIMSD2
 70
     0
  9
$DIMTOLJ
 70
     1
  9
$DIMTZIN
 70
     3
  9
$DIMALTZ
 70
     3
  9
$DIMALTTZ
 70
     3
  9
$DIMFIT
 70
     5
  9
$DIMUPT
 70
     0
  9
$DIMUNIT
 70
     5
  9
$DIMDEC
 70
     4
  9
$DIMTDEC
 70
     4
  9
$DIMALTU
 70
     5
  9
$DIMALTTD
 70
     1
  9
$DIMTXSTY
  7
STANDARD
  9
$DIMAUNIT
 70
     0
  9
$LUNITS
 70
     5
  9
$LUPREC
 70
     4
  9
$SKETCHINC
 40
0.1
  9
$FILLETRAD
 40
0.0
  9
$AUNITS
 70
     0
  9
$AUPREC
 70
     0
  9
$MENU
  1
acad
  9
$ELEVATION
 40
0.0
  9
$PELEVATION
 40
0.0
  9
$THICKNESS
 40
0.0
  9
$LIMCHECK
 70
     0
  9
$BLIPMODE
 70
     0
  9
$CHAMFERA
 40
0.0
  9
$CHAMFERB
 40
0.0
  9
$CHAMFERC
 40
0.0
  9
$CHAMFERD
 40
0.0
  9
$SKPOLY
 70
     0
  9
$TDCREATE
 40
2450374.534009641
  9
$TDUPDATE
 40
2452297.064857129
  9
$TDINDWG
 40
0.0307464931
  9
$TDUSRTIMER
 40
0.0307464931
  9
$USRTIMER
 70
     1
  9
$ANGBASE
 50
0.0
  9
$ANGDIR
 70
     0
  9
$PDMODE
 70
     0
  9
$PDSIZE
 40
0.0
  9
$PLINEWID
 40
0.0
  9
$COORDS
 70
     2
  9
$SPLFRAME
 70
     0
  9
$SPLINETYPE
 70
     6
  9
$SPLINESEGS
 70
     8
  9
$ATTDIA
 70
     0
  9
$ATTREQ
 70
     1
  9
$HANDLING
 70
 22529
  9
$HANDSEED
  5
247
  9
$SURFTAB1
 70
     6
  9
$SURFTAB2
 70
     6
  9
$SURFTYPE
 70
     6
  9
$SURFU
 70
     6
  9
$SURFV
 70
     6
  9
$UCSNAME
  2

  9
$UCSORG
 10
0.0
 20
0.0
 30
0.0
  9
$UCSXDIR
 10
1.0
 20
0.0
 30
0.0
  9
$UCSYDIR
 10
0.0
 20
1.0
 30
0.0
  9
$PUCSNAME
  2

  9
$PUCSORG
 10
0.0
 20
0.0
 30
0.0
  9
$PUCSXDIR
 10
1.0
 20
0.0
 30
0.0
  9
$PUCSYDIR
 10
0.0
 20
1.0
 30
0.0
  9
$USERI1
 70
     0
  9
$USERI2
 70
     0
  9
$USERI3
 70
     0
  9
$USERI4
 70
     0
  9
$USERI5
 70
     0
  9
$USERR1
 40
0.0
  9
$USERR2
 40
0.0
  9
$USERR3
 40
0.0
  9
$USERR4
 40
0.0
  9
$USERR5
 40
0.0
  9
$WORLDVIEW
 70
     1
  9
$SHADEDGE
 70
     3
  9
$SHADEDIF
 70
    70
  9
$TILEMODE
 70
     1
  9
$MAXACTVP
 70
    15
  9
$PINSBASE
 10
0.0
 20
0.0
 30
0.0
  9
$PLIMCHECK
 70
     0
  9
$PEXTMIN
 10
1.000000000000000E+20
 20
1.000000000000000E+20
 30
1.000000000000000E+20
  9
$PEXTMAX
 10
-1.000000000000000E+20
 20
-1.000000000000000E+20
 30
-1.000000000000000E+20
  9
$PLIMMIN
 10
0.0
 20
0.0
  9
$PLIMMAX
 10
12.0
 20
9.0
  9
$UNITMODE
 70
     0
  9
$VISRETAIN
 70
     0
  9
$PLINEGEN
 70
     0
  9
$PSLTSCALE
 70
     1
  9
$TREEDEPTH
 70
  3020
  9
$PICKSTYLE
 70
     1
  9
$CMLSTYLE
  2
STANDARD
  9
$CMLJUST
 70
     0
  9
$CMLSCALE
 40
1.0
  9
$PROXYGRAPHICS
 70
     1
  9
$MEASUREMENT
 70
     0
  0
ENDSEC
  0
SECTION
  2
CLASSES
  0
CLASS
  1
ACDBDICTIONARYWDFLT
  2
AcDbDictionaryWithDefault
  3
AutoCAD 2000
 90
        0
280
     0
281
     0
  0
CLASS
  1
ACDBPLACEHOLDER
  2
AcDbPlaceHolder
  3
AutoCAD 2000
 90
        0
280
     0
281
     0
  0
CLASS
  1
LAYOUT
  2
AcDbLayout
  3
AutoCAD 2000
 90
        0
280
     0
281
     0
  0
CLASS
  1
DICTIONARYVAR
  2
AcDbDictionaryVar
  3
AutoCAD 2000
 90
        0
280
     0
281
     0
  0
CLASS
  1
LONG_TRANSACTION
  2
AcDbLongTransaction
  3
AutoCAD 2000
 90
        0
280
     0
281
     0
  0
CLASS
  1
LWPOLYLINE
  2
AcDbPolyline
  3
AutoCAD 2000
 90
        0
280
     0
281
     1
  0
CLASS
  1
HATCH
  2
AcDbHatch
  3
AutoCAD 2000
 90
        0
280
     0
281
     1
  0
CLASS
  1
XRECORD
  2
AcDbXrecord
  3
AutoCAD 2000
 90
        0
280
     0
281
     0
  0
CLASS
  1
LONG_TRANSACTION
  2
AcDbLongTransaction
  3
AutoCAD 2000
 90
        0
280
     0
281
     0
  0
CLASS
  1
LWPOLYLINE
  2
AcDbPolyline
  3
AutoCAD 2000
 90
        0
280
     0
281
     1
  0
CLASS
  1
HATCH
  2
AcDbHatch
  3
AutoCAD 2000
 90
        0
280
     0
281
     1
  0
CLASS
  1
XRECORD
  2
AcDbXrecord
  3
AutoCAD 2000
 90
        0
280
     0
281
     0
  0
CLASS
  1
LONG_TRANSACTION
  2
AcDbLongTransaction
  3
AutoCAD 2000
 90
        0
280
     0
281
     0
  0
CLASS
  1
LWPOLYLINE
  2
AcDbPolyline
  3
AutoCAD 2000
 90
        0
280
     0
281
     1
  0
CLASS
  1
HATCH
  2
AcDbHatch
  3
AutoCAD 2000
 90
        0
280
     0
281
     1
  0
CLASS
  1
XRECORD
  2
AcDbXrecord
  3
AutoCAD 2000
 90
        0
280
     0
281
     0
  0
CLASS
  1
LONG_TRANSACTION
  2
AcDbLongTransaction
  3
AutoCAD 2000
 90
        0
280
     0
281
     0
  0
CLASS
  1
LWPOLYLINE
  2
AcDbPolyline
  3
AutoCAD 2000
 90
        0
280
     0
281
     1
  0
CLASS
  1
HATCH
  2
AcDbHatch
  3
AutoCAD 2000
 90
        0
280
     0
281
     1
  0
CLASS
  1
XRECORD
  2
AcDbXrecord
  3
AutoCAD 2000
 90
        0
280
     0
281
     0
  0
CLASS
  1
LONG_TRANSACTION
  2
AcDbLongTransaction
  3
AutoCAD 2000
 90
        0
280
     0
281
     0
  0
CLASS
  1
LWPOLYLINE
  2
AcDbPolyline
  3
AutoCAD 2000
 90
        0
280
     0
281
     1
  0
CLASS
  1
HATCH
  2
AcDbHatch
  3
AutoCAD 2000
 90
        0
280
     0
281
     1
  0
CLASS
  1
XRECORD
  2
AcDbXrecord
  3
AutoCAD 2000
 90
        0
280
     0
281
     0
  0
CLASS
  1
LONG_TRANSACTION
  2
AcDbLongTransaction
  3
AutoCAD 2000
 90
        0
280
     0
281
     0
  0
CLASS
  1
LWPOLYLINE
  2
AcDbPolyline
  3
AutoCAD 2000
 90
        0
280
     0
281
     1
  0
CLASS
  1
HATCH
  2
AcDbHatch
  3
AutoCAD 2000
 90
        0
280
     0
281
     1
  0
CLASS
  1
XRECORD
  2
AcDbXrecord
  3
AutoCAD 2000
 90
        0
280
     0
281
     0
  0
ENDSEC
  0
SECTION
  2
TABLES
  0
TABLE
  2
VPORT
  5
8
330
0
100
AcDbSymbolTable
 70
     2
  0
VPORT
  5
223
330
8
100
AcDbSymbolTableRecord
100
AcDbViewportTableRecord
  2
*ACTIVE
 70
     0
 10
0.0
 20
0.0
 11
1.0
 21
1.0
 12
14.21246345831601
 22
11.66088874831433
 13
0.0
 23
0.0
 14
0.5740882589684922
 24
0.5740882589684922
 15
0.5
 25
0.5
 16
0.0
 26
0.0
 36
1.0
 17
0.0
 27
0.0
 37
0.0
 40
10.33251276554446
 41
1.570528967254408
 42
50.0
 43
0.0
 44
0.0
 50
0.0
 51
0.0
 71
     0
 72
   100
 73
     1
 74
     0
 75
     0
 76
     0
 77
     0
 78
     0
  0
ENDTAB
  0
TABLE
  2
LTYPE
  5
5
330
0
100
AcDbSymbolTable
 70
     2
  0
LTYPE
  5
13
330
5
100
AcDbSymbolTableRecord
100
AcDbLinetypeTableRecord
  2
BYBLOCK
 70
     0
  3

 72
    65
 73
     0
 40
0.0
  0
LTYPE
  5
14
330
5
100
AcDbSymbolTableRecord
100
AcDbLinetypeTableRecord
  2
BYLAYER
 70
     0
  3

 72
    65
 73
     0
 40
0.0
  0
LTYPE
  5
15
330
5
100
AcDbSymbolTableRecord
100
AcDbLinetypeTableRecord
  2
CONTINUOUS
 70
     0
  3
Solid line
 72
    65
 73
     0
 40
0.0
  0
LTYPE
  5
25
330
5
100
AcDbSymbolTableRecord
100
AcDbLinetypeTableRecord
  2
HIDDEN2
 70
     0
  3
_ _ _ _ _ _ _ _ _ _ _ _ _ _ _ _ _ _ _ _ _ _ _ _
 72
    65
 73
     2
 40
0.1875
 49
0.125
 74
     0
 49
-0.0625
 74
     0
  0
ENDTAB
  0
TABLE
  2
LAYER
  5
2
330
0
100
AcDbSymbolTable
 70
     5
  0
LAYER
  5
10
330
2
100
AcDbSymbolTableRecord
100
AcDbLayerTableRecord
  2
0
 70
     0
 62
     7
  6
CONTINUOUS
  0
LAYER
  5
27
330
2
100
AcDbSymbolTableRecord
100
AcDbLayerTableRecord
  2
ADP2DETAIL
 70
     0
 62
     5
  6
CONTINUOUS
  0
LAYER
  5
28
330
2
100
AcDbSymbolTableRecord
100
AcDbLayerTableRecord
  2
ADPDIM
 70
     0
 62
     3
  6
CONTINUOUS
  0
LAYER
  5
29
330
2
100
AcDbSymbolTableRecord
100
AcDbLayerTableRecord
  2
ADP1DETAIL
 70
     0
 62
     7
  6
CONTINUOUS
  0
LAYER
  5
2A
330
2
100
AcDbSymbolTableRecord
100
AcDbLayerTableRecord
  2
DEFPOINTS
 70
     0
 62
     7
  6
CONTINUOUS
  0
ENDTAB
  0
TABLE
  2
STYLE
  5
3
330
0
100
AcDbSymbolTable
 70
     2
  0
STYLE
  5
11
330
3
100
AcDbSymbolTableRecord
100
AcDbTextStyleTableRecord
  2
STANDARD
 70
     0
 40
0.0
 41
1.0
 50
0.0
 71
     0
 42
0.2
  3
txt
  4

  0
STYLE
  5
81
330
3
100
AcDbSymbolTableRecord
100
AcDbTextStyleTableRecord
  2
ARIAL_WIDE
 70
     0
 40
0.0
 41
1.25
 50
0.0
 71
     0
 42
0.2
  3
ARIAL.TTF
  4

1001
ACAD
1000
Arial
1071
       34
  0
ENDTAB
  0
TABLE
  2
VIEW
  5
6
330
0
100
AcDbSymbolTable
 70
     0
  0
ENDTAB
  0
TABLE
  2
UCS
  5
7
330
0
100
AcDbSymbolTable
 70
     0
  0
ENDTAB
  0
TABLE
  2
APPID
  5
9
330
0
100
AcDbSymbolTable
 70
     1
  0
APPID
  5
12
330
9
100
AcDbSymbolTableRecord
100
AcDbRegAppTableRecord
  2
ACAD
 70
     0
  0
ENDTAB
  0
TABLE
  2
DIMSTYLE
  5
A
330
0
100
AcDbSymbolTable
 70
     1
  0
DIMSTYLE
105
7F
330
A
100
AcDbSymbolTableRecord
100
AcDbDimStyleTableRecord
  2
STANDARD
 70
     0
  3

  4

  5

  6

  7

 40
1.0
 41
0.18
 42
0.0625
 43
0.38
 44
0.18
 45
0.0
 46
0.0
 47
0.0
 48
0.0
140
0.18
141
0.09
142
0.0
143
25.4
144
1.0
145
0.0
146
1.0
147
0.09
 71
     0
 72
     0
 73
     1
 74
     1
 75
     0
 76
     0
 77
     0
 78
     0
170
     0
171
     2
172
     0
173
     0
174
     0
175
     0
176
     0
177
     0
178
     0
270
     2
271
     4
272
     4
273
     2
274
     2
340
11
275
     0
280
     0
281
     0
282
     0
283
     1
284
     0
285
     0
286
     0
287
     3
288
     0
  0
ENDTAB
  0
TABLE
  2
BLOCK_RECORD
  5
1
330
0
100
AcDbSymbolTable
 70
     3
  0
BLOCK_RECORD
  5
1E
102
{ACAD_XDICTIONARY
360
CA
102
}
330
1
100
AcDbSymbolTableRecord
100
AcDbBlockTableRecord
  2
*MODEL_SPACE
  0
BLOCK_RECORD
  5
1A
102
{ACAD_XDICTIONARY
360
CC
102
}
330
1
100
AcDbSymbolTableRecord
100
AcDbBlockTableRecord
  2
*PAPER_SPACE
  0
BLOCK_RECORD
  5
22
330
1
100
AcDbSymbolTableRecord
100
AcDbBlockTableRecord
  2
*D0
  0
BLOCK_RECORD
  5
23
330
1
100
AcDbSymbolTableRecord
100
AcDbBlockTableRecord
  2
*D1
  0
BLOCK_RECORD
  5
24
330
1
100
AcDbSymbolTableRecord
100
AcDbBlockTableRecord
  2
*D2
  0
ENDTAB
  0
ENDSEC
  0
SECTION
  2
BLOCKS
  0
BLOCK
  5
2D
330
1E
100
AcDbEntity
  8
0
100
AcDbBlockBegin
  2
*MODEL_SPACE
 70
     0
 10
0.0
 20
0.0
 30
0.0
  3
*MODEL_SPACE
  1

  0
ENDBLK
  5
2E
330
1E
100
AcDbEntity
  8
0
100
AcDbBlockEnd
  0
BLOCK
  5
2B
330
1A
100
AcDbEntity
 67
     1
  8
0
100
AcDbBlockBegin
  2
*PAPER_SPACE
 70
     0
 10
0.0
 20
0.0
 30
0.0
  3
*PAPER_SPACE
  1

  0
ENDBLK
  5
2C
330
1A
100
AcDbEntity
 67
     1
  8
0
100
AcDbBlockEnd
  0
BLOCK
  5
2F
330
22
100
AcDbEntity
  8
0
100
AcDbBlockBegin
  2
*D0
 70
     1
 10
0.0
 20
0.0
 30
0.0
  3
*D0
  1

  0
LINE
  5
30
330
22
100
AcDbEntity
  8
0
  6
BYBLOCK
 62
     0
100
AcDbLine
 10
12.45798255164008
 20
9.260283821150887
 30
0.0
 11
12.45798255164008
 21
8.887807614113475
 31
0.0
  0
LINE
  5
31
330
22
100
AcDbEntity
  8
0
  6
BYBLOCK
 62
     0
100
AcDbLine
 10
15.96757700240279
 20
9.260283821150887
 30
0.0
 11
15.96757700240279
 21
8.887807614113475
 31
0.0
  0
LINE
  5
32
330
22
100
AcDbEntity
  8
0
  6
BYBLOCK
 62
     0
100
AcDbLine
 10
12.45798255164008
 20
9.067807614113474
 30
0.0
 11
13.8169464436881
 21
9.067807614113474
 31
0.0
  0
LINE
  5
33
330
22
100
AcDbEntity
  8
0
  6
BYBLOCK
 62
     0
100
AcDbLine
 10
15.96757700240279
 20
9.067807614113474
 30
0.0
 11
14.60861311035477
 21
9.067807614113474
 31
0.0
  0
LINE
  5
34
330
22
100
AcDbEntity
  8
0
  6
BYBLOCK
 62
     0
100
AcDbLine
 10
12.33298255164008
 20
8.942807614113474
 30
0.0
 11
12.58298255164008
 21
9.192807614113474
 31
0.0
  0
LINE
  5
35
330
22
100
AcDbEntity
  8
0
  6
BYBLOCK
 62
     0
100
AcDbLine
 10
15.84257700240279
 20
8.942807614113474
 30
0.0
 11
16.09257700240279
 21
9.192807614113474
 31
0.0
  0
TEXT
  5
36
330
22
100
AcDbEntity
  8
0
  6
BYBLOCK
 62
     0
100
AcDbText
 10
13.9419464436881
 20
9.005307614113474
 30
0.0
 40
0.125
  1
3 1/2
 72
     1
 11
14.21277977702144
 21
9.067807614113474
 31
0.0
100
AcDbText
 73
     2
  0
POINT
  5
38
330
22
100
AcDbEntity
  8
DEFPOINTS
  6
BYBLOCK
 62
     0
100
AcDbPoint
 10
12.45798255164008
 20
9.322783821150887
 30
0.0
  0
POINT
  5
39
330
22
100
AcDbEntity
  8
DEFPOINTS
  6
BYBLOCK
 62
     0
100
AcDbPoint
 10
15.96757700240279
 20
9.322783821150887
 30
0.0
  0
POINT
  5
3A
330
22
100
AcDbEntity
  8
DEFPOINTS
  6
BYBLOCK
 62
     0
100
AcDbPoint
 10
15.96757700240279
 20
9.067807614113474
 30
0.0
  0
ENDBLK
  5
3B
330
22
100
AcDbEntity
  8
0
100
AcDbBlockEnd
  0
BLOCK
  5
3C
330
23
100
AcDbEntity
  8
0
100
AcDbBlockBegin
  2
*D1
 70
     1
 10
0.0
 20
0.0
 30
0.0
  3
*D1
  1

  0
LINE
  5
3D
330
23
100
AcDbEntity
  8
0
  6
BYBLOCK
 62
     0
100
AcDbLine
 10
13.44111673888923
 20
11.11125733015992
 30
0.0
 11
13.44111673888923
 21
11.53427708531419
 31
0.0
  0
LINE
  5
3E
330
23
100
AcDbEntity
  8
0
  6
BYBLOCK
 62
     0
100
AcDbLine
 10
14.98778680898782
 20
11.11125733015992
 30
0.0
 11
14.98778680898782
 21
11.53427708531419
 31
0.0
  0
LINE
  5
3F
330
23
100
AcDbEntity
  8
0
  6
BYBLOCK
 62
     0
100
AcDbLine
 10
13.44111673888923
 20
11.35427708531419
 30
0.0
 11
13.83945177393853
 21
11.35427708531419
 31
0.0
  0
LINE
  5
40
330
23
100
AcDbEntity
  8
0
  6
BYBLOCK
 62
     0
100
AcDbLine
 10
14.98778680898782
 20
11.35427708531419
 30
0.0
 11
14.58945177393853
 21
11.35427708531419
 31
0.0
  0
LINE
  5
41
330
23
100
AcDbEntity
  8
0
  6
BYBLOCK
 62
     0
100
AcDbLine
 10
13.31611673888923
 20
11.22927708531419
 30
0.0
 11
13.56611673888923
 21
11.47927708531419
 31
0.0
  0
LINE
  5
42
330
23
100
AcDbEntity
  8
0
  6
BYBLOCK
 62
     0
100
AcDbLine
 10
14.86278680898782
 20
11.22927708531419
 30
0.0
 11
15.11278680898782
 21
11.47927708531419
 31
0.0
  0
TEXT
  5
43
330
23
100
AcDbEntity
  8
0
  6
BYBLOCK
 62
     0
100
AcDbText
 10
13.96445177393853
 20
11.29177708531419
 30
0.0
 40
0.125
  1
1 1/2
 72
     1
 11
14.21445177393852
 21
11.35427708531419
 31
0.0
100
AcDbText
 73
     2
  0
POINT
  5
44
330
23
100
AcDbEntity
  8
DEFPOINTS
  6
BYBLOCK
 62
     0
100
AcDbPoint
 10
13.44111673888923
 20
11.04875733015992
 30
0.0
  0
POINT
  5
45
330
23
100
AcDbEntity
  8
DEFPOINTS
  6
BYBLOCK
 62
     0
100
AcDbPoint
 10
14.98778680898782
 20
11.04875733015992
 30
0.0
  0
POINT
  5
46
330
23
100
AcDbEntity
  8
DEFPOINTS
  6
BYBLOCK
 62
     0
100
AcDbPoint
 10
14.98778680898782
 20
11.35427708531419
 30
0.0
  0
ENDBLK
  5
47
330
23
100
AcDbEntity
  8
0
100
AcDbBlockEnd
  0
BLOCK
  5
48
330
24
100
AcDbEntity
  8
0
100
AcDbBlockBegin
  2
*D2
 70
     1
 10
0.0
 20
0.0
 30
0.0
  3
*D2
  1

  0
LINE
  5
49
330
24
100
AcDbEntity
  8
0
  6
BYBLOCK
 62
     0
100
AcDbLine
 10
16.03007700240279
 20
9.322783821150887
 30
0.0
 11
16.44843816389722
 21
9.322783821150887
 31
0.0
  0
LINE
  5
4A
330
24
100
AcDbEntity
  8
0
  6
BYBLOCK
 62
     0
100
AcDbLine
 10
15.09710272266635
 20
11.05544531782828
 30
0.0
 11
16.44843816389722
 21
11.05544531782828
 31
0.0
  0
LINE
  5
4B
330
24
100
AcDbEntity
  8
0
  6
BYBLOCK
 62
     0
100
AcDbLine
 10
16.26843816389722
 20
9.322783821150887
 30
0.0
 11
16.26843816389722
 21
9.793281236156252
 31
0.0
  0
LINE
  5
4C
330
24
100
AcDbEntity
  8
0
  6
BYBLOCK
 62
     0
100
AcDbLine
 10
16.26843816389722
 20
11.05544531782828
 30
0.0
 11
16.26843816389722
 21
10.58494790282292
 31
0.0
  0
LINE
  5
4D
330
24
100
AcDbEntity
  8
0
  6
BYBLOCK
 62
     0
100
AcDbLine
 10
16.39343816389722
 20
9.197783821150887
 30
0.0
 11
16.14343816389722
 21
9.447783821150887
 31
0.0
  0
LINE
  5
4E
330
24
100
AcDbEntity
  8
0
  6
BYBLOCK
 62
     0
100
AcDbLine
 10
16.39343816389722
 20
10.93044531782828
 30
0.0
 11
16.14343816389722
 21
11.18044531782828
 31
0.0
  0
TEXT
  5
4F
330
24
100
AcDbEntity
  8
0
  6
BYBLOCK
 62
     0
100
AcDbText
 10
16.33093816389722
 20
9.918281236156252
 30
0.0
 40
0.125
  1
1 3/4
 50
90.0
 72
     1
 11
16.26843816389722
 21
10.18911456948958
 31
0.0
100
AcDbText
 73
     2
  0
POINT
  5
50
330
24
100
AcDbEntity
  8
DEFPOINTS
  6
BYBLOCK
 62
     0
100
AcDbPoint
 10
15.96757700240279
 20
9.322783821150887
 30
0.0
  0
POINT
  5
51
330
24
100
AcDbEntity
  8
DEFPOINTS
  6
BYBLOCK
 62
     0
100
AcDbPoint
 10
15.03460272266635
 20
11.05544531782828
 30
0.0
  0
POINT
  5
52
330
24
100
AcDbEntity
  8
DEFPOINTS
  6
BYBLOCK
 62
     0
100
AcDbPoint
 10
16.26843816389722
 20
11.05544531782828
 30
0.0
  0
ENDBLK
  5
53
330
24
100
AcDbEntity
  8
0
100
AcDbBlockEnd
  0
ENDSEC
  0
SECTION
  2
ENTITIES
  0
DIMENSION
  5
54
330
1E
100
AcDbEntity
  8
ADPDIM
100
AcDbDimension
  2
*D0
 10
15.96757700240279
 20
9.067807614113474
 30
0.0
 11
14.21277977702144
 21
9.067807614113474
 31
0.0
100
AcDbAlignedDimension
 13
12.45798255164008
 23
9.322783821150887
 33
0.0
 14
15.96757700240279
 24
9.322783821150887
 34
0.0
100
AcDbRotatedDimension
  0
LINE
  5
55
330
1E
100
AcDbEntity
  8
ADP1DETAIL
100
AcDbLine
 10
15.96164934577041
 20
15.33443301922173
 30
0.0
 11
15.96164934577041
 21
11.83443301922173
 31
0.0
  0
LINE
  5
56
330
1E
100
AcDbEntity
  8
ADP1DETAIL
100
AcDbLine
 10
12.46164934577041
 20
11.83443301922173
 30
0.0
 11
12.46164934577041
 21
15.33443301922173
 31
0.0
  0
LINE
  5
57
330
1E
100
AcDbEntity
  8
ADP1DETAIL
100
AcDbLine
 10
15.90557700240279
 20
9.573583358714445
 30
0.0
 11
12.51998255164008
 21
9.573583358714445
 31
0.0
  0
LINE
  5
58
330
1E
100
AcDbEntity
  8
ADP1DETAIL
100
AcDbLine
 10
12.45798255164008
 20
9.322783821150887
 30
0.0
 11
15.96757700240279
 21
9.322783821150887
 31
0.0
  0
LINE
  5
59
330
1E
100
AcDbEntity
  8
ADP1DETAIL
100
AcDbLine
 10
15.20849040204375
 20
9.67724716757405
 30
0.0
 11
15.16836247603358
 21
10.88824562611924
 31
0.0
  0
LINE
  5
5A
330
1E
100
AcDbEntity
  8
ADP1DETAIL
100
AcDbLine
 10
15.96164934577041
 20
11.83443301922173
 30
0.0
 11
12.46164934577041
 21
11.83443301922173
 31
0.0
  0
DIMENSION
  5
5B
330
1E
100
AcDbEntity
  8
ADPDIM
100
AcDbDimension
  2
*D2
 10
16.26843816389722
 20
11.05544531782828
 30
0.0
 11
16.26843816389722
 21
10.18911456948958
 31
0.0
100
AcDbAlignedDimension
 13
15.96757700240279
 23
9.322783821150887
 33
0.0
 14
15.03460272266635
 24
11.05544531782828
 34
0.0
 50
90.0
100
AcDbRotatedDimension
  0
LINE
  5
5C
330
1E
100
AcDbEntity
  8
ADP2DETAIL
  6
HIDDEN2
100
AcDbLine
 10
13.44111673888923
 20
11.04875733015992
 30
0.0
 11
13.44111673888923
 21
9.322783821150887
 31
0.0
  0
LINE
  5
5D
330
1E
100
AcDbEntity
  8
ADP2DETAIL
  6
HIDDEN2
100
AcDbLine
 10
14.98778680898782
 20
11.04875733015992
 30
0.0
 11
14.98778680898782
 21
9.322783821150887
 31
0.0
  0
ARC
  5
5E
330
1E
100
AcDbEntity
  8
ADP1DETAIL
100
AcDbCircle
 10
13.05211908701914
 20
9.73964204945255
 30
0.0
 40
0.1763565854215041
100
AcDbArc
 50
285.2174510637984
 51
339.2801100397975
  0
ARC
  5
5F
330
1E
100
AcDbEntity
  8
ADP1DETAIL
100
AcDbCircle
 10
12.51998255164008
 20
9.511583358714446
 30
0.0
 40
0.062
100
AcDbArc
 50
90.0
 51
180.0
  0
LINE
  5
60
330
1E
100
AcDbEntity
  8
ADP1DETAIL
100
AcDbLine
 10
12.45798255164008
 20
9.511583358714446
 30
0.0
 11
12.45798255164008
 21
9.322783821150887
 31
0.0
  0
LINE
  5
61
330
1E
100
AcDbEntity
  8
ADP1DETAIL
100
AcDbLine
 10
13.96277977702144
 20
11.05544531782828
 30
0.0
 11
13.39095683137652
 21
11.05544531782828
 31
0.0
  0
LINE
  5
62
330
1E
100
AcDbEntity
  8
ADP1DETAIL
100
AcDbLine
 10
15.16836247603358
 20
10.88824562611924
 30
0.0
 11
13.26054107184347
 21
10.88824562611924
 31
0.0
  0
DIMENSION
  5
63
330
1E
100
AcDbEntity
  8
ADPDIM
100
AcDbDimension
  2
*D1
 10
14.98778680898782
 20
11.35427708531419
 30
0.0
 11
14.21445177393852
 21
11.35427708531419
 31
0.0
  1
1 1/2
100
AcDbAlignedDimension
 13
13.44111673888923
 23
11.04875733015992
 33
0.0
 14
14.98778680898782
 24
11.04875733015992
 34
0.0
100
AcDbRotatedDimension
  0
ARC
  5
64
330
1E
100
AcDbEntity
  8
ADP1DETAIL
100
AcDbCircle
 10
13.1667321739703
 20
11.08268723578887
 30
0.0
 40
0.2258734581200502
100
AcDbArc
 50
297.8633497787834
 51
353.0728650058975
  0
LINE
  5
65
330
1E
100
AcDbEntity
  8
ADP1DETAIL
100
AcDbLine
 10
13.26054107184347
 20
10.88824562611924
 30
0.0
 11
13.21706915199912
 21
9.67724716757405
 31
0.0
  0
ARC
  5
66
330
1E
100
AcDbEntity
  8
ADP1DETAIL
100
AcDbCircle
 10
15.26154229711174
 20
11.08710947278158
 30
0.0
 40
0.2258734581200502
100
AcDbArc
 50
186.9271349941024
 51
242.1366502212165
  0
LINE
  5
67
330
1E
100
AcDbEntity
  8
ADP1DETAIL
100
AcDbLine
 10
15.03460272266635
 20
11.05544531782828
 30
0.0
 11
13.96277977702144
 21
11.05544531782828
 31
0.0
  0
ARC
  5
68
330
1E
100
AcDbEntity
  8
ADP1DETAIL
100
AcDbCircle
 10
15.90557700240279
 20
9.511583358714446
 30
0.0
 40
0.062
100
AcDbArc
 50
0.0
 51
90.0
  0
ARC
  5
69
330
1E
100
AcDbEntity
  8
ADP1DETAIL
100
AcDbCircle
 10
15.37486330558025
 20
9.744926583010254
 30
0.0
 40
0.1763565854215041
100
AcDbArc
 50
200.7198899602025
 51
254.7825489362015
  0
LINE
  5
6A
330
1E
100
AcDbEntity
  8
ADP1DETAIL
100
AcDbLine
 10
15.96757700240279
 20
9.322783821150887
 30
0.0
 11
15.96757700240279
 21
9.511583358714446
 31
0.0
  0
LINE
  5
6B
330
1E
100
AcDbEntity
  8
ADP1DETAIL
100
AcDbLine
 10
15.96757700240279
 20
9.322783821150887
 30
0.0
 11
15.96757700240279
 21
9.322783821150887
 31
0.0
  0
LINE
  5
6C
330
1E
100
AcDbEntity
  8
ADP1DETAIL
100
AcDbLine
 10
15.96757700240279
 20
9.322783821150887
 30
0.0
 11
15.96757700240279
 21
9.322783821150887
 31
0.0
  0
LINE
  5
6D
330
1E
100
AcDbEntity
  8
ADP1DETAIL
100
AcDbLine
 10
15.96757700240279
 20
9.510047475865011
 30
0.0
 11
15.96757700240279
 21
9.322783821150887
 31
0.0
  0
LINE
  5
6E
330
1E
100
AcDbEntity
  8
ADP1DETAIL
100
AcDbLine
 10
15.36396265148983
 20
12.45943301922173
 30
0.0
 11
13.08664934577041
 21
12.45943301922173
 31
0.0
  0
LINE
  5
6F
330
1E
100
AcDbEntity
  8
ADP1DETAIL
100
AcDbLine
 10
13.08664934577041
 20
14.73674632494116
 30
0.0
 11
15.36396265148983
 21
14.73674632494116
 31
0.0
  0
LINE
  5
70
330
1E
100
AcDbEntity
  8
ADP1DETAIL
100
AcDbLine
 10
12.46164934577041
 20
15.33443301922173
 30
0.0
 11
15.96164934577041
 21
15.33443301922173
 31
0.0
  0
LINE
  5
71
330
1E
100
AcDbEntity
  8
ADP1DETAIL
100
AcDbLine
 10
14.96164934577041
 20
12.83443301922173
 30
0.0
 11
13.46164934577041
 21
12.83443301922173
 31
0.0
  0
LINE
  5
72
330
1E
100
AcDbEntity
  8
ADP1DETAIL
100
AcDbLine
 10
15.02414934577041
 20
12.77193301922173
 30
0.0
 11
13.39914934577041
 21
12.77193301922173
 31
0.0
  0
LINE
  5
73
330
1E
100
AcDbEntity
  8
ADP1DETAIL
100
AcDbLine
 10
15.16840038042177
 20
12.64693301922173
 30
0.0
 11
13.27414934577041
 21
12.64693301922173
 31
0.0
  0
LINE
  5
74
330
1E
100
AcDbEntity
  8
ADP1DETAIL
100
AcDbLine
 10
13.46164934577041
 20
14.33443301922173
 30
0.0
 11
14.96164934577041
 21
14.33443301922173
 31
0.0
  0
LINE
  5
75
330
1E
100
AcDbEntity
  8
ADP1DETAIL
100
AcDbLine
 10
13.27414934577041
 20
14.54118405387309
 30
0.0
 11
15.16840038042177
 21
14.54118405387309
 31
0.0
  0
LINE
  5
76
330
1E
100
AcDbEntity
  8
ADP1DETAIL
100
AcDbLine
 10
13.39914934577041
 20
14.39693301922173
 30
0.0
 11
15.02414934577041
 21
14.39693301922173
 31
0.0
  0
LINE
  5
77
330
1E
100
AcDbEntity
  8
ADP1DETAIL
100
AcDbLine
 10
13.39914934577041
 20
12.77193301922173
 30
0.0
 11
13.39914934577041
 21
14.39693301922173
 31
0.0
  0
LINE
  5
78
330
1E
100
AcDbEntity
  8
ADP1DETAIL
100
AcDbLine
 10
13.27414934577041
 20
12.64693301922173
 30
0.0
 11
13.27414934577041
 21
14.54118405387309
 31
0.0
  0
LINE
  5
79
330
1E
100
AcDbEntity
  8
ADP1DETAIL
100
AcDbLine
 10
13.08664934577041
 20
12.45943301922173
 30
0.0
 11
13.08664934577041
 21
14.73674632494116
 31
0.0
  0
LINE
  5
7A
330
1E
100
AcDbEntity
  8
ADP1DETAIL
100
AcDbLine
 10
13.46164934577041
 20
12.83443301922173
 30
0.0
 11
13.46164934577041
 21
14.33443301922173
 31
0.0
  0
LINE
  5
7B
330
1E
100
AcDbEntity
  8
ADP1DETAIL
100
AcDbLine
 10
15.16840038042177
 20
14.54118405387309
 30
0.0
 11
15.16840038042177
 21
12.64693301922173
 31
0.0
  0
LINE
  5
7C
330
1E
100
AcDbEntity
  8
ADP1DETAIL
100
AcDbLine
 10
15.02414934577041
 20
14.39693301922173
 30
0.0
 11
15.02414934577041
 21
12.77193301922173
 31
0.0
  0
LINE
  5
7D
330
1E
100
AcDbEntity
  8
ADP1DETAIL
100
AcDbLine
 10
14.96164934577041
 20
14.33443301922173
 30
0.0
 11
14.96164934577041
 21
12.83443301922173
 31
0.0
  0
LINE
  5
7E
330
1E
100
AcDbEntity
  8
ADP1DETAIL
100
AcDbLine
 10
15.36396265148983
 20
14.73674632494116
 30
0.0
 11
15.36396265148983
 21
12.45943301922173
 31
0.0
  0
TEXT
  5
90
330
1E
100
AcDbEntity
  8
ADPDIM
100
AcDbText
 10
6.139152560104658
 20
8.033495942161218
 30
0.0
 40
0.15625
  1
J U L I U S  B L U M  &  C O . ,  I N C .      ( 8 0 0 )  5 2 6 - 6 2 9 3        W W W . J U L I U S B L U M . C O M        P A R T  N O .  2 0 3
 41
1.25
  7
ARIAL_WIDE
 72
     1
 11
14.21277977702144
 21
8.189745942161218
 31
0.0
100
AcDbText
 73
     3
  0
ENDSEC
  0
SECTION
  2
OBJECTS
  0
DICTIONARY
  5
C
330
0
100
AcDbDictionary
  3
ACAD_GROUP
350
D
  3
ACAD_LAYOUT
350
19
  3
ACAD_MLINESTYLE
350
16
  3
ACAD_PLOTSETTINGS
350
18
  3
ACAD_PLOTSTYLENAME
350
E
  3
ACDBHEADERROUNDTRIPXREC
350
224
  3
ACDBVARIABLEDICTIONARY
350
89
  0
DICTIONARY
  5
CA
330
1E
100
AcDbDictionary
280
     1
  3
ACAD_LAYOUTSELFREF
360
246
  0
DICTIONARY
  5
CC
330
1A
100
AcDbDictionary
280
     1
  3
ACAD_LAYOUTSELFREF
360
245
  0
DICTIONARY
  5
D
102
{ACAD_REACTORS
330
C
102
}
330
C
100
AcDbDictionary
  0
DICTIONARY
  5
19
102
{ACAD_REACTORS
330
C
102
}
330
C
100
AcDbDictionary
  0
DICTIONARY
  5
16
102
{ACAD_REACTORS
330
C
102
}
330
C
100
AcDbDictionary
  3
STANDARD
350
17
  0
DICTIONARY
  5
18
102
{ACAD_REACTORS
330
C
102
}
330
C
100
AcDbDictionary
  0
ACDBDICTIONARYWDFLT
  5
E
102
{ACAD_REACTORS
330
C
102
}
330
C
100
AcDbDictionary
281
     1
  3
Normal
350
F
100
AcDbDictionaryWithDefault
340
F
  0
DICTIONARY
  5
224
102
{ACAD_REACTORS
330
C
102
}
330
C
100
AcDbDictionary
  3
CEPSNTYPE
350
22E
  3
DIMSTYLEDATA
350
232
  3
FINGERPRINTGUID
350
22F
  3
HYPERLINKBASE
350
227
  3
INSUNITS
350
22D
  3
LAYOUTDICT
350
229
  3
LWETCUNION
350
22C
  3
PLOTSETDICT
350
22A
  3
PLOTSTYLNAMDICT
350
22B
  3
PSVPSCALE
350
231
  3
PUCSBASE
350
235
  3
PUCSORGBACK
350
23B
  3
PUCSORGBOTTOM
350
237
  3
PUCSORGFRONT
350
23A
  3
PUCSORGLEFT
350
238
  3
PUCSORGRIGHT
350
239
  3
PUCSORGTOP
350
236
  3
PUCSORTHOREF
350
233
  3
PUCSORTHOVIEW
350
234
  3
STYLESHEET
350
228
  3
TSTACKALIGN
350
225
  3
TSTACKSIZE
350
226
  3
UCSBASE
350
23E
  3
UCSORGBACK
350
244
  3
UCSORGBOTTOM
350
240
  3
UCSORGFRONT
350
243
  3
UCSORGLEFT
350
241
  3
UCSORGRIGHT
350
242
  3
UCSORGTOP
350
23F
  3
UCSORTHOREF
350
23C
  3
UCSORTHOVIEW
350
23D
  3
VERSIONGUID
350
230
  0
DICTIONARY
  5
89
102
{ACAD_REACTORS
330
C
102
}
330
C
100
AcDbDictionary
  3
DIMASSOC
350
8B
  3
HIDETEXT
350
8A
  0
XRECORD
  5
246
102
{ACAD_REACTORS
330
CA
102
}
330
CA
100
AcDbXrecord
340
1E
  0
XRECORD
  5
245
102
{ACAD_REACTORS
330
CC
102
}
330
CC
100
AcDbXrecord
340
1A
  0
MLINESTYLE
  5
17
102
{ACAD_REACTORS
330
16
102
}
330
16
100
AcDbMlineStyle
  2
STANDARD
 70
     0
  3

 62
   256
 51
90.0
 52
90.0
 71
     2
 49
0.5
 62
   256
  6
BYLAYER
 49
-0.5
 62
   256
  6
BYLAYER
  0
ACDBPLACEHOLDER
  5
F
102
{ACAD_REACTORS
330
E
102
}
330
E
100
AcDbPlaceHolder
280
     0
  0
XRECORD
  5
22E
102
{ACAD_REACTORS
330
224
102
}
330
224
100
AcDbXrecord
 90
        0
  0
XRECORD
  5
232
102
{ACAD_REACTORS
330
224
102
}
330
224
100
AcDbXrecord
1000
DSTYLE
1002
{
1070
   277
 70
     5
1070
   279
 70
     2
1002
}
  0
XRECORD
  5
22F
102
{ACAD_REACTORS
330
224
102
}
330
224
100
AcDbXrecord
  1
{E9FC57ED-D666-421F-B50A-AFCC7529F20F}
  0
XRECORD
  5
227
102
{ACAD_REACTORS
330
224
102
}
330
224
100
AcDbXrecord
  1

  0
XRECORD
  5
22D
102
{ACAD_REACTORS
330
224
102
}
330
224
100
AcDbXrecord
 90
        0
  0
XRECORD
  5
229
102
{ACAD_REACTORS
330
224
102
}
330
224
100
AcDbXrecord
340
19
  0
XRECORD
  5
22C
102
{ACAD_REACTORS
330
224
102
}
330
224
100
AcDbXrecord
 90
    14877
  0
XRECORD
  5
22A
102
{ACAD_REACTORS
330
224
102
}
330
224
100
AcDbXrecord
340
18
  0
XRECORD
  5
22B
102
{ACAD_REACTORS
330
224
102
}
330
224
100
AcDbXrecord
340
E
  0
XRECORD
  5
231
102
{ACAD_REACTORS
330
224
102
}
330
224
100
AcDbXrecord
 40
0.0
  0
XRECORD
  5
235
102
{ACAD_REACTORS
330
224
102
}
330
224
100
AcDbXrecord
340
0
  0
XRECORD
  5
23B
102
{ACAD_REACTORS
330
224
102
}
330
224
100
AcDbXrecord
 10
0.0
 20
0.0
 30
0.0
  0
XRECORD
  5
237
102
{ACAD_REACTORS
330
224
102
}
330
224
100
AcDbXrecord
 10
0.0
 20
0.0
 30
0.0
  0
XRECORD
  5
23A
102
{ACAD_REACTORS
330
224
102
}
330
224
100
AcDbXrecord
 10
0.0
 20
0.0
 30
0.0
  0
XRECORD
  5
238
102
{ACAD_REACTORS
330
224
102
}
330
224
100
AcDbXrecord
 10
0.0
 20
0.0
 30
0.0
  0
XRECORD
  5
239
102
{ACAD_REACTORS
330
224
102
}
330
224
100
AcDbXrecord
 10
0.0
 20
0.0
 30
0.0
  0
XRECORD
  5
236
102
{ACAD_REACTORS
330
224
102
}
330
224
100
AcDbXrecord
 10
0.0
 20
0.0
 30
0.0
  0
XRECORD
  5
233
102
{ACAD_REACTORS
330
224
102
}
330
224
100
AcDbXrecord
340
0
  0
XRECORD
  5
234
102
{ACAD_REACTORS
330
224
102
}
330
224
100
AcDbXrecord
 70
     0
  0
XRECORD
  5
228
102
{ACAD_REACTORS
330
224
102
}
330
224
100
AcDbXrecord
  1

  0
XRECORD
  5
225
102
{ACAD_REACTORS
330
224
102
}
330
224
100
AcDbXrecord
 90
        1
  0
XRECORD
  5
226
102
{ACAD_REACTORS
330
224
102
}
330
224
100
AcDbXrecord
 90
       70
  0
XRECORD
  5
23E
102
{ACAD_REACTORS
330
224
102
}
330
224
100
AcDbXrecord
340
0
  0
XRECORD
  5
244
102
{ACAD_REACTORS
330
224
102
}
330
224
100
AcDbXrecord
 10
0.0
 20
0.0
 30
0.0
  0
XRECORD
  5
240
102
{ACAD_REACTORS
330
224
102
}
330
224
100
AcDbXrecord
 10
0.0
 20
0.0
 30
0.0
  0
XRECORD
  5
243
102
{ACAD_REACTORS
330
224
102
}
330
224
100
AcDbXrecord
 10
0.0
 20
0.0
 30
0.0
  0
XRECORD
  5
241
102
{ACAD_REACTORS
330
224
102
}
330
224
100
AcDbXrecord
 10
0.0
 20
0.0
 30
0.0
  0
XRECORD
  5
242
102
{ACAD_REACTORS
330
224
102
}
330
224
100
AcDbXrecord
 10
0.0
 20
0.0
 30
0.0
  0
XRECORD
  5
23F
102
{ACAD_REACTORS
330
224
102
}
330
224
100
AcDbXrecord
 10
0.0
 20
0.0
 30
0.0
  0
XRECORD
  5
23C
102
{ACAD_REACTORS
330
224
102
}
330
224
100
AcDbXrecord
340
0
  0
XRECORD
  5
23D
102
{ACAD_REACTORS
330
224
102
}
330
224
100
AcDbXrecord
 70
     0
  0
XRECORD
  5
230
102
{ACAD_REACTORS
330
224
102
}
330
224
100
AcDbXrecord
  1
{AB8CA469-0528-4063-A09B-F50AB6ACD771}
  0
DICTIONARYVAR
  5
8B
102
{ACAD_REACTORS
330
89
102
}
330
89
100
DictionaryVariables
280
     0
  1
2
  0
DICTIONARYVAR
  5
8A
102
{ACAD_REACTORS
330
89
102
}
330
89
100
DictionaryVariables
280
     0
  1
1
  0
ENDSEC
  0
EOF
