  0
SECTION
  2
HEADER
  9
$ACADVER
  1
AC1014
  9
$ACADMAINTVER
 70
     9
  9
$DWGCODEPAGE
  3
ANSI_1252
  9
$INSBASE
 10
20.72089753425154
 20
14.17468222991093
 30
0.0
  9
$EXTMIN
 10
17.91816288897362
 20
12.81855010246117
 30
0.0
  9
$EXTMAX
 10
30.83596643604047
 20
17.62956499023262
 30
0.0
  9
$LIMMIN
 10
0.0
 20
0.0
  9
$LIMMAX
 10
36.0
 20
36.0
  9
$ORTHOMODE
 70
     1
  9
$REGENMODE
 70
     1
  9
$FILLMODE
 70
     1
  9
$QTEXTMODE
 70
     0
  9
$MIRRTEXT
 70
     1
  9
$DRAGMODE
 70
     0
  9
$LTSCALE
 40
1.0
  9
$OSMODE
 70
    37
  9
$ATTMODE
 70
     1
  9
$TEXTSIZE
 40
0.2
  9
$TRACEWID
 40
0.05
  9
$TEXTSTYLE
  7
STANDARD
  9
$CLAYER
  8
ADPDIM
  9
$CELTYPE
  6
BYLAYER
  9
$CECOLOR
 62
   256
  9
$CELTSCALE
 40
1.0
  9
$DELOBJ
 70
     1
  9
$DISPSILH
 70
     0
  9
$DIMSCALE
 40
1.0
  9
$DIMASZ
 40
0.125
  9
$DIMEXO
 40
0.0625
  9
$DIMDLI
 40
0.38
  9
$DIMRND
 40
0.0
  9
$DIMDLE
 40
0.0
  9
$DIMEXE
 40
0.18
  9
$DIMTP
 40
0.0
  9
$DIMTM
 40
0.0
  9
$DIMTXT
 40
0.125
  9
$DIMCEN
 40
0.1875
  9
$DIMTSZ
 40
0.125
  9
$DIMTOL
 70
     0
  9
$DIMLIM
 70
     0
  9
$DIMTIH
 70
     0
  9
$DIMTOH
 70
     0
  9
$DIMSE1
 70
     0
  9
$DIMSE2
 70
     0
  9
$DIMTAD
 70
     0
  9
$DIMZIN
 70
     2
  9
$DIMBLK
  1

  9
$DIMASO
 70
     1
  9
$DIMSHO
 70
     1
  9
$DIMPOST
  1

  9
$DIMAPOST
  1

  9
$DIMALT
 70
     0
  9
$DIMALTD
 70
     1
  9
$DIMALTF
 40
25.4
  9
$DIMLFAC
 40
1.0
  9
$DIMTOFL
 70
     0
  9
$DIMTVP
 40
0.0
  9
$DIMTIX
 70
     0
  9
$DIMSOXD
 70
     0
  9
$DIMSAH
 70
     0
  9
$DIMBLK1
  1

  9
$DIMBLK2
  1

  9
$DIMSTYLE
  2
STANDARD
  9
$DIMCLRD
 70
     0
  9
$DIMCLRE
 70
     0
  9
$DIMCLRT
 70
     0
  9
$DIMTFAC
 40
1.0
  9
$DIMGAP
 40
0.125
  9
$DIMJUST
 70
     0
  9
$DIMSD1
 70
     0
  9
$DIMSD2
 70
     0
  9
$DIMTOLJ
 70
     1
  9
$DIMTZIN
 70
     0
  9
$DIMALTZ
 70
     0
  9
$DIMALTTZ
 70
     0
  9
$DIMFIT
 70
     3
  9
$DIMUPT
 70
     0
  9
$DIMUNIT
 70
     7
  9
$DIMDEC
 70
     4
  9
$DIMTDEC
 70
     4
  9
$DIMALTU
 70
     2
  9
$DIMALTTD
 70
     2
  9
$DIMTXSTY
  7
STANDARD
  9
$DIMAUNIT
 70
     0
  9
$LUNITS
 70
     5
  9
$LUPREC
 70
     4
  9
$SKETCHINC
 40
0.1
  9
$FILLETRAD
 40
0.062
  9
$AUNITS
 70
     0
  9
$AUPREC
 70
     0
  9
$MENU
  1
acad
  9
$ELEVATION
 40
0.0
  9
$PELEVATION
 40
0.0
  9
$THICKNESS
 40
0.0
  9
$LIMCHECK
 70
     0
  9
$BLIPMODE
 70
     0
  9
$CHAMFERA
 40
0.0
  9
$CHAMFERB
 40
0.0
  9
$CHAMFERC
 40
0.0
  9
$CHAMFERD
 40
0.0
  9
$SKPOLY
 70
     0
  9
$TDCREATE
 40
2450386.504063460
  9
$TDUPDATE
 40
2452297.064631435
  9
$TDINDWG
 40
0.0142091088
  9
$TDUSRTIMER
 40
0.0142091088
  9
$USRTIMER
 70
     1
  9
$ANGBASE
 50
0.0
  9
$ANGDIR
 70
     0
  9
$PDMODE
 70
     0
  9
$PDSIZE
 40
0.0
  9
$PLINEWID
 40
0.0
  9
$COORDS
 70
     2
  9
$SPLFRAME
 70
     0
  9
$SPLINETYPE
 70
     6
  9
$SPLINESEGS
 70
     8
  9
$ATTDIA
 70
     0
  9
$ATTREQ
 70
     1
  9
$HANDLING
 70
 22529
  9
$HANDSEED
  5
2D2
  9
$SURFTAB1
 70
     6
  9
$SURFTAB2
 70
     6
  9
$SURFTYPE
 70
     6
  9
$SURFU
 70
     6
  9
$SURFV
 70
     6
  9
$UCSNAME
  2

  9
$UCSORG
 10
0.0
 20
0.0
 30
0.0
  9
$UCSXDIR
 10
1.0
 20
0.0
 30
0.0
  9
$UCSYDIR
 10
0.0
 20
1.0
 30
0.0
  9
$PUCSNAME
  2

  9
$PUCSORG
 10
0.0
 20
0.0
 30
0.0
  9
$PUCSXDIR
 10
1.0
 20
0.0
 30
0.0
  9
$PUCSYDIR
 10
0.0
 20
1.0
 30
0.0
  9
$USERI1
 70
     0
  9
$USERI2
 70
     0
  9
$USERI3
 70
     0
  9
$USERI4
 70
     0
  9
$USERI5
 70
     0
  9
$USERR1
 40
0.0
  9
$USERR2
 40
0.0
  9
$USERR3
 40
0.0
  9
$USERR4
 40
0.0
  9
$USERR5
 40
0.0
  9
$WORLDVIEW
 70
     1
  9
$SHADEDGE
 70
     3
  9
$SHADEDIF
 70
    70
  9
$TILEMODE
 70
     1
  9
$MAXACTVP
 70
    15
  9
$PINSBASE
 10
4.403525741743744E+99
 20
7.061986388769092E+99
 30
0.0
  9
$PLIMCHECK
 70
     0
  9
$PEXTMIN
 10
1.000000000000000E+20
 20
1.000000000000000E+20
 30
1.000000000000000E+20
  9
$PEXTMAX
 10
-1.000000000000000E+20
 20
-1.000000000000000E+20
 30
-1.000000000000000E+20
  9
$PLIMMIN
 10
0.0
 20
0.0
  9
$PLIMMAX
 10
12.0
 20
9.0
  9
$UNITMODE
 70
     0
  9
$VISRETAIN
 70
     0
  9
$PLINEGEN
 70
     0
  9
$PSLTSCALE
 70
     1
  9
$TREEDEPTH
 70
  3020
  9
$PICKSTYLE
 70
     1
  9
$CMLSTYLE
  2
STANDARD
  9
$CMLJUST
 70
     0
  9
$CMLSCALE
 40
1.0
  9
$PROXYGRAPHICS
 70
     1
  9
$MEASUREMENT
 70
     0
  0
ENDSEC
  0
SECTION
  2
CLASSES
  0
CLASS
  1
LWPOLYLINE
  2
AcDbPolyline
  3
AutoCAD 2000
 90
        0
280
     0
281
     1
  0
CLASS
  1
ACDBDICTIONARYWDFLT
  2
AcDbDictionaryWithDefault
  3
AutoCAD 2000
 90
        0
280
     0
281
     0
  0
CLASS
  1
ACDBPLACEHOLDER
  2
AcDbPlaceHolder
  3
AutoCAD 2000
 90
        0
280
     0
281
     0
  0
CLASS
  1
LAYOUT
  2
AcDbLayout
  3
AutoCAD 2000
 90
        0
280
     0
281
     0
  0
CLASS
  1
DICTIONARYVAR
  2
AcDbDictionaryVar
  3
AutoCAD 2000
 90
        0
280
     0
281
     0
  0
CLASS
  1
LONG_TRANSACTION
  2
AcDbLongTransaction
  3
AutoCAD 2000
 90
        0
280
     0
281
     0
  0
CLASS
  1
LWPOLYLINE
  2
AcDbPolyline
  3
AutoCAD 2000
 90
        0
280
     0
281
     1
  0
CLASS
  1
HATCH
  2
AcDbHatch
  3
AutoCAD 2000
 90
        0
280
     0
281
     1
  0
CLASS
  1
XRECORD
  2
AcDbXrecord
  3
AutoCAD 2000
 90
        0
280
     0
281
     0
  0
CLASS
  1
LONG_TRANSACTION
  2
AcDbLongTransaction
  3
AutoCAD 2000
 90
        0
280
     0
281
     0
  0
CLASS
  1
LWPOLYLINE
  2
AcDbPolyline
  3
AutoCAD 2000
 90
        0
280
     0
281
     1
  0
CLASS
  1
HATCH
  2
AcDbHatch
  3
AutoCAD 2000
 90
        0
280
     0
281
     1
  0
CLASS
  1
XRECORD
  2
AcDbXrecord
  3
AutoCAD 2000
 90
        0
280
     0
281
     0
  0
CLASS
  1
LONG_TRANSACTION
  2
AcDbLongTransaction
  3
AutoCAD 2000
 90
        0
280
     0
281
     0
  0
CLASS
  1
LWPOLYLINE
  2
AcDbPolyline
  3
AutoCAD 2000
 90
        0
280
     0
281
     1
  0
CLASS
  1
HATCH
  2
AcDbHatch
  3
AutoCAD 2000
 90
        0
280
     0
281
     1
  0
CLASS
  1
XRECORD
  2
AcDbXrecord
  3
AutoCAD 2000
 90
        0
280
     0
281
     0
  0
CLASS
  1
LONG_TRANSACTION
  2
AcDbLongTransaction
  3
AutoCAD 2000
 90
        0
280
     0
281
     0
  0
CLASS
  1
LWPOLYLINE
  2
AcDbPolyline
  3
AutoCAD 2000
 90
        0
280
     0
281
     1
  0
CLASS
  1
HATCH
  2
AcDbHatch
  3
AutoCAD 2000
 90
        0
280
     0
281
     1
  0
CLASS
  1
XRECORD
  2
AcDbXrecord
  3
AutoCAD 2000
 90
        0
280
     0
281
     0
  0
CLASS
  1
LONG_TRANSACTION
  2
AcDbLongTransaction
  3
AutoCAD 2000
 90
        0
280
     0
281
     0
  0
CLASS
  1
LWPOLYLINE
  2
AcDbPolyline
  3
AutoCAD 2000
 90
        0
280
     0
281
     1
  0
CLASS
  1
HATCH
  2
AcDbHatch
  3
AutoCAD 2000
 90
        0
280
     0
281
     1
  0
CLASS
  1
XRECORD
  2
AcDbXrecord
  3
AutoCAD 2000
 90
        0
280
     0
281
     0
  0
ENDSEC
  0
SECTION
  2
TABLES
  0
TABLE
  2
VPORT
  5
12
330
0
100
AcDbSymbolTable
 70
     2
  0
VPORT
  5
286
330
12
100
AcDbSymbolTableRecord
100
AcDbViewportTableRecord
  2
*ACTIVE
 70
     0
 10
0.0
 20
0.0
 11
1.0
 21
1.0
 12
24.37756356780599
 22
15.22457893800989
 13
0.0
 23
0.0
 14
0.5740882589684922
 24
0.5740882589684922
 15
0.5
 25
0.5
 16
0.0
 26
0.0
 36
1.0
 17
0.0
 27
0.0
 37
0.0
 40
8.266010207072932
 41
1.570528967254408
 42
50.0
 43
0.0
 44
0.0
 50
0.0
 51
0.0
 71
     0
 72
   100
 73
     1
 74
     0
 75
     0
 76
     0
 77
     0
 78
     1
  0
ENDTAB
  0
TABLE
  2
LTYPE
  5
E
330
0
100
AcDbSymbolTable
 70
     2
  0
LTYPE
  5
F
330
E
100
AcDbSymbolTableRecord
100
AcDbLinetypeTableRecord
  2
BYBLOCK
 70
     0
  3

 72
    65
 73
     0
 40
0.0
  0
LTYPE
  5
6
330
E
100
AcDbSymbolTableRecord
100
AcDbLinetypeTableRecord
  2
BYLAYER
 70
     0
  3

 72
    65
 73
     0
 40
0.0
  0
LTYPE
  5
5
330
E
100
AcDbSymbolTableRecord
100
AcDbLinetypeTableRecord
  2
CONTINUOUS
 70
     0
  3
Solid line
 72
    65
 73
     0
 40
0.0
  0
LTYPE
  5
62
330
E
100
AcDbSymbolTableRecord
100
AcDbLinetypeTableRecord
  2
HIDDEN2
 70
     0
  3
_ _ _ _ _ _ _ _ _ _ _ _ _ _ _ _ _ _ _ _ _ _ _ _
 72
    65
 73
     2
 40
0.1875
 49
0.125
 74
     0
 49
-0.0625
 74
     0
  0
ENDTAB
  0
TABLE
  2
LAYER
  5
B
330
0
100
AcDbSymbolTable
 70
     5
  0
LAYER
  5
4
330
B
100
AcDbSymbolTableRecord
100
AcDbLayerTableRecord
  2
0
 70
     0
 62
     7
  6
CONTINUOUS
  0
LAYER
  5
2E
330
B
100
AcDbSymbolTableRecord
100
AcDbLayerTableRecord
  2
ADP1DETAIL
 70
     0
 62
     7
  6
CONTINUOUS
  0
LAYER
  5
28
330
B
100
AcDbSymbolTableRecord
100
AcDbLayerTableRecord
  2
DEFPOINTS
 70
     0
 62
     7
  6
CONTINUOUS
  0
LAYER
  5
1B
330
B
100
AcDbSymbolTableRecord
100
AcDbLayerTableRecord
  2
ADPDIM
 70
     0
 62
     3
  6
CONTINUOUS
  0
LAYER
  5
61
330
B
100
AcDbSymbolTableRecord
100
AcDbLayerTableRecord
  2
ADP2DETAIL
 70
     0
 62
     5
  6
CONTINUOUS
  0
ENDTAB
  0
TABLE
  2
STYLE
  5
C
330
0
100
AcDbSymbolTable
 70
     2
  0
STYLE
  5
D
330
C
100
AcDbSymbolTableRecord
100
AcDbTextStyleTableRecord
  2
STANDARD
 70
     0
 40
0.0
 41
1.0
 50
0.0
 71
     0
 42
0.2
  3
txt
  4

  0
STYLE
  5
B1
330
C
100
AcDbSymbolTableRecord
100
AcDbTextStyleTableRecord
  2
ARIAL_WIDE
 70
     0
 40
0.0
 41
1.25
 50
0.0
 71
     0
 42
0.2
  3
ARIAL.TTF
  4

1001
ACAD
1000
Arial
1071
       34
  0
ENDTAB
  0
TABLE
  2
VIEW
  5
10
330
0
100
AcDbSymbolTable
 70
     0
  0
ENDTAB
  0
TABLE
  2
UCS
  5
11
330
0
100
AcDbSymbolTable
 70
     0
  0
ENDTAB
  0
TABLE
  2
APPID
  5
14
330
0
100
AcDbSymbolTable
 70
     1
  0
APPID
  5
15
330
14
100
AcDbSymbolTableRecord
100
AcDbRegAppTableRecord
  2
ACAD
 70
     0
  0
ENDTAB
  0
TABLE
  2
DIMSTYLE
  5
16
330
0
100
AcDbSymbolTable
 70
     1
  0
DIMSTYLE
105
1D
102
{ACAD_REACTORS
330
1E
330
32
330
90
330
A0
102
}
330
16
100
AcDbSymbolTableRecord
100
AcDbDimStyleTableRecord
  2
STANDARD
 70
     0
  3

  4

  5

  6

  7

 40
1.0
 41
0.18
 42
0.0625
 43
0.38
 44
0.18
 45
0.0
 46
0.0
 47
0.0
 48
0.0
140
0.18
141
0.09
142
0.0
143
25.4
144
1.0
145
0.0
146
1.0
147
0.09
 71
     0
 72
     0
 73
     1
 74
     1
 75
     0
 76
     0
 77
     0
 78
     0
170
     0
171
     2
172
     0
173
     0
174
     0
175
     0
176
     0
177
     0
178
     0
270
     2
271
     4
272
     4
273
     2
274
     2
340
D
275
     0
280
     0
281
     0
282
     0
283
     1
284
     0
285
     0
286
     0
287
     3
288
     0
  0
ENDTAB
  0
TABLE
  2
BLOCK_RECORD
  5
1
330
0
100
AcDbSymbolTable
 70
     4
  0
BLOCK_RECORD
  5
2
102
{ACAD_XDICTIONARY
360
E8
102
}
330
1
100
AcDbSymbolTableRecord
100
AcDbBlockTableRecord
  2
*MODEL_SPACE
  0
BLOCK_RECORD
  5
8
102
{ACAD_XDICTIONARY
360
EA
102
}
330
1
100
AcDbSymbolTableRecord
100
AcDbBlockTableRecord
  2
*PAPER_SPACE
  0
BLOCK_RECORD
  5
EC
330
1
100
AcDbSymbolTableRecord
100
AcDbBlockTableRecord
  2
*D0
  0
BLOCK_RECORD
  5
FB
330
1
100
AcDbSymbolTableRecord
100
AcDbBlockTableRecord
  2
*D1
  0
BLOCK_RECORD
  5
108
330
1
100
AcDbSymbolTableRecord
100
AcDbBlockTableRecord
  2
*D2
  0
BLOCK_RECORD
  5
115
330
1
100
AcDbSymbolTableRecord
100
AcDbBlockTableRecord
  2
*D3
  0
ENDTAB
  0
ENDSEC
  0
SECTION
  2
BLOCKS
  0
BLOCK
  5
3
330
2
100
AcDbEntity
  8
0
100
AcDbBlockBegin
  2
*MODEL_SPACE
 70
     0
 10
0.0
 20
0.0
 30
0.0
  3
*MODEL_SPACE
  1

  0
ENDBLK
  5
7
330
2
100
AcDbEntity
  8
0
100
AcDbBlockEnd
  0
BLOCK
  5
9
330
8
100
AcDbEntity
 67
     1
  8
0
100
AcDbBlockBegin
  2
*PAPER_SPACE
 70
     0
 10
0.0
 20
0.0
 30
0.0
  3
*PAPER_SPACE
  1

  0
ENDBLK
  5
A
330
8
100
AcDbEntity
 67
     1
  8
0
100
AcDbBlockEnd
  0
BLOCK
  5
F7
330
EC
100
AcDbEntity
  8
0
100
AcDbBlockBegin
  2
*D0
 70
     1
 10
0.0
 20
0.0
 30
0.0
  3
*D0
  1

  0
LINE
  5
2AA
330
EC
100
AcDbEntity
  8
ADPDIM
 62
     0
100
AcDbLine
 10
20.64597217800117
 20
17.15876812678429
 30
0.0
 11
20.27700352761066
 21
17.15876812678429
 31
0.0
  0
LINE
  5
2AB
330
EC
100
AcDbEntity
  8
ADPDIM
 62
     0
100
AcDbLine
 10
20.64981805590715
 20
14.17650160053222
 30
0.0
 11
20.27700352761066
 21
14.17650160053222
 31
0.0
  0
LINE
  5
2AC
330
EC
100
AcDbEntity
  8
ADPDIM
 62
     0
100
AcDbLine
 10
20.45700352761066
 20
17.15876812678429
 30
0.0
 11
20.45700352761066
 21
15.83430153032492
 31
0.0
  0
LINE
  5
2AD
330
EC
100
AcDbEntity
  8
ADPDIM
 62
     0
100
AcDbLine
 10
20.45700352761066
 20
14.17650160053222
 30
0.0
 11
20.45700352761066
 21
15.50096819699159
 31
0.0
  0
LINE
  5
2AE
330
EC
100
AcDbEntity
  8
ADPDIM
 62
     0
100
AcDbLine
 10
20.58200352761066
 20
14.05150160053222
 30
0.0
 11
20.33200352761066
 21
14.30150160053222
 31
0.0
  0
LINE
  5
2AF
330
EC
100
AcDbEntity
  8
ADPDIM
 62
     0
100
AcDbLine
 10
20.58200352761066
 20
17.03376812678429
 30
0.0
 11
20.33200352761066
 21
17.28376812678429
 31
0.0
  0
MTEXT
  5
2B0
330
EC
100
AcDbEntity
  8
ADPDIM
 62
     0
100
AcDbMText
 10
20.45700352761066
 20
15.66763486365826
 30
0.0
 40
0.125
 41
0.0
 71
     5
 72
     1
  1
\A1;3
 11
0.0000000000000001
 21
1.0
 31
0.0
  0
POINT
  5
2B1
330
EC
100
AcDbEntity
  8
DEFPOINTS
 62
     0
100
AcDbPoint
 10
20.70847217800118
 20
17.15876812678429
 30
0.0
  0
POINT
  5
2B2
330
EC
100
AcDbEntity
  8
DEFPOINTS
 62
     0
100
AcDbPoint
 10
20.71231805590715
 20
14.17650160053222
 30
0.0
  0
POINT
  5
2B3
330
EC
100
AcDbEntity
  8
DEFPOINTS
 62
     0
100
AcDbPoint
 10
20.45700352761066
 20
14.17650160053222
 30
0.0
  0
ENDBLK
  5
F8
330
EC
100
AcDbEntity
  8
0
100
AcDbBlockEnd
  0
BLOCK
  5
106
330
FB
100
AcDbEntity
  8
0
100
AcDbBlockBegin
  2
*D1
 70
     1
 10
0.0
 20
0.0
 30
0.0
  3
*D1
  1

  0
LINE
  5
2B4
330
FB
100
AcDbEntity
  8
ADPDIM
 62
     0
100
AcDbLine
 10
26.62981812062369
 20
17.23524357954516
 30
0.0
 11
26.62981812062369
 21
17.62504518481428
 31
0.0
  0
LINE
  5
2B5
330
FB
100
AcDbEntity
  8
ADPDIM
 62
     0
100
AcDbLine
 10
27.62981812062369
 20
17.23524357954516
 30
0.0
 11
27.62981812062369
 21
17.62504518481428
 31
0.0
  0
LINE
  5
2B6
330
FB
100
AcDbEntity
  8
ADPDIM
 62
     0
100
AcDbLine
 10
26.62981812062369
 20
17.44504518481428
 30
0.0
 11
26.98398478729036
 21
17.44504518481428
 31
0.0
  0
LINE
  5
2B7
330
FB
100
AcDbEntity
  8
ADPDIM
 62
     0
100
AcDbLine
 10
27.62981812062369
 20
17.44504518481428
 30
0.0
 11
27.27565145395702
 21
17.44504518481428
 31
0.0
  0
LINE
  5
2B8
330
FB
100
AcDbEntity
  8
ADPDIM
 62
     0
100
AcDbLine
 10
27.50481812062369
 20
17.32004518481428
 30
0.0
 11
27.75481812062369
 21
17.57004518481427
 31
0.0
  0
LINE
  5
2B9
330
FB
100
AcDbEntity
  8
ADPDIM
 62
     0
100
AcDbLine
 10
26.50481812062369
 20
17.32004518481428
 30
0.0
 11
26.75481812062369
 21
17.57004518481427
 31
0.0
  0
MTEXT
  5
2BA
330
FB
100
AcDbEntity
  8
ADPDIM
 62
     0
100
AcDbMText
 10
27.12981812062369
 20
17.44504518481428
 30
0.0
 40
0.125
 41
0.0
 71
     5
 72
     1
  1
\A1;1
  0
POINT
  5
2BB
330
FB
100
AcDbEntity
  8
DEFPOINTS
 62
     0
100
AcDbPoint
 10
26.62981812062369
 20
17.17274357954516
 30
0.0
  0
POINT
  5
2BC
330
FB
100
AcDbEntity
  8
DEFPOINTS
 62
     0
100
AcDbPoint
 10
27.62981812062369
 20
17.17274357954516
 30
0.0
  0
POINT
  5
2BD
330
FB
100
AcDbEntity
  8
DEFPOINTS
 62
     0
100
AcDbPoint
 10
27.62981812062369
 20
17.44504518481428
 30
0.0
  0
ENDBLK
  5
107
330
FB
100
AcDbEntity
  8
0
100
AcDbBlockEnd
  0
BLOCK
  5
113
330
108
100
AcDbEntity
  8
0
100
AcDbBlockBegin
  2
*D2
 70
     1
 10
0.0
 20
0.0
 30
0.0
  3
*D2
  1

  0
LINE
  5
2BE
330
108
100
AcDbEntity
  8
ADPDIM
 62
     0
100
AcDbLine
 10
20.70847217800118
 20
17.22126812678429
 30
0.0
 11
20.70847217800118
 21
17.62956499023262
 31
0.0
  0
LINE
  5
2BF
330
108
100
AcDbEntity
  8
ADPDIM
 62
     0
100
AcDbLine
 10
24.20347217800118
 20
17.25724143389368
 30
0.0
 11
24.20347217800118
 21
17.62956499023262
 31
0.0
  0
LINE
  5
2C0
330
108
100
AcDbEntity
  8
ADPDIM
 62
     0
100
AcDbLine
 10
20.70847217800118
 20
17.44956499023262
 30
0.0
 11
22.06013884466785
 21
17.44956499023262
 31
0.0
  0
LINE
  5
2C1
330
108
100
AcDbEntity
  8
ADPDIM
 62
     0
100
AcDbLine
 10
24.20347217800118
 20
17.44956499023262
 30
0.0
 11
22.85180551133451
 21
17.44956499023262
 31
0.0
  0
LINE
  5
2C2
330
108
100
AcDbEntity
  8
ADPDIM
 62
     0
100
AcDbLine
 10
24.07847217800118
 20
17.32456499023262
 30
0.0
 11
24.32847217800118
 21
17.57456499023262
 31
0.0
  0
LINE
  5
2C3
330
108
100
AcDbEntity
  8
ADPDIM
 62
     0
100
AcDbLine
 10
20.58347217800118
 20
17.32456499023262
 30
0.0
 11
20.83347217800118
 21
17.57456499023262
 31
0.0
  0
MTEXT
  5
2C4
330
108
100
AcDbEntity
  8
ADPDIM
 62
     0
100
AcDbMText
 10
22.45597217800118
 20
17.44956499023262
 30
0.0
 40
0.125
 41
0.0
 71
     5
 72
     1
  1
\A1;3 1/2
  0
POINT
  5
2C5
330
108
100
AcDbEntity
  8
DEFPOINTS
 62
     0
100
AcDbPoint
 10
20.70847217800118
 20
17.15876812678429
 30
0.0
  0
POINT
  5
2C6
330
108
100
AcDbEntity
  8
DEFPOINTS
 62
     0
100
AcDbPoint
 10
24.20347217800118
 20
17.19474143389368
 30
0.0
  0
POINT
  5
2C7
330
108
100
AcDbEntity
  8
DEFPOINTS
 62
     0
100
AcDbPoint
 10
24.20347217800118
 20
17.44956499023262
 30
0.0
  0
ENDBLK
  5
114
330
108
100
AcDbEntity
  8
0
100
AcDbBlockEnd
  0
BLOCK
  5
120
330
115
100
AcDbEntity
  8
0
100
AcDbBlockBegin
  2
*D3
 70
     1
 10
0.0
 20
0.0
 30
0.0
  3
*D3
  1

  0
LINE
  5
2C8
330
115
100
AcDbEntity
  8
ADPDIM
 62
     0
100
AcDbLine
 10
24.26597217800118
 20
17.19352379512541
 30
0.0
 11
25.49263161234597
 21
17.19352379512541
 31
0.0
  0
LINE
  5
2C9
330
115
100
AcDbEntity
  8
ADPDIM
 62
     0
100
AcDbLine
 10
24.77097217800118
 20
15.69645095238653
 30
0.0
 11
25.49263161234597
 21
15.69645095238653
 31
0.0
  0
LINE
  5
2CA
330
115
100
AcDbEntity
  8
ADPDIM
 62
     0
100
AcDbLine
 10
25.31263161234596
 20
17.19352379512541
 30
0.0
 11
25.31263161234596
 21
16.81998737375597
 31
0.0
  0
LINE
  5
2CB
330
115
100
AcDbEntity
  8
ADPDIM
 62
     0
100
AcDbLine
 10
25.31263161234596
 20
15.69645095238653
 30
0.0
 11
25.31263161234596
 21
16.06998737375597
 31
0.0
  0
LINE
  5
2CC
330
115
100
AcDbEntity
  8
ADPDIM
 62
     0
100
AcDbLine
 10
25.43763161234597
 20
15.57145095238653
 30
0.0
 11
25.18763161234597
 21
15.82145095238653
 31
0.0
  0
LINE
  5
2CD
330
115
100
AcDbEntity
  8
ADPDIM
 62
     0
100
AcDbLine
 10
25.43763161234597
 20
17.06852379512541
 30
0.0
 11
25.18763161234597
 21
17.31852379512541
 31
0.0
  0
MTEXT
  5
2CE
330
115
100
AcDbEntity
  8
ADPDIM
 62
     0
100
AcDbMText
 10
25.31263161234596
 20
16.44498737375597
 30
0.0
 40
0.125
 41
0.0
 71
     5
 72
     1
  1
\A1;1 1/2
 11
0.0000000000000001
 21
1.0
 31
0.0
  0
POINT
  5
2CF
330
115
100
AcDbEntity
  8
DEFPOINTS
 62
     0
100
AcDbPoint
 10
24.20347217800118
 20
17.19352379512541
 30
0.0
  0
POINT
  5
2D0
330
115
100
AcDbEntity
  8
DEFPOINTS
 62
     0
100
AcDbPoint
 10
24.70847217800118
 20
15.69645095238653
 30
0.0
  0
POINT
  5
2D1
330
115
100
AcDbEntity
  8
DEFPOINTS
 62
     0
100
AcDbPoint
 10
25.31263161234596
 20
15.69645095238653
 30
0.0
  0
ENDBLK
  5
121
330
115
100
AcDbEntity
  8
0
100
AcDbBlockEnd
  0
ENDSEC
  0
SECTION
  2
ENTITIES
  0
DIMENSION
  5
1E
330
2
100
AcDbEntity
  8
ADPDIM
100
AcDbDimension
  2
*D0
 10
20.45700352761066
 20
14.17650160053222
 30
0.0
 11
20.45700352761066
 21
15.66763486365826
 31
0.0
 70
    32
  3
STANDARD
100
AcDbAlignedDimension
 13
20.70847217800118
 23
17.15876812678429
 33
0.0
 14
20.71231805590715
 24
14.17650160053222
 34
0.0
 50
90.0
100
AcDbRotatedDimension
1001
ACAD
1000
DSTYLE
1002
{
1070
   270
1070
     7
1070
   270
1070
     7
1070
   270
1070
     7
1070
   270
1070
     7
1070
   270
1070
     7
1070
    41
1040
0.125
1070
    73
1070
     0
1070
    74
1070
     0
1070
    78
1070
     2
1070
   140
1040
0.125
1070
   141
1040
0.1875
1070
   142
1040
0.125
1070
   147
1040
0.125
1070
   171
1070
     1
1070
   276
1070
     2
1070
   277
1070
     5
1002
}
  0
LINE
  5
2D
330
2
100
AcDbEntity
  8
ADP1DETAIL
100
AcDbLine
 10
26.64577141813404
 20
16.91749081937955
 30
0.0
 11
27.61386482311334
 21
16.91749081937955
 31
0.0
  0
LINE
  5
2F
330
2
100
AcDbEntity
  8
ADP1DETAIL
100
AcDbLine
 10
26.62981812062369
 20
16.95647956062641
 30
0.0
 11
27.62981812062369
 21
16.95647956062641
 31
0.0
  0
LINE
  5
30
330
2
100
AcDbEntity
  8
ADP1DETAIL
100
AcDbLine
 10
26.64317892933915
 20
17.17274357954516
 30
0.0
 11
27.64317892933915
 21
17.17274357954516
 31
0.0
  0
LINE
  5
31
330
2
100
AcDbEntity
  8
ADP1DETAIL
100
AcDbLine
 10
26.62981812062369
 20
17.1319290013885
 30
0.0
 11
27.62981812062369
 21
17.1319290013885
 31
0.0
  0
DIMENSION
  5
32
330
2
100
AcDbEntity
  8
ADPDIM
100
AcDbDimension
  2
*D1
 10
27.62981812062369
 20
17.44504518481428
 30
0.0
 11
27.12981812062369
 21
17.44504518481428
 31
0.0
 70
    32
  3
STANDARD
100
AcDbAlignedDimension
 13
26.62981812062369
 23
17.17274357954516
 33
0.0
 14
27.62981812062369
 24
17.17274357954516
 34
0.0
100
AcDbRotatedDimension
1001
ACAD
1000
DSTYLE
1002
{
1070
   270
1070
     7
1070
   270
1070
     7
1070
   270
1070
     7
1070
   270
1070
     7
1070
   270
1070
     7
1070
    41
1040
0.125
1070
    73
1070
     0
1070
    74
1070
     0
1070
    78
1070
     2
1070
   140
1040
0.125
1070
   141
1040
0.1875
1070
   142
1040
0.125
1070
   147
1040
0.125
1070
   171
1070
     1
1070
   276
1070
     2
1070
   277
1070
     5
1002
}
  0
CIRCLE
  5
40
330
2
100
AcDbEntity
  8
ADP1DETAIL
100
AcDbCircle
 10
27.12006239162222
 20
16.39070601082879
 30
0.0
 40
0.094
  0
LINE
  5
41
330
2
100
AcDbEntity
  8
ADP1DETAIL
100
AcDbLine
 10
26.73532374123766
 20
15.48465364972167
 30
0.0
 11
26.86187980957118
 21
15.48465364972167
 31
0.0
  0
ARC
  5
42
330
2
100
AcDbEntity
  8
ADP1DETAIL
100
AcDbCircle
 10
27.13262675894069
 20
15.64070601082879
 30
0.0
 40
0.5
100
AcDbArc
 50
147.9199161784438
 51
219.2327525715509
  0
LINE
  5
43
330
2
100
AcDbEntity
  8
ADP1DETAIL
100
AcDbLine
 10
26.71217416078778
 20
15.85504693691969
 30
0.0
 11
26.90521915703941
 21
15.85504693691969
 31
0.0
  0
CIRCLE
  5
44
330
2
100
AcDbEntity
  8
ADP1DETAIL
100
AcDbCircle
 10
27.13262675894069
 20
15.64070601082879
 30
0.0
 40
0.3125
  0
CIRCLE
  5
45
330
2
100
AcDbEntity
  8
ADP1DETAIL
100
AcDbCircle
 10
27.13262675894069
 20
15.64070601082879
 30
0.0
 40
0.2859512779740925
  0
LINE
  5
46
330
2
100
AcDbEntity
  8
ADP1DETAIL
100
AcDbLine
 10
26.65369101386709
 20
16.79077728765083
 30
0.0
 11
27.60594522738029
 21
16.79077728765083
 31
0.0
  0
ARC
  5
47
330
2
100
AcDbEntity
  8
ADP1DETAIL
100
AcDbCircle
 10
27.13262675894069
 20
15.64070601082879
 30
0.0
 40
0.5
100
AcDbArc
 50
249.3780802536106
 51
290.6219197463896
  0
LINE
  5
48
330
2
100
AcDbEntity
  8
ADP1DETAIL
100
AcDbLine
 10
27.50481812062369
 20
15.17274357954516
 30
0.0
 11
26.75481812062369
 21
15.17274357954516
 31
0.0
  0
ARC
  5
49
330
2
100
AcDbEntity
  8
ADP1DETAIL
100
AcDbCircle
 10
27.13262675894069
 20
15.64070601082879
 30
0.0
 40
0.5
100
AcDbArc
 50
319.6794760533916
 51
33.16785519661354
  0
ARC
  5
4A
330
2
100
AcDbEntity
  8
ADP1DETAIL
100
AcDbCircle
 10
27.13262675894069
 20
15.64070601082879
 30
0.0
 40
0.625
100
AcDbArc
 50
134.1195744778562
 51
46.55338707100654
  0
LINE
  5
4B
330
2
100
AcDbEntity
  8
ADP1DETAIL
100
AcDbLine
 10
27.62981812062369
 20
17.17274357954516
 30
0.0
 11
27.50481812062369
 21
15.17274357954516
 31
0.0
  0
LINE
  5
4C
330
2
100
AcDbEntity
  8
ADP1DETAIL
100
AcDbLine
 10
26.75481812062369
 20
15.17274357954516
 30
0.0
 11
26.62981812062369
 21
17.17274357954516
 31
0.0
  0
ARC
  5
4D
330
2
100
AcDbEntity
  8
ADP1DETAIL
100
AcDbCircle
 10
27.13262675894069
 20
15.64070601082879
 30
0.0
 40
1.42366909638759
100
AcDbArc
 50
110.1569284434358
 51
70.07834509093193
  0
ARC
  5
4E
330
2
100
AcDbEntity
  8
ADP1DETAIL
100
AcDbCircle
 10
27.13262675894069
 20
15.64070601082879
 30
0.0
 40
1.5
100
AcDbArc
 50
109.2907342843342
 51
70.93160598097352
  0
ARC
  5
4F
330
2
100
AcDbEntity
  8
ADP1DETAIL
100
AcDbCircle
 10
24.67747217800118
 20
17.13336841234389
 30
0.0
 40
0.031
100
AcDbArc
 50
0.0
 51
86.48724123885873
  0
ARC
  5
50
330
2
100
AcDbEntity
  8
ADP1DETAIL
100
AcDbCircle
 10
24.67747217800118
 20
16.99918994779229
 30
0.0
 40
0.031
100
AcDbArc
 50
282.9827066843664
 51
0.0
  0
LINE
  5
51
330
2
100
AcDbEntity
  8
ADP1DETAIL
100
AcDbLine
 10
24.70847217800118
 20
17.13336841234389
 30
0.0
 11
24.70847217800118
 21
16.99918994779229
 31
0.0
  0
LINE
  5
52
330
2
100
AcDbEntity
  8
ADP1DETAIL
100
AcDbLine
 10
24.43847217800118
 20
16.94822237011593
 30
0.0
 11
24.43847217800118
 21
16.81322237011593
 31
0.0
  0
LINE
  5
53
330
2
100
AcDbEntity
  8
ADP1DETAIL
100
AcDbLine
 10
24.44167583453005
 20
16.81322237011593
 30
0.0
 11
24.57347217800118
 21
16.81322237011593
 31
0.0
  0
LINE
  5
54
330
2
100
AcDbEntity
  8
ADP1DETAIL
100
AcDbLine
 10
24.57401128199203
 20
16.9435237951254
 30
0.0
 11
24.44167583453005
 21
16.9435237951254
 31
0.0
  0
LINE
  5
55
330
2
100
AcDbEntity
  8
ADP1DETAIL
100
AcDbLine
 10
24.57401128199203
 20
16.9435237951254
 30
0.0
 11
24.6844365435928
 21
16.96898237238634
 31
0.0
  0
LINE
  5
56
330
2
100
AcDbEntity
  8
ADP1DETAIL
100
AcDbLine
 10
23.96847217800118
 20
16.94822237011593
 30
0.0
 11
23.96847217800118
 21
16.81322237011593
 31
0.0
  0
LINE
  5
57
330
2
100
AcDbEntity
  8
ADP1DETAIL
100
AcDbLine
 10
23.83293307401034
 20
16.9435237951254
 30
0.0
 11
23.72250781240956
 21
16.96898237238634
 31
0.0
  0
LINE
  5
58
330
2
100
AcDbEntity
  8
ADP1DETAIL
100
AcDbLine
 10
23.96526841511325
 20
16.81322237011593
 30
0.0
 11
23.83347217800118
 21
16.81322237011593
 31
0.0
  0
LINE
  5
59
330
2
100
AcDbEntity
  8
ADP1DETAIL
100
AcDbLine
 10
23.83293307401034
 20
16.9435237951254
 30
0.0
 11
23.96526841511325
 21
16.9435237951254
 31
0.0
  0
LINE
  5
5A
330
2
100
AcDbEntity
  8
ADP1DETAIL
100
AcDbLine
 10
24.20347217800118
 20
17.1935237951254
 30
0.0
 11
23.72757278304425
 21
17.16431016890033
 31
0.0
  0
LINE
  5
5B
330
2
100
AcDbEntity
  8
ADP1DETAIL
100
AcDbLine
 10
24.20347217800118
 20
17.1935237951254
 30
0.0
 11
24.67937157295811
 21
17.16431016890033
 31
0.0
  0
LINE
  5
5C
330
2
100
AcDbEntity
  8
ADP1DETAIL
100
AcDbLine
 10
23.69847217800118
 20
17.13336841234389
 30
0.0
 11
23.69847217800118
 21
16.99918994779229
 31
0.0
  0
ARC
  5
5D
330
2
100
AcDbEntity
  8
ADP1DETAIL
100
AcDbCircle
 10
23.72947217800118
 20
17.13336841234389
 30
0.0
 40
0.031
100
AcDbArc
 50
93.51275876114126
 51
180.0
  0
ARC
  5
5E
330
2
100
AcDbEntity
  8
ADP1DETAIL
100
AcDbCircle
 10
23.72947217800118
 20
16.99918994779229
 30
0.0
 40
0.031
100
AcDbArc
 50
180.0
 51
257.0172933156335
  0
LINE
  5
5F
330
2
100
AcDbEntity
  8
ADP1DETAIL
100
AcDbLine
 10
24.70847217800118
 20
15.97473647158369
 30
0.0
 11
24.70847217800118
 21
15.69645095238653
 31
0.0
  0
ARC
  5
60
330
2
100
AcDbEntity
  8
ADP2DETAIL
  6
HIDDEN2
100
AcDbCircle
 10
25.40493263617894
 20
15.69645095238653
 30
0.0
 40
0.75
100
AcDbArc
 50
158.2197748746747
 51
180.0
  0
LINE
  5
63
330
2
100
AcDbEntity
  8
ADP1DETAIL
100
AcDbLine
 10
24.70421290628731
 20
15.97659857174872
 30
0.0
 11
24.70421290628731
 21
15.97659857174872
 31
0.0
  0
LINE
  5
64
330
2
100
AcDbEntity
  8
ADP1DETAIL
100
AcDbLine
 10
24.70421290628731
 20
15.41630333302435
 30
0.0
 11
24.70421290628731
 21
15.41630333302435
 31
0.0
  0
LINE
  5
65
330
2
100
AcDbEntity
  8
ADP1DETAIL
100
AcDbLine
 10
24.70847217800118
 20
15.41816543318938
 30
0.0
 11
24.70847217800118
 21
15.69645095238653
 31
0.0
  0
ARC
  5
66
330
2
100
AcDbEntity
  8
ADP2DETAIL
  6
HIDDEN2
100
AcDbCircle
 10
25.40493263617894
 20
15.69645095238653
 30
0.0
 40
0.75
100
AcDbArc
 50
180.0
 51
201.7802251253252
  0
LINE
  5
67
330
2
100
AcDbEntity
  8
ADP1DETAIL
100
AcDbLine
 10
24.58347217800118
 20
15.38395095238653
 30
0.0
 11
24.70421290628731
 21
15.41630333302435
 31
0.0
  0
LINE
  5
68
330
2
100
AcDbEntity
  8
ADP1DETAIL
100
AcDbLine
 10
24.58347217800118
 20
16.00895095238653
 30
0.0
 11
24.70421290628731
 21
15.97659857174872
 31
0.0
  0
LINE
  5
69
330
2
100
AcDbEntity
  8
ADP1DETAIL
100
AcDbLine
 10
23.83347217800118
 20
15.48407589084833
 30
0.0
 11
23.83347217800118
 21
15.85907589084833
 31
0.0
  0
LINE
  5
6A
330
2
100
AcDbEntity
  8
ADP1DETAIL
100
AcDbLine
 10
23.83347217800118
 20
15.98407589084833
 30
0.0
 11
23.83347217800118
 21
15.35907589084833
 31
0.0
  0
LWPOLYLINE
  5
6B
330
2
100
AcDbEntity
  8
ADP1DETAIL
100
AcDbPolyline
 90
        4
 70
     0
 43
0.0
 10
24.20347217800118
 20
15.88022237011593
 10
24.57347217800118
 20
15.88022237011593
 10
24.57347217800118
 20
15.51022237011593
 10
24.20347217800118
 20
15.51022237011593
  0
LINE
  5
71
330
2
100
AcDbEntity
  8
ADP1DETAIL
100
AcDbLine
 10
23.83347217800118
 20
15.19822237011593
 30
0.0
 11
24.20347217800118
 21
15.19822237011593
 31
0.0
  0
LINE
  5
72
330
2
100
AcDbEntity
  8
ADP1DETAIL
100
AcDbLine
 10
24.57347217800118
 20
15.19822237011593
 30
0.0
 11
24.20347217800118
 21
15.19822237011593
 31
0.0
  0
LINE
  5
73
330
2
100
AcDbEntity
  8
ADP1DETAIL
100
AcDbLine
 10
24.20347217800118
 20
15.19822237011593
 30
0.0
 11
24.20347217800118
 21
15.51022237011593
 31
0.0
  0
LINE
  5
74
330
2
100
AcDbEntity
  8
ADP1DETAIL
100
AcDbLine
 10
23.07943441086292
 20
15.4224087074098
 30
0.0
 11
23.07943441086292
 21
15.92074307428687
 31
0.0
  0
LINE
  5
75
330
2
100
AcDbEntity
  8
ADP1DETAIL
100
AcDbLine
 10
23.08347217800118
 20
15.92157589084833
 30
0.0
 11
23.83347217800118
 21
15.98407589084833
 31
0.0
  0
LINE
  5
76
330
2
100
AcDbEntity
  8
ADP1DETAIL
100
AcDbLine
 10
23.83347217800118
 20
15.35907589084833
 30
0.0
 11
23.08347217800118
 21
15.42157589084833
 31
0.0
  0
LINE
  5
77
330
2
100
AcDbEntity
  8
ADP1DETAIL
100
AcDbLine
 10
24.20347217800118
 20
15.88022237011593
 30
0.0
 11
24.20347217800118
 21
17.19474143389368
 31
0.0
  0
LINE
  5
78
330
2
100
AcDbEntity
  8
ADP1DETAIL
100
AcDbLine
 10
24.57347217800118
 20
16.81322237011593
 30
0.0
 11
24.57347217800118
 21
15.19822237011593
 31
0.0
  0
LINE
  5
79
330
2
100
AcDbEntity
  8
ADP1DETAIL
100
AcDbLine
 10
23.83347217800118
 20
16.81322237011593
 30
0.0
 11
23.83347217800118
 21
15.19822237011593
 31
0.0
  0
ARC
  5
7A
330
2
100
AcDbEntity
  8
ADP1DETAIL
100
AcDbCircle
 10
20.89647217800118
 20
17.06066775365126
 30
0.0
 40
0.062
100
AcDbArc
 50
0.0
 51
75.96375653207352
  0
ARC
  5
7B
330
2
100
AcDbEntity
  8
ADP1DETAIL
100
AcDbCircle
 10
20.71847217800118
 20
17.15876812678429
 30
0.0
 40
0.01
100
AcDbArc
 50
75.96375653207326
 51
180.0
  0
LINE
  5
7C
330
2
100
AcDbEntity
  8
ADP1DETAIL
100
AcDbLine
 10
20.72089753425154
 20
17.16846955178574
 30
0.0
 11
20.91150938675343
 21
17.12081658866027
 31
0.0
  0
ARC
  5
7D
330
2
100
AcDbEntity
  8
ADP1DETAIL
100
AcDbCircle
 10
21.44847217800118
 20
16.16376812678429
 30
0.0
 40
0.01
100
AcDbArc
 50
0.0
 51
75.96375653207362
  0
LINE
  5
7E
330
2
100
AcDbEntity
  8
ADP1DETAIL
100
AcDbLine
 10
21.45847217800118
 20
16.10907589084833
 30
0.0
 11
21.58337258404781
 21
16.07507343363591
 31
0.0
  0
ARC
  5
7F
330
2
100
AcDbEntity
  8
ADP1DETAIL
100
AcDbCircle
 10
21.02047217800118
 20
16.34498402804541
 30
0.0
 40
0.062
100
AcDbArc
 50
180.0
 51
255.9637565320735
  0
LINE
  5
80
330
2
100
AcDbEntity
  8
ADP1DETAIL
100
AcDbLine
 10
21.00543496924892
 20
16.2848351930364
 30
0.0
 11
21.45089753425155
 21
16.17346955178574
 31
0.0
  0
LINE
  5
81
330
2
100
AcDbEntity
  8
ADP1DETAIL
100
AcDbLine
 10
21.58337258404781
 20
16.07507343363591
 30
0.0
 11
21.58347217800118
 21
15.67157589084833
 31
0.0
  0
LINE
  5
82
330
2
100
AcDbEntity
  8
ADP1DETAIL
100
AcDbLine
 10
21.45847217800118
 20
15.67157589084833
 30
0.0
 11
21.45847217800118
 21
16.10907589084833
 31
0.0
  0
ARC
  5
83
330
2
100
AcDbEntity
  8
ADP1DETAIL
100
AcDbCircle
 10
21.44847217800118
 20
15.17938365491238
 30
0.0
 40
0.01
100
AcDbArc
 50
284.0362434679261
 51
0.0
  0
LINE
  5
84
330
2
100
AcDbEntity
  8
ADP1DETAIL
100
AcDbLine
 10
21.45847217800118
 20
15.23407589084833
 30
0.0
 11
21.58337258404781
 21
15.26807834806076
 31
0.0
  0
ARC
  5
85
330
2
100
AcDbEntity
  8
ADP1DETAIL
100
AcDbCircle
 10
21.02047217800118
 20
14.99816775365126
 30
0.0
 40
0.062
100
AcDbArc
 50
104.0362434679264
 51
180.0
  0
LINE
  5
86
330
2
100
AcDbEntity
  8
ADP1DETAIL
100
AcDbLine
 10
21.45089753425155
 20
15.16968222991092
 30
0.0
 11
21.00543496924892
 21
15.05831658866027
 31
0.0
  0
ARC
  5
87
330
2
100
AcDbEntity
  8
ADP1DETAIL
100
AcDbCircle
 10
20.89647217800118
 20
14.28248402804541
 30
0.0
 40
0.062
100
AcDbArc
 50
284.0362434679264
 51
0.0
  0
LINE
  5
88
330
2
100
AcDbEntity
  8
ADP1DETAIL
100
AcDbLine
 10
20.95847217800118
 20
14.99816775365126
 30
0.0
 11
20.95847217800118
 21
14.28248402804541
 31
0.0
  0
LINE
  5
89
330
2
100
AcDbEntity
  8
ADP1DETAIL
100
AcDbLine
 10
21.58337258404781
 20
15.26807834806076
 30
0.0
 11
21.58347217800118
 21
15.67157589084833
 31
0.0
  0
LINE
  5
8A
330
2
100
AcDbEntity
  8
ADP1DETAIL
100
AcDbLine
 10
21.45847217800118
 20
16.16376812678429
 30
0.0
 11
21.45847217800118
 21
15.17938365491238
 31
0.0
  0
LINE
  5
8B
330
2
100
AcDbEntity
  8
ADP1DETAIL
100
AcDbLine
 10
21.45847217800118
 20
15.67157589084833
 30
0.0
 11
21.45847217800118
 21
15.23407589084833
 31
0.0
  0
ARC
  5
8C
330
2
100
AcDbEntity
  8
ADP1DETAIL
100
AcDbCircle
 10
20.71847217800118
 20
14.18438365491238
 30
0.0
 40
0.01
100
AcDbArc
 50
180.0
 51
284.0362434679263
  0
LINE
  5
8D
330
2
100
AcDbEntity
  8
ADP1DETAIL
100
AcDbLine
 10
20.91150938675343
 20
14.2223351930364
 30
0.0
 11
20.72089753425154
 21
14.17468222991093
 31
0.0
  0
LINE
  5
8E
330
2
100
AcDbEntity
  8
ADP1DETAIL
100
AcDbLine
 10
20.70847217800118
 20
14.18438365491238
 30
0.0
 11
20.70847217800118
 21
17.15876812678429
 31
0.0
  0
LINE
  5
8F
330
2
100
AcDbEntity
  8
ADP1DETAIL
100
AcDbLine
 10
20.95847217800118
 20
17.06066775365126
 30
0.0
 11
20.95847217800118
 21
14.97042092987203
 31
0.0
  0
DIMENSION
  5
90
330
2
100
AcDbEntity
  8
ADPDIM
100
AcDbDimension
  2
*D2
 10
24.20347217800118
 20
17.44956499023262
 30
0.0
 11
22.45597217800118
 21
17.44956499023262
 31
0.0
 70
    32
  3
STANDARD
100
AcDbAlignedDimension
 13
20.70847217800118
 23
17.15876812678429
 33
0.0
 14
24.20347217800118
 24
17.19474143389368
 34
0.0
100
AcDbRotatedDimension
1001
ACAD
1000
DSTYLE
1002
{
1070
   270
1070
     7
1070
   270
1070
     7
1070
   270
1070
     7
1070
   270
1070
     7
1070
   270
1070
     7
1070
    41
1040
0.125
1070
    73
1070
     0
1070
    74
1070
     0
1070
    78
1070
     2
1070
   140
1040
0.125
1070
   141
1040
0.1875
1070
   142
1040
0.125
1070
   147
1040
0.125
1070
   171
1070
     1
1070
   276
1070
     2
1070
   277
1070
     5
1002
}
  0
LINE
  5
9E
330
2
100
AcDbEntity
  8
ADP1DETAIL
100
AcDbLine
 10
23.08347217800118
 20
15.42157589084833
 30
0.0
 11
21.58347217800118
 21
15.29657589084833
 31
0.0
  0
LINE
  5
9F
330
2
100
AcDbEntity
  8
ADP1DETAIL
100
AcDbLine
 10
21.58347217800118
 20
16.04657589084833
 30
0.0
 11
23.08347217800118
 21
15.92157589084833
 31
0.0
  0
DIMENSION
  5
A0
330
2
100
AcDbEntity
  8
ADPDIM
100
AcDbDimension
  2
*D3
 10
25.31263161234596
 20
15.69645095238653
 30
0.0
 11
25.31263161234596
 21
16.44498737375597
 31
0.0
 70
    32
  3
STANDARD
100
AcDbAlignedDimension
 13
24.20347217800118
 23
17.19352379512541
 33
0.0
 14
24.70847217800118
 24
15.69645095238653
 34
0.0
 50
90.0
100
AcDbRotatedDimension
1001
ACAD
1000
DSTYLE
1002
{
1070
   270
1070
     7
1070
   270
1070
     7
1070
   270
1070
     7
1070
   270
1070
     7
1070
   270
1070
     7
1070
    41
1040
0.125
1070
    73
1070
     0
1070
    74
1070
     0
1070
    78
1070
     2
1070
   140
1040
0.125
1070
   141
1040
0.1875
1070
   142
1040
0.125
1070
   147
1040
0.125
1070
   171
1070
     1
1070
   276
1070
     2
1070
   277
1070
     5
1002
}
  0
TEXT
  5
B8
330
2
100
AcDbEntity
  8
ADPDIM
100
AcDbText
 10
17.91816288897362
 20
12.85555555948709
 30
0.0
 40
0.125
  1
J U L I U S  B L U M  &  C O . ,  I N C .      ( 8 0 0 )  5 2 6 - 6 2 9 3        W W W . J U L I U S B L U M . C O M        P A R T  N O .  1 7 4
 41
1.25
  7
ARIAL_WIDE
 72
     1
 11
24.37706466250705
 21
12.98055555948709
 31
0.0
100
AcDbText
 73
     3
  0
ENDSEC
  0
SECTION
  2
OBJECTS
  0
DICTIONARY
  5
1A
330
0
100
AcDbDictionary
  3
ACAD_GROUP
350
18
  3
ACAD_LAYOUT
350
BD
  3
ACAD_MLINESTYLE
350
19
  3
ACAD_PLOTSETTINGS
350
BE
  3
ACAD_PLOTSTYLENAME
350
BB
  3
ACDBHEADERROUNDTRIPXREC
350
287
  3
ACDBVARIABLEDICTIONARY
350
124
  0
DICTIONARY
  5
E8
330
2
100
AcDbDictionary
280
     1
  3
ACAD_LAYOUTSELFREF
360
2A8
  0
DICTIONARY
  5
EA
330
8
100
AcDbDictionary
280
     1
  3
ACAD_LAYOUTSELFREF
360
2A9
  0
DICTIONARY
  5
18
102
{ACAD_REACTORS
330
1A
102
}
330
1A
100
AcDbDictionary
  0
DICTIONARY
  5
BD
102
{ACAD_REACTORS
330
1A
102
}
330
1A
100
AcDbDictionary
  0
DICTIONARY
  5
19
102
{ACAD_REACTORS
330
1A
102
}
330
1A
100
AcDbDictionary
  3
STANDARD
350
1C
  0
DICTIONARY
  5
BE
102
{ACAD_REACTORS
330
1A
102
}
330
1A
100
AcDbDictionary
  0
ACDBDICTIONARYWDFLT
  5
BB
102
{ACAD_REACTORS
330
1A
102
}
330
1A
100
AcDbDictionary
281
     1
  3
Normal
350
BC
100
AcDbDictionaryWithDefault
340
BC
  0
DICTIONARY
  5
287
102
{ACAD_REACTORS
330
1A
102
}
330
1A
100
AcDbDictionary
  3
CEPSNTYPE
350
291
  3
DIMSTYLEDATA
350
295
  3
FINGERPRINTGUID
350
292
  3
HYPERLINKBASE
350
28A
  3
INSUNITS
350
290
  3
LAYOUTDICT
350
28C
  3
LWETCUNION
350
28F
  3
PLOTSETDICT
350
28D
  3
PLOTSTYLNAMDICT
350
28E
  3
PSVPSCALE
350
294
  3
PUCSBASE
350
298
  3
PUCSORGBACK
350
29E
  3
PUCSORGBOTTOM
350
29A
  3
PUCSORGFRONT
350
29D
  3
PUCSORGLEFT
350
29B
  3
PUCSORGRIGHT
350
29C
  3
PUCSORGTOP
350
299
  3
PUCSORTHOREF
350
296
  3
PUCSORTHOVIEW
350
297
  3
STYLESHEET
350
28B
  3
TSTACKALIGN
350
288
  3
TSTACKSIZE
350
289
  3
UCSBASE
350
2A1
  3
UCSORGBACK
350
2A7
  3
UCSORGBOTTOM
350
2A3
  3
UCSORGFRONT
350
2A6
  3
UCSORGLEFT
350
2A4
  3
UCSORGRIGHT
350
2A5
  3
UCSORGTOP
350
2A2
  3
UCSORTHOREF
350
29F
  3
UCSORTHOVIEW
350
2A0
  3
VERSIONGUID
350
293
  0
DICTIONARY
  5
124
102
{ACAD_REACTORS
330
1A
102
}
330
1A
100
AcDbDictionary
  3
DIMASSOC
350
125
  0
XRECORD
  5
2A8
102
{ACAD_REACTORS
330
E8
102
}
330
E8
100
AcDbXrecord
340
2
  0
XRECORD
  5
2A9
102
{ACAD_REACTORS
330
EA
102
}
330
EA
100
AcDbXrecord
340
8
  0
MLINESTYLE
  5
1C
102
{ACAD_REACTORS
330
19
102
}
330
19
100
AcDbMlineStyle
  2
STANDARD
 70
     0
  3

 62
     0
 51
90.0
 52
90.0
 71
     2
 49
0.5
 62
   256
  6
BYLAYER
 49
-0.5
 62
   256
  6
BYLAYER
  0
ACDBPLACEHOLDER
  5
BC
102
{ACAD_REACTORS
330
BB
102
}
330
BB
100
AcDbPlaceHolder
280
     0
  0
XRECORD
  5
291
102
{ACAD_REACTORS
330
287
102
}
330
287
100
AcDbXrecord
 90
        0
  0
XRECORD
  5
295
102
{ACAD_REACTORS
330
287
102
}
330
287
100
AcDbXrecord
1000
DSTYLE
1002
{
1070
   276
 70
     2
1070
   277
 70
     5
1002
}
  0
XRECORD
  5
292
102
{ACAD_REACTORS
330
287
102
}
330
287
100
AcDbXrecord
  1
{353910B0-718C-4586-BE79-13B913444B7B}
  0
XRECORD
  5
28A
102
{ACAD_REACTORS
330
287
102
}
330
287
100
AcDbXrecord
  1

  0
XRECORD
  5
290
102
{ACAD_REACTORS
330
287
102
}
330
287
100
AcDbXrecord
 90
        0
  0
XRECORD
  5
28C
102
{ACAD_REACTORS
330
287
102
}
330
287
100
AcDbXrecord
340
BD
  0
XRECORD
  5
28F
102
{ACAD_REACTORS
330
287
102
}
330
287
100
AcDbXrecord
 90
    14877
  0
XRECORD
  5
28D
102
{ACAD_REACTORS
330
287
102
}
330
287
100
AcDbXrecord
340
BE
  0
XRECORD
  5
28E
102
{ACAD_REACTORS
330
287
102
}
330
287
100
AcDbXrecord
340
BB
  0
XRECORD
  5
294
102
{ACAD_REACTORS
330
287
102
}
330
287
100
AcDbXrecord
 40
0.0
  0
XRECORD
  5
298
102
{ACAD_REACTORS
330
287
102
}
330
287
100
AcDbXrecord
340
0
  0
XRECORD
  5
29E
102
{ACAD_REACTORS
330
287
102
}
330
287
100
AcDbXrecord
 10
0.0
 20
0.0
 30
0.0
  0
XRECORD
  5
29A
102
{ACAD_REACTORS
330
287
102
}
330
287
100
AcDbXrecord
 10
0.0
 20
0.0
 30
0.0
  0
XRECORD
  5
29D
102
{ACAD_REACTORS
330
287
102
}
330
287
100
AcDbXrecord
 10
0.0
 20
0.0
 30
0.0
  0
XRECORD
  5
29B
102
{ACAD_REACTORS
330
287
102
}
330
287
100
AcDbXrecord
 10
0.0
 20
0.0
 30
0.0
  0
XRECORD
  5
29C
102
{ACAD_REACTORS
330
287
102
}
330
287
100
AcDbXrecord
 10
0.0
 20
0.0
 30
0.0
  0
XRECORD
  5
299
102
{ACAD_REACTORS
330
287
102
}
330
287
100
AcDbXrecord
 10
0.0
 20
0.0
 30
0.0
  0
XRECORD
  5
296
102
{ACAD_REACTORS
330
287
102
}
330
287
100
AcDbXrecord
340
0
  0
XRECORD
  5
297
102
{ACAD_REACTORS
330
287
102
}
330
287
100
AcDbXrecord
 70
     0
  0
XRECORD
  5
28B
102
{ACAD_REACTORS
330
287
102
}
330
287
100
AcDbXrecord
  1

  0
XRECORD
  5
288
102
{ACAD_REACTORS
330
287
102
}
330
287
100
AcDbXrecord
 90
        1
  0
XRECORD
  5
289
102
{ACAD_REACTORS
330
287
102
}
330
287
100
AcDbXrecord
 90
       70
  0
XRECORD
  5
2A1
102
{ACAD_REACTORS
330
287
102
}
330
287
100
AcDbXrecord
340
0
  0
XRECORD
  5
2A7
102
{ACAD_REACTORS
330
287
102
}
330
287
100
AcDbXrecord
 10
0.0
 20
0.0
 30
0.0
  0
XRECORD
  5
2A3
102
{ACAD_REACTORS
330
287
102
}
330
287
100
AcDbXrecord
 10
0.0
 20
0.0
 30
0.0
  0
XRECORD
  5
2A6
102
{ACAD_REACTORS
330
287
102
}
330
287
100
AcDbXrecord
 10
0.0
 20
0.0
 30
0.0
  0
XRECORD
  5
2A4
102
{ACAD_REACTORS
330
287
102
}
330
287
100
AcDbXrecord
 10
0.0
 20
0.0
 30
0.0
  0
XRECORD
  5
2A5
102
{ACAD_REACTORS
330
287
102
}
330
287
100
AcDbXrecord
 10
0.0
 20
0.0
 30
0.0
  0
XRECORD
  5
2A2
102
{ACAD_REACTORS
330
287
102
}
330
287
100
AcDbXrecord
 10
0.0
 20
0.0
 30
0.0
  0
XRECORD
  5
29F
102
{ACAD_REACTORS
330
287
102
}
330
287
100
AcDbXrecord
340
0
  0
XRECORD
  5
2A0
102
{ACAD_REACTORS
330
287
102
}
330
287
100
AcDbXrecord
 70
     0
  0
XRECORD
  5
293
102
{ACAD_REACTORS
330
287
102
}
330
287
100
AcDbXrecord
  1
{4856C49A-0D96-4B3C-8102-BACEA3920EBB}
  0
DICTIONARYVAR
  5
125
102
{ACAD_REACTORS
330
124
102
}
330
124
100
DictionaryVariables
280
     0
  1
1
  0
ENDSEC
  0
EOF
