  0
SECTION
  2
HEADER
  9
$ACADVER
  1
AC1014
  9
$ACADMAINTVER
 70
     9
  9
$DWGCODEPAGE
  3
ANSI_1252
  9
$INSBASE
 10
20.71550031823246
 20
14.03100437833006
 30
0.0
  9
$EXTMIN
 10
17.73561882809394
 20
12.53372142047624
 30
0.0
  9
$EXTMAX
 10
30.65342237516079
 20
17.47955078614019
 30
0.0
  9
$LIMMIN
 10
0.0
 20
0.0
  9
$LIMMAX
 10
36.0
 20
36.0
  9
$ORTHOMODE
 70
     1
  9
$REGENMODE
 70
     1
  9
$FILLMODE
 70
     1
  9
$QTEXTMODE
 70
     0
  9
$MIRRTEXT
 70
     1
  9
$DRAGMODE
 70
     0
  9
$LTSCALE
 40
1.0
  9
$OSMODE
 70
    37
  9
$ATTMODE
 70
     1
  9
$TEXTSIZE
 40
0.2
  9
$TRACEWID
 40
0.05
  9
$TEXTSTYLE
  7
STANDARD
  9
$CLAYER
  8
ADPDIM
  9
$CELTYPE
  6
BYLAYER
  9
$CECOLOR
 62
   256
  9
$CELTSCALE
 40
1.0
  9
$DELOBJ
 70
     1
  9
$DISPSILH
 70
     0
  9
$DIMSCALE
 40
1.0
  9
$DIMASZ
 40
0.125
  9
$DIMEXO
 40
0.0625
  9
$DIMDLI
 40
0.38
  9
$DIMRND
 40
0.0
  9
$DIMDLE
 40
0.0
  9
$DIMEXE
 40
0.18
  9
$DIMTP
 40
0.0
  9
$DIMTM
 40
0.0
  9
$DIMTXT
 40
0.125
  9
$DIMCEN
 40
0.1875
  9
$DIMTSZ
 40
0.125
  9
$DIMTOL
 70
     0
  9
$DIMLIM
 70
     0
  9
$DIMTIH
 70
     0
  9
$DIMTOH
 70
     0
  9
$DIMSE1
 70
     0
  9
$DIMSE2
 70
     0
  9
$DIMTAD
 70
     0
  9
$DIMZIN
 70
     2
  9
$DIMBLK
  1

  9
$DIMASO
 70
     1
  9
$DIMSHO
 70
     1
  9
$DIMPOST
  1

  9
$DIMAPOST
  1

  9
$DIMALT
 70
     0
  9
$DIMALTD
 70
     1
  9
$DIMALTF
 40
25.4
  9
$DIMLFAC
 40
1.0
  9
$DIMTOFL
 70
     0
  9
$DIMTVP
 40
0.0
  9
$DIMTIX
 70
     0
  9
$DIMSOXD
 70
     0
  9
$DIMSAH
 70
     0
  9
$DIMBLK1
  1

  9
$DIMBLK2
  1

  9
$DIMSTYLE
  2
STANDARD
  9
$DIMCLRD
 70
     0
  9
$DIMCLRE
 70
     0
  9
$DIMCLRT
 70
     0
  9
$DIMTFAC
 40
1.0
  9
$DIMGAP
 40
0.125
  9
$DIMJUST
 70
     0
  9
$DIMSD1
 70
     0
  9
$DIMSD2
 70
     0
  9
$DIMTOLJ
 70
     1
  9
$DIMTZIN
 70
     0
  9
$DIMALTZ
 70
     0
  9
$DIMALTTZ
 70
     0
  9
$DIMFIT
 70
     3
  9
$DIMUPT
 70
     0
  9
$DIMUNIT
 70
     7
  9
$DIMDEC
 70
     4
  9
$DIMTDEC
 70
     4
  9
$DIMALTU
 70
     2
  9
$DIMALTTD
 70
     2
  9
$DIMTXSTY
  7
STANDARD
  9
$DIMAUNIT
 70
     0
  9
$LUNITS
 70
     5
  9
$LUPREC
 70
     4
  9
$SKETCHINC
 40
0.1
  9
$FILLETRAD
 40
0.062
  9
$AUNITS
 70
     0
  9
$AUPREC
 70
     0
  9
$MENU
  1
acad
  9
$ELEVATION
 40
0.0
  9
$PELEVATION
 40
0.0
  9
$THICKNESS
 40
0.0
  9
$LIMCHECK
 70
     0
  9
$BLIPMODE
 70
     0
  9
$CHAMFERA
 40
0.0
  9
$CHAMFERB
 40
0.0
  9
$CHAMFERC
 40
0.0
  9
$CHAMFERD
 40
0.0
  9
$SKPOLY
 70
     0
  9
$TDCREATE
 40
2450386.504063460
  9
$TDUPDATE
 40
2452297.064604849
  9
$TDINDWG
 40
0.0145353472
  9
$TDUSRTIMER
 40
0.0145353472
  9
$USRTIMER
 70
     1
  9
$ANGBASE
 50
0.0
  9
$ANGDIR
 70
     0
  9
$PDMODE
 70
     0
  9
$PDSIZE
 40
0.0
  9
$PLINEWID
 40
0.0
  9
$COORDS
 70
     2
  9
$SPLFRAME
 70
     0
  9
$SPLINETYPE
 70
     6
  9
$SPLINESEGS
 70
     8
  9
$ATTDIA
 70
     0
  9
$ATTREQ
 70
     1
  9
$HANDLING
 70
 22529
  9
$HANDSEED
  5
2CF
  9
$SURFTAB1
 70
     6
  9
$SURFTAB2
 70
     6
  9
$SURFTYPE
 70
     6
  9
$SURFU
 70
     6
  9
$SURFV
 70
     6
  9
$UCSNAME
  2

  9
$UCSORG
 10
0.0
 20
0.0
 30
0.0
  9
$UCSXDIR
 10
1.0
 20
0.0
 30
0.0
  9
$UCSYDIR
 10
0.0
 20
1.0
 30
0.0
  9
$PUCSNAME
  2

  9
$PUCSORG
 10
0.0
 20
0.0
 30
0.0
  9
$PUCSXDIR
 10
1.0
 20
0.0
 30
0.0
  9
$PUCSYDIR
 10
0.0
 20
1.0
 30
0.0
  9
$USERI1
 70
     0
  9
$USERI2
 70
     0
  9
$USERI3
 70
     0
  9
$USERI4
 70
     0
  9
$USERI5
 70
     0
  9
$USERR1
 40
0.0
  9
$USERR2
 40
0.0
  9
$USERR3
 40
0.0
  9
$USERR4
 40
0.0
  9
$USERR5
 40
0.0
  9
$WORLDVIEW
 70
     1
  9
$SHADEDGE
 70
     3
  9
$SHADEDIF
 70
    70
  9
$TILEMODE
 70
     1
  9
$MAXACTVP
 70
    15
  9
$PINSBASE
 10
4.403525741743744E+99
 20
7.061986388769092E+99
 30
0.0
  9
$PLIMCHECK
 70
     0
  9
$PEXTMIN
 10
1.000000000000000E+20
 20
1.000000000000000E+20
 30
1.000000000000000E+20
  9
$PEXTMAX
 10
-1.000000000000000E+20
 20
-1.000000000000000E+20
 30
-1.000000000000000E+20
  9
$PLIMMIN
 10
0.0
 20
0.0
  9
$PLIMMAX
 10
12.0
 20
9.0
  9
$UNITMODE
 70
     0
  9
$VISRETAIN
 70
     0
  9
$PLINEGEN
 70
     0
  9
$PSLTSCALE
 70
     1
  9
$TREEDEPTH
 70
  3020
  9
$PICKSTYLE
 70
     1
  9
$CMLSTYLE
  2
STANDARD
  9
$CMLJUST
 70
     0
  9
$CMLSCALE
 40
1.0
  9
$PROXYGRAPHICS
 70
     1
  9
$MEASUREMENT
 70
     0
  0
ENDSEC
  0
SECTION
  2
CLASSES
  0
CLASS
  1
LWPOLYLINE
  2
AcDbPolyline
  3
AutoCAD 2000
 90
        0
280
     0
281
     1
  0
CLASS
  1
ACDBDICTIONARYWDFLT
  2
AcDbDictionaryWithDefault
  3
AutoCAD 2000
 90
        0
280
     0
281
     0
  0
CLASS
  1
ACDBPLACEHOLDER
  2
AcDbPlaceHolder
  3
AutoCAD 2000
 90
        0
280
     0
281
     0
  0
CLASS
  1
LAYOUT
  2
AcDbLayout
  3
AutoCAD 2000
 90
        0
280
     0
281
     0
  0
CLASS
  1
DICTIONARYVAR
  2
AcDbDictionaryVar
  3
AutoCAD 2000
 90
        0
280
     0
281
     0
  0
CLASS
  1
LONG_TRANSACTION
  2
AcDbLongTransaction
  3
AutoCAD 2000
 90
        0
280
     0
281
     0
  0
CLASS
  1
LWPOLYLINE
  2
AcDbPolyline
  3
AutoCAD 2000
 90
        0
280
     0
281
     1
  0
CLASS
  1
HATCH
  2
AcDbHatch
  3
AutoCAD 2000
 90
        0
280
     0
281
     1
  0
CLASS
  1
XRECORD
  2
AcDbXrecord
  3
AutoCAD 2000
 90
        0
280
     0
281
     0
  0
CLASS
  1
LONG_TRANSACTION
  2
AcDbLongTransaction
  3
AutoCAD 2000
 90
        0
280
     0
281
     0
  0
CLASS
  1
LWPOLYLINE
  2
AcDbPolyline
  3
AutoCAD 2000
 90
        0
280
     0
281
     1
  0
CLASS
  1
HATCH
  2
AcDbHatch
  3
AutoCAD 2000
 90
        0
280
     0
281
     1
  0
CLASS
  1
XRECORD
  2
AcDbXrecord
  3
AutoCAD 2000
 90
        0
280
     0
281
     0
  0
CLASS
  1
LONG_TRANSACTION
  2
AcDbLongTransaction
  3
AutoCAD 2000
 90
        0
280
     0
281
     0
  0
CLASS
  1
LWPOLYLINE
  2
AcDbPolyline
  3
AutoCAD 2000
 90
        0
280
     0
281
     1
  0
CLASS
  1
HATCH
  2
AcDbHatch
  3
AutoCAD 2000
 90
        0
280
     0
281
     1
  0
CLASS
  1
XRECORD
  2
AcDbXrecord
  3
AutoCAD 2000
 90
        0
280
     0
281
     0
  0
CLASS
  1
LONG_TRANSACTION
  2
AcDbLongTransaction
  3
AutoCAD 2000
 90
        0
280
     0
281
     0
  0
CLASS
  1
LWPOLYLINE
  2
AcDbPolyline
  3
AutoCAD 2000
 90
        0
280
     0
281
     1
  0
CLASS
  1
HATCH
  2
AcDbHatch
  3
AutoCAD 2000
 90
        0
280
     0
281
     1
  0
CLASS
  1
XRECORD
  2
AcDbXrecord
  3
AutoCAD 2000
 90
        0
280
     0
281
     0
  0
CLASS
  1
LONG_TRANSACTION
  2
AcDbLongTransaction
  3
AutoCAD 2000
 90
        0
280
     0
281
     0
  0
CLASS
  1
LWPOLYLINE
  2
AcDbPolyline
  3
AutoCAD 2000
 90
        0
280
     0
281
     1
  0
CLASS
  1
HATCH
  2
AcDbHatch
  3
AutoCAD 2000
 90
        0
280
     0
281
     1
  0
CLASS
  1
XRECORD
  2
AcDbXrecord
  3
AutoCAD 2000
 90
        0
280
     0
281
     0
  0
ENDSEC
  0
SECTION
  2
TABLES
  0
TABLE
  2
VPORT
  5
12
330
0
100
AcDbSymbolTable
 70
     2
  0
VPORT
  5
283
330
12
100
AcDbSymbolTableRecord
100
AcDbViewportTableRecord
  2
*ACTIVE
 70
     0
 10
0.0
 20
0.0
 11
1.0
 21
1.0
 12
24.19354257149802
 22
15.00622566627132
 13
0.0
 23
0.0
 14
0.5740882589684922
 24
0.5740882589684922
 15
0.5
 25
0.5
 16
0.0
 26
0.0
 36
1.0
 17
0.0
 27
0.0
 37
0.0
 40
8.266010207072932
 41
1.570528967254408
 42
50.0
 43
0.0
 44
0.0
 50
0.0
 51
0.0
 71
     0
 72
   100
 73
     1
 74
     0
 75
     0
 76
     0
 77
     0
 78
     1
  0
ENDTAB
  0
TABLE
  2
LTYPE
  5
E
330
0
100
AcDbSymbolTable
 70
     2
  0
LTYPE
  5
F
330
E
100
AcDbSymbolTableRecord
100
AcDbLinetypeTableRecord
  2
BYBLOCK
 70
     0
  3

 72
    65
 73
     0
 40
0.0
  0
LTYPE
  5
6
330
E
100
AcDbSymbolTableRecord
100
AcDbLinetypeTableRecord
  2
BYLAYER
 70
     0
  3

 72
    65
 73
     0
 40
0.0
  0
LTYPE
  5
5
330
E
100
AcDbSymbolTableRecord
100
AcDbLinetypeTableRecord
  2
CONTINUOUS
 70
     0
  3
Solid line
 72
    65
 73
     0
 40
0.0
  0
LTYPE
  5
3C
330
E
100
AcDbSymbolTableRecord
100
AcDbLinetypeTableRecord
  2
HIDDEN2
 70
     0
  3
_ _ _ _ _ _ _ _ _ _ _ _ _ _ _ _ _ _ _ _ _ _ _ _
 72
    65
 73
     2
 40
0.1875
 49
0.125
 74
     0
 49
-0.0625
 74
     0
  0
ENDTAB
  0
TABLE
  2
LAYER
  5
B
330
0
100
AcDbSymbolTable
 70
     5
  0
LAYER
  5
4
330
B
100
AcDbSymbolTableRecord
100
AcDbLayerTableRecord
  2
0
 70
     0
 62
     7
  6
CONTINUOUS
  0
LAYER
  5
2E
330
B
100
AcDbSymbolTableRecord
100
AcDbLayerTableRecord
  2
ADP1DETAIL
 70
     0
 62
     7
  6
CONTINUOUS
  0
LAYER
  5
28
330
B
100
AcDbSymbolTableRecord
100
AcDbLayerTableRecord
  2
DEFPOINTS
 70
     0
 62
     7
  6
CONTINUOUS
  0
LAYER
  5
1B
330
B
100
AcDbSymbolTableRecord
100
AcDbLayerTableRecord
  2
ADPDIM
 70
     0
 62
     3
  6
CONTINUOUS
  0
LAYER
  5
3B
330
B
100
AcDbSymbolTableRecord
100
AcDbLayerTableRecord
  2
ADP2DETAIL
 70
     0
 62
     5
  6
CONTINUOUS
  0
ENDTAB
  0
TABLE
  2
STYLE
  5
C
330
0
100
AcDbSymbolTable
 70
     2
  0
STYLE
  5
D
330
C
100
AcDbSymbolTableRecord
100
AcDbTextStyleTableRecord
  2
STANDARD
 70
     0
 40
0.0
 41
1.0
 50
0.0
 71
     0
 42
0.2
  3
txt
  4

  0
STYLE
  5
AE
330
C
100
AcDbSymbolTableRecord
100
AcDbTextStyleTableRecord
  2
ARIAL_WIDE
 70
     0
 40
0.0
 41
1.25
 50
0.0
 71
     0
 42
0.2
  3
ARIAL.TTF
  4

1001
ACAD
1000
Arial
1071
       34
  0
ENDTAB
  0
TABLE
  2
VIEW
  5
10
330
0
100
AcDbSymbolTable
 70
     0
  0
ENDTAB
  0
TABLE
  2
UCS
  5
11
330
0
100
AcDbSymbolTable
 70
     0
  0
ENDTAB
  0
TABLE
  2
APPID
  5
14
330
0
100
AcDbSymbolTable
 70
     1
  0
APPID
  5
15
330
14
100
AcDbSymbolTableRecord
100
AcDbRegAppTableRecord
  2
ACAD
 70
     0
  0
ENDTAB
  0
TABLE
  2
DIMSTYLE
  5
16
330
0
100
AcDbSymbolTable
 70
     1
  0
DIMSTYLE
105
1D
102
{ACAD_REACTORS
330
1E
330
5D
330
7B
330
90
102
}
330
16
100
AcDbSymbolTableRecord
100
AcDbDimStyleTableRecord
  2
STANDARD
 70
     0
  3

  4

  5

  6

  7

 40
1.0
 41
0.18
 42
0.0625
 43
0.38
 44
0.18
 45
0.0
 46
0.0
 47
0.0
 48
0.0
140
0.18
141
0.09
142
0.0
143
25.4
144
1.0
145
0.0
146
1.0
147
0.09
 71
     0
 72
     0
 73
     1
 74
     1
 75
     0
 76
     0
 77
     0
 78
     0
170
     0
171
     2
172
     0
173
     0
174
     0
175
     0
176
     0
177
     0
178
     0
270
     2
271
     4
272
     4
273
     2
274
     2
340
D
275
     0
280
     0
281
     0
282
     0
283
     1
284
     0
285
     0
286
     0
287
     3
288
     0
  0
ENDTAB
  0
TABLE
  2
BLOCK_RECORD
  5
1
330
0
100
AcDbSymbolTable
 70
     4
  0
BLOCK_RECORD
  5
2
102
{ACAD_XDICTIONARY
360
E5
102
}
330
1
100
AcDbSymbolTableRecord
100
AcDbBlockTableRecord
  2
*MODEL_SPACE
  0
BLOCK_RECORD
  5
8
102
{ACAD_XDICTIONARY
360
E7
102
}
330
1
100
AcDbSymbolTableRecord
100
AcDbBlockTableRecord
  2
*PAPER_SPACE
  0
BLOCK_RECORD
  5
E9
330
1
100
AcDbSymbolTableRecord
100
AcDbBlockTableRecord
  2
*D0
  0
BLOCK_RECORD
  5
F8
330
1
100
AcDbSymbolTableRecord
100
AcDbBlockTableRecord
  2
*D1
  0
BLOCK_RECORD
  5
105
330
1
100
AcDbSymbolTableRecord
100
AcDbBlockTableRecord
  2
*D2
  0
BLOCK_RECORD
  5
112
330
1
100
AcDbSymbolTableRecord
100
AcDbBlockTableRecord
  2
*D3
  0
ENDTAB
  0
ENDSEC
  0
SECTION
  2
BLOCKS
  0
BLOCK
  5
3
330
2
100
AcDbEntity
  8
0
100
AcDbBlockBegin
  2
*MODEL_SPACE
 70
     0
 10
0.0
 20
0.0
 30
0.0
  3
*MODEL_SPACE
  1

  0
ENDBLK
  5
7
330
2
100
AcDbEntity
  8
0
100
AcDbBlockEnd
  0
BLOCK
  5
9
330
8
100
AcDbEntity
 67
     1
  8
0
100
AcDbBlockBegin
  2
*PAPER_SPACE
 70
     0
 10
0.0
 20
0.0
 30
0.0
  3
*PAPER_SPACE
  1

  0
ENDBLK
  5
A
330
8
100
AcDbEntity
 67
     1
  8
0
100
AcDbBlockEnd
  0
BLOCK
  5
F4
330
E9
100
AcDbEntity
  8
0
100
AcDbBlockBegin
  2
*D0
 70
     1
 10
0.0
 20
0.0
 30
0.0
  3
*D0
  1

  0
LINE
  5
2A7
330
E9
100
AcDbEntity
  8
ADPDIM
 62
     0
100
AcDbLine
 10
20.65300031823245
 20
17.00538885020197
 30
0.0
 11
20.24595717519277
 21
17.00538885020197
 31
0.0
  0
LINE
  5
2A8
330
E9
100
AcDbEntity
  8
ADPDIM
 62
     0
100
AcDbLine
 10
20.65300031823245
 20
14.03100437833006
 30
0.0
 11
20.24595717519277
 21
14.03100437833006
 31
0.0
  0
LINE
  5
2A9
330
E9
100
AcDbEntity
  8
ADPDIM
 62
     0
100
AcDbLine
 10
20.42595717519276
 20
17.00538885020197
 30
0.0
 11
20.42595717519276
 21
15.68486328093269
 31
0.0
  0
LINE
  5
2AA
330
E9
100
AcDbEntity
  8
ADPDIM
 62
     0
100
AcDbLine
 10
20.42595717519276
 20
14.03100437833006
 30
0.0
 11
20.42595717519276
 21
15.35152994759935
 31
0.0
  0
LINE
  5
2AB
330
E9
100
AcDbEntity
  8
ADPDIM
 62
     0
100
AcDbLine
 10
20.55095717519276
 20
13.90600437833006
 30
0.0
 11
20.30095717519276
 21
14.15600437833006
 31
0.0
  0
LINE
  5
2AC
330
E9
100
AcDbEntity
  8
ADPDIM
 62
     0
100
AcDbLine
 10
20.55095717519276
 20
16.88038885020197
 30
0.0
 11
20.30095717519276
 21
17.13038885020197
 31
0.0
  0
MTEXT
  5
2AD
330
E9
100
AcDbEntity
  8
ADPDIM
 62
     0
100
AcDbMText
 10
20.42595717519276
 20
15.51819661426602
 30
0.0
 40
0.125
 41
0.0
 71
     5
 72
     1
  1
\A1;3
 11
0.0000000000000001
 21
1.0
 31
0.0
  0
POINT
  5
2AE
330
E9
100
AcDbEntity
  8
DEFPOINTS
 62
     0
100
AcDbPoint
 10
20.71550031823246
 20
17.00538885020197
 30
0.0
  0
POINT
  5
2AF
330
E9
100
AcDbEntity
  8
DEFPOINTS
 62
     0
100
AcDbPoint
 10
20.71550031823246
 20
14.03100437833006
 30
0.0
  0
POINT
  5
2B0
330
E9
100
AcDbEntity
  8
DEFPOINTS
 62
     0
100
AcDbPoint
 10
20.42595717519276
 20
14.03100437833006
 30
0.0
  0
ENDBLK
  5
F5
330
E9
100
AcDbEntity
  8
0
100
AcDbBlockEnd
  0
BLOCK
  5
103
330
F8
100
AcDbEntity
  8
0
100
AcDbBlockBegin
  2
*D1
 70
     1
 10
0.0
 20
0.0
 30
0.0
  3
*D1
  1

  0
LINE
  5
2B1
330
F8
100
AcDbEntity
  8
ADPDIM
 62
     0
100
AcDbLine
 10
23.77800031823245
 20
17.02978673956179
 30
0.0
 11
25.00465975257724
 21
17.02978673956178
 31
0.0
  0
LINE
  5
2B2
330
F8
100
AcDbEntity
  8
ADPDIM
 62
     0
100
AcDbLine
 10
24.28300031823245
 20
15.53271389682291
 30
0.0
 11
25.00465975257724
 21
15.53271389682291
 31
0.0
  0
LINE
  5
2B3
330
F8
100
AcDbEntity
  8
ADPDIM
 62
     0
100
AcDbLine
 10
24.82465975257724
 20
17.02978673956178
 30
0.0
 11
24.82465975257724
 21
16.65625031819235
 31
0.0
  0
LINE
  5
2B4
330
F8
100
AcDbEntity
  8
ADPDIM
 62
     0
100
AcDbLine
 10
24.82465975257724
 20
15.53271389682291
 30
0.0
 11
24.82465975257724
 21
15.90625031819235
 31
0.0
  0
LINE
  5
2B5
330
F8
100
AcDbEntity
  8
ADPDIM
 62
     0
100
AcDbLine
 10
24.94965975257724
 20
15.40771389682291
 30
0.0
 11
24.69965975257724
 21
15.65771389682291
 31
0.0
  0
LINE
  5
2B6
330
F8
100
AcDbEntity
  8
ADPDIM
 62
     0
100
AcDbLine
 10
24.94965975257724
 20
16.90478673956179
 30
0.0
 11
24.69965975257724
 21
17.15478673956178
 31
0.0
  0
MTEXT
  5
2B7
330
F8
100
AcDbEntity
  8
ADPDIM
 62
     0
100
AcDbMText
 10
24.82465975257723
 20
16.28125031819235
 30
0.0
 40
0.125
 41
0.0
 71
     5
 72
     1
  1
\A1;1 1/2
 11
0.0000000000000001
 21
1.0
 31
0.0
  0
POINT
  5
2B8
330
F8
100
AcDbEntity
  8
DEFPOINTS
 62
     0
100
AcDbPoint
 10
23.71550031823245
 20
17.02978673956179
 30
0.0
  0
POINT
  5
2B9
330
F8
100
AcDbEntity
  8
DEFPOINTS
 62
     0
100
AcDbPoint
 10
24.22050031823245
 20
15.53271389682291
 30
0.0
  0
POINT
  5
2BA
330
F8
100
AcDbEntity
  8
DEFPOINTS
 62
     0
100
AcDbPoint
 10
24.82465975257724
 20
15.53271389682291
 30
0.0
  0
ENDBLK
  5
104
330
F8
100
AcDbEntity
  8
0
100
AcDbBlockEnd
  0
BLOCK
  5
110
330
105
100
AcDbEntity
  8
0
100
AcDbBlockBegin
  2
*D2
 70
     1
 10
0.0
 20
0.0
 30
0.0
  3
*D2
  1

  0
LINE
  5
2BB
330
105
100
AcDbEntity
  8
ADPDIM
 62
     0
100
AcDbLine
 10
20.71550031823246
 20
17.06788885020197
 30
0.0
 11
20.71550031823246
 21
17.47121888224614
 31
0.0
  0
LINE
  5
2BC
330
105
100
AcDbEntity
  8
ADPDIM
 62
     0
100
AcDbLine
 10
23.71550031823245
 20
17.09228673956179
 30
0.0
 11
23.71550031823245
 21
17.47121888224614
 31
0.0
  0
LINE
  5
2BD
330
105
100
AcDbEntity
  8
ADPDIM
 62
     0
100
AcDbLine
 10
20.71550031823246
 20
17.29121888224614
 30
0.0
 11
22.04883365156578
 21
17.29121888224614
 31
0.0
  0
LINE
  5
2BE
330
105
100
AcDbEntity
  8
ADPDIM
 62
     0
100
AcDbLine
 10
23.71550031823245
 20
17.29121888224614
 30
0.0
 11
22.38216698489912
 21
17.29121888224614
 31
0.0
  0
LINE
  5
2BF
330
105
100
AcDbEntity
  8
ADPDIM
 62
     0
100
AcDbLine
 10
23.59050031823245
 20
17.16621888224614
 30
0.0
 11
23.84050031823246
 21
17.41621888224614
 31
0.0
  0
LINE
  5
2C0
330
105
100
AcDbEntity
  8
ADPDIM
 62
     0
100
AcDbLine
 10
20.59050031823245
 20
17.16621888224614
 30
0.0
 11
20.84050031823245
 21
17.41621888224614
 31
0.0
  0
MTEXT
  5
2C1
330
105
100
AcDbEntity
  8
ADPDIM
 62
     0
100
AcDbMText
 10
22.21550031823245
 20
17.29121888224614
 30
0.0
 40
0.125
 41
0.0
 71
     5
 72
     1
  1
\A1;3
  0
POINT
  5
2C2
330
105
100
AcDbEntity
  8
DEFPOINTS
 62
     0
100
AcDbPoint
 10
20.71550031823246
 20
17.00538885020197
 30
0.0
  0
POINT
  5
2C3
330
105
100
AcDbEntity
  8
DEFPOINTS
 62
     0
100
AcDbPoint
 10
23.71550031823245
 20
17.02978673956179
 30
0.0
  0
POINT
  5
2C4
330
105
100
AcDbEntity
  8
DEFPOINTS
 62
     0
100
AcDbPoint
 10
23.71550031823245
 20
17.29121888224614
 30
0.0
  0
ENDBLK
  5
111
330
105
100
AcDbEntity
  8
0
100
AcDbBlockEnd
  0
BLOCK
  5
11D
330
112
100
AcDbEntity
  8
0
100
AcDbBlockBegin
  2
*D3
 70
     1
 10
0.0
 20
0.0
 30
0.0
  3
*D3
  1

  0
LINE
  5
2C5
330
112
100
AcDbEntity
  8
ADPDIM
 62
     0
100
AcDbLine
 10
26.64927161710533
 20
17.08974918087108
 30
0.0
 11
26.64927161710533
 21
17.47955078614019
 31
0.0
  0
LINE
  5
2C6
330
112
100
AcDbEntity
  8
ADPDIM
 62
     0
100
AcDbLine
 10
27.64927161710533
 20
17.08974918087108
 30
0.0
 11
27.64927161710533
 21
17.47955078614019
 31
0.0
  0
LINE
  5
2C7
330
112
100
AcDbEntity
  8
ADPDIM
 62
     0
100
AcDbLine
 10
26.64927161710533
 20
17.29955078614019
 30
0.0
 11
27.003438283772
 21
17.29955078614019
 31
0.0
  0
LINE
  5
2C8
330
112
100
AcDbEntity
  8
ADPDIM
 62
     0
100
AcDbLine
 10
27.64927161710533
 20
17.29955078614019
 30
0.0
 11
27.29510495043866
 21
17.29955078614019
 31
0.0
  0
LINE
  5
2C9
330
112
100
AcDbEntity
  8
ADPDIM
 62
     0
100
AcDbLine
 10
27.52427161710533
 20
17.17455078614019
 30
0.0
 11
27.77427161710533
 21
17.42455078614019
 31
0.0
  0
LINE
  5
2CA
330
112
100
AcDbEntity
  8
ADPDIM
 62
     0
100
AcDbLine
 10
26.52427161710533
 20
17.17455078614019
 30
0.0
 11
26.77427161710533
 21
17.42455078614019
 31
0.0
  0
MTEXT
  5
2CB
330
112
100
AcDbEntity
  8
ADPDIM
 62
     0
100
AcDbMText
 10
27.14927161710533
 20
17.29955078614019
 30
0.0
 40
0.125
 41
0.0
 71
     5
 72
     1
  1
\A1;1
  0
POINT
  5
2CC
330
112
100
AcDbEntity
  8
DEFPOINTS
 62
     0
100
AcDbPoint
 10
26.64927161710533
 20
17.02724918087108
 30
0.0
  0
POINT
  5
2CD
330
112
100
AcDbEntity
  8
DEFPOINTS
 62
     0
100
AcDbPoint
 10
27.64927161710533
 20
17.02724918087108
 30
0.0
  0
POINT
  5
2CE
330
112
100
AcDbEntity
  8
DEFPOINTS
 62
     0
100
AcDbPoint
 10
27.64927161710533
 20
17.29955078614019
 30
0.0
  0
ENDBLK
  5
11E
330
112
100
AcDbEntity
  8
0
100
AcDbBlockEnd
  0
ENDSEC
  0
SECTION
  2
ENTITIES
  0
DIMENSION
  5
1E
330
2
100
AcDbEntity
  8
ADPDIM
100
AcDbDimension
  2
*D0
 10
20.42595717519276
 20
14.03100437833006
 30
0.0
 11
20.42595717519276
 21
15.51819661426602
 31
0.0
 70
    32
  3
STANDARD
100
AcDbAlignedDimension
 13
20.71550031823246
 23
17.00538885020197
 33
0.0
 14
20.71550031823246
 24
14.03100437833006
 34
0.0
 50
90.0
100
AcDbRotatedDimension
1001
ACAD
1000
DSTYLE
1002
{
1070
   270
1070
     7
1070
   270
1070
     7
1070
   270
1070
     7
1070
   270
1070
     7
1070
   270
1070
     7
1070
    41
1040
0.125
1070
    73
1070
     0
1070
    74
1070
     0
1070
    78
1070
     2
1070
   140
1040
0.125
1070
   141
1040
0.1875
1070
   142
1040
0.125
1070
   147
1040
0.125
1070
   171
1070
     1
1070
   276
1070
     2
1070
   277
1070
     5
1002
}
  0
CIRCLE
  5
2D
330
2
100
AcDbEntity
  8
ADP1DETAIL
100
AcDbCircle
 10
27.13951588810386
 20
16.2452116121547
 30
0.0
 40
0.094
  0
ARC
  5
2F
330
2
100
AcDbEntity
  8
ADP1DETAIL
100
AcDbCircle
 10
27.15208025542233
 20
15.4952116121547
 30
0.0
 40
0.5
100
AcDbArc
 50
249.3780802536106
 51
290.6219197463896
  0
ARC
  5
30
330
2
100
AcDbEntity
  8
ADP1DETAIL
100
AcDbCircle
 10
27.15208025542233
 20
15.4952116121547
 30
0.0
 40
0.5
100
AcDbArc
 50
319.6794760533916
 51
33.16785519661354
  0
LINE
  5
31
330
2
100
AcDbEntity
  8
ADP1DETAIL
100
AcDbLine
 10
27.64927161710533
 20
17.02724918087108
 30
0.0
 11
27.52427161710533
 21
15.02724918087108
 31
0.0
  0
ARC
  5
32
330
2
100
AcDbEntity
  8
ADP1DETAIL
100
AcDbCircle
 10
27.15208025542233
 20
15.4952116121547
 30
0.0
 40
0.5
100
AcDbArc
 50
147.9199161784438
 51
219.2327525715509
  0
LINE
  5
33
330
2
100
AcDbEntity
  8
ADP1DETAIL
100
AcDbLine
 10
26.77427161710533
 20
15.02724918087108
 30
0.0
 11
26.64927161710533
 21
17.02724918087108
 31
0.0
  0
ARC
  5
34
330
2
100
AcDbEntity
  8
ADP1DETAIL
100
AcDbCircle
 10
24.18950031823245
 20
16.83545289222868
 30
0.0
 40
0.031
100
AcDbArc
 50
282.9827066843664
 51
0.0
  0
ARC
  5
35
330
2
100
AcDbEntity
  8
ADP1DETAIL
100
AcDbCircle
 10
24.18950031823245
 20
16.96963135678028
 30
0.0
 40
0.031
100
AcDbArc
 50
0.0
 51
86.48724123885873
  0
LINE
  5
36
330
2
100
AcDbEntity
  8
ADP1DETAIL
100
AcDbLine
 10
24.0860394222233
 20
16.77978673956179
 30
0.0
 11
24.19646468382407
 21
16.80524531682273
 31
0.0
  0
LINE
  5
37
330
2
100
AcDbEntity
  8
ADP1DETAIL
100
AcDbLine
 10
24.22050031823245
 20
16.96963135678028
 30
0.0
 11
24.22050031823245
 21
16.83545289222868
 31
0.0
  0
LINE
  5
38
330
2
100
AcDbEntity
  8
ADP1DETAIL
100
AcDbLine
 10
24.09550031823245
 20
15.84521389682291
 30
0.0
 11
24.21624104651859
 21
15.8128615161851
 31
0.0
  0
LINE
  5
39
330
2
100
AcDbEntity
  8
ADP1DETAIL
100
AcDbLine
 10
24.21624104651859
 20
15.8128615161851
 30
0.0
 11
24.21624104651859
 21
15.8128615161851
 31
0.0
  0
ARC
  5
3A
330
2
100
AcDbEntity
  8
ADP2DETAIL
  6
HIDDEN2
100
AcDbCircle
 10
24.91696077641021
 20
15.53271389682291
 30
0.0
 40
0.75
100
AcDbArc
 50
180.0
 51
201.7802251253252
  0
LINE
  5
3D
330
2
100
AcDbEntity
  8
ADP1DETAIL
100
AcDbLine
 10
24.09550031823245
 20
15.22021389682291
 30
0.0
 11
24.21624104651859
 21
15.25256627746073
 31
0.0
  0
LINE
  5
3E
330
2
100
AcDbEntity
  8
ADP1DETAIL
100
AcDbLine
 10
24.21624104651859
 20
15.25256627746073
 30
0.0
 11
24.21624104651859
 21
15.25256627746073
 31
0.0
  0
LINE
  5
3F
330
2
100
AcDbEntity
  8
ADP1DETAIL
100
AcDbLine
 10
24.22050031823245
 20
15.25442837762576
 30
0.0
 11
24.22050031823245
 21
15.53271389682291
 31
0.0
  0
ARC
  5
40
330
2
100
AcDbEntity
  8
ADP2DETAIL
  6
HIDDEN2
100
AcDbCircle
 10
24.91696077641021
 20
15.53271389682291
 30
0.0
 40
0.75
100
AcDbArc
 50
158.2197748746747
 51
180.0
  0
LINE
  5
41
330
2
100
AcDbEntity
  8
ADP1DETAIL
100
AcDbLine
 10
24.22050031823245
 20
15.81099941602007
 30
0.0
 11
24.22050031823245
 21
15.53271389682291
 31
0.0
  0
LINE
  5
42
330
2
100
AcDbEntity
  8
ADP1DETAIL
100
AcDbLine
 10
24.08550031823245
 20
16.64948531455231
 30
0.0
 11
24.08550031823245
 21
15.03448531455232
 31
0.0
  0
LINE
  5
43
330
2
100
AcDbEntity
  8
ADP1DETAIL
100
AcDbLine
 10
23.95050031823245
 20
16.78448531455232
 30
0.0
 11
23.95050031823245
 21
16.64948531455231
 31
0.0
  0
LINE
  5
44
330
2
100
AcDbEntity
  8
ADP1DETAIL
100
AcDbLine
 10
23.48050031823246
 20
16.78448531455232
 30
0.0
 11
23.48050031823246
 21
16.64948531455231
 31
0.0
  0
ARC
  5
45
330
2
100
AcDbEntity
  8
ADP1DETAIL
100
AcDbCircle
 10
23.24150031823245
 20
16.83545289222868
 30
0.0
 40
0.031
100
AcDbArc
 50
180.0
 51
257.0172933156335
  0
LINE
  5
46
330
2
100
AcDbEntity
  8
ADP1DETAIL
100
AcDbLine
 10
23.21050031823245
 20
16.96963135678028
 30
0.0
 11
23.21050031823245
 21
16.83545289222868
 31
0.0
  0
ARC
  5
47
330
2
100
AcDbEntity
  8
ADP1DETAIL
100
AcDbCircle
 10
23.24150031823245
 20
16.96963135678028
 30
0.0
 40
0.031
100
AcDbArc
 50
93.51275876114126
 51
180.0
  0
LINE
  5
48
330
2
100
AcDbEntity
  8
ADP1DETAIL
100
AcDbLine
 10
23.34496121424161
 20
16.77978673956179
 30
0.0
 11
23.23453595264083
 21
16.80524531682273
 31
0.0
  0
LINE
  5
49
330
2
100
AcDbEntity
  8
ADP1DETAIL
100
AcDbLine
 10
23.47729655534452
 20
16.64948531455231
 30
0.0
 11
23.34550031823245
 21
16.64948531455231
 31
0.0
  0
LINE
  5
4A
330
2
100
AcDbEntity
  8
ADP1DETAIL
100
AcDbLine
 10
23.34496121424161
 20
16.77978673956179
 30
0.0
 11
23.47729655534452
 21
16.77978673956179
 31
0.0
  0
LINE
  5
4B
330
2
100
AcDbEntity
  8
ADP1DETAIL
100
AcDbLine
 10
23.71550031823245
 20
17.02978673956179
 30
0.0
 11
23.23960092327552
 21
17.00057311333671
 31
0.0
  0
LINE
  5
4C
330
2
100
AcDbEntity
  8
ADP1DETAIL
100
AcDbLine
 10
23.71550031823245
 20
15.03448531455232
 30
0.0
 11
23.71550031823245
 21
15.34648531455232
 31
0.0
  0
LINE
  5
4D
330
2
100
AcDbEntity
  8
ADP1DETAIL
100
AcDbLine
 10
23.34550031823245
 20
15.03448531455232
 30
0.0
 11
23.71550031823245
 21
15.03448531455232
 31
0.0
  0
LINE
  5
4E
330
2
100
AcDbEntity
  8
ADP1DETAIL
100
AcDbLine
 10
23.34550031823245
 20
16.64948531455231
 30
0.0
 11
23.34550031823245
 21
15.03448531455232
 31
0.0
  0
LINE
  5
4F
330
2
100
AcDbEntity
  8
ADP1DETAIL
100
AcDbLine
 10
23.71550031823245
 20
15.71648531455231
 30
0.0
 11
23.71550031823245
 21
17.03100437833006
 31
0.0
  0
ARC
  5
50
330
2
100
AcDbEntity
  8
ADP1DETAIL
100
AcDbCircle
 10
21.45165444032648
 20
16.01827090458213
 30
0.0
 40
0.01
100
AcDbArc
 50
0.0
 51
75.96375653207362
  0
LINE
  5
51
330
2
100
AcDbEntity
  8
ADP1DETAIL
100
AcDbLine
 10
21.46165444032648
 20
15.96357866864618
 30
0.0
 11
21.58655484637311
 21
15.92957621143376
 31
0.0
  0
LINE
  5
52
330
2
100
AcDbEntity
  8
ADP1DETAIL
100
AcDbLine
 10
22.59146255109419
 20
15.28354671338438
 30
0.0
 11
22.59146255109419
 21
15.78188108026145
 31
0.0
  0
ARC
  5
53
330
2
100
AcDbEntity
  8
ADP1DETAIL
100
AcDbCircle
 10
21.45165444032648
 20
15.03388643271022
 30
0.0
 40
0.01
100
AcDbArc
 50
284.0362434679261
 51
0.0
  0
LINE
  5
54
330
2
100
AcDbEntity
  8
ADP1DETAIL
100
AcDbLine
 10
21.46165444032648
 20
15.08857866864618
 30
0.0
 11
21.58655484637311
 21
15.1225811258586
 31
0.0
  0
LINE
  5
55
330
2
100
AcDbEntity
  8
ADP1DETAIL
100
AcDbLine
 10
21.46165444032648
 20
15.52607866864618
 30
0.0
 11
21.46165444032648
 21
15.08857866864618
 31
0.0
  0
LINE
  5
56
330
2
100
AcDbEntity
  8
ADP1DETAIL
100
AcDbLine
 10
22.59146255109419
 20
15.28271389682291
 30
0.0
 11
21.58665444032648
 21
15.15107866864618
 31
0.0
  0
LINE
  5
57
330
2
100
AcDbEntity
  8
ADP1DETAIL
100
AcDbLine
 10
21.58665444032648
 20
15.90107866864618
 30
0.0
 11
22.59146255109419
 21
15.78271389682291
 31
0.0
  0
LINE
  5
58
330
2
100
AcDbEntity
  8
ADP1DETAIL
100
AcDbLine
 10
21.46165444032648
 20
16.01827090458213
 30
0.0
 11
21.46165444032648
 21
15.03388643271022
 31
0.0
  0
LINE
  5
59
330
2
100
AcDbEntity
  8
ADP1DETAIL
100
AcDbLine
 10
21.58655484637311
 20
15.1225811258586
 30
0.0
 11
21.58655484637311
 21
15.92957621143376
 31
0.0
  0
LINE
  5
5A
330
2
100
AcDbEntity
  8
ADP1DETAIL
100
AcDbLine
 10
21.46165444032648
 20
15.52607866864618
 30
0.0
 11
21.46165444032648
 21
15.96357866864618
 31
0.0
  0
LINE
  5
5B
330
2
100
AcDbEntity
  8
ADP1DETAIL
100
AcDbLine
 10
23.34280127720147
 20
15.22021389682291
 30
0.0
 11
22.59146255109419
 21
15.28271389682291
 31
0.0
  0
LINE
  5
5C
330
2
100
AcDbEntity
  8
ADP1DETAIL
100
AcDbLine
 10
22.59146255109419
 20
15.78271389682291
 30
0.0
 11
23.34280127720147
 21
15.84521389682291
 31
0.0
  0
DIMENSION
  5
5D
330
2
100
AcDbEntity
  8
ADPDIM
100
AcDbDimension
  2
*D1
 10
24.82465975257724
 20
15.53271389682291
 30
0.0
 11
24.82465975257723
 21
16.28125031819235
 31
0.0
 70
    32
  3
STANDARD
100
AcDbAlignedDimension
 13
23.71550031823245
 23
17.02978673956179
 33
0.0
 14
24.22050031823245
 24
15.53271389682291
 34
0.0
 50
90.0
100
AcDbRotatedDimension
1001
ACAD
1000
DSTYLE
1002
{
1070
   270
1070
     7
1070
   270
1070
     7
1070
   270
1070
     7
1070
   270
1070
     7
1070
   270
1070
     7
1070
    41
1040
0.125
1070
    73
1070
     0
1070
    74
1070
     0
1070
    78
1070
     2
1070
   140
1040
0.125
1070
   141
1040
0.1875
1070
   142
1040
0.125
1070
   147
1040
0.125
1070
   171
1070
     1
1070
   276
1070
     2
1070
   277
1070
     5
1002
}
  0
LINE
  5
6B
330
2
100
AcDbEntity
  8
ADP1DETAIL
100
AcDbLine
 10
24.0860394222233
 20
16.77978673956179
 30
0.0
 11
23.95370397476133
 21
16.77978673956179
 31
0.0
  0
LINE
  5
6C
330
2
100
AcDbEntity
  8
ADP1DETAIL
100
AcDbLine
 10
23.95370397476133
 20
16.64948531455231
 30
0.0
 11
24.08550031823245
 21
16.64948531455231
 31
0.0
  0
LINE
  5
6D
330
2
100
AcDbEntity
  8
ADP1DETAIL
100
AcDbLine
 10
23.71550031823245
 20
17.02978673956179
 30
0.0
 11
24.19139971318938
 21
17.00057311333671
 31
0.0
  0
LINE
  5
6E
330
2
100
AcDbEntity
  8
ADP1DETAIL
100
AcDbLine
 10
24.08550031823245
 20
15.03448531455232
 30
0.0
 11
23.71550031823245
 21
15.03448531455232
 31
0.0
  0
LWPOLYLINE
  5
6F
330
2
100
AcDbEntity
  8
ADP1DETAIL
100
AcDbPolyline
 90
        4
 70
     0
 43
0.0
 10
23.71550031823245
 20
15.71648531455231
 10
24.08550031823245
 20
15.71648531455231
 10
24.08550031823245
 20
15.34648531455232
 10
23.71550031823245
 20
15.34648531455232
  0
ARC
  5
75
330
2
100
AcDbEntity
  8
ADP1DETAIL
100
AcDbCircle
 10
20.90350031823245
 20
16.90728847706894
 30
0.0
 40
0.062
100
AcDbArc
 50
0.0
 51
75.96375653207352
  0
ARC
  5
76
330
2
100
AcDbEntity
  8
ADP1DETAIL
100
AcDbCircle
 10
20.72550031823245
 20
17.00538885020197
 30
0.0
 40
0.01
100
AcDbArc
 50
75.96375653207326
 51
180.0
  0
LINE
  5
77
330
2
100
AcDbEntity
  8
ADP1DETAIL
100
AcDbLine
 10
20.72792567448282
 20
17.01509027520343
 30
0.0
 11
20.91853752698471
 21
16.96743731207796
 31
0.0
  0
ARC
  5
78
330
2
100
AcDbEntity
  8
ADP1DETAIL
100
AcDbCircle
 10
21.02750031823246
 20
16.19160475146309
 30
0.0
 40
0.062
100
AcDbArc
 50
180.0
 51
255.9637565320735
  0
ARC
  5
79
330
2
100
AcDbEntity
  8
ADP1DETAIL
100
AcDbCircle
 10
21.02750031823246
 20
14.84478847706895
 30
0.0
 40
0.062
100
AcDbArc
 50
104.0362434679264
 51
180.0
  0
LINE
  5
7A
330
2
100
AcDbEntity
  8
ADP1DETAIL
100
AcDbLine
 10
20.96550031823245
 20
16.90728847706894
 30
0.0
 11
20.96550031823245
 21
14.81704165328971
 31
0.0
  0
DIMENSION
  5
7B
330
2
100
AcDbEntity
  8
ADPDIM
100
AcDbDimension
  2
*D2
 10
23.71550031823245
 20
17.29121888224614
 30
0.0
 11
22.21550031823245
 21
17.29121888224614
 31
0.0
 70
    32
  3
STANDARD
100
AcDbAlignedDimension
 13
20.71550031823246
 23
17.00538885020197
 33
0.0
 14
23.71550031823245
 24
17.02978673956179
 34
0.0
100
AcDbRotatedDimension
1001
ACAD
1000
DSTYLE
1002
{
1070
   270
1070
     7
1070
   270
1070
     7
1070
   270
1070
     7
1070
   270
1070
     7
1070
   270
1070
     7
1070
    41
1040
0.125
1070
    73
1070
     0
1070
    74
1070
     0
1070
    78
1070
     2
1070
   140
1040
0.125
1070
   141
1040
0.1875
1070
   142
1040
0.125
1070
   147
1040
0.125
1070
   171
1070
     1
1070
   276
1070
     2
1070
   277
1070
     5
1002
}
  0
LINE
  5
89
330
2
100
AcDbEntity
  8
ADP1DETAIL
100
AcDbLine
 10
21.00861723157423
 20
16.13933797083424
 30
0.0
 11
21.45407979657684
 21
16.02797232958359
 31
0.0
  0
LINE
  5
8A
330
2
100
AcDbEntity
  8
ADP1DETAIL
100
AcDbLine
 10
21.45407979657684
 20
15.02418500770877
 30
0.0
 11
21.00861723157423
 21
14.91281936645812
 31
0.0
  0
ARC
  5
8B
330
2
100
AcDbEntity
  8
ADP1DETAIL
100
AcDbCircle
 10
20.90350031823245
 20
14.12910475146309
 30
0.0
 40
0.062
100
AcDbArc
 50
284.0362434679264
 51
0.0
  0
ARC
  5
8C
330
2
100
AcDbEntity
  8
ADP1DETAIL
100
AcDbCircle
 10
20.72550031823245
 20
14.03100437833006
 30
0.0
 40
0.01
100
AcDbArc
 50
180.0
 51
284.0362434679263
  0
LINE
  5
8D
330
2
100
AcDbEntity
  8
ADP1DETAIL
100
AcDbLine
 10
20.91853752698471
 20
14.06895591645408
 30
0.0
 11
20.72792567448282
 21
14.02130295332861
 31
0.0
  0
LINE
  5
8E
330
2
100
AcDbEntity
  8
ADP1DETAIL
100
AcDbLine
 10
20.96550031823245
 20
14.84478847706895
 30
0.0
 11
20.96550031823245
 21
14.12910475146309
 31
0.0
  0
LINE
  5
8F
330
2
100
AcDbEntity
  8
ADP1DETAIL
100
AcDbLine
 10
20.71550031823246
 20
14.03100437833006
 30
0.0
 11
20.71550031823246
 21
17.00538885020197
 31
0.0
  0
DIMENSION
  5
90
330
2
100
AcDbEntity
  8
ADPDIM
100
AcDbDimension
  2
*D3
 10
27.64927161710533
 20
17.29955078614019
 30
0.0
 11
27.14927161710533
 21
17.29955078614019
 31
0.0
 70
    32
  3
STANDARD
100
AcDbAlignedDimension
 13
26.64927161710533
 23
17.02724918087108
 33
0.0
 14
27.64927161710533
 24
17.02724918087108
 34
0.0
100
AcDbRotatedDimension
1001
ACAD
1000
DSTYLE
1002
{
1070
   270
1070
     7
1070
   270
1070
     7
1070
   270
1070
     7
1070
   270
1070
     7
1070
   270
1070
     7
1070
    41
1040
0.125
1070
    73
1070
     0
1070
    74
1070
     0
1070
    78
1070
     2
1070
   140
1040
0.125
1070
   141
1040
0.1875
1070
   142
1040
0.125
1070
   147
1040
0.125
1070
   171
1070
     1
1070
   276
1070
     2
1070
   277
1070
     5
1002
}
  0
CIRCLE
  5
9E
330
2
100
AcDbEntity
  8
ADP1DETAIL
100
AcDbCircle
 10
27.15208025542233
 20
15.4952116121547
 30
0.0
 40
0.2859512779740925
  0
CIRCLE
  5
9F
330
2
100
AcDbEntity
  8
ADP1DETAIL
100
AcDbCircle
 10
27.15208025542233
 20
15.4952116121547
 30
0.0
 40
0.3125
  0
LINE
  5
A0
330
2
100
AcDbEntity
  8
ADP1DETAIL
100
AcDbLine
 10
26.73162765726942
 20
15.70955253824561
 30
0.0
 11
26.92467265352104
 21
15.70955253824561
 31
0.0
  0
LINE
  5
A1
330
2
100
AcDbEntity
  8
ADP1DETAIL
100
AcDbLine
 10
26.7547772377193
 20
15.33915925104759
 30
0.0
 11
26.88133330605282
 21
15.33915925104759
 31
0.0
  0
ARC
  5
A2
330
2
100
AcDbEntity
  8
ADP1DETAIL
100
AcDbCircle
 10
27.15208025542233
 20
15.4952116121547
 30
0.0
 40
1.5
100
AcDbArc
 50
109.2907342843342
 51
70.93160598097352
  0
ARC
  5
A3
330
2
100
AcDbEntity
  8
ADP1DETAIL
100
AcDbCircle
 10
27.15208025542233
 20
15.4952116121547
 30
0.0
 40
1.42366909638759
100
AcDbArc
 50
110.1569284434358
 51
70.07834509093193
  0
ARC
  5
A4
330
2
100
AcDbEntity
  8
ADP1DETAIL
100
AcDbCircle
 10
27.15208025542233
 20
15.4952116121547
 30
0.0
 40
0.625
100
AcDbArc
 50
134.1195744778562
 51
46.55338707100654
  0
LINE
  5
A5
330
2
100
AcDbEntity
  8
ADP1DETAIL
100
AcDbLine
 10
27.52427161710533
 20
15.02724918087108
 30
0.0
 11
26.77427161710533
 21
15.02724918087108
 31
0.0
  0
LINE
  5
A6
330
2
100
AcDbEntity
  8
ADP1DETAIL
100
AcDbLine
 10
26.64927161710533
 20
17.02724918087108
 30
0.0
 11
27.64927161710533
 21
17.02724918087108
 31
0.0
  0
LINE
  5
A7
330
2
100
AcDbEntity
  8
ADP1DETAIL
100
AcDbLine
 10
26.64927161710533
 20
16.98643460271442
 30
0.0
 11
27.64927161710533
 21
16.98643460271442
 31
0.0
  0
LINE
  5
A8
330
2
100
AcDbEntity
  8
ADP1DETAIL
100
AcDbLine
 10
26.64927161710533
 20
16.81098516195233
 30
0.0
 11
27.64927161710533
 21
16.81098516195233
 31
0.0
  0
LINE
  5
A9
330
2
100
AcDbEntity
  8
ADP1DETAIL
100
AcDbLine
 10
26.66522491461568
 20
16.77199642070547
 30
0.0
 11
27.63331831959498
 21
16.77199642070547
 31
0.0
  0
LINE
  5
AA
330
2
100
AcDbEntity
  8
ADP1DETAIL
100
AcDbLine
 10
26.67314451034873
 20
16.64528288897675
 30
0.0
 11
27.62539872386193
 21
16.64528288897675
 31
0.0
  0
TEXT
  5
B5
330
2
100
AcDbEntity
  8
ADPDIM
100
AcDbText
 10
17.73561882809394
 20
12.57072687750216
 30
0.0
 40
0.125
  1
J U L I U S  B L U M  &  C O . ,  I N C .      ( 8 0 0 )  5 2 6 - 6 2 9 3        W W W . J U L I U S B L U M . C O M        P A R T  N O .  1 7 3
 41
1.25
  7
ARIAL_WIDE
 72
     1
 11
24.19452060162736
 21
12.69572687750216
 31
0.0
100
AcDbText
 73
     3
  0
ENDSEC
  0
SECTION
  2
OBJECTS
  0
DICTIONARY
  5
1A
330
0
100
AcDbDictionary
  3
ACAD_GROUP
350
18
  3
ACAD_LAYOUT
350
BA
  3
ACAD_MLINESTYLE
350
19
  3
ACAD_PLOTSETTINGS
350
BB
  3
ACAD_PLOTSTYLENAME
350
B8
  3
ACDBHEADERROUNDTRIPXREC
350
284
  3
ACDBVARIABLEDICTIONARY
350
121
  0
DICTIONARY
  5
E5
330
2
100
AcDbDictionary
280
     1
  3
ACAD_LAYOUTSELFREF
360
2A5
  0
DICTIONARY
  5
E7
330
8
100
AcDbDictionary
280
     1
  3
ACAD_LAYOUTSELFREF
360
2A6
  0
DICTIONARY
  5
18
102
{ACAD_REACTORS
330
1A
102
}
330
1A
100
AcDbDictionary
  0
DICTIONARY
  5
BA
102
{ACAD_REACTORS
330
1A
102
}
330
1A
100
AcDbDictionary
  0
DICTIONARY
  5
19
102
{ACAD_REACTORS
330
1A
102
}
330
1A
100
AcDbDictionary
  3
STANDARD
350
1C
  0
DICTIONARY
  5
BB
102
{ACAD_REACTORS
330
1A
102
}
330
1A
100
AcDbDictionary
  0
ACDBDICTIONARYWDFLT
  5
B8
102
{ACAD_REACTORS
330
1A
102
}
330
1A
100
AcDbDictionary
281
     1
  3
Normal
350
B9
100
AcDbDictionaryWithDefault
340
B9
  0
DICTIONARY
  5
284
102
{ACAD_REACTORS
330
1A
102
}
330
1A
100
AcDbDictionary
  3
CEPSNTYPE
350
28E
  3
DIMSTYLEDATA
350
292
  3
FINGERPRINTGUID
350
28F
  3
HYPERLINKBASE
350
287
  3
INSUNITS
350
28D
  3
LAYOUTDICT
350
289
  3
LWETCUNION
350
28C
  3
PLOTSETDICT
350
28A
  3
PLOTSTYLNAMDICT
350
28B
  3
PSVPSCALE
350
291
  3
PUCSBASE
350
295
  3
PUCSORGBACK
350
29B
  3
PUCSORGBOTTOM
350
297
  3
PUCSORGFRONT
350
29A
  3
PUCSORGLEFT
350
298
  3
PUCSORGRIGHT
350
299
  3
PUCSORGTOP
350
296
  3
PUCSORTHOREF
350
293
  3
PUCSORTHOVIEW
350
294
  3
STYLESHEET
350
288
  3
TSTACKALIGN
350
285
  3
TSTACKSIZE
350
286
  3
UCSBASE
350
29E
  3
UCSORGBACK
350
2A4
  3
UCSORGBOTTOM
350
2A0
  3
UCSORGFRONT
350
2A3
  3
UCSORGLEFT
350
2A1
  3
UCSORGRIGHT
350
2A2
  3
UCSORGTOP
350
29F
  3
UCSORTHOREF
350
29C
  3
UCSORTHOVIEW
350
29D
  3
VERSIONGUID
350
290
  0
DICTIONARY
  5
121
102
{ACAD_REACTORS
330
1A
102
}
330
1A
100
AcDbDictionary
  3
DIMASSOC
350
122
  0
XRECORD
  5
2A5
102
{ACAD_REACTORS
330
E5
102
}
330
E5
100
AcDbXrecord
340
2
  0
XRECORD
  5
2A6
102
{ACAD_REACTORS
330
E7
102
}
330
E7
100
AcDbXrecord
340
8
  0
MLINESTYLE
  5
1C
102
{ACAD_REACTORS
330
19
102
}
330
19
100
AcDbMlineStyle
  2
STANDARD
 70
     0
  3

 62
     0
 51
90.0
 52
90.0
 71
     2
 49
0.5
 62
   256
  6
BYLAYER
 49
-0.5
 62
   256
  6
BYLAYER
  0
ACDBPLACEHOLDER
  5
B9
102
{ACAD_REACTORS
330
B8
102
}
330
B8
100
AcDbPlaceHolder
280
     0
  0
XRECORD
  5
28E
102
{ACAD_REACTORS
330
284
102
}
330
284
100
AcDbXrecord
 90
        0
  0
XRECORD
  5
292
102
{ACAD_REACTORS
330
284
102
}
330
284
100
AcDbXrecord
1000
DSTYLE
1002
{
1070
   276
 70
     2
1070
   277
 70
     5
1002
}
  0
XRECORD
  5
28F
102
{ACAD_REACTORS
330
284
102
}
330
284
100
AcDbXrecord
  1
{DDCA8F97-FA6D-497F-B44D-F603DE07CAE4}
  0
XRECORD
  5
287
102
{ACAD_REACTORS
330
284
102
}
330
284
100
AcDbXrecord
  1

  0
XRECORD
  5
28D
102
{ACAD_REACTORS
330
284
102
}
330
284
100
AcDbXrecord
 90
        0
  0
XRECORD
  5
289
102
{ACAD_REACTORS
330
284
102
}
330
284
100
AcDbXrecord
340
BA
  0
XRECORD
  5
28C
102
{ACAD_REACTORS
330
284
102
}
330
284
100
AcDbXrecord
 90
    14877
  0
XRECORD
  5
28A
102
{ACAD_REACTORS
330
284
102
}
330
284
100
AcDbXrecord
340
BB
  0
XRECORD
  5
28B
102
{ACAD_REACTORS
330
284
102
}
330
284
100
AcDbXrecord
340
B8
  0
XRECORD
  5
291
102
{ACAD_REACTORS
330
284
102
}
330
284
100
AcDbXrecord
 40
0.0
  0
XRECORD
  5
295
102
{ACAD_REACTORS
330
284
102
}
330
284
100
AcDbXrecord
340
0
  0
XRECORD
  5
29B
102
{ACAD_REACTORS
330
284
102
}
330
284
100
AcDbXrecord
 10
0.0
 20
0.0
 30
0.0
  0
XRECORD
  5
297
102
{ACAD_REACTORS
330
284
102
}
330
284
100
AcDbXrecord
 10
0.0
 20
0.0
 30
0.0
  0
XRECORD
  5
29A
102
{ACAD_REACTORS
330
284
102
}
330
284
100
AcDbXrecord
 10
0.0
 20
0.0
 30
0.0
  0
XRECORD
  5
298
102
{ACAD_REACTORS
330
284
102
}
330
284
100
AcDbXrecord
 10
0.0
 20
0.0
 30
0.0
  0
XRECORD
  5
299
102
{ACAD_REACTORS
330
284
102
}
330
284
100
AcDbXrecord
 10
0.0
 20
0.0
 30
0.0
  0
XRECORD
  5
296
102
{ACAD_REACTORS
330
284
102
}
330
284
100
AcDbXrecord
 10
0.0
 20
0.0
 30
0.0
  0
XRECORD
  5
293
102
{ACAD_REACTORS
330
284
102
}
330
284
100
AcDbXrecord
340
0
  0
XRECORD
  5
294
102
{ACAD_REACTORS
330
284
102
}
330
284
100
AcDbXrecord
 70
     0
  0
XRECORD
  5
288
102
{ACAD_REACTORS
330
284
102
}
330
284
100
AcDbXrecord
  1

  0
XRECORD
  5
285
102
{ACAD_REACTORS
330
284
102
}
330
284
100
AcDbXrecord
 90
        1
  0
XRECORD
  5
286
102
{ACAD_REACTORS
330
284
102
}
330
284
100
AcDbXrecord
 90
       70
  0
XRECORD
  5
29E
102
{ACAD_REACTORS
330
284
102
}
330
284
100
AcDbXrecord
340
0
  0
XRECORD
  5
2A4
102
{ACAD_REACTORS
330
284
102
}
330
284
100
AcDbXrecord
 10
0.0
 20
0.0
 30
0.0
  0
XRECORD
  5
2A0
102
{ACAD_REACTORS
330
284
102
}
330
284
100
AcDbXrecord
 10
0.0
 20
0.0
 30
0.0
  0
XRECORD
  5
2A3
102
{ACAD_REACTORS
330
284
102
}
330
284
100
AcDbXrecord
 10
0.0
 20
0.0
 30
0.0
  0
XRECORD
  5
2A1
102
{ACAD_REACTORS
330
284
102
}
330
284
100
AcDbXrecord
 10
0.0
 20
0.0
 30
0.0
  0
XRECORD
  5
2A2
102
{ACAD_REACTORS
330
284
102
}
330
284
100
AcDbXrecord
 10
0.0
 20
0.0
 30
0.0
  0
XRECORD
  5
29F
102
{ACAD_REACTORS
330
284
102
}
330
284
100
AcDbXrecord
 10
0.0
 20
0.0
 30
0.0
  0
XRECORD
  5
29C
102
{ACAD_REACTORS
330
284
102
}
330
284
100
AcDbXrecord
340
0
  0
XRECORD
  5
29D
102
{ACAD_REACTORS
330
284
102
}
330
284
100
AcDbXrecord
 70
     0
  0
XRECORD
  5
290
102
{ACAD_REACTORS
330
284
102
}
330
284
100
AcDbXrecord
  1
{F00A36B0-B3DF-4B84-B17C-2FBA469E3519}
  0
DICTIONARYVAR
  5
122
102
{ACAD_REACTORS
330
121
102
}
330
121
100
DictionaryVariables
280
     0
  1
1
  0
ENDSEC
  0
EOF
