  0
SECTION
  2
HEADER
  9
$ACADVER
  1
AC1014
  9
$ACADMAINTVER
 70
     9
  9
$DWGCODEPAGE
  3
ANSI_1252
  9
$INSBASE
 10
31.27003330107461
 20
-4.034220733408712
 30
0.0
  9
$EXTMIN
 10
21.21538504359537
 20
-5.160582514969983
 30
0.0
  9
$EXTMAX
 10
34.13318859066222
 20
-0.503517351842474
 30
0.0
  9
$LIMMIN
 10
0.0
 20
0.0
  9
$LIMMAX
 10
36.0
 20
36.0
  9
$ORTHOMODE
 70
     1
  9
$REGENMODE
 70
     1
  9
$FILLMODE
 70
     1
  9
$QTEXTMODE
 70
     0
  9
$MIRRTEXT
 70
     1
  9
$DRAGMODE
 70
     0
  9
$LTSCALE
 40
1.0
  9
$OSMODE
 70
    37
  9
$ATTMODE
 70
     1
  9
$TEXTSIZE
 40
0.2
  9
$TRACEWID
 40
0.05
  9
$TEXTSTYLE
  7
STANDARD
  9
$CLAYER
  8
ADP1DETAIL
  9
$CELTYPE
  6
BYLAYER
  9
$CECOLOR
 62
   256
  9
$CELTSCALE
 40
1.0
  9
$DELOBJ
 70
     1
  9
$DISPSILH
 70
     0
  9
$DIMSCALE
 40
1.0
  9
$DIMASZ
 40
0.125
  9
$DIMEXO
 40
0.0625
  9
$DIMDLI
 40
0.38
  9
$DIMRND
 40
0.0
  9
$DIMDLE
 40
0.0
  9
$DIMEXE
 40
0.18
  9
$DIMTP
 40
0.0
  9
$DIMTM
 40
0.0
  9
$DIMTXT
 40
0.125
  9
$DIMCEN
 40
0.1875
  9
$DIMTSZ
 40
0.125
  9
$DIMTOL
 70
     0
  9
$DIMLIM
 70
     0
  9
$DIMTIH
 70
     0
  9
$DIMTOH
 70
     0
  9
$DIMSE1
 70
     0
  9
$DIMSE2
 70
     0
  9
$DIMTAD
 70
     0
  9
$DIMZIN
 70
     3
  9
$DIMBLK
  1

  9
$DIMASO
 70
     1
  9
$DIMSHO
 70
     1
  9
$DIMPOST
  1

  9
$DIMAPOST
  1

  9
$DIMALT
 70
     0
  9
$DIMALTD
 70
     1
  9
$DIMALTF
 40
25.4
  9
$DIMLFAC
 40
1.0
  9
$DIMTOFL
 70
     0
  9
$DIMTVP
 40
0.0
  9
$DIMTIX
 70
     0
  9
$DIMSOXD
 70
     0
  9
$DIMSAH
 70
     0
  9
$DIMBLK1
  1

  9
$DIMBLK2
  1

  9
$DIMSTYLE
  2
STANDARD
  9
$DIMCLRD
 70
     0
  9
$DIMCLRE
 70
     0
  9
$DIMCLRT
 70
     0
  9
$DIMTFAC
 40
1.0
  9
$DIMGAP
 40
0.125
  9
$DIMJUST
 70
     0
  9
$DIMSD1
 70
     0
  9
$DIMSD2
 70
     0
  9
$DIMTOLJ
 70
     1
  9
$DIMTZIN
 70
     3
  9
$DIMALTZ
 70
     3
  9
$DIMALTTZ
 70
     3
  9
$DIMFIT
 70
     5
  9
$DIMUPT
 70
     0
  9
$DIMUNIT
 70
     5
  9
$DIMDEC
 70
     4
  9
$DIMTDEC
 70
     4
  9
$DIMALTU
 70
     5
  9
$DIMALTTD
 70
     1
  9
$DIMTXSTY
  7
STANDARD
  9
$DIMAUNIT
 70
     0
  9
$LUNITS
 70
     5
  9
$LUPREC
 70
     4
  9
$SKETCHINC
 40
0.1
  9
$FILLETRAD
 40
0.062
  9
$AUNITS
 70
     0
  9
$AUPREC
 70
     0
  9
$MENU
  1
acad
  9
$ELEVATION
 40
0.0
  9
$PELEVATION
 40
0.0
  9
$THICKNESS
 40
0.0
  9
$LIMCHECK
 70
     0
  9
$BLIPMODE
 70
     0
  9
$CHAMFERA
 40
0.0
  9
$CHAMFERB
 40
0.0
  9
$CHAMFERC
 40
0.0
  9
$CHAMFERD
 40
0.0
  9
$SKPOLY
 70
     0
  9
$TDCREATE
 40
2450375.463291666
  9
$TDUPDATE
 40
2452297.064495254
  9
$TDINDWG
 40
0.0038242361
  9
$TDUSRTIMER
 40
0.0038242361
  9
$USRTIMER
 70
     1
  9
$ANGBASE
 50
0.0
  9
$ANGDIR
 70
     0
  9
$PDMODE
 70
     0
  9
$PDSIZE
 40
0.0
  9
$PLINEWID
 40
0.0
  9
$COORDS
 70
     2
  9
$SPLFRAME
 70
     0
  9
$SPLINETYPE
 70
     6
  9
$SPLINESEGS
 70
     8
  9
$ATTDIA
 70
     0
  9
$ATTREQ
 70
     1
  9
$HANDLING
 70
 22529
  9
$HANDSEED
  5
1E4
  9
$SURFTAB1
 70
     6
  9
$SURFTAB2
 70
     6
  9
$SURFTYPE
 70
     6
  9
$SURFU
 70
     6
  9
$SURFV
 70
     6
  9
$UCSNAME
  2

  9
$UCSORG
 10
0.0
 20
0.0
 30
0.0
  9
$UCSXDIR
 10
1.0
 20
0.0
 30
0.0
  9
$UCSYDIR
 10
0.0
 20
1.0
 30
0.0
  9
$PUCSNAME
  2

  9
$PUCSORG
 10
0.0
 20
0.0
 30
0.0
  9
$PUCSXDIR
 10
1.0
 20
0.0
 30
0.0
  9
$PUCSYDIR
 10
0.0
 20
1.0
 30
0.0
  9
$USERI1
 70
     0
  9
$USERI2
 70
     0
  9
$USERI3
 70
     0
  9
$USERI4
 70
     0
  9
$USERI5
 70
     0
  9
$USERR1
 40
0.0
  9
$USERR2
 40
0.0
  9
$USERR3
 40
0.0
  9
$USERR4
 40
0.0
  9
$USERR5
 40
0.0
  9
$WORLDVIEW
 70
     1
  9
$SHADEDGE
 70
     3
  9
$SHADEDIF
 70
    70
  9
$TILEMODE
 70
     1
  9
$MAXACTVP
 70
    15
  9
$PINSBASE
 10
6.111119585016845E+90
 20
8.346071047958366E+93
 30
0.0
  9
$PLIMCHECK
 70
     0
  9
$PEXTMIN
 10
1.000000000000000E+20
 20
1.000000000000000E+20
 30
1.000000000000000E+20
  9
$PEXTMAX
 10
-1.000000000000000E+20
 20
-1.000000000000000E+20
 30
-1.000000000000000E+20
  9
$PLIMMIN
 10
0.0
 20
0.0
  9
$PLIMMAX
 10
12.0
 20
9.0
  9
$UNITMODE
 70
     0
  9
$VISRETAIN
 70
     0
  9
$PLINEGEN
 70
     0
  9
$PSLTSCALE
 70
     1
  9
$TREEDEPTH
 70
  3020
  9
$PICKSTYLE
 70
     1
  9
$CMLSTYLE
  2
STANDARD
  9
$CMLJUST
 70
     0
  9
$CMLSCALE
 40
1.0
  9
$PROXYGRAPHICS
 70
     1
  9
$MEASUREMENT
 70
     0
  0
ENDSEC
  0
SECTION
  2
CLASSES
  0
CLASS
  1
DICTIONARYVAR
  2
AcDbDictionaryVar
  3
AutoCAD 2000
 90
        0
280
     0
281
     0
  0
CLASS
  1
ACDBDICTIONARYWDFLT
  2
AcDbDictionaryWithDefault
  3
AutoCAD 2000
 90
        0
280
     0
281
     0
  0
CLASS
  1
ACDBPLACEHOLDER
  2
AcDbPlaceHolder
  3
AutoCAD 2000
 90
        0
280
     0
281
     0
  0
CLASS
  1
LAYOUT
  2
AcDbLayout
  3
AutoCAD 2000
 90
        0
280
     0
281
     0
  0
CLASS
  1
LONG_TRANSACTION
  2
AcDbLongTransaction
  3
AutoCAD 2000
 90
        0
280
     0
281
     0
  0
CLASS
  1
LWPOLYLINE
  2
AcDbPolyline
  3
AutoCAD 2000
 90
        0
280
     0
281
     1
  0
CLASS
  1
HATCH
  2
AcDbHatch
  3
AutoCAD 2000
 90
        0
280
     0
281
     1
  0
CLASS
  1
XRECORD
  2
AcDbXrecord
  3
AutoCAD 2000
 90
        0
280
     0
281
     0
  0
CLASS
  1
LONG_TRANSACTION
  2
AcDbLongTransaction
  3
AutoCAD 2000
 90
        0
280
     0
281
     0
  0
CLASS
  1
LWPOLYLINE
  2
AcDbPolyline
  3
AutoCAD 2000
 90
        0
280
     0
281
     1
  0
CLASS
  1
HATCH
  2
AcDbHatch
  3
AutoCAD 2000
 90
        0
280
     0
281
     1
  0
CLASS
  1
XRECORD
  2
AcDbXrecord
  3
AutoCAD 2000
 90
        0
280
     0
281
     0
  0
CLASS
  1
LONG_TRANSACTION
  2
AcDbLongTransaction
  3
AutoCAD 2000
 90
        0
280
     0
281
     0
  0
CLASS
  1
LWPOLYLINE
  2
AcDbPolyline
  3
AutoCAD 2000
 90
        0
280
     0
281
     1
  0
CLASS
  1
HATCH
  2
AcDbHatch
  3
AutoCAD 2000
 90
        0
280
     0
281
     1
  0
CLASS
  1
XRECORD
  2
AcDbXrecord
  3
AutoCAD 2000
 90
        0
280
     0
281
     0
  0
CLASS
  1
LONG_TRANSACTION
  2
AcDbLongTransaction
  3
AutoCAD 2000
 90
        0
280
     0
281
     0
  0
CLASS
  1
LWPOLYLINE
  2
AcDbPolyline
  3
AutoCAD 2000
 90
        0
280
     0
281
     1
  0
CLASS
  1
HATCH
  2
AcDbHatch
  3
AutoCAD 2000
 90
        0
280
     0
281
     1
  0
CLASS
  1
XRECORD
  2
AcDbXrecord
  3
AutoCAD 2000
 90
        0
280
     0
281
     0
  0
CLASS
  1
LONG_TRANSACTION
  2
AcDbLongTransaction
  3
AutoCAD 2000
 90
        0
280
     0
281
     0
  0
CLASS
  1
LWPOLYLINE
  2
AcDbPolyline
  3
AutoCAD 2000
 90
        0
280
     0
281
     1
  0
CLASS
  1
HATCH
  2
AcDbHatch
  3
AutoCAD 2000
 90
        0
280
     0
281
     1
  0
CLASS
  1
XRECORD
  2
AcDbXrecord
  3
AutoCAD 2000
 90
        0
280
     0
281
     0
  0
ENDSEC
  0
SECTION
  2
TABLES
  0
TABLE
  2
VPORT
  5
8
330
0
100
AcDbSymbolTable
 70
     2
  0
VPORT
  5
1C0
330
8
100
AcDbSymbolTableRecord
100
AcDbViewportTableRecord
  2
*ACTIVE
 70
     0
 10
0.0
 20
0.0
 11
1.0
 21
1.0
 12
27.67346200914293
 22
-2.831952817107018
 13
0.0
 23
0.0
 14
0.5740882589684922
 24
0.5740882589684922
 15
0.5
 25
0.5
 16
0.0
 26
0.0
 36
1.0
 17
0.0
 27
0.0
 37
0.0
 40
8.266010207072932
 41
1.570528967254408
 42
50.0
 43
0.0
 44
0.0
 50
0.0
 51
0.0
 71
     0
 72
   100
 73
     1
 74
     0
 75
     0
 76
     0
 77
     0
 78
     0
  0
ENDTAB
  0
TABLE
  2
LTYPE
  5
5
330
0
100
AcDbSymbolTable
 70
     2
  0
LTYPE
  5
11
330
5
100
AcDbSymbolTableRecord
100
AcDbLinetypeTableRecord
  2
BYBLOCK
 70
     0
  3

 72
    65
 73
     0
 40
0.0
  0
LTYPE
  5
12
330
5
100
AcDbSymbolTableRecord
100
AcDbLinetypeTableRecord
  2
BYLAYER
 70
     0
  3

 72
    65
 73
     0
 40
0.0
  0
LTYPE
  5
13
330
5
100
AcDbSymbolTableRecord
100
AcDbLinetypeTableRecord
  2
CONTINUOUS
 70
     0
  3
Solid line
 72
    65
 73
     0
 40
0.0
  0
LTYPE
  5
23
330
5
100
AcDbSymbolTableRecord
100
AcDbLinetypeTableRecord
  2
HIDDEN2
 70
     0
  3
_ _ _ _ _ _ _ _ _ _ _ _ _ _ _ _ _ _ _ _ _ _ _ _
 72
    65
 73
     2
 40
0.1875
 49
0.125
 74
     0
 49
-0.0625
 74
     0
  0
ENDTAB
  0
TABLE
  2
LAYER
  5
2
330
0
100
AcDbSymbolTable
 70
     5
  0
LAYER
  5
E
330
2
100
AcDbSymbolTableRecord
100
AcDbLayerTableRecord
  2
0
 70
     0
 62
     7
  6
CONTINUOUS
  0
LAYER
  5
25
330
2
100
AcDbSymbolTableRecord
100
AcDbLayerTableRecord
  2
ADP1DETAIL
 70
     0
 62
     7
  6
CONTINUOUS
  0
LAYER
  5
26
330
2
100
AcDbSymbolTableRecord
100
AcDbLayerTableRecord
  2
DEFPOINTS
 70
     0
 62
     7
  6
CONTINUOUS
  0
LAYER
  5
27
330
2
100
AcDbSymbolTableRecord
100
AcDbLayerTableRecord
  2
ADP2DETAIL
 70
     0
 62
     5
  6
CONTINUOUS
  0
LAYER
  5
28
330
2
100
AcDbSymbolTableRecord
100
AcDbLayerTableRecord
  2
ADPDIM
 70
     0
 62
     3
  6
CONTINUOUS
  0
ENDTAB
  0
TABLE
  2
STYLE
  5
3
330
0
100
AcDbSymbolTable
 70
     2
  0
STYLE
  5
F
330
3
100
AcDbSymbolTableRecord
100
AcDbTextStyleTableRecord
  2
STANDARD
 70
     0
 40
0.0
 41
1.0
 50
0.0
 71
     0
 42
0.2
  3
txt
  4

  0
STYLE
  5
C8
330
3
100
AcDbSymbolTableRecord
100
AcDbTextStyleTableRecord
  2
ARIAL_WIDE
 70
     0
 40
0.0
 41
1.25
 50
0.0
 71
     0
 42
0.2
  3
ARIAL.TTF
  4

1001
ACAD
1000
Arial
1071
       34
  0
ENDTAB
  0
TABLE
  2
VIEW
  5
6
330
0
100
AcDbSymbolTable
 70
     0
  0
ENDTAB
  0
TABLE
  2
UCS
  5
7
330
0
100
AcDbSymbolTable
 70
     0
  0
ENDTAB
  0
TABLE
  2
APPID
  5
9
330
0
100
AcDbSymbolTable
 70
     1
  0
APPID
  5
10
330
9
100
AcDbSymbolTableRecord
100
AcDbRegAppTableRecord
  2
ACAD
 70
     0
  0
ENDTAB
  0
TABLE
  2
DIMSTYLE
  5
A
330
0
100
AcDbSymbolTable
 70
     1
  0
DIMSTYLE
105
C6
330
A
100
AcDbSymbolTableRecord
100
AcDbDimStyleTableRecord
  2
STANDARD
 70
     0
  3

  4

  5

  6

  7

 40
1.0
 41
0.18
 42
0.0625
 43
0.38
 44
0.18
 45
0.0
 46
0.0
 47
0.0
 48
0.0
140
0.18
141
0.09
142
0.0
143
25.4
144
1.0
145
0.0
146
1.0
147
0.09
 71
     0
 72
     0
 73
     1
 74
     1
 75
     0
 76
     0
 77
     0
 78
     0
170
     0
171
     2
172
     0
173
     0
174
     0
175
     0
176
     0
177
     0
178
     0
270
     2
271
     4
272
     4
273
     2
274
     2
340
F
275
     0
280
     0
281
     0
282
     0
283
     1
284
     0
285
     0
286
     0
287
     3
288
     0
  0
ENDTAB
  0
TABLE
  2
BLOCK_RECORD
  5
1
330
0
100
AcDbSymbolTable
 70
     7
  0
BLOCK_RECORD
  5
17
102
{ACAD_XDICTIONARY
360
101
102
}
330
1
100
AcDbSymbolTableRecord
100
AcDbBlockTableRecord
  2
*MODEL_SPACE
  0
BLOCK_RECORD
  5
14
102
{ACAD_XDICTIONARY
360
FF
102
}
330
1
100
AcDbSymbolTableRecord
100
AcDbBlockTableRecord
  2
*PAPER_SPACE
  0
BLOCK_RECORD
  5
1C
330
1
100
AcDbSymbolTableRecord
100
AcDbBlockTableRecord
  2
*D0
  0
BLOCK_RECORD
  5
1D
330
1
100
AcDbSymbolTableRecord
100
AcDbBlockTableRecord
  2
*D1
  0
BLOCK_RECORD
  5
1E
330
1
100
AcDbSymbolTableRecord
100
AcDbBlockTableRecord
  2
*D2
  0
BLOCK_RECORD
  5
1F
330
1
100
AcDbSymbolTableRecord
100
AcDbBlockTableRecord
  2
*D3
  0
BLOCK_RECORD
  5
20
330
1
100
AcDbSymbolTableRecord
100
AcDbBlockTableRecord
  2
*D4
  0
BLOCK_RECORD
  5
21
330
1
100
AcDbSymbolTableRecord
100
AcDbBlockTableRecord
  2
*D5
  0
BLOCK_RECORD
  5
22
330
1
100
AcDbSymbolTableRecord
100
AcDbBlockTableRecord
  2
*D6
  0
ENDTAB
  0
ENDSEC
  0
SECTION
  2
BLOCKS
  0
BLOCK
  5
2B
330
17
100
AcDbEntity
  8
0
100
AcDbBlockBegin
  2
*MODEL_SPACE
 70
     0
 10
0.0
 20
0.0
 30
0.0
  3
*MODEL_SPACE
  1

  0
ENDBLK
  5
2C
330
17
100
AcDbEntity
  8
0
100
AcDbBlockEnd
  0
BLOCK
  5
29
330
14
100
AcDbEntity
 67
     1
  8
0
100
AcDbBlockBegin
  2
*PAPER_SPACE
 70
     0
 10
0.0
 20
0.0
 30
0.0
  3
*PAPER_SPACE
  1

  0
ENDBLK
  5
2A
330
14
100
AcDbEntity
 67
     1
  8
0
100
AcDbBlockEnd
  0
BLOCK
  5
2F
330
1C
100
AcDbEntity
  8
0
100
AcDbBlockBegin
  2
*D0
 70
     1
 10
0.0
 20
0.0
 30
0.0
  3
*D0
  1

  0
LINE
  5
30
330
1C
100
AcDbEntity
  8
0
  6
BYBLOCK
 62
     0
100
AcDbLine
 10
29.98087528479866
 20
-0.895421654679826
 30
0.0
 11
29.98087528479866
 21
-0.503517351842474
 31
0.0
  0
LINE
  5
31
330
1C
100
AcDbEntity
  8
0
  6
BYBLOCK
 62
     0
100
AcDbLine
 10
30.98087528479867
 20
-0.895421654679826
 30
0.0
 11
30.98087528479867
 21
-0.503517351842474
 31
0.0
  0
LINE
  5
32
330
1C
100
AcDbEntity
  8
0
  6
BYBLOCK
 62
     0
100
AcDbLine
 10
29.98087528479866
 20
-0.683517351842474
 30
0.0
 11
30.33504195146533
 21
-0.683517351842474
 31
0.0
  0
LINE
  5
33
330
1C
100
AcDbEntity
  8
0
  6
BYBLOCK
 62
     0
100
AcDbLine
 10
30.98087528479867
 20
-0.683517351842474
 30
0.0
 11
30.626708618132
 21
-0.683517351842474
 31
0.0
  0
LINE
  5
34
330
1C
100
AcDbEntity
  8
0
  6
BYBLOCK
 62
     0
100
AcDbLine
 10
29.85587528479866
 20
-0.8085173518424738
 30
0.0
 11
30.10587528479867
 21
-0.558517351842474
 31
0.0
  0
LINE
  5
35
330
1C
100
AcDbEntity
  8
0
  6
BYBLOCK
 62
     0
100
AcDbLine
 10
30.85587528479866
 20
-0.8085173518424738
 30
0.0
 11
31.10587528479866
 21
-0.558517351842474
 31
0.0
  0
TEXT
  5
36
330
1C
100
AcDbEntity
  8
0
  6
BYBLOCK
 62
     0
100
AcDbText
 10
30.46004195146533
 20
-0.746017351842474
 30
0.0
 40
0.125
  1
1
 72
     1
 11
30.48087528479866
 21
-0.683517351842474
 31
0.0
100
AcDbText
 73
     2
  0
POINT
  5
38
330
1C
100
AcDbEntity
  8
DEFPOINTS
  6
BYBLOCK
 62
     0
100
AcDbPoint
 10
29.98087528479866
 20
-0.957921654679826
 30
0.0
  0
POINT
  5
39
330
1C
100
AcDbEntity
  8
DEFPOINTS
  6
BYBLOCK
 62
     0
100
AcDbPoint
 10
30.98087528479867
 20
-0.957921654679826
 30
0.0
  0
POINT
  5
3A
330
1C
100
AcDbEntity
  8
DEFPOINTS
  6
BYBLOCK
 62
     0
100
AcDbPoint
 10
30.98087528479867
 20
-0.683517351842474
 30
0.0
  0
ENDBLK
  5
3B
330
1C
100
AcDbEntity
  8
0
100
AcDbBlockEnd
  0
BLOCK
  5
3C
330
1D
100
AcDbEntity
  8
0
100
AcDbBlockBegin
  2
*D1
 70
     1
 10
0.0
 20
0.0
 30
0.0
  3
*D1
  1

  0
LINE
  5
3D
330
1D
100
AcDbEntity
  8
0
  6
BYBLOCK
 62
     0
100
AcDbLine
 10
24.3399029174029
 20
-2.601588407795654
 30
0.0
 11
23.99096347706925
 21
-3.106840463557113
 31
0.0
  0
LINE
  5
3E
330
1D
100
AcDbEntity
  8
0
  6
BYBLOCK
 62
     0
100
AcDbLine
 10
24.3717237300466
 20
-2.77547755605596
 30
0.0
 11
24.3080821047592
 21
-2.427699259535348
 31
0.0
  0
LINE
  5
3F
330
1D
100
AcDbEntity
  8
0
  6
BYBLOCK
 62
     0
100
AcDbLine
 10
24.25895416911535
 20
-2.447305937117651
 30
0.0
 11
24.63395416911535
 21
-2.447305937117651
 31
0.0
  0
LINE
  5
40
330
1D
100
AcDbEntity
  8
0
  6
BYBLOCK
 62
     0
100
AcDbLine
 10
24.44645416911535
 20
-2.634805937117651
 30
0.0
 11
24.44645416911535
 21
-2.259805937117651
 31
0.0
  0
TEXT
  5
41
330
1D
100
AcDbEntity
  8
0
  6
BYBLOCK
 62
     0
100
AcDbText
 10
23.71089818418984
 20
-3.622347456237275
 30
0.0
 40
0.125
  1
%%c3/8
 50
55.37009176933086
 72
     1
 11
23.78970000161239
 21
-3.398262908171119
 31
0.0
100
AcDbText
 73
     2
  0
POINT
  5
42
330
1D
100
AcDbEntity
  8
DEFPOINTS
  6
BYBLOCK
 62
     0
100
AcDbPoint
 10
24.3399029174029
 20
-2.601588407795654
 30
0.0
  0
POINT
  5
43
330
1D
100
AcDbEntity
  8
DEFPOINTS
  6
BYBLOCK
 62
     0
100
AcDbPoint
 10
24.55300542082781
 20
-2.293023466439647
 30
0.0
  0
ENDBLK
  5
44
330
1D
100
AcDbEntity
  8
0
100
AcDbBlockEnd
  0
BLOCK
  5
45
330
1E
100
AcDbEntity
  8
0
100
AcDbBlockBegin
  2
*D2
 70
     1
 10
0.0
 20
0.0
 30
0.0
  3
*D2
  1

  0
LINE
  5
46
330
1E
100
AcDbEntity
  8
0
  6
BYBLOCK
 62
     0
100
AcDbLine
 10
24.11526623107654
 20
-2.623202354641142
 30
0.0
 11
23.89447427238399
 21
-2.740466632990137
 31
0.0
  0
LINE
  5
47
330
1E
100
AcDbEntity
  8
0
  6
BYBLOCK
 62
     0
100
AcDbLine
 10
24.06350239090476
 20
-2.792230473161911
 30
0.0
 11
24.16703007124831
 21
-2.454174236120373
 31
0.0
  0
LINE
  5
48
330
1E
100
AcDbEntity
  8
0
  6
BYBLOCK
 62
     0
100
AcDbLine
 10
24.25895416911535
 20
-2.44730593711765
 30
0.0
 11
24.63395416911535
 21
-2.44730593711765
 31
0.0
  0
LINE
  5
49
330
1E
100
AcDbEntity
  8
0
  6
BYBLOCK
 62
     0
100
AcDbLine
 10
24.44645416911535
 20
-2.63480593711765
 30
0.0
 11
24.44645416911535
 21
-2.25980593711765
 31
0.0
  0
TEXT
  5
4A
330
1E
100
AcDbEntity
  8
0
  6
BYBLOCK
 62
     0
100
AcDbText
 10
23.40860910502198
 20
-3.06928127214426
 30
0.0
 40
0.125
  1
%%c3/4
 50
27.97310911840032
 72
     1
 11
23.58168566423623
 21
-2.90659102731788
 31
0.0
100
AcDbText
 73
     2
  0
POINT
  5
4B
330
1E
100
AcDbEntity
  8
DEFPOINTS
  6
BYBLOCK
 62
     0
100
AcDbPoint
 10
24.11526623107654
 20
-2.623202354641142
 30
0.0
  0
POINT
  5
4C
330
1E
100
AcDbEntity
  8
DEFPOINTS
  6
BYBLOCK
 62
     0
100
AcDbPoint
 10
24.77764210715417
 20
-2.271409519594158
 30
0.0
  0
ENDBLK
  5
4D
330
1E
100
AcDbEntity
  8
0
100
AcDbBlockEnd
  0
BLOCK
  5
4E
330
1F
100
AcDbEntity
  8
0
100
AcDbBlockBegin
  2
*D3
 70
     1
 10
0.0
 20
0.0
 30
0.0
  3
*D3
  1

  0
LINE
  5
4F
330
1F
100
AcDbEntity
  8
0
  6
BYBLOCK
 62
     0
100
AcDbLine
 10
27.21930088690383
 20
-1.395421654679826
 30
0.0
 11
27.21930088690383
 21
-0.503517351842474
 31
0.0
  0
LINE
  5
50
330
1F
100
AcDbEntity
  8
0
  6
BYBLOCK
 62
     0
100
AcDbLine
 10
28.71930088690383
 20
-0.895421654679826
 30
0.0
 11
28.71930088690383
 21
-0.503517351842474
 31
0.0
  0
LINE
  5
51
330
1F
100
AcDbEntity
  8
0
  6
BYBLOCK
 62
     0
100
AcDbLine
 10
27.21930088690383
 20
-0.683517351842474
 30
0.0
 11
27.59430088690383
 21
-0.683517351842474
 31
0.0
  0
LINE
  5
52
330
1F
100
AcDbEntity
  8
0
  6
BYBLOCK
 62
     0
100
AcDbLine
 10
28.71930088690383
 20
-0.683517351842474
 30
0.0
 11
28.34430088690383
 21
-0.683517351842474
 31
0.0
  0
LINE
  5
53
330
1F
100
AcDbEntity
  8
0
  6
BYBLOCK
 62
     0
100
AcDbLine
 10
27.09430088690383
 20
-0.8085173518424738
 30
0.0
 11
27.34430088690383
 21
-0.558517351842474
 31
0.0
  0
LINE
  5
54
330
1F
100
AcDbEntity
  8
0
  6
BYBLOCK
 62
     0
100
AcDbLine
 10
28.59430088690383
 20
-0.8085173518424738
 30
0.0
 11
28.84430088690383
 21
-0.558517351842474
 31
0.0
  0
TEXT
  5
55
330
1F
100
AcDbEntity
  8
0
  6
BYBLOCK
 62
     0
100
AcDbText
 10
27.71930088690383
 20
-0.746017351842474
 30
0.0
 40
0.125
  1
1 1/2
 72
     1
 11
27.96930088690383
 21
-0.683517351842474
 31
0.0
100
AcDbText
 73
     2
  0
POINT
  5
56
330
1F
100
AcDbEntity
  8
DEFPOINTS
  6
BYBLOCK
 62
     0
100
AcDbPoint
 10
27.21930088690383
 20
-1.457921654679826
 30
0.0
  0
POINT
  5
57
330
1F
100
AcDbEntity
  8
DEFPOINTS
  6
BYBLOCK
 62
     0
100
AcDbPoint
 10
28.71930088690383
 20
-0.957921654679826
 30
0.0
  0
POINT
  5
58
330
1F
100
AcDbEntity
  8
DEFPOINTS
  6
BYBLOCK
 62
     0
100
AcDbPoint
 10
28.71930088690383
 20
-0.683517351842474
 30
0.0
  0
ENDBLK
  5
59
330
1F
100
AcDbEntity
  8
0
100
AcDbBlockEnd
  0
BLOCK
  5
5A
330
20
100
AcDbEntity
  8
0
100
AcDbBlockBegin
  2
*D4
 70
     1
 10
0.0
 20
0.0
 30
0.0
  3
*D4
  1

  0
LINE
  5
5B
330
20
100
AcDbEntity
  8
0
  6
BYBLOCK
 62
     0
100
AcDbLine
 10
26.38015527605363
 20
-2.02235539890612
 30
0.0
 11
26.38015527605363
 21
-1.702643813976015
 31
0.0
  0
LINE
  5
5C
330
20
100
AcDbEntity
  8
0
  6
BYBLOCK
 62
     0
100
AcDbLine
 10
25.50262660304297
 20
-2.017264681618254
 30
0.0
 11
25.50262660304297
 21
-1.702643813976015
 31
0.0
  0
LINE
  5
5D
330
20
100
AcDbEntity
  8
0
  6
BYBLOCK
 62
     0
100
AcDbLine
 10
26.38015527605363
 20
-1.882643813976015
 30
0.0
 11
26.63015527605363
 21
-1.882643813976015
 31
0.0
  0
LINE
  5
5E
330
20
100
AcDbEntity
  8
0
  6
BYBLOCK
 62
     0
100
AcDbLine
 10
25.50262660304297
 20
-1.882643813976015
 30
0.0
 11
25.25262660304297
 21
-1.882643813976015
 31
0.0
  0
LINE
  5
5F
330
20
100
AcDbEntity
  8
0
  6
BYBLOCK
 62
     0
100
AcDbLine
 10
26.25515527605363
 20
-2.007643813976015
 30
0.0
 11
26.50515527605363
 21
-1.757643813976015
 31
0.0
  0
LINE
  5
60
330
20
100
AcDbEntity
  8
0
  6
BYBLOCK
 62
     0
100
AcDbLine
 10
25.37762660304297
 20
-2.007643813976015
 30
0.0
 11
25.62762660304297
 21
-1.757643813976015
 31
0.0
  0
TEXT
  5
61
330
20
100
AcDbEntity
  8
0
  6
BYBLOCK
 62
     0
100
AcDbText
 10
24.79429326970963
 20
-1.945143813976015
 30
0.0
 40
0.125
  1
7/8
 72
     1
 11
24.9609599363763
 21
-1.882643813976015
 31
0.0
100
AcDbText
 73
     2
  0
POINT
  5
62
330
20
100
AcDbEntity
  8
DEFPOINTS
  6
BYBLOCK
 62
     0
100
AcDbPoint
 10
26.38015527605363
 20
-2.08485539890612
 30
0.0
  0
POINT
  5
63
330
20
100
AcDbEntity
  8
DEFPOINTS
  6
BYBLOCK
 62
     0
100
AcDbPoint
 10
25.50262660304297
 20
-2.079764681618254
 30
0.0
  0
POINT
  5
64
330
20
100
AcDbEntity
  8
DEFPOINTS
  6
BYBLOCK
 62
     0
100
AcDbPoint
 10
25.50262660304297
 20
-1.882643813976015
 30
0.0
  0
ENDBLK
  5
65
330
20
100
AcDbEntity
  8
0
100
AcDbBlockEnd
  0
BLOCK
  5
66
330
21
100
AcDbEntity
  8
0
100
AcDbBlockBegin
  2
*D5
 70
     1
 10
0.0
 20
0.0
 30
0.0
  3
*D5
  1

  0
LINE
  5
67
330
21
100
AcDbEntity
  8
0
  6
BYBLOCK
 62
     0
100
AcDbLine
 10
27.15680088690383
 20
-3.457921654679826
 30
0.0
 11
26.71209941172258
 21
-3.457921654679826
 31
0.0
  0
LINE
  5
68
330
21
100
AcDbEntity
  8
0
  6
BYBLOCK
 62
     0
100
AcDbLine
 10
27.15680088690383
 20
-1.457921654679825
 30
0.0
 11
26.71209941172258
 21
-1.457921654679825
 31
0.0
  0
LINE
  5
69
330
21
100
AcDbEntity
  8
0
  6
BYBLOCK
 62
     0
100
AcDbLine
 10
26.89209941172258
 20
-3.457921654679826
 30
0.0
 11
26.89209941172258
 21
-2.624588321346492
 31
0.0
  0
LINE
  5
6A
330
21
100
AcDbEntity
  8
0
  6
BYBLOCK
 62
     0
100
AcDbLine
 10
26.89209941172258
 20
-1.457921654679825
 30
0.0
 11
26.89209941172258
 21
-2.291254988013159
 31
0.0
  0
LINE
  5
6B
330
21
100
AcDbEntity
  8
0
  6
BYBLOCK
 62
     0
100
AcDbLine
 10
27.01709941172258
 20
-3.582921654679826
 30
0.0
 11
26.76709941172258
 21
-3.332921654679826
 31
0.0
  0
LINE
  5
6C
330
21
100
AcDbEntity
  8
0
  6
BYBLOCK
 62
     0
100
AcDbLine
 10
27.01709941172258
 20
-1.582921654679825
 30
0.0
 11
26.76709941172258
 21
-1.332921654679825
 31
0.0
  0
TEXT
  5
6D
330
21
100
AcDbEntity
  8
0
  6
BYBLOCK
 62
     0
100
AcDbText
 10
26.95459941172257
 20
-2.499588321346492
 30
0.0
 40
0.125
  1
2
 50
90.0
 72
     1
 11
26.89209941172258
 21
-2.457921654679826
 31
0.0
100
AcDbText
 73
     2
  0
POINT
  5
6E
330
21
100
AcDbEntity
  8
DEFPOINTS
  6
BYBLOCK
 62
     0
100
AcDbPoint
 10
27.21930088690383
 20
-3.457921654679826
 30
0.0
  0
POINT
  5
6F
330
21
100
AcDbEntity
  8
DEFPOINTS
  6
BYBLOCK
 62
     0
100
AcDbPoint
 10
27.21930088690383
 20
-1.457921654679826
 30
0.0
  0
POINT
  5
70
330
21
100
AcDbEntity
  8
DEFPOINTS
  6
BYBLOCK
 62
     0
100
AcDbPoint
 10
26.89209941172258
 20
-1.457921654679825
 30
0.0
  0
ENDBLK
  5
71
330
21
100
AcDbEntity
  8
0
100
AcDbBlockEnd
  0
BLOCK
  5
72
330
22
100
AcDbEntity
  8
0
100
AcDbBlockBegin
  2
*D6
 70
     1
 10
0.0
 20
0.0
 30
0.0
  3
*D6
  1

  0
LINE
  5
73
330
22
100
AcDbEntity
  8
0
  6
BYBLOCK
 62
     0
100
AcDbLine
 10
31.04337528479867
 20
-0.957921654679826
 30
0.0
 11
31.5914961772725
 21
-0.957921654679826
 31
0.0
  0
LINE
  5
74
330
22
100
AcDbEntity
  8
0
  6
BYBLOCK
 62
     0
100
AcDbLine
 10
31.04337528479867
 20
-3.957921654679826
 30
0.0
 11
31.5914961772725
 21
-3.957921654679826
 31
0.0
  0
LINE
  5
75
330
22
100
AcDbEntity
  8
0
  6
BYBLOCK
 62
     0
100
AcDbLine
 10
31.4114961772725
 20
-0.957921654679826
 30
0.0
 11
31.4114961772725
 21
-2.291254988013159
 31
0.0
  0
LINE
  5
76
330
22
100
AcDbEntity
  8
0
  6
BYBLOCK
 62
     0
100
AcDbLine
 10
31.4114961772725
 20
-3.957921654679826
 30
0.0
 11
31.4114961772725
 21
-2.624588321346492
 31
0.0
  0
LINE
  5
77
330
22
100
AcDbEntity
  8
0
  6
BYBLOCK
 62
     0
100
AcDbLine
 10
31.5364961772725
 20
-1.082921654679826
 30
0.0
 11
31.2864961772725
 21
-0.832921654679826
 31
0.0
  0
LINE
  5
78
330
22
100
AcDbEntity
  8
0
  6
BYBLOCK
 62
     0
100
AcDbLine
 10
31.5364961772725
 20
-4.082921654679825
 30
0.0
 11
31.2864961772725
 21
-3.832921654679826
 31
0.0
  0
TEXT
  5
79
330
22
100
AcDbEntity
  8
0
  6
BYBLOCK
 62
     0
100
AcDbText
 10
31.4739961772725
 20
-2.499588321346492
 30
0.0
 40
0.125
  1
3
 50
90.0
 72
     1
 11
31.4114961772725
 21
-2.457921654679826
 31
0.0
100
AcDbText
 73
     2
  0
POINT
  5
7A
330
22
100
AcDbEntity
  8
DEFPOINTS
  6
BYBLOCK
 62
     0
100
AcDbPoint
 10
30.98087528479867
 20
-0.957921654679826
 30
0.0
  0
POINT
  5
7B
330
22
100
AcDbEntity
  8
DEFPOINTS
  6
BYBLOCK
 62
     0
100
AcDbPoint
 10
30.98087528479867
 20
-3.957921654679826
 30
0.0
  0
POINT
  5
7C
330
22
100
AcDbEntity
  8
DEFPOINTS
  6
BYBLOCK
 62
     0
100
AcDbPoint
 10
31.4114961772725
 20
-3.957921654679826
 30
0.0
  0
ENDBLK
  5
7D
330
22
100
AcDbEntity
  8
0
100
AcDbBlockEnd
  0
ENDSEC
  0
SECTION
  2
ENTITIES
  0
DIMENSION
  5
7E
330
17
100
AcDbEntity
  8
ADPDIM
100
AcDbDimension
  2
*D2
 10
24.77764210715417
 20
-2.271409519594158
 30
0.0
 11
23.58168566423623
 21
-2.90659102731788
 31
0.0
 70
     3
100
AcDbDiametricDimension
 15
24.11526623107654
 25
-2.623202354641142
 35
0.0
 40
0.0
  0
LINE
  5
7F
330
17
100
AcDbEntity
  8
ADP1DETAIL
100
AcDbLine
 10
28.71930088690383
 20
-3.957921654679826
 30
0.0
 11
28.71930088690383
 21
-0.957921654679826
 31
0.0
  0
LINE
  5
80
330
17
100
AcDbEntity
  8
ADP1DETAIL
100
AcDbLine
 10
27.21930088690383
 20
-1.457921654679826
 30
0.0
 11
27.21930088690383
 21
-3.457921654679826
 31
0.0
  0
LINE
  5
81
330
17
100
AcDbEntity
  8
ADP1DETAIL
100
AcDbLine
 10
26.37655854907789
 20
-2.833098014951588
 30
0.0
 11
26.37655854907789
 21
-2.079764681618254
 31
0.0
  0
LINE
  5
82
330
17
100
AcDbEntity
  8
ADP1DETAIL
100
AcDbLine
 10
25.50262660304297
 20
-2.833098014951588
 30
0.0
 11
25.50262660304297
 21
-2.079764681618254
 31
0.0
  0
LINE
  5
83
330
17
100
AcDbEntity
  8
ADP2DETAIL
  6
HIDDEN2
100
AcDbLine
 10
28.47263422023717
 20
-2.084588321346494
 30
0.0
 11
28.47263422023717
 21
-2.83125498801316
 31
0.0
  0
DIMENSION
  5
84
330
17
100
AcDbEntity
  8
ADPDIM
100
AcDbDimension
  2
*D1
 10
24.55300542082781
 20
-2.293023466439647
 30
0.0
 11
23.78970000161239
 21
-3.398262908171119
 31
0.0
 70
     3
100
AcDbDiametricDimension
 15
24.3399029174029
 25
-2.601588407795654
 35
0.0
 40
0.6140345046261978
  0
DIMENSION
  5
85
330
17
100
AcDbEntity
  8
ADPDIM
100
AcDbDimension
  2
*D5
 10
26.89209941172258
 20
-1.457921654679825
 30
0.0
 11
26.89209941172258
 21
-2.457921654679826
 31
0.0
100
AcDbAlignedDimension
 13
27.21930088690383
 23
-3.457921654679826
 33
0.0
 14
27.21930088690383
 24
-1.457921654679826
 34
0.0
 50
90.0
100
AcDbRotatedDimension
  0
LINE
  5
86
330
17
100
AcDbEntity
  8
ADP1DETAIL
100
AcDbLine
 10
26.37655854907789
 20
-2.833098014951588
 30
0.0
 11
26.07655854907789
 21
-2.833098014951588
 31
0.0
  0
LINE
  5
87
330
17
100
AcDbEntity
  8
ADP1DETAIL
100
AcDbLine
 10
27.4659675535705
 20
-3.084588321346494
 30
0.0
 11
28.33930088690383
 21
-3.084588321346494
 31
0.0
  0
LINE
  5
88
330
17
100
AcDbEntity
  8
ADP2DETAIL
  6
HIDDEN2
100
AcDbLine
 10
28.47263422023717
 20
-2.83125498801316
 30
0.0
 11
27.2232850380254
 21
-2.83125498801316
 31
0.0
  0
LINE
  5
89
330
17
100
AcDbEntity
  8
ADP1DETAIL
100
AcDbLine
 10
27.4059675535705
 20
-3.457921654679826
 30
0.0
 11
27.4659675535705
 21
-3.084588321346494
 31
0.0
  0
LINE
  5
8A
330
17
100
AcDbEntity
  8
ADP1DETAIL
100
AcDbLine
 10
27.21930088690383
 20
-3.457921654679826
 30
0.0
 11
27.4059675535705
 21
-3.457921654679826
 31
0.0
  0
LINE
  5
8B
330
17
100
AcDbEntity
  8
ADP2DETAIL
  6
HIDDEN2
100
AcDbLine
 10
27.79263422023717
 20
-3.084588321346494
 30
0.0
 11
27.79263422023717
 21
-3.03125498801316
 31
0.0
  0
LINE
  5
8C
330
17
100
AcDbEntity
  8
0
  6
HIDDEN2
100
AcDbLine
 10
27.7946842878389
 20
-2.833098014951588
 30
0.0
 11
27.7946842878389
 21
-3.082819555722859
 31
0.0
  0
LINE
  5
8D
330
17
100
AcDbEntity
  8
0
  6
HIDDEN2
100
AcDbLine
 10
27.54050814488791
 20
-2.833098014951588
 30
0.0
 11
27.54050814488791
 21
-3.082819555722859
 31
0.0
  0
LINE
  5
8E
330
17
100
AcDbEntity
  8
ADP2DETAIL
  6
HIDDEN2
100
AcDbLine
 10
27.54050814488791
 20
-2.998168187446723
 30
0.0
 11
27.7946842878389
 21
-2.998168187446723
 31
0.0
  0
LINE
  5
8F
330
17
100
AcDbEntity
  8
ADP2DETAIL
  6
HIDDEN2
100
AcDbLine
 10
27.54050814488791
 20
-3.036261307527654
 30
0.0
 11
27.7946842878389
 21
-3.036261307527654
 31
0.0
  0
LINE
  5
90
330
17
100
AcDbEntity
  8
ADP2DETAIL
  6
HIDDEN2
100
AcDbLine
 10
27.54050814488791
 20
-2.883888841726163
 30
0.0
 11
27.7946842878389
 21
-2.883888841726163
 31
0.0
  0
LINE
  5
91
330
17
100
AcDbEntity
  8
ADP2DETAIL
  6
HIDDEN2
100
AcDbLine
 10
27.54050814488791
 20
-2.917749383227724
 30
0.0
 11
27.7946842878389
 21
-2.917749383227724
 31
0.0
  0
LINE
  5
92
330
17
100
AcDbEntity
  8
ADP2DETAIL
  6
HIDDEN2
100
AcDbLine
 10
27.54050814488791
 20
-2.955842503308656
 30
0.0
 11
27.7946842878389
 21
-2.955842503308656
 31
0.0
  0
LINE
  5
93
330
17
100
AcDbEntity
  8
ADP1DETAIL
100
AcDbLine
 10
28.4659675535705
 20
-3.957921654679826
 30
0.0
 11
28.71930088690383
 21
-3.957921654679826
 31
0.0
  0
LINE
  5
94
330
17
100
AcDbEntity
  8
ADP2DETAIL
  6
HIDDEN2
100
AcDbLine
 10
28.65930088690383
 20
-3.71125498801316
 30
0.0
 11
28.47263422023717
 21
-3.824588321346493
 31
0.0
  0
LINE
  5
95
330
17
100
AcDbEntity
  8
ADP2DETAIL
  6
HIDDEN2
100
AcDbLine
 10
28.37263422023717
 20
-3.264588321346494
 30
0.0
 11
28.63930088690383
 21
-3.457921654679826
 31
0.0
  0
LINE
  5
96
330
17
100
AcDbEntity
  8
ADP1DETAIL
100
AcDbLine
 10
28.33930088690383
 20
-3.084588321346494
 30
0.0
 11
28.4659675535705
 21
-3.957921654679826
 31
0.0
  0
LINE
  5
97
330
17
100
AcDbEntity
  8
ADP2DETAIL
  6
HIDDEN2
100
AcDbLine
 10
28.65930088690383
 20
-3.71125498801316
 30
0.0
 11
28.71263422023716
 21
-3.71125498801316
 31
0.0
  0
LINE
  5
98
330
17
100
AcDbEntity
  8
ADP2DETAIL
  6
HIDDEN2
100
AcDbLine
 10
28.63930088690383
 20
-3.457921654679826
 30
0.0
 11
28.69930088690383
 21
-3.457921654679826
 31
0.0
  0
DIMENSION
  5
99
330
17
100
AcDbEntity
  8
ADPDIM
100
AcDbDimension
  2
*D4
 10
25.50262660304297
 20
-1.882643813976015
 30
0.0
 11
24.9609599363763
 21
-1.882643813976015
 31
0.0
100
AcDbAlignedDimension
 13
26.38015527605363
 23
-2.08485539890612
 33
0.0
 14
25.50262660304297
 24
-2.079764681618254
 34
0.0
100
AcDbRotatedDimension
  0
CIRCLE
  5
9A
330
17
100
AcDbEntity
  8
ADP1DETAIL
100
AcDbCircle
 10
24.44645416911535
 20
-2.447305937117651
 30
0.0
 40
0.375
  0
CIRCLE
  5
9B
330
17
100
AcDbEntity
  8
ADP1DETAIL
100
AcDbCircle
 10
24.44645416911535
 20
-2.447305937117651
 30
0.0
 40
0.1875
  0
LINE
  5
9C
330
17
100
AcDbEntity
  8
ADP1DETAIL
100
AcDbLine
 10
25.80262660304297
 20
-2.828274375223348
 30
0.0
 11
25.50262660304297
 21
-2.828274375223348
 31
0.0
  0
LINE
  5
9D
330
17
100
AcDbEntity
  8
ADP1DETAIL
100
AcDbLine
 10
25.80262660304297
 20
-2.079764681618254
 30
0.0
 11
25.50262660304297
 21
-2.079764681618254
 31
0.0
  0
LINE
  5
9E
330
17
100
AcDbEntity
  8
ADP2DETAIL
  6
HIDDEN2
100
AcDbLine
 10
25.50200837085846
 20
-2.637808789340926
 30
0.0
 11
26.37452288551611
 21
-2.637808789340926
 31
0.0
  0
LINE
  5
9F
330
17
100
AcDbEntity
  8
ADP2DETAIL
  6
HIDDEN2
100
AcDbLine
 10
25.50200837085846
 20
-2.26534276021259
 30
0.0
 11
26.37452288551611
 21
-2.26534276021259
 31
0.0
  0
LINE
  5
A0
330
17
100
AcDbEntity
  8
ADP1DETAIL
100
AcDbLine
 10
26.37655854907789
 20
-2.079764681618254
 30
0.0
 11
26.07655854907789
 21
-2.079764681618254
 31
0.0
  0
LINE
  5
A1
330
17
100
AcDbEntity
  8
ADP1DETAIL
100
AcDbLine
 10
25.86193436450932
 20
-2.735157864310706
 30
0.0
 11
26.01867631671799
 21
-2.735157864310706
 31
0.0
  0
LINE
  5
A2
330
17
100
AcDbEntity
  8
ADP1DETAIL
100
AcDbLine
 10
25.86193436450932
 20
-2.735157864310706
 30
0.0
 11
25.80262660304297
 21
-2.828274375223348
 31
0.0
  0
LINE
  5
A3
330
17
100
AcDbEntity
  8
ADP1DETAIL
100
AcDbLine
 10
26.01867631671799
 20
-2.735157864310706
 30
0.0
 11
26.07374782069863
 21
-2.828274375223348
 31
0.0
  0
LINE
  5
A4
330
17
100
AcDbEntity
  8
ADP1DETAIL
100
AcDbLine
 10
25.86193436450932
 20
-2.180691391936456
 30
0.0
 11
26.01867631671799
 21
-2.180691391936456
 31
0.0
  0
LINE
  5
A5
330
17
100
AcDbEntity
  8
ADP1DETAIL
100
AcDbLine
 10
25.86193436450932
 20
-2.180691391936456
 30
0.0
 11
25.80262660304297
 21
-2.083342316966677
 31
0.0
  0
LINE
  5
A6
330
17
100
AcDbEntity
  8
ADP1DETAIL
100
AcDbLine
 10
26.01867631671799
 20
-2.180691391936456
 30
0.0
 11
26.07374782069863
 21
-2.083342316966677
 31
0.0
  0
LINE
  5
A7
330
17
100
AcDbEntity
  8
ADP1DETAIL
100
AcDbLine
 10
25.80262660304297
 20
-2.083342316966677
 30
0.0
 11
25.80262660304297
 21
-2.828274375223348
 31
0.0
  0
LINE
  5
A8
330
17
100
AcDbEntity
  8
ADP1DETAIL
100
AcDbLine
 10
25.86193436450932
 20
-2.180691391936456
 30
0.0
 11
25.86193436450932
 21
-2.735157864310706
 31
0.0
  0
LINE
  5
A9
330
17
100
AcDbEntity
  8
ADP1DETAIL
100
AcDbLine
 10
26.07374782069863
 20
-2.083342316966677
 30
0.0
 11
26.07374782069863
 21
-2.828274375223348
 31
0.0
  0
LINE
  5
AA
330
17
100
AcDbEntity
  8
ADP1DETAIL
100
AcDbLine
 10
26.01867631671799
 20
-2.180691391936456
 30
0.0
 11
26.01867631671799
 21
-2.735157864310706
 31
0.0
  0
LINE
  5
AB
330
17
100
AcDbEntity
  8
ADP1DETAIL
100
AcDbLine
 10
28.33930088690383
 20
-1.83125498801316
 30
0.0
 11
27.4659675535705
 21
-1.83125498801316
 31
0.0
  0
LINE
  5
AC
330
17
100
AcDbEntity
  8
ADP2DETAIL
  6
HIDDEN2
100
AcDbLine
 10
27.2232850380254
 20
-2.084588321346494
 30
0.0
 11
28.47263422023717
 21
-2.084588321346494
 31
0.0
  0
DIMENSION
  5
AD
330
17
100
AcDbEntity
  8
ADPDIM
100
AcDbDimension
  2
*D3
 10
28.71930088690383
 20
-0.683517351842474
 30
0.0
 11
27.96930088690383
 21
-0.683517351842474
 31
0.0
100
AcDbAlignedDimension
 13
27.21930088690383
 23
-1.457921654679826
 33
0.0
 14
28.71930088690383
 24
-0.957921654679826
 34
0.0
100
AcDbRotatedDimension
  0
LINE
  5
AE
330
17
100
AcDbEntity
  8
ADP1DETAIL
100
AcDbLine
 10
27.4059675535705
 20
-1.457921654679826
 30
0.0
 11
27.21930088690383
 21
-1.457921654679826
 31
0.0
  0
LINE
  5
AF
330
17
100
AcDbEntity
  8
ADP1DETAIL
100
AcDbLine
 10
27.4659675535705
 20
-1.83125498801316
 30
0.0
 11
27.4059675535705
 21
-1.457921654679826
 31
0.0
  0
LINE
  5
B0
330
17
100
AcDbEntity
  8
ADP1DETAIL
100
AcDbLine
 10
28.4659675535705
 20
-0.957921654679826
 30
0.0
 11
28.33930088690383
 21
-1.83125498801316
 31
0.0
  0
LINE
  5
B1
330
17
100
AcDbEntity
  8
ADP2DETAIL
  6
HIDDEN2
100
AcDbLine
 10
28.36596755357049
 20
-1.651254988013157
 30
0.0
 11
28.63263422023717
 21
-1.457921654679826
 31
0.0
  0
LINE
  5
B2
330
17
100
AcDbEntity
  8
ADP2DETAIL
  6
HIDDEN2
100
AcDbLine
 10
28.63263422023717
 20
-1.457921654679826
 30
0.0
 11
28.71395460175781
 21
-1.457921654679826
 31
0.0
  0
LINE
  5
B3
330
17
100
AcDbEntity
  8
ADP1DETAIL
100
AcDbLine
 10
28.71930088690383
 20
-0.957921654679826
 30
0.0
 11
28.4659675535705
 21
-0.957921654679826
 31
0.0
  0
LINE
  5
B4
330
17
100
AcDbEntity
  8
ADP2DETAIL
  6
HIDDEN2
100
AcDbLine
 10
28.65263422023716
 20
-1.204588321346492
 30
0.0
 11
28.4659675535705
 21
-1.091254988013159
 31
0.0
  0
LINE
  5
B5
330
17
100
AcDbEntity
  8
ADP2DETAIL
  6
HIDDEN2
100
AcDbLine
 10
28.6459675535705
 20
-1.204588321346492
 30
0.0
 11
28.7059675535705
 21
-1.204588321346492
 31
0.0
  0
LINE
  5
B6
330
17
100
AcDbEntity
  8
ADP2DETAIL
  6
HIDDEN2
100
AcDbLine
 10
28.65263422023716
 20
-1.204588321346492
 30
0.0
 11
28.7059675535705
 21
-1.204588321346492
 31
0.0
  0
LINE
  5
B7
330
17
100
AcDbEntity
  8
0
100
AcDbLine
 10
28.71930088690383
 20
-0.957921654679826
 30
0.0
 11
28.71930088690383
 21
-0.957921654679826
 31
0.0
  0
LINE
  5
B8
330
17
100
AcDbEntity
  8
ADP1DETAIL
100
AcDbLine
 10
30.98087528479867
 20
-3.957921654679826
 30
0.0
 11
30.98087528479867
 21
-0.957921654679826
 31
0.0
  0
LINE
  5
B9
330
17
100
AcDbEntity
  8
ADP1DETAIL
100
AcDbLine
 10
29.98087528479866
 20
-0.957921654679826
 30
0.0
 11
29.98087528479866
 21
-3.957921654679826
 31
0.0
  0
CIRCLE
  5
BA
330
17
100
AcDbEntity
  8
ADP2DETAIL
  6
HIDDEN2
100
AcDbCircle
 10
30.48683130731765
 20
-2.462630365693124
 30
0.0
 40
0.3748545482194209
  0
DIMENSION
  5
BB
330
17
100
AcDbEntity
  8
ADPDIM
100
AcDbDimension
  2
*D6
 10
31.4114961772725
 20
-3.957921654679826
 30
0.0
 11
31.4114961772725
 21
-2.457921654679826
 31
0.0
100
AcDbAlignedDimension
 13
30.98087528479867
 23
-0.957921654679826
 33
0.0
 14
30.98087528479867
 24
-3.957921654679826
 34
0.0
 50
90.0
100
AcDbRotatedDimension
  0
LINE
  5
BC
330
17
100
AcDbEntity
  8
ADP1DETAIL
100
AcDbLine
 10
29.98087528479866
 20
-3.957921654679826
 30
0.0
 11
30.98087528479867
 21
-3.957921654679826
 31
0.0
  0
LINE
  5
BD
330
17
100
AcDbEntity
  8
ADP2DETAIL
  6
HIDDEN2
100
AcDbLine
 10
29.98210604134028
 20
-3.459058821573949
 30
0.0
 11
30.97706036907827
 21
-3.459058821573949
 31
0.0
  0
LINE
  5
BE
330
17
100
AcDbEntity
  8
ADP2DETAIL
  6
HIDDEN2
100
AcDbLine
 10
29.98210604134028
 20
-3.081991993322148
 30
0.0
 11
30.97706036907827
 21
-3.081991993322148
 31
0.0
  0
CIRCLE
  5
BF
330
17
100
AcDbEntity
  8
ADP1DETAIL
100
AcDbCircle
 10
30.47996455313876
 20
-3.579034628583996
 30
0.0
 40
0.1205715584721166
  0
LINE
  5
C0
330
17
100
AcDbEntity
  8
0
100
AcDbLine
 10
30.98087528479867
 20
-3.957921654679826
 30
0.0
 11
30.98087528479867
 21
-3.957921654679826
 31
0.0
  0
LINE
  5
C1
330
17
100
AcDbEntity
  8
ADP1DETAIL
100
AcDbLine
 10
30.98087528479867
 20
-0.957921654679826
 30
0.0
 11
29.98087528479866
 21
-0.957921654679826
 31
0.0
  0
LINE
  5
C2
330
17
100
AcDbEntity
  8
ADP2DETAIL
  6
HIDDEN2
100
AcDbLine
 10
29.98210604134028
 20
-1.83081571607055
 30
0.0
 11
30.97706036907827
 21
-1.83081571607055
 31
0.0
  0
LINE
  5
C3
330
17
100
AcDbEntity
  8
ADP2DETAIL
  6
HIDDEN2
100
AcDbLine
 10
29.98210604134028
 20
-1.453748902332602
 30
0.0
 11
30.97706036907827
 21
-1.453748902332602
 31
0.0
  0
DIMENSION
  5
C4
330
17
100
AcDbEntity
  8
ADPDIM
100
AcDbDimension
  2
*D0
 10
30.98087528479867
 20
-0.683517351842474
 30
0.0
 11
30.48087528479866
 21
-0.683517351842474
 31
0.0
100
AcDbAlignedDimension
 13
29.98087528479866
 23
-0.957921654679826
 33
0.0
 14
30.98087528479867
 24
-0.957921654679826
 34
0.0
100
AcDbRotatedDimension
  0
CIRCLE
  5
C5
330
17
100
AcDbEntity
  8
ADP1DETAIL
100
AcDbCircle
 10
30.47996455313876
 20
-1.338911221080986
 30
0.0
 40
0.1205715584721166
  0
TEXT
  5
CF
330
17
100
AcDbEntity
  8
ADPDIM
100
AcDbText
 10
21.21538504359537
 20
-5.123577057944062
 30
0.0
 40
0.125
  1
J U L I U S  B L U M  &  C O . ,  I N C .      ( 8 0 0 )  5 2 6 - 6 2 9 3        W W W . J U L I U S B L U M . C O M        P A R T  N O .  1 6 9
 41
1.25
  7
ARIAL_WIDE
 72
     1
 11
27.6742868171288
 21
-4.998577057944062
 31
0.0
100
AcDbText
 73
     3
  0
ENDSEC
  0
SECTION
  2
OBJECTS
  0
DICTIONARY
  5
C
330
0
100
AcDbDictionary
  3
ACAD_GROUP
350
D
  3
ACAD_LAYOUT
350
D4
  3
ACAD_MLINESTYLE
350
1A
  3
ACAD_PLOTSETTINGS
350
D5
  3
ACAD_PLOTSTYLENAME
350
D2
  3
ACDBHEADERROUNDTRIPXREC
350
1C1
  3
ACDBVARIABLEDICTIONARY
350
2D
  0
DICTIONARY
  5
101
330
17
100
AcDbDictionary
280
     1
  3
ACAD_LAYOUTSELFREF
360
1E3
  0
DICTIONARY
  5
FF
330
14
100
AcDbDictionary
280
     1
  3
ACAD_LAYOUTSELFREF
360
1E2
  0
DICTIONARY
  5
D
102
{ACAD_REACTORS
330
C
102
}
330
C
100
AcDbDictionary
  0
DICTIONARY
  5
D4
102
{ACAD_REACTORS
330
C
102
}
330
C
100
AcDbDictionary
  0
DICTIONARY
  5
1A
102
{ACAD_REACTORS
330
C
102
}
330
C
100
AcDbDictionary
  3
STANDARD
350
1B
  0
DICTIONARY
  5
D5
102
{ACAD_REACTORS
330
C
102
}
330
C
100
AcDbDictionary
  0
ACDBDICTIONARYWDFLT
  5
D2
102
{ACAD_REACTORS
330
C
102
}
330
C
100
AcDbDictionary
281
     1
  3
Normal
350
D3
100
AcDbDictionaryWithDefault
340
D3
  0
DICTIONARY
  5
1C1
102
{ACAD_REACTORS
330
C
102
}
330
C
100
AcDbDictionary
  3
CEPSNTYPE
350
1CB
  3
DIMSTYLEDATA
350
1CF
  3
FINGERPRINTGUID
350
1CC
  3
HYPERLINKBASE
350
1C4
  3
INSUNITS
350
1CA
  3
LAYOUTDICT
350
1C6
  3
LWETCUNION
350
1C9
  3
PLOTSETDICT
350
1C7
  3
PLOTSTYLNAMDICT
350
1C8
  3
PSVPSCALE
350
1CE
  3
PUCSBASE
350
1D2
  3
PUCSORGBACK
350
1D8
  3
PUCSORGBOTTOM
350
1D4
  3
PUCSORGFRONT
350
1D7
  3
PUCSORGLEFT
350
1D5
  3
PUCSORGRIGHT
350
1D6
  3
PUCSORGTOP
350
1D3
  3
PUCSORTHOREF
350
1D0
  3
PUCSORTHOVIEW
350
1D1
  3
STYLESHEET
350
1C5
  3
TSTACKALIGN
350
1C2
  3
TSTACKSIZE
350
1C3
  3
UCSBASE
350
1DB
  3
UCSORGBACK
350
1E1
  3
UCSORGBOTTOM
350
1DD
  3
UCSORGFRONT
350
1E0
  3
UCSORGLEFT
350
1DE
  3
UCSORGRIGHT
350
1DF
  3
UCSORGTOP
350
1DC
  3
UCSORTHOREF
350
1D9
  3
UCSORTHOVIEW
350
1DA
  3
VERSIONGUID
350
1CD
  0
DICTIONARY
  5
2D
102
{ACAD_REACTORS
330
C
102
}
330
C
100
AcDbDictionary
  3
DIMADEC
350
2E
  3
DIMASSOC
350
107
  0
XRECORD
  5
1E3
102
{ACAD_REACTORS
330
101
102
}
330
101
100
AcDbXrecord
340
17
  0
XRECORD
  5
1E2
102
{ACAD_REACTORS
330
FF
102
}
330
FF
100
AcDbXrecord
340
14
  0
MLINESTYLE
  5
1B
102
{ACAD_REACTORS
330
1A
102
}
330
1A
100
AcDbMlineStyle
  2
STANDARD
 70
     0
  3

 62
   256
 51
90.0
 52
90.0
 71
     2
 49
0.5
 62
   256
  6
BYLAYER
 49
-0.5
 62
   256
  6
BYLAYER
  0
ACDBPLACEHOLDER
  5
D3
102
{ACAD_REACTORS
330
D2
102
}
330
D2
100
AcDbPlaceHolder
280
     0
  0
XRECORD
  5
1CB
102
{ACAD_REACTORS
330
1C1
102
}
330
1C1
100
AcDbXrecord
 90
        0
  0
XRECORD
  5
1CF
102
{ACAD_REACTORS
330
1C1
102
}
330
1C1
100
AcDbXrecord
1000
DSTYLE
1002
{
1070
   277
 70
     5
1070
   279
 70
     2
1002
}
  0
XRECORD
  5
1CC
102
{ACAD_REACTORS
330
1C1
102
}
330
1C1
100
AcDbXrecord
  1
{63668B00-D4B0-4083-B742-19194F7C89E8}
  0
XRECORD
  5
1C4
102
{ACAD_REACTORS
330
1C1
102
}
330
1C1
100
AcDbXrecord
  1

  0
XRECORD
  5
1CA
102
{ACAD_REACTORS
330
1C1
102
}
330
1C1
100
AcDbXrecord
 90
        0
  0
XRECORD
  5
1C6
102
{ACAD_REACTORS
330
1C1
102
}
330
1C1
100
AcDbXrecord
340
D4
  0
XRECORD
  5
1C9
102
{ACAD_REACTORS
330
1C1
102
}
330
1C1
100
AcDbXrecord
 90
    14877
  0
XRECORD
  5
1C7
102
{ACAD_REACTORS
330
1C1
102
}
330
1C1
100
AcDbXrecord
340
D5
  0
XRECORD
  5
1C8
102
{ACAD_REACTORS
330
1C1
102
}
330
1C1
100
AcDbXrecord
340
D2
  0
XRECORD
  5
1CE
102
{ACAD_REACTORS
330
1C1
102
}
330
1C1
100
AcDbXrecord
 40
0.0
  0
XRECORD
  5
1D2
102
{ACAD_REACTORS
330
1C1
102
}
330
1C1
100
AcDbXrecord
340
0
  0
XRECORD
  5
1D8
102
{ACAD_REACTORS
330
1C1
102
}
330
1C1
100
AcDbXrecord
 10
0.0
 20
0.0
 30
0.0
  0
XRECORD
  5
1D4
102
{ACAD_REACTORS
330
1C1
102
}
330
1C1
100
AcDbXrecord
 10
0.0
 20
0.0
 30
0.0
  0
XRECORD
  5
1D7
102
{ACAD_REACTORS
330
1C1
102
}
330
1C1
100
AcDbXrecord
 10
0.0
 20
0.0
 30
0.0
  0
XRECORD
  5
1D5
102
{ACAD_REACTORS
330
1C1
102
}
330
1C1
100
AcDbXrecord
 10
0.0
 20
0.0
 30
0.0
  0
XRECORD
  5
1D6
102
{ACAD_REACTORS
330
1C1
102
}
330
1C1
100
AcDbXrecord
 10
0.0
 20
0.0
 30
0.0
  0
XRECORD
  5
1D3
102
{ACAD_REACTORS
330
1C1
102
}
330
1C1
100
AcDbXrecord
 10
0.0
 20
0.0
 30
0.0
  0
XRECORD
  5
1D0
102
{ACAD_REACTORS
330
1C1
102
}
330
1C1
100
AcDbXrecord
340
0
  0
XRECORD
  5
1D1
102
{ACAD_REACTORS
330
1C1
102
}
330
1C1
100
AcDbXrecord
 70
     0
  0
XRECORD
  5
1C5
102
{ACAD_REACTORS
330
1C1
102
}
330
1C1
100
AcDbXrecord
  1

  0
XRECORD
  5
1C2
102
{ACAD_REACTORS
330
1C1
102
}
330
1C1
100
AcDbXrecord
 90
        1
  0
XRECORD
  5
1C3
102
{ACAD_REACTORS
330
1C1
102
}
330
1C1
100
AcDbXrecord
 90
       70
  0
XRECORD
  5
1DB
102
{ACAD_REACTORS
330
1C1
102
}
330
1C1
100
AcDbXrecord
340
0
  0
XRECORD
  5
1E1
102
{ACAD_REACTORS
330
1C1
102
}
330
1C1
100
AcDbXrecord
 10
0.0
 20
0.0
 30
0.0
  0
XRECORD
  5
1DD
102
{ACAD_REACTORS
330
1C1
102
}
330
1C1
100
AcDbXrecord
 10
0.0
 20
0.0
 30
0.0
  0
XRECORD
  5
1E0
102
{ACAD_REACTORS
330
1C1
102
}
330
1C1
100
AcDbXrecord
 10
0.0
 20
0.0
 30
0.0
  0
XRECORD
  5
1DE
102
{ACAD_REACTORS
330
1C1
102
}
330
1C1
100
AcDbXrecord
 10
0.0
 20
0.0
 30
0.0
  0
XRECORD
  5
1DF
102
{ACAD_REACTORS
330
1C1
102
}
330
1C1
100
AcDbXrecord
 10
0.0
 20
0.0
 30
0.0
  0
XRECORD
  5
1DC
102
{ACAD_REACTORS
330
1C1
102
}
330
1C1
100
AcDbXrecord
 10
0.0
 20
0.0
 30
0.0
  0
XRECORD
  5
1D9
102
{ACAD_REACTORS
330
1C1
102
}
330
1C1
100
AcDbXrecord
340
0
  0
XRECORD
  5
1DA
102
{ACAD_REACTORS
330
1C1
102
}
330
1C1
100
AcDbXrecord
 70
     0
  0
XRECORD
  5
1CD
102
{ACAD_REACTORS
330
1C1
102
}
330
1C1
100
AcDbXrecord
  1
{1016AA03-EB56-47F2-B4A9-C158551368B3}
  0
DICTIONARYVAR
  5
2E
102
{ACAD_REACTORS
330
2D
102
}
330
2D
100
DictionaryVariables
280
     0
  1
0
  0
DICTIONARYVAR
  5
107
102
{ACAD_REACTORS
330
2D
102
}
330
2D
100
DictionaryVariables
280
     0
  1
1
  0
ENDSEC
  0
EOF
