  0
SECTION
  2
HEADER
  9
$ACADVER
  1
AC1014
  9
$ACADMAINTVER
 70
     9
  9
$DWGCODEPAGE
  3
ANSI_1252
  9
$INSBASE
 10
11.64163360796277
 20
4.738923959872122
 30
0.0
  9
$EXTMIN
 10
6.009473209460926
 20
2.53431087948699
 30
0.0
  9
$EXTMAX
 10
15.69782586976106
 20
7.397262551244501
 30
0.0
  9
$LIMMIN
 10
0.0
 20
0.0
  9
$LIMMAX
 10
36.0
 20
36.0
  9
$ORTHOMODE
 70
     1
  9
$REGENMODE
 70
     1
  9
$FILLMODE
 70
     1
  9
$QTEXTMODE
 70
     0
  9
$MIRRTEXT
 70
     1
  9
$DRAGMODE
 70
     0
  9
$LTSCALE
 40
1.0
  9
$OSMODE
 70
    37
  9
$ATTMODE
 70
     1
  9
$TEXTSIZE
 40
0.2
  9
$TRACEWID
 40
0.05
  9
$TEXTSTYLE
  7
STANDARD
  9
$CLAYER
  8
ADP1DETAIL
  9
$CELTYPE
  6
BYLAYER
  9
$CECOLOR
 62
   256
  9
$CELTSCALE
 40
1.0
  9
$DELOBJ
 70
     1
  9
$DISPSILH
 70
     0
  9
$DIMSCALE
 40
1.0
  9
$DIMASZ
 40
0.125
  9
$DIMEXO
 40
0.0625
  9
$DIMDLI
 40
0.38
  9
$DIMRND
 40
0.0
  9
$DIMDLE
 40
0.0
  9
$DIMEXE
 40
0.18
  9
$DIMTP
 40
0.0
  9
$DIMTM
 40
0.0
  9
$DIMTXT
 40
0.125
  9
$DIMCEN
 40
0.1875
  9
$DIMTSZ
 40
0.125
  9
$DIMTOL
 70
     0
  9
$DIMLIM
 70
     0
  9
$DIMTIH
 70
     0
  9
$DIMTOH
 70
     0
  9
$DIMSE1
 70
     0
  9
$DIMSE2
 70
     0
  9
$DIMTAD
 70
     0
  9
$DIMZIN
 70
     3
  9
$DIMBLK
  1

  9
$DIMASO
 70
     1
  9
$DIMSHO
 70
     1
  9
$DIMPOST
  1

  9
$DIMAPOST
  1

  9
$DIMALT
 70
     0
  9
$DIMALTD
 70
     1
  9
$DIMALTF
 40
25.4
  9
$DIMLFAC
 40
1.0
  9
$DIMTOFL
 70
     0
  9
$DIMTVP
 40
0.0
  9
$DIMTIX
 70
     0
  9
$DIMSOXD
 70
     0
  9
$DIMSAH
 70
     0
  9
$DIMBLK1
  1

  9
$DIMBLK2
  1

  9
$DIMSTYLE
  2
STANDARD
  9
$DIMCLRD
 70
     0
  9
$DIMCLRE
 70
     0
  9
$DIMCLRT
 70
     0
  9
$DIMTFAC
 40
1.0
  9
$DIMGAP
 40
0.125
  9
$DIMJUST
 70
     0
  9
$DIMSD1
 70
     0
  9
$DIMSD2
 70
     0
  9
$DIMTOLJ
 70
     1
  9
$DIMTZIN
 70
     3
  9
$DIMALTZ
 70
     3
  9
$DIMALTTZ
 70
     3
  9
$DIMFIT
 70
     5
  9
$DIMUPT
 70
     0
  9
$DIMUNIT
 70
     5
  9
$DIMDEC
 70
     4
  9
$DIMTDEC
 70
     4
  9
$DIMALTU
 70
     5
  9
$DIMALTTD
 70
     1
  9
$DIMTXSTY
  7
STANDARD
  9
$DIMAUNIT
 70
     0
  9
$LUNITS
 70
     5
  9
$LUPREC
 70
     4
  9
$SKETCHINC
 40
0.1
  9
$FILLETRAD
 40
0.062
  9
$AUNITS
 70
     0
  9
$AUPREC
 70
     0
  9
$MENU
  1
acad
  9
$ELEVATION
 40
0.0
  9
$PELEVATION
 40
0.0
  9
$THICKNESS
 40
0.0
  9
$LIMCHECK
 70
     0
  9
$BLIPMODE
 70
     0
  9
$CHAMFERA
 40
0.0
  9
$CHAMFERB
 40
0.0
  9
$CHAMFERC
 40
0.0
  9
$CHAMFERD
 40
0.0
  9
$SKPOLY
 70
     0
  9
$TDCREATE
 40
2450242.507786643
  9
$TDUPDATE
 40
2452297.064324536
  9
$TDINDWG
 40
0.0054793750
  9
$TDUSRTIMER
 40
0.0054793750
  9
$USRTIMER
 70
     1
  9
$ANGBASE
 50
0.0
  9
$ANGDIR
 70
     0
  9
$PDMODE
 70
     0
  9
$PDSIZE
 40
0.0
  9
$PLINEWID
 40
0.0
  9
$COORDS
 70
     2
  9
$SPLFRAME
 70
     0
  9
$SPLINETYPE
 70
     6
  9
$SPLINESEGS
 70
     8
  9
$ATTDIA
 70
     0
  9
$ATTREQ
 70
     1
  9
$HANDLING
 70
 22529
  9
$HANDSEED
  5
1E3
  9
$SURFTAB1
 70
     6
  9
$SURFTAB2
 70
     6
  9
$SURFTYPE
 70
     6
  9
$SURFU
 70
     6
  9
$SURFV
 70
     6
  9
$UCSNAME
  2

  9
$UCSORG
 10
0.0
 20
0.0
 30
0.0
  9
$UCSXDIR
 10
1.0
 20
0.0
 30
0.0
  9
$UCSYDIR
 10
0.0
 20
1.0
 30
0.0
  9
$PUCSNAME
  2

  9
$PUCSORG
 10
0.0
 20
0.0
 30
0.0
  9
$PUCSXDIR
 10
1.0
 20
0.0
 30
0.0
  9
$PUCSYDIR
 10
0.0
 20
1.0
 30
0.0
  9
$USERI1
 70
     0
  9
$USERI2
 70
     0
  9
$USERI3
 70
     0
  9
$USERI4
 70
     0
  9
$USERI5
 70
     0
  9
$USERR1
 40
0.0
  9
$USERR2
 40
0.0
  9
$USERR3
 40
0.0
  9
$USERR4
 40
0.0
  9
$USERR5
 40
0.0
  9
$WORLDVIEW
 70
     1
  9
$SHADEDGE
 70
     3
  9
$SHADEDIF
 70
    70
  9
$TILEMODE
 70
     1
  9
$MAXACTVP
 70
    15
  9
$PINSBASE
 10
0.0004882961511612
 20
1.000276130627782
 30
0.0
  9
$PLIMCHECK
 70
     0
  9
$PEXTMIN
 10
1.000000000000000E+20
 20
1.000000000000000E+20
 30
1.000000000000000E+20
  9
$PEXTMAX
 10
-1.000000000000000E+20
 20
-1.000000000000000E+20
 30
-1.000000000000000E+20
  9
$PLIMMIN
 10
0.0
 20
0.0
  9
$PLIMMAX
 10
12.0
 20
9.0
  9
$UNITMODE
 70
     0
  9
$VISRETAIN
 70
     0
  9
$PLINEGEN
 70
     0
  9
$PSLTSCALE
 70
     1
  9
$TREEDEPTH
 70
  3020
  9
$PICKSTYLE
 70
     1
  9
$CMLSTYLE
  2
STANDARD
  9
$CMLJUST
 70
     0
  9
$CMLSCALE
 40
1.0
  9
$PROXYGRAPHICS
 70
     1
  9
$MEASUREMENT
 70
     0
  0
ENDSEC
  0
SECTION
  2
CLASSES
  0
CLASS
  1
DICTIONARYVAR
  2
AcDbDictionaryVar
  3
AutoCAD 2000
 90
        0
280
     0
281
     0
  0
CLASS
  1
LWPOLYLINE
  2
AcDbPolyline
  3
AutoCAD 2000
 90
        0
280
     0
281
     1
  0
CLASS
  1
ACDBDICTIONARYWDFLT
  2
AcDbDictionaryWithDefault
  3
AutoCAD 2000
 90
        0
280
     0
281
     0
  0
CLASS
  1
ACDBPLACEHOLDER
  2
AcDbPlaceHolder
  3
AutoCAD 2000
 90
        0
280
     0
281
     0
  0
CLASS
  1
LAYOUT
  2
AcDbLayout
  3
AutoCAD 2000
 90
        0
280
     0
281
     0
  0
CLASS
  1
LONG_TRANSACTION
  2
AcDbLongTransaction
  3
AutoCAD 2000
 90
        0
280
     0
281
     0
  0
CLASS
  1
LWPOLYLINE
  2
AcDbPolyline
  3
AutoCAD 2000
 90
        0
280
     0
281
     1
  0
CLASS
  1
HATCH
  2
AcDbHatch
  3
AutoCAD 2000
 90
        0
280
     0
281
     1
  0
CLASS
  1
XRECORD
  2
AcDbXrecord
  3
AutoCAD 2000
 90
        0
280
     0
281
     0
  0
CLASS
  1
LONG_TRANSACTION
  2
AcDbLongTransaction
  3
AutoCAD 2000
 90
        0
280
     0
281
     0
  0
CLASS
  1
LWPOLYLINE
  2
AcDbPolyline
  3
AutoCAD 2000
 90
        0
280
     0
281
     1
  0
CLASS
  1
HATCH
  2
AcDbHatch
  3
AutoCAD 2000
 90
        0
280
     0
281
     1
  0
CLASS
  1
XRECORD
  2
AcDbXrecord
  3
AutoCAD 2000
 90
        0
280
     0
281
     0
  0
CLASS
  1
LONG_TRANSACTION
  2
AcDbLongTransaction
  3
AutoCAD 2000
 90
        0
280
     0
281
     0
  0
CLASS
  1
LWPOLYLINE
  2
AcDbPolyline
  3
AutoCAD 2000
 90
        0
280
     0
281
     1
  0
CLASS
  1
HATCH
  2
AcDbHatch
  3
AutoCAD 2000
 90
        0
280
     0
281
     1
  0
CLASS
  1
XRECORD
  2
AcDbXrecord
  3
AutoCAD 2000
 90
        0
280
     0
281
     0
  0
CLASS
  1
LONG_TRANSACTION
  2
AcDbLongTransaction
  3
AutoCAD 2000
 90
        0
280
     0
281
     0
  0
CLASS
  1
LWPOLYLINE
  2
AcDbPolyline
  3
AutoCAD 2000
 90
        0
280
     0
281
     1
  0
CLASS
  1
HATCH
  2
AcDbHatch
  3
AutoCAD 2000
 90
        0
280
     0
281
     1
  0
CLASS
  1
XRECORD
  2
AcDbXrecord
  3
AutoCAD 2000
 90
        0
280
     0
281
     0
  0
CLASS
  1
LONG_TRANSACTION
  2
AcDbLongTransaction
  3
AutoCAD 2000
 90
        0
280
     0
281
     0
  0
CLASS
  1
LWPOLYLINE
  2
AcDbPolyline
  3
AutoCAD 2000
 90
        0
280
     0
281
     1
  0
CLASS
  1
HATCH
  2
AcDbHatch
  3
AutoCAD 2000
 90
        0
280
     0
281
     1
  0
CLASS
  1
XRECORD
  2
AcDbXrecord
  3
AutoCAD 2000
 90
        0
280
     0
281
     0
  0
ENDSEC
  0
SECTION
  2
TABLES
  0
TABLE
  2
VPORT
  5
8
330
0
100
AcDbSymbolTable
 70
     2
  0
VPORT
  5
1BF
330
8
100
AcDbSymbolTableRecord
100
AcDbViewportTableRecord
  2
*ACTIVE
 70
     0
 10
0.0
 20
0.0
 11
1.0
 21
1.0
 12
10.85339363018679
 22
4.966095039348697
 13
0.0
 23
0.0
 14
0.5740882589684922
 24
0.5740882589684922
 15
0.5
 25
0.5
 16
0.0
 26
0.0
 36
1.0
 17
0.0
 27
0.0
 37
0.0
 40
6.199507648601398
 41
1.570528967254408
 42
50.0
 43
0.0
 44
0.0
 50
0.0
 51
0.0
 71
     0
 72
   100
 73
     1
 74
     0
 75
     0
 76
     0
 77
     0
 78
     0
  0
ENDTAB
  0
TABLE
  2
LTYPE
  5
5
330
0
100
AcDbSymbolTable
 70
     2
  0
LTYPE
  5
11
330
5
100
AcDbSymbolTableRecord
100
AcDbLinetypeTableRecord
  2
BYBLOCK
 70
     0
  3

 72
    65
 73
     0
 40
0.0
  0
LTYPE
  5
12
330
5
100
AcDbSymbolTableRecord
100
AcDbLinetypeTableRecord
  2
BYLAYER
 70
     0
  3

 72
    65
 73
     0
 40
0.0
  0
LTYPE
  5
13
330
5
100
AcDbSymbolTableRecord
100
AcDbLinetypeTableRecord
  2
CONTINUOUS
 70
     0
  3
Solid line
 72
    65
 73
     0
 40
0.0
  0
LTYPE
  5
22
330
5
100
AcDbSymbolTableRecord
100
AcDbLinetypeTableRecord
  2
HIDDEN2
 70
     0
  3
_ _ _ _ _ _ _ _ _ _ _ _ _ _ _ _ _ _ _ _ _ _ _ _
 72
    65
 73
     2
 40
0.1875
 49
0.125
 74
     0
 49
-0.0625
 74
     0
  0
ENDTAB
  0
TABLE
  2
LAYER
  5
2
330
0
100
AcDbSymbolTable
 70
     5
  0
LAYER
  5
E
330
2
100
AcDbSymbolTableRecord
100
AcDbLayerTableRecord
  2
0
 70
     0
 62
     7
  6
CONTINUOUS
  0
LAYER
  5
24
330
2
100
AcDbSymbolTableRecord
100
AcDbLayerTableRecord
  2
ADP2DETAIL
 70
     0
 62
     5
  6
CONTINUOUS
  0
LAYER
  5
25
330
2
100
AcDbSymbolTableRecord
100
AcDbLayerTableRecord
  2
ADPDIM
 70
     0
 62
     3
  6
CONTINUOUS
  0
LAYER
  5
26
330
2
100
AcDbSymbolTableRecord
100
AcDbLayerTableRecord
  2
ADP1DETAIL
 70
     0
 62
     7
  6
CONTINUOUS
  0
LAYER
  5
27
330
2
100
AcDbSymbolTableRecord
100
AcDbLayerTableRecord
  2
DEFPOINTS
 70
     0
 62
     7
  6
CONTINUOUS
  0
ENDTAB
  0
TABLE
  2
STYLE
  5
3
330
0
100
AcDbSymbolTable
 70
     2
  0
STYLE
  5
F
330
3
100
AcDbSymbolTableRecord
100
AcDbTextStyleTableRecord
  2
STANDARD
 70
     0
 40
0.0
 41
1.0
 50
0.0
 71
     0
 42
0.2
  3
txt
  4

  0
STYLE
  5
C7
330
3
100
AcDbSymbolTableRecord
100
AcDbTextStyleTableRecord
  2
ARIAL_WIDE
 70
     0
 40
0.0
 41
1.25
 50
0.0
 71
     0
 42
0.2
  3
ARIAL.TTF
  4

1001
ACAD
1000
Arial
1071
       34
  0
ENDTAB
  0
TABLE
  2
VIEW
  5
6
330
0
100
AcDbSymbolTable
 70
     0
  0
ENDTAB
  0
TABLE
  2
UCS
  5
7
330
0
100
AcDbSymbolTable
 70
     0
  0
ENDTAB
  0
TABLE
  2
APPID
  5
9
330
0
100
AcDbSymbolTable
 70
     1
  0
APPID
  5
10
330
9
100
AcDbSymbolTableRecord
100
AcDbRegAppTableRecord
  2
ACAD
 70
     0
  0
ENDTAB
  0
TABLE
  2
DIMSTYLE
  5
A
330
0
100
AcDbSymbolTable
 70
     1
  0
DIMSTYLE
105
C5
330
A
100
AcDbSymbolTableRecord
100
AcDbDimStyleTableRecord
  2
STANDARD
 70
     0
  3

  4

  5

  6

  7

 40
1.0
 41
0.18
 42
0.0625
 43
0.38
 44
0.18
 45
0.0
 46
0.0
 47
0.0
 48
0.0
140
0.18
141
0.09
142
0.0
143
25.4
144
1.0
145
0.0
146
1.0
147
0.09
 71
     0
 72
     0
 73
     1
 74
     1
 75
     0
 76
     0
 77
     0
 78
     0
170
     0
171
     2
172
     0
173
     0
174
     0
175
     0
176
     0
177
     0
178
     0
270
     2
271
     4
272
     4
273
     2
274
     2
340
F
275
     0
280
     0
281
     0
282
     0
283
     1
284
     0
285
     0
286
     0
287
     3
288
     0
  0
ENDTAB
  0
TABLE
  2
BLOCK_RECORD
  5
1
330
0
100
AcDbSymbolTable
 70
     6
  0
BLOCK_RECORD
  5
17
102
{ACAD_XDICTIONARY
360
100
102
}
330
1
100
AcDbSymbolTableRecord
100
AcDbBlockTableRecord
  2
*MODEL_SPACE
  0
BLOCK_RECORD
  5
14
102
{ACAD_XDICTIONARY
360
FE
102
}
330
1
100
AcDbSymbolTableRecord
100
AcDbBlockTableRecord
  2
*PAPER_SPACE
  0
BLOCK_RECORD
  5
1C
330
1
100
AcDbSymbolTableRecord
100
AcDbBlockTableRecord
  2
*D0
  0
BLOCK_RECORD
  5
1D
330
1
100
AcDbSymbolTableRecord
100
AcDbBlockTableRecord
  2
*D1
  0
BLOCK_RECORD
  5
1E
330
1
100
AcDbSymbolTableRecord
100
AcDbBlockTableRecord
  2
*D2
  0
BLOCK_RECORD
  5
1F
330
1
100
AcDbSymbolTableRecord
100
AcDbBlockTableRecord
  2
*D3
  0
BLOCK_RECORD
  5
20
330
1
100
AcDbSymbolTableRecord
100
AcDbBlockTableRecord
  2
*D4
  0
BLOCK_RECORD
  5
21
330
1
100
AcDbSymbolTableRecord
100
AcDbBlockTableRecord
  2
*D5
  0
ENDTAB
  0
ENDSEC
  0
SECTION
  2
BLOCKS
  0
BLOCK
  5
2A
330
17
100
AcDbEntity
  8
0
100
AcDbBlockBegin
  2
*MODEL_SPACE
 70
     0
 10
0.0
 20
0.0
 30
0.0
  3
*MODEL_SPACE
  1

  0
ENDBLK
  5
2B
330
17
100
AcDbEntity
  8
0
100
AcDbBlockEnd
  0
BLOCK
  5
28
330
14
100
AcDbEntity
 67
     1
  8
0
100
AcDbBlockBegin
  2
*PAPER_SPACE
 70
     0
 10
0.0
 20
0.0
 30
0.0
  3
*PAPER_SPACE
  1

  0
ENDBLK
  5
29
330
14
100
AcDbEntity
 67
     1
  8
0
100
AcDbBlockEnd
  0
BLOCK
  5
2E
330
1C
100
AcDbEntity
  8
0
100
AcDbBlockBegin
  2
*D0
 70
     1
 10
0.0
 20
0.0
 30
0.0
  3
*D0
  1

  0
LINE
  5
2F
330
1C
100
AcDbEntity
  8
0
  6
BYBLOCK
 62
     0
100
AcDbLine
 10
9.060860973432715
 20
5.374205753629133
 30
0.0
 11
7.459197432095281
 21
5.374205753629133
 31
0.0
  0
LINE
  5
30
330
1C
100
AcDbEntity
  8
0
  6
BYBLOCK
 62
     0
100
AcDbLine
 10
7.809080132026943
 20
6.438929217911166
 30
0.0
 11
7.459197432095281
 21
6.438929217911166
 31
0.0
  0
LINE
  5
31
330
1C
100
AcDbEntity
  8
0
  6
BYBLOCK
 62
     0
100
AcDbLine
 10
7.639197432095281
 20
5.374205753629133
 30
0.0
 11
7.639197432095281
 21
5.124205753629133
 31
0.0
  0
LINE
  5
32
330
1C
100
AcDbEntity
  8
0
  6
BYBLOCK
 62
     0
100
AcDbLine
 10
7.639197432095281
 20
6.438929217911166
 30
0.0
 11
7.639197432095281
 21
6.688929217911166
 31
0.0
  0
LINE
  5
33
330
1C
100
AcDbEntity
  8
0
  6
BYBLOCK
 62
     0
100
AcDbLine
 10
7.764197432095281
 20
5.249205753629133
 30
0.0
 11
7.514197432095281
 21
5.499205753629133
 31
0.0
  0
LINE
  5
34
330
1C
100
AcDbEntity
  8
0
  6
BYBLOCK
 62
     0
100
AcDbLine
 10
7.764197432095281
 20
6.313929217911166
 30
0.0
 11
7.514197432095281
 21
6.563929217911166
 31
0.0
  0
TEXT
  5
35
330
1C
100
AcDbEntity
  8
0
  6
BYBLOCK
 62
     0
100
AcDbText
 10
7.701697432095281
 20
6.813929217911166
 30
0.0
 40
0.125
  1
1 1/16
 50
90.0
 72
     1
 11
7.639197432095281
 21
7.105595884577833
 31
0.0
100
AcDbText
 73
     2
  0
POINT
  5
37
330
1C
100
AcDbEntity
  8
DEFPOINTS
  6
BYBLOCK
 62
     0
100
AcDbPoint
 10
9.123360973432715
 20
5.374205753629133
 30
0.0
  0
POINT
  5
38
330
1C
100
AcDbEntity
  8
DEFPOINTS
  6
BYBLOCK
 62
     0
100
AcDbPoint
 10
7.871580132026943
 20
6.438929217911166
 30
0.0
  0
POINT
  5
39
330
1C
100
AcDbEntity
  8
DEFPOINTS
  6
BYBLOCK
 62
     0
100
AcDbPoint
 10
7.639197432095281
 20
6.438929217911166
 30
0.0
  0
ENDBLK
  5
3A
330
1C
100
AcDbEntity
  8
0
100
AcDbBlockEnd
  0
BLOCK
  5
3B
330
1D
100
AcDbEntity
  8
0
100
AcDbBlockBegin
  2
*D1
 70
     1
 10
0.0
 20
0.0
 30
0.0
  3
*D1
  1

  0
LINE
  5
3C
330
1D
100
AcDbEntity
  8
0
  6
BYBLOCK
 62
     0
100
AcDbLine
 10
11.48354537266865
 20
6.452298201868385
 30
0.0
 11
12.82120883652107
 21
6.452298201868385
 31
0.0
  0
LINE
  5
3D
330
1D
100
AcDbEntity
  8
0
  6
BYBLOCK
 62
     0
100
AcDbLine
 10
11.41324938958197
 20
3.736250163080678
 30
0.0
 11
12.82120883652107
 21
3.736250163080678
 31
0.0
  0
LINE
  5
3E
330
1D
100
AcDbEntity
  8
0
  6
BYBLOCK
 62
     0
100
AcDbLine
 10
12.64120883652107
 20
6.452298201868385
 30
0.0
 11
12.64120883652107
 21
5.573440849141199
 31
0.0
  0
LINE
  5
3F
330
1D
100
AcDbEntity
  8
0
  6
BYBLOCK
 62
     0
100
AcDbLine
 10
12.64120883652107
 20
3.736250163080678
 30
0.0
 11
12.64120883652107
 21
4.615107515807865
 31
0.0
  0
LINE
  5
40
330
1D
100
AcDbEntity
  8
0
  6
BYBLOCK
 62
     0
100
AcDbLine
 10
12.76620883652107
 20
6.327298201868385
 30
0.0
 11
12.51620883652107
 21
6.577298201868385
 31
0.0
  0
LINE
  5
41
330
1D
100
AcDbEntity
  8
0
  6
BYBLOCK
 62
     0
100
AcDbLine
 10
12.76620883652107
 20
3.611250163080678
 30
0.0
 11
12.51620883652107
 21
3.861250163080678
 31
0.0
  0
TEXT
  5
42
330
1D
100
AcDbEntity
  8
0
  6
BYBLOCK
 62
     0
100
AcDbText
 10
12.70370883652107
 20
4.740107515807865
 30
0.0
 40
0.125
  1
2 11/16
 50
90.0
 72
     1
 11
12.64120883652107
 21
5.094274182474532
 31
0.0
100
AcDbText
 73
     2
  0
POINT
  5
43
330
1D
100
AcDbEntity
  8
DEFPOINTS
  6
BYBLOCK
 62
     0
100
AcDbPoint
 10
11.42104537266865
 20
6.452298201868385
 30
0.0
  0
POINT
  5
44
330
1D
100
AcDbEntity
  8
DEFPOINTS
  6
BYBLOCK
 62
     0
100
AcDbPoint
 10
11.35074938958197
 20
3.736250163080678
 30
0.0
  0
POINT
  5
45
330
1D
100
AcDbEntity
  8
DEFPOINTS
  6
BYBLOCK
 62
     0
100
AcDbPoint
 10
12.64120883652107
 20
3.736250163080678
 30
0.0
  0
ENDBLK
  5
46
330
1D
100
AcDbEntity
  8
0
100
AcDbBlockEnd
  0
BLOCK
  5
47
330
1E
100
AcDbEntity
  8
0
100
AcDbBlockBegin
  2
*D2
 70
     1
 10
0.0
 20
0.0
 30
0.0
  3
*D2
  1

  0
LINE
  5
48
330
1E
100
AcDbEntity
  8
0
  6
BYBLOCK
 62
     0
100
AcDbLine
 10
8.671379597267586
 20
3.736250163080678
 30
0.0
 11
7.459197432095281
 21
3.736250163080678
 31
0.0
  0
LINE
  5
49
330
1E
100
AcDbEntity
  8
0
  6
BYBLOCK
 62
     0
100
AcDbLine
 10
8.544374249674001
 20
4.738923959872122
 30
0.0
 11
7.459197432095281
 21
4.738923959872122
 31
0.0
  0
LINE
  5
4A
330
1E
100
AcDbEntity
  8
0
  6
BYBLOCK
 62
     0
100
AcDbLine
 10
7.639197432095281
 20
3.736250163080678
 30
0.0
 11
7.639197432095281
 21
4.091753728143067
 31
0.0
  0
LINE
  5
4B
330
1E
100
AcDbEntity
  8
0
  6
BYBLOCK
 62
     0
100
AcDbLine
 10
7.639197432095281
 20
4.738923959872122
 30
0.0
 11
7.639197432095281
 21
4.383420394809733
 31
0.0
  0
LINE
  5
4C
330
1E
100
AcDbEntity
  8
0
  6
BYBLOCK
 62
     0
100
AcDbLine
 10
7.764197432095281
 20
3.611250163080678
 30
0.0
 11
7.514197432095281
 21
3.861250163080678
 31
0.0
  0
LINE
  5
4D
330
1E
100
AcDbEntity
  8
0
  6
BYBLOCK
 62
     0
100
AcDbLine
 10
7.764197432095281
 20
4.613923959872122
 30
0.0
 11
7.514197432095281
 21
4.863923959872122
 31
0.0
  0
TEXT
  5
4E
330
1E
100
AcDbEntity
  8
0
  6
BYBLOCK
 62
     0
100
AcDbText
 10
7.701697432095281
 20
4.216753728143067
 30
0.0
 40
0.125
  1
1
 50
90.0
 72
     1
 11
7.639197432095281
 21
4.2375870614764
 31
0.0
100
AcDbText
 73
     2
  0
POINT
  5
4F
330
1E
100
AcDbEntity
  8
DEFPOINTS
  6
BYBLOCK
 62
     0
100
AcDbPoint
 10
8.733879597267586
 20
3.736250163080678
 30
0.0
  0
POINT
  5
50
330
1E
100
AcDbEntity
  8
DEFPOINTS
  6
BYBLOCK
 62
     0
100
AcDbPoint
 10
8.606874249674001
 20
4.738923959872122
 30
0.0
  0
POINT
  5
51
330
1E
100
AcDbEntity
  8
DEFPOINTS
  6
BYBLOCK
 62
     0
100
AcDbPoint
 10
7.639197432095281
 20
4.738923959872122
 30
0.0
  0
ENDBLK
  5
52
330
1E
100
AcDbEntity
  8
0
100
AcDbBlockEnd
  0
BLOCK
  5
53
330
1F
100
AcDbEntity
  8
0
100
AcDbBlockBegin
  2
*D3
 70
     1
 10
0.0
 20
0.0
 30
0.0
  3
*D3
  1

  0
LINE
  5
54
330
1F
100
AcDbEntity
  8
0
  6
BYBLOCK
 62
     0
100
AcDbLine
 10
10.23789029245475
 20
4.676423959872122
 30
0.0
 11
10.23789029245475
 21
3.272805025693473
 31
0.0
  0
LINE
  5
55
330
1F
100
AcDbEntity
  8
0
  6
BYBLOCK
 62
     0
100
AcDbLine
 10
11.86455695912141
 20
4.676423959872122
 30
0.0
 11
11.86455695912141
 21
3.272805025693473
 31
0.0
  0
LINE
  5
56
330
1F
100
AcDbEntity
  8
0
  6
BYBLOCK
 62
     0
100
AcDbLine
 10
10.23789029245475
 20
3.452805025693473
 30
0.0
 11
10.65539029245474
 21
3.452805025693473
 31
0.0
  0
LINE
  5
57
330
1F
100
AcDbEntity
  8
0
  6
BYBLOCK
 62
     0
100
AcDbLine
 10
11.86455695912141
 20
3.452805025693473
 30
0.0
 11
11.44705695912141
 21
3.452805025693473
 31
0.0
  0
LINE
  5
58
330
1F
100
AcDbEntity
  8
0
  6
BYBLOCK
 62
     0
100
AcDbLine
 10
10.11289029245475
 20
3.327805025693473
 30
0.0
 11
10.36289029245475
 21
3.577805025693473
 31
0.0
  0
LINE
  5
59
330
1F
100
AcDbEntity
  8
0
  6
BYBLOCK
 62
     0
100
AcDbLine
 10
11.73955695912141
 20
3.327805025693473
 30
0.0
 11
11.98955695912141
 21
3.577805025693473
 31
0.0
  0
TEXT
  5
5A
330
1F
100
AcDbEntity
  8
0
  6
BYBLOCK
 62
     0
100
AcDbText
 10
10.78039029245474
 20
3.390305025693473
 30
0.0
 40
0.125
  1
1 5/8
 72
     1
 11
11.05122362578808
 21
3.452805025693473
 31
0.0
100
AcDbText
 73
     2
  0
POINT
  5
5B
330
1F
100
AcDbEntity
  8
DEFPOINTS
  6
BYBLOCK
 62
     0
100
AcDbPoint
 10
10.23789029245475
 20
4.738923959872122
 30
0.0
  0
POINT
  5
5C
330
1F
100
AcDbEntity
  8
DEFPOINTS
  6
BYBLOCK
 62
     0
100
AcDbPoint
 10
11.86455695912141
 20
4.738923959872122
 30
0.0
  0
POINT
  5
5D
330
1F
100
AcDbEntity
  8
DEFPOINTS
  6
BYBLOCK
 62
     0
100
AcDbPoint
 10
11.86455695912141
 20
3.452805025693473
 30
0.0
  0
ENDBLK
  5
5E
330
1F
100
AcDbEntity
  8
0
100
AcDbBlockEnd
  0
BLOCK
  5
5F
330
20
100
AcDbEntity
  8
0
100
AcDbBlockBegin
  2
*D4
 70
     1
 10
0.0
 20
0.0
 30
0.0
  3
*D4
  1

  0
LINE
  5
60
330
20
100
AcDbEntity
  8
0
  6
BYBLOCK
 62
     0
100
AcDbLine
 10
7.871580132026943
 20
6.501429217911166
 30
0.0
 11
7.871580132026943
 21
6.926124951159314
 31
0.0
  0
LINE
  5
61
330
20
100
AcDbEntity
  8
0
  6
BYBLOCK
 62
     0
100
AcDbLine
 10
10.37158013202694
 20
6.501429217911166
 30
0.0
 11
10.37158013202694
 21
6.926124951159314
 31
0.0
  0
LINE
  5
62
330
20
100
AcDbEntity
  8
0
  6
BYBLOCK
 62
     0
100
AcDbLine
 10
7.871580132026943
 20
6.746124951159314
 30
0.0
 11
8.725746798693609
 21
6.746124951159314
 31
0.0
  0
LINE
  5
63
330
20
100
AcDbEntity
  8
0
  6
BYBLOCK
 62
     0
100
AcDbLine
 10
10.37158013202694
 20
6.746124951159314
 30
0.0
 11
9.517413465360277
 21
6.746124951159314
 31
0.0
  0
LINE
  5
64
330
20
100
AcDbEntity
  8
0
  6
BYBLOCK
 62
     0
100
AcDbLine
 10
7.746580132026943
 20
6.621124951159314
 30
0.0
 11
7.996580132026943
 21
6.871124951159314
 31
0.0
  0
LINE
  5
65
330
20
100
AcDbEntity
  8
0
  6
BYBLOCK
 62
     0
100
AcDbLine
 10
10.24658013202694
 20
6.621124951159314
 30
0.0
 11
10.49658013202694
 21
6.871124951159314
 31
0.0
  0
TEXT
  5
66
330
20
100
AcDbEntity
  8
0
  6
BYBLOCK
 62
     0
100
AcDbText
 10
8.850746798693609
 20
6.683624951159314
 30
0.0
 40
0.125
  1
2 1/2
 72
     1
 11
9.121580132026943
 21
6.746124951159314
 31
0.0
100
AcDbText
 73
     2
  0
POINT
  5
67
330
20
100
AcDbEntity
  8
DEFPOINTS
  6
BYBLOCK
 62
     0
100
AcDbPoint
 10
7.871580132026943
 20
6.438929217911166
 30
0.0
  0
POINT
  5
68
330
20
100
AcDbEntity
  8
DEFPOINTS
  6
BYBLOCK
 62
     0
100
AcDbPoint
 10
10.37158013202694
 20
6.438929217911166
 30
0.0
  0
POINT
  5
69
330
20
100
AcDbEntity
  8
DEFPOINTS
  6
BYBLOCK
 62
     0
100
AcDbPoint
 10
10.37158013202694
 20
6.746124951159314
 30
0.0
  0
ENDBLK
  5
6A
330
20
100
AcDbEntity
  8
0
100
AcDbBlockEnd
  0
BLOCK
  5
6B
330
21
100
AcDbEntity
  8
0
100
AcDbBlockBegin
  2
*D5
 70
     1
 10
0.0
 20
0.0
 30
0.0
  3
*D5
  1

  0
LINE
  5
6C
330
21
100
AcDbEntity
  8
0
  6
BYBLOCK
 62
     0
100
AcDbLine
 10
10.66569777908576
 20
6.514798201868385
 30
0.0
 11
10.66569777908576
 21
6.926124951159314
 31
0.0
  0
LINE
  5
6D
330
21
100
AcDbEntity
  8
0
  6
BYBLOCK
 62
     0
100
AcDbLine
 10
11.42104537266865
 20
6.514798201868385
 30
0.0
 11
11.42104537266865
 21
6.926124951159314
 31
0.0
  0
LINE
  5
6E
330
21
100
AcDbEntity
  8
0
  6
BYBLOCK
 62
     0
100
AcDbLine
 10
10.66569777908576
 20
6.746124951159314
 30
0.0
 11
10.41569777908577
 21
6.746124951159314
 31
0.0
  0
LINE
  5
6F
330
21
100
AcDbEntity
  8
0
  6
BYBLOCK
 62
     0
100
AcDbLine
 10
11.42104537266865
 20
6.746124951159314
 30
0.0
 11
11.67104537266865
 21
6.746124951159314
 31
0.0
  0
LINE
  5
70
330
21
100
AcDbEntity
  8
0
  6
BYBLOCK
 62
     0
100
AcDbLine
 10
10.54069777908577
 20
6.621124951159314
 30
0.0
 11
10.79069777908576
 21
6.871124951159314
 31
0.0
  0
LINE
  5
71
330
21
100
AcDbEntity
  8
0
  6
BYBLOCK
 62
     0
100
AcDbLine
 10
11.29604537266865
 20
6.621124951159314
 30
0.0
 11
11.54604537266865
 21
6.871124951159314
 31
0.0
  0
TEXT
  5
72
330
21
100
AcDbEntity
  8
0
  6
BYBLOCK
 62
     0
100
AcDbText
 10
11.79604537266865
 20
6.683624951159314
 30
0.0
 40
0.125
  1
3/4
 72
     1
 11
11.96271203933531
 21
6.746124951159314
 31
0.0
100
AcDbText
 73
     2
  0
POINT
  5
73
330
21
100
AcDbEntity
  8
DEFPOINTS
  6
BYBLOCK
 62
     0
100
AcDbPoint
 10
10.66569777908576
 20
6.452298201868385
 30
0.0
  0
POINT
  5
74
330
21
100
AcDbEntity
  8
DEFPOINTS
  6
BYBLOCK
 62
     0
100
AcDbPoint
 10
11.42104537266865
 20
6.452298201868385
 30
0.0
  0
POINT
  5
75
330
21
100
AcDbEntity
  8
DEFPOINTS
  6
BYBLOCK
 62
     0
100
AcDbPoint
 10
11.42104537266865
 20
6.746124951159314
 30
0.0
  0
ENDBLK
  5
76
330
21
100
AcDbEntity
  8
0
100
AcDbBlockEnd
  0
ENDSEC
  0
SECTION
  2
ENTITIES
  0
DIMENSION
  5
77
330
17
100
AcDbEntity
  8
ADPDIM
100
AcDbDimension
  2
*D1
 10
14.04495215202909
 20
3.736250163080678
 30
0.0
 11
14.04495215202909
 21
5.094274182474532
 31
0.0
 12
1.403743315508021
 22
0.0
 32
0.0
100
AcDbAlignedDimension
 13
12.82478868817667
 23
6.452298201868385
 33
0.0
 14
12.75449270508999
 24
3.736250163080678
 34
0.0
 50
90.0
100
AcDbRotatedDimension
  0
LINE
  5
78
330
17
100
AcDbEntity
  8
ADP1DETAIL
 62
     7
100
AcDbLine
 10
12.06944109459379
 20
6.452298201868385
 30
0.0
 11
12.06944109459379
 21
5.015132426467316
 31
0.0
  0
LINE
  5
79
330
17
100
AcDbEntity
  8
ADP1DETAIL
 62
     7
100
AcDbLine
 10
12.82478868817667
 20
5.015132426467316
 30
0.0
 11
12.82478868817667
 21
6.452298201868385
 31
0.0
  0
LINE
  5
7A
330
17
100
AcDbEntity
  8
ADP1DETAIL
 62
     7
100
AcDbLine
 10
8.934414356625874
 20
6.465667185825603
 30
0.0
 11
8.934414356625874
 21
5.763795528071593
 31
0.0
  0
LINE
  5
7B
330
17
100
AcDbEntity
  8
ADP1DETAIL
 62
     7
100
AcDbLine
 10
8.934414356625874
 20
6.438929217911166
 30
0.0
 11
8.934414356625874
 21
5.763795528071593
 31
0.0
  0
LINE
  5
7C
330
17
100
AcDbEntity
  8
ADP1DETAIL
 62
     7
100
AcDbLine
 10
8.747248581224804
 20
5.750426544114375
 30
0.0
 11
8.747248581224804
 21
5.995265494493681
 31
0.0
  0
LINE
  5
7D
330
17
100
AcDbEntity
  8
ADP1DETAIL
 62
     7
100
AcDbLine
 10
9.308745907428013
 20
5.750426544114375
 30
0.0
 11
9.308745907428013
 21
6.465667185825603
 31
0.0
  0
LINE
  5
7E
330
17
100
AcDbEntity
  8
ADP1DETAIL
 62
     7
100
AcDbLine
 10
9.308745907428013
 20
5.750426544114375
 30
0.0
 11
9.308745907428013
 21
6.438929217911166
 31
0.0
  0
LINE
  5
7F
330
17
100
AcDbEntity
  8
ADP1DETAIL
 62
     7
100
AcDbLine
 10
9.495911682829083
 20
5.995265494493681
 30
0.0
 11
9.495911682829083
 21
5.757111036092983
 31
0.0
  0
DIMENSION
  5
80
330
17
100
AcDbEntity
  8
ADPDIM
100
AcDbDimension
  2
*D0
 10
7.639197432095281
 20
6.438929217911166
 30
0.0
 11
7.639197432095281
 21
7.105595884577833
 31
0.0
100
AcDbAlignedDimension
 13
9.123360973432715
 23
5.374205753629133
 33
0.0
 14
7.871580132026943
 24
6.438929217911166
 34
0.0
 50
90.0
100
AcDbRotatedDimension
  0
LINE
  5
81
330
17
100
AcDbEntity
  8
ADP2DETAIL
  6
HIDDEN2
100
AcDbLine
 10
11.64163360796277
 20
5.188929217911166
 30
0.0
 11
13.26596515876491
 21
5.188929217911166
 31
0.0
  0
LINE
  5
82
330
17
100
AcDbEntity
  8
ADP2DETAIL
  6
HIDDEN2
100
AcDbLine
 10
11.64163360796277
 20
5.563260768713305
 30
0.0
 11
13.27264965074352
 21
5.563260768713305
 31
0.0
  0
DIMENSION
  5
83
330
17
100
AcDbEntity
  8
ADPDIM
100
AcDbDimension
  2
*D3
 10
13.26830027462943
 20
3.452805025693473
 30
0.0
 11
12.4549669412961
 21
3.452805025693473
 31
0.0
 12
1.403743315508021
 22
0.0
 32
0.0
100
AcDbAlignedDimension
 13
11.64163360796277
 23
4.738923959872122
 33
0.0
 14
13.26830027462943
 24
4.738923959872122
 34
0.0
100
AcDbRotatedDimension
  0
LINE
  5
84
330
17
100
AcDbEntity
  8
ADP1DETAIL
 62
     7
100
AcDbLine
 10
12.13973707768047
 20
3.736250163080678
 30
0.0
 11
12.75449270508999
 21
3.736250163080678
 31
0.0
  0
LINE
  5
85
330
17
100
AcDbEntity
  8
ADP1DETAIL
 62
     7
100
AcDbLine
 10
12.0761255865724
 20
4.738923959872122
 30
0.0
 11
12.81810419619806
 21
4.738923959872122
 31
0.0
  0
LINE
  5
86
330
17
100
AcDbEntity
  8
ADP1DETAIL
 62
     7
100
AcDbLine
 10
12.83147318015528
 20
4.934918522724
 30
0.0
 11
12.06275660261518
 21
4.934918522724
 31
0.0
  0
LINE
  5
87
330
17
100
AcDbEntity
  8
ADP1DETAIL
 62
     7
100
AcDbLine
 10
12.06944109459379
 20
5.015132426467316
 30
0.0
 11
12.82478868817667
 21
5.015132426467316
 31
0.0
  0
LINE
  5
88
330
17
100
AcDbEntity
  8
ADP2DETAIL
  6
HIDDEN2
100
AcDbLine
 10
9.609548046465446
 20
4.934918522724
 30
0.0
 11
8.620243233631223
 21
4.934918522724
 31
0.0
  0
LINE
  5
89
330
17
100
AcDbEntity
  8
ADP1DETAIL
 62
     7
100
AcDbLine
 10
9.482542698871862
 20
4.738923959872122
 30
0.0
 11
9.609548046465446
 21
4.738923959872122
 31
0.0
  0
LINE
  5
8A
330
17
100
AcDbEntity
  8
ADP1DETAIL
 62
     7
100
AcDbLine
 10
9.609548046465446
 20
5.750426544114375
 30
0.0
 11
8.606874249674001
 21
5.750426544114375
 31
0.0
  0
DIMENSION
  5
8B
330
17
100
AcDbEntity
  8
ADPDIM
100
AcDbDimension
  2
*D2
 10
7.639197432095281
 20
4.738923959872122
 30
0.0
 11
7.639197432095281
 21
4.2375870614764
 31
0.0
100
AcDbAlignedDimension
 13
8.733879597267586
 23
3.736250163080678
 33
0.0
 14
8.606874249674001
 24
4.738923959872122
 34
0.0
 50
90.0
100
AcDbRotatedDimension
  0
LINE
  5
8C
330
17
100
AcDbEntity
  8
ADP1DETAIL
 62
     7
100
AcDbLine
 10
9.482542698871862
 20
3.736250163080678
 30
0.0
 11
9.482542698871862
 21
4.738923959872122
 31
0.0
  0
LINE
  5
8D
330
17
100
AcDbEntity
  8
ADP1DETAIL
 62
     7
100
AcDbLine
 10
8.733879597267586
 20
4.738923959872122
 30
0.0
 11
8.733879597267586
 21
3.736250163080678
 31
0.0
  0
LINE
  5
8E
330
17
100
AcDbEntity
  8
ADP1DETAIL
 62
     7
100
AcDbLine
 10
8.733879597267586
 20
3.769672622973726
 30
0.0
 11
9.482542698871862
 21
3.769672622973726
 31
0.0
  0
LINE
  5
8F
330
17
100
AcDbEntity
  8
ADP1DETAIL
 62
     7
100
AcDbLine
 10
8.733879597267586
 20
3.736250163080678
 30
0.0
 11
9.482542698871862
 21
3.736250163080678
 31
0.0
  0
LINE
  5
90
330
17
100
AcDbEntity
  8
ADP1DETAIL
 62
     7
100
AcDbLine
 10
9.482542698871862
 20
4.738923959872122
 30
0.0
 11
8.733879597267586
 21
4.738923959872122
 31
0.0
  0
LWPOLYLINE
  5
91
330
17
100
AcDbEntity
  8
ADP2DETAIL
  6
HIDDEN2
100
AcDbPolyline
 90
        4
 70
     0
 43
0.0
 10
8.751107133980136
 20
5.746134436568679
 10
8.751107133980136
 20
5.297782047271511
 42
0.8214597401204803
 10
9.495614812885291
 20
5.318161700828885
 10
9.495614812885291
 20
5.746134436568679
  0
LINE
  5
97
330
17
100
AcDbEntity
  8
ADP1DETAIL
 62
     7
100
AcDbLine
 10
8.606874249674001
 20
5.750426544114375
 30
0.0
 11
8.606874249674001
 21
4.738923959872122
 31
0.0
  0
LINE
  5
98
330
17
100
AcDbEntity
  8
ADP1DETAIL
 62
     7
100
AcDbLine
 10
8.606874249674001
 20
4.738923959872122
 30
0.0
 11
8.733879597267586
 21
4.738923959872122
 31
0.0
  0
CIRCLE
  5
99
330
17
100
AcDbEntity
  8
ADP2DETAIL
  6
HIDDEN2
100
AcDbCircle
 10
9.123360973432715
 20
5.374205753629133
 30
0.0
 40
0.1885807590099203
  0
LINE
  5
9A
330
17
100
AcDbEntity
  8
ADP2DETAIL
  6
HIDDEN2
100
AcDbLine
 10
8.934414356625874
 20
5.763795528071593
 30
0.0
 11
8.934414356625874
 21
5.46299338903416
 31
0.0
  0
LINE
  5
9B
330
17
100
AcDbEntity
  8
ADP2DETAIL
  6
HIDDEN2
100
AcDbLine
 10
9.308745907428013
 20
5.46299338903416
 30
0.0
 11
9.308745907428013
 21
5.750426544114375
 31
0.0
  0
LINE
  5
9C
330
17
100
AcDbEntity
  8
ADP1DETAIL
 62
     7
100
AcDbLine
 10
9.609548046465446
 20
4.738923959872122
 30
0.0
 11
9.609548046465446
 21
5.750426544114375
 31
0.0
  0
LINE
  5
9D
330
17
100
AcDbEntity
  8
ADP1DETAIL
 62
     7
100
AcDbLine
 10
9.609548046465446
 20
5.750426544114375
 30
0.0
 11
9.609548046465446
 21
5.750426544114375
 31
0.0
  0
LINE
  5
9E
330
17
100
AcDbEntity
  8
ADP1DETAIL
 62
     7
100
AcDbLine
 10
12.0761255865724
 20
4.738923959872122
 30
0.0
 11
12.0761255865724
 21
3.799861654188749
 31
0.0
  0
ARC
  5
9F
330
17
100
AcDbEntity
  8
ADP1DETAIL
 62
     7
100
AcDbCircle
 10
12.13973707768047
 20
3.799861654188749
 30
0.0
 40
0.0636114911080711
100
AcDbArc
 50
180.0
 51
270.0
  0
LINE
  5
A0
330
17
100
AcDbEntity
  8
ADP1DETAIL
 62
     7
100
AcDbLine
 10
11.64163360796277
 20
4.738923959872122
 30
0.0
 11
12.0761255865724
 21
4.738923959872122
 31
0.0
  0
LINE
  5
A1
330
17
100
AcDbEntity
  8
ADP1DETAIL
 62
     7
100
AcDbLine
 10
12.06275660261518
 20
5.750426544114375
 30
0.0
 11
11.64163360796277
 21
5.750426544114375
 31
0.0
  0
LINE
  5
A2
330
17
100
AcDbEntity
  8
ADP1DETAIL
 62
     7
100
AcDbLine
 10
11.64163360796277
 20
5.750426544114375
 30
0.0
 11
11.64163360796277
 21
4.738923959872122
 31
0.0
  0
LINE
  5
A3
330
17
100
AcDbEntity
  8
ADP1DETAIL
 62
     7
100
AcDbLine
 10
12.06275660261518
 20
4.934918522724
 30
0.0
 11
12.06275660261518
 21
5.750426544114375
 31
0.0
  0
LINE
  5
A4
330
17
100
AcDbEntity
  8
ADP1DETAIL
 62
     7
100
AcDbLine
 10
12.81810419619806
 20
3.799861654188749
 30
0.0
 11
12.81810419619806
 21
4.738923959872122
 31
0.0
  0
ARC
  5
A5
330
17
100
AcDbEntity
  8
ADP1DETAIL
 62
     7
100
AcDbCircle
 10
12.75449270508999
 20
3.799861654188749
 30
0.0
 40
0.0636114911080711
100
AcDbArc
 50
270.0
 51
0.0
  0
LINE
  5
A6
330
17
100
AcDbEntity
  8
ADP1DETAIL
 62
     7
100
AcDbLine
 10
12.81810419619806
 20
4.738923959872122
 30
0.0
 11
13.27264965074352
 21
4.738923959872122
 31
0.0
  0
LINE
  5
A7
330
17
100
AcDbEntity
  8
ADP1DETAIL
 62
     7
100
AcDbLine
 10
13.27264965074352
 20
5.750426544114375
 30
0.0
 11
12.83147318015528
 21
5.750426544114375
 31
0.0
  0
LINE
  5
A8
330
17
100
AcDbEntity
  8
ADP1DETAIL
 62
     7
100
AcDbLine
 10
12.83147318015528
 20
5.750426544114375
 30
0.0
 11
12.83147318015528
 21
4.934918522724
 31
0.0
  0
LINE
  5
A9
330
17
100
AcDbEntity
  8
ADP1DETAIL
 62
     7
100
AcDbLine
 10
12.83147318015528
 20
5.750426544114375
 30
0.0
 11
12.83147318015528
 21
5.750426544114375
 31
0.0
  0
LINE
  5
AA
330
17
100
AcDbEntity
  8
ADP1DETAIL
 62
     7
100
AcDbLine
 10
13.27264965074352
 20
4.738923959872122
 30
0.0
 11
13.27264965074352
 21
5.750426544114375
 31
0.0
  0
DIMENSION
  5
AB
330
17
100
AcDbEntity
  8
ADPDIM
100
AcDbDimension
  2
*D5
 10
12.82478868817667
 20
6.746124951159314
 30
0.0
 11
13.36645535484334
 21
6.746124951159314
 31
0.0
 12
1.403743315508021
 22
0.0
 32
0.0
100
AcDbAlignedDimension
 13
12.06944109459379
 23
6.452298201868385
 33
0.0
 14
12.82478868817667
 24
6.452298201868385
 34
0.0
100
AcDbRotatedDimension
  0
LINE
  5
AC
330
17
100
AcDbEntity
  8
ADP1DETAIL
 62
     7
100
AcDbLine
 10
12.82478868817667
 20
6.452298201868385
 30
0.0
 11
12.06944109459379
 21
6.452298201868385
 31
0.0
  0
LINE
  5
AD
330
17
100
AcDbEntity
  8
ADP1DETAIL
 62
     7
100
AcDbLine
 10
12.82478868817667
 20
6.258447934488705
 30
0.0
 11
12.082810078551
 21
6.258447934488705
 31
0.0
  0
ARC
  5
AE
330
17
100
AcDbEntity
  8
ADP1DETAIL
 62
     7
100
AcDbCircle
 10
9.7524096308455
 20
5.995265494493681
 30
0.0
 40
0.2564979480164158
100
AcDbArc
 50
90.0
 51
180.0
  0
LINE
  5
AF
330
17
100
AcDbEntity
  8
ADP1DETAIL
 62
     7
100
AcDbLine
 10
9.308745907428013
 20
6.438929217911166
 30
0.0
 11
10.37158013202694
 21
6.438929217911166
 31
0.0
  0
DIMENSION
  5
B0
330
17
100
AcDbEntity
  8
ADPDIM
100
AcDbDimension
  2
*D4
 10
10.37158013202694
 20
6.746124951159314
 30
0.0
 11
9.121580132026943
 21
6.746124951159314
 31
0.0
100
AcDbAlignedDimension
 13
7.871580132026943
 23
6.438929217911166
 33
0.0
 14
10.37158013202694
 24
6.438929217911166
 34
0.0
100
AcDbRotatedDimension
  0
LINE
  5
B1
330
17
100
AcDbEntity
  8
ADP1DETAIL
 62
     7
100
AcDbLine
 10
8.49075063320839
 20
6.251763442510097
 30
0.0
 11
7.871580132026943
 21
6.251763442510097
 31
0.0
  0
LINE
  5
B2
330
17
100
AcDbEntity
  8
ADP1DETAIL
 62
     7
100
AcDbLine
 10
7.871580132026943
 20
6.438929217911166
 30
0.0
 11
8.934414356625874
 21
6.438929217911166
 31
0.0
  0
LINE
  5
B3
330
17
100
AcDbEntity
  8
ADP2DETAIL
  6
HIDDEN2
100
AcDbLine
 10
8.212489222936037
 20
6.311923870317583
 30
0.0
 11
8.152328795128548
 21
6.251763442510097
 31
0.0
  0
LINE
  5
B4
330
17
100
AcDbEntity
  8
ADP1DETAIL
 62
     7
100
AcDbLine
 10
7.871580132026943
 20
6.251763442510097
 30
0.0
 11
7.871580132026943
 21
6.438929217911166
 31
0.0
  0
ARC
  5
B5
330
17
100
AcDbEntity
  8
ADP1DETAIL
 62
     7
100
AcDbCircle
 10
8.49075063320839
 20
5.995265494493681
 30
0.0
 40
0.2564979480164158
100
AcDbArc
 50
0.0
 51
90.0
  0
LINE
  5
B6
330
17
100
AcDbEntity
  8
ADP2DETAIL
  6
HIDDEN2
100
AcDbLine
 10
8.406339490315717
 20
6.311923870317583
 30
0.0
 11
8.459815426144588
 21
6.251763442510097
 31
0.0
  0
LINE
  5
B7
330
17
100
AcDbEntity
  8
ADP2DETAIL
  6
HIDDEN2
100
AcDbLine
 10
8.406339490315717
 20
6.432244725932555
 30
0.0
 11
8.406339490315717
 21
6.311923870317583
 31
0.0
  0
LINE
  5
B8
330
17
100
AcDbEntity
  8
ADP2DETAIL
  6
HIDDEN2
100
AcDbLine
 10
8.212489222936037
 20
6.432244725932555
 30
0.0
 11
8.212489222936037
 21
6.311923870317583
 31
0.0
  0
LINE
  5
B9
330
17
100
AcDbEntity
  8
ADP1DETAIL
 62
     7
100
AcDbLine
 10
9.308745907428013
 20
6.465667185825603
 30
0.0
 11
8.934414356625874
 21
6.465667185825603
 31
0.0
  0
LINE
  5
BA
330
17
100
AcDbEntity
  8
ADP1DETAIL
 62
     7
100
AcDbLine
 10
10.37158013202694
 20
6.251763442510097
 30
0.0
 11
9.7524096308455
 21
6.251763442510097
 31
0.0
  0
LINE
  5
BB
330
17
100
AcDbEntity
  8
ADP2DETAIL
  6
HIDDEN2
100
AcDbLine
 10
9.843505265716784
 20
6.311923870317583
 30
0.0
 11
9.776660345930688
 21
6.251763442510097
 31
0.0
  0
LINE
  5
BC
330
17
100
AcDbEntity
  8
ADP2DETAIL
  6
HIDDEN2
100
AcDbLine
 10
9.843505265716784
 20
6.432244725932555
 30
0.0
 11
9.843505265716784
 21
6.311923870317583
 31
0.0
  0
LINE
  5
BD
330
17
100
AcDbEntity
  8
ADP2DETAIL
  6
HIDDEN2
100
AcDbLine
 10
10.03067104111785
 20
6.311923870317583
 30
0.0
 11
10.09083146892533
 21
6.251763442510097
 31
0.0
  0
LINE
  5
BE
330
17
100
AcDbEntity
  8
ADP2DETAIL
  6
HIDDEN2
100
AcDbLine
 10
10.03067104111785
 20
6.432244725932555
 30
0.0
 11
10.03067104111785
 21
6.311923870317583
 31
0.0
  0
LINE
  5
BF
330
17
100
AcDbEntity
  8
ADP1DETAIL
 62
     7
100
AcDbLine
 10
10.37158013202694
 20
6.438929217911166
 30
0.0
 11
10.37158013202694
 21
6.251763442510097
 31
0.0
  0
LINE
  5
C0
330
17
100
AcDbEntity
  8
ADP2DETAIL
  6
HIDDEN2
100
AcDbLine
 10
12.356874249674
 20
6.445613709889775
 30
0.0
 11
12.356874249674
 21
6.318608362296192
 31
0.0
  0
LINE
  5
C1
330
17
100
AcDbEntity
  8
ADP2DETAIL
  6
HIDDEN2
100
AcDbLine
 10
12.356874249674
 20
6.318608362296192
 30
0.0
 11
12.2900293298879
 21
6.258447934488705
 31
0.0
  0
LINE
  5
C2
330
17
100
AcDbEntity
  8
ADP1DETAIL
 62
     7
100
AcDbLine
 10
12.06944109459379
 20
6.452298201868385
 30
0.0
 11
12.06944109459379
 21
6.452298201868385
 31
0.0
  0
LINE
  5
C3
330
17
100
AcDbEntity
  8
ADP2DETAIL
  6
HIDDEN2
100
AcDbLine
 10
12.54404002507507
 20
6.445613709889775
 30
0.0
 11
12.54404002507507
 21
6.318608362296192
 31
0.0
  0
LINE
  5
C4
330
17
100
AcDbEntity
  8
ADP2DETAIL
  6
HIDDEN2
100
AcDbLine
 10
12.54404002507507
 20
6.318608362296192
 30
0.0
 11
12.60420045288255
 21
6.258447934488705
 31
0.0
  0
TEXT
  5
CE
330
17
100
AcDbEntity
  8
ADPDIM
100
AcDbText
 10
6.009473209460926
 20
2.562064972256431
 30
0.0
 40
0.09375
  1
J U L I U S  B L U M  &  C O . ,  I N C .      ( 8 0 0 )  5 2 6 - 6 2 9 3        W W W . J U L I U S B L U M . C O M        P A R T  N O .  1 6 2
 41
1.25
  7
ARIAL_WIDE
 72
     1
 11
10.85364953961099
 21
2.655814972256431
 31
0.0
100
AcDbText
 73
     3
  0
ENDSEC
  0
SECTION
  2
OBJECTS
  0
DICTIONARY
  5
C
330
0
100
AcDbDictionary
  3
ACAD_GROUP
350
D
  3
ACAD_LAYOUT
350
D3
  3
ACAD_MLINESTYLE
350
1A
  3
ACAD_PLOTSETTINGS
350
D4
  3
ACAD_PLOTSTYLENAME
350
D1
  3
ACDBHEADERROUNDTRIPXREC
350
1C0
  3
ACDBVARIABLEDICTIONARY
350
2C
  0
DICTIONARY
  5
100
330
17
100
AcDbDictionary
280
     1
  3
ACAD_LAYOUTSELFREF
360
1E2
  0
DICTIONARY
  5
FE
330
14
100
AcDbDictionary
280
     1
  3
ACAD_LAYOUTSELFREF
360
1E1
  0
DICTIONARY
  5
D
102
{ACAD_REACTORS
330
C
102
}
330
C
100
AcDbDictionary
  0
DICTIONARY
  5
D3
102
{ACAD_REACTORS
330
C
102
}
330
C
100
AcDbDictionary
  0
DICTIONARY
  5
1A
102
{ACAD_REACTORS
330
C
102
}
330
C
100
AcDbDictionary
  3
STANDARD
350
1B
  0
DICTIONARY
  5
D4
102
{ACAD_REACTORS
330
C
102
}
330
C
100
AcDbDictionary
  0
ACDBDICTIONARYWDFLT
  5
D1
102
{ACAD_REACTORS
330
C
102
}
330
C
100
AcDbDictionary
281
     1
  3
Normal
350
D2
100
AcDbDictionaryWithDefault
340
D2
  0
DICTIONARY
  5
1C0
102
{ACAD_REACTORS
330
C
102
}
330
C
100
AcDbDictionary
  3
CEPSNTYPE
350
1CA
  3
DIMSTYLEDATA
350
1CE
  3
FINGERPRINTGUID
350
1CB
  3
HYPERLINKBASE
350
1C3
  3
INSUNITS
350
1C9
  3
LAYOUTDICT
350
1C5
  3
LWETCUNION
350
1C8
  3
PLOTSETDICT
350
1C6
  3
PLOTSTYLNAMDICT
350
1C7
  3
PSVPSCALE
350
1CD
  3
PUCSBASE
350
1D1
  3
PUCSORGBACK
350
1D7
  3
PUCSORGBOTTOM
350
1D3
  3
PUCSORGFRONT
350
1D6
  3
PUCSORGLEFT
350
1D4
  3
PUCSORGRIGHT
350
1D5
  3
PUCSORGTOP
350
1D2
  3
PUCSORTHOREF
350
1CF
  3
PUCSORTHOVIEW
350
1D0
  3
STYLESHEET
350
1C4
  3
TSTACKALIGN
350
1C1
  3
TSTACKSIZE
350
1C2
  3
UCSBASE
350
1DA
  3
UCSORGBACK
350
1E0
  3
UCSORGBOTTOM
350
1DC
  3
UCSORGFRONT
350
1DF
  3
UCSORGLEFT
350
1DD
  3
UCSORGRIGHT
350
1DE
  3
UCSORGTOP
350
1DB
  3
UCSORTHOREF
350
1D8
  3
UCSORTHOVIEW
350
1D9
  3
VERSIONGUID
350
1CC
  0
DICTIONARY
  5
2C
102
{ACAD_REACTORS
330
C
102
}
330
C
100
AcDbDictionary
  3
DIMADEC
350
2D
  3
DIMASSOC
350
106
  0
XRECORD
  5
1E2
102
{ACAD_REACTORS
330
100
102
}
330
100
100
AcDbXrecord
340
17
  0
XRECORD
  5
1E1
102
{ACAD_REACTORS
330
FE
102
}
330
FE
100
AcDbXrecord
340
14
  0
MLINESTYLE
  5
1B
102
{ACAD_REACTORS
330
1A
102
}
330
1A
100
AcDbMlineStyle
  2
STANDARD
 70
     0
  3

 62
   256
 51
90.0
 52
90.0
 71
     2
 49
0.5
 62
   256
  6
BYLAYER
 49
-0.5
 62
   256
  6
BYLAYER
  0
ACDBPLACEHOLDER
  5
D2
102
{ACAD_REACTORS
330
D1
102
}
330
D1
100
AcDbPlaceHolder
280
     0
  0
XRECORD
  5
1CA
102
{ACAD_REACTORS
330
1C0
102
}
330
1C0
100
AcDbXrecord
 90
        0
  0
XRECORD
  5
1CE
102
{ACAD_REACTORS
330
1C0
102
}
330
1C0
100
AcDbXrecord
1000
DSTYLE
1002
{
1070
   277
 70
     5
1070
   279
 70
     2
1002
}
  0
XRECORD
  5
1CB
102
{ACAD_REACTORS
330
1C0
102
}
330
1C0
100
AcDbXrecord
  1
{76045D65-B283-4BB8-BB74-A7D72DCCE55B}
  0
XRECORD
  5
1C3
102
{ACAD_REACTORS
330
1C0
102
}
330
1C0
100
AcDbXrecord
  1

  0
XRECORD
  5
1C9
102
{ACAD_REACTORS
330
1C0
102
}
330
1C0
100
AcDbXrecord
 90
        0
  0
XRECORD
  5
1C5
102
{ACAD_REACTORS
330
1C0
102
}
330
1C0
100
AcDbXrecord
340
D3
  0
XRECORD
  5
1C8
102
{ACAD_REACTORS
330
1C0
102
}
330
1C0
100
AcDbXrecord
 90
    14877
  0
XRECORD
  5
1C6
102
{ACAD_REACTORS
330
1C0
102
}
330
1C0
100
AcDbXrecord
340
D4
  0
XRECORD
  5
1C7
102
{ACAD_REACTORS
330
1C0
102
}
330
1C0
100
AcDbXrecord
340
D1
  0
XRECORD
  5
1CD
102
{ACAD_REACTORS
330
1C0
102
}
330
1C0
100
AcDbXrecord
 40
0.0
  0
XRECORD
  5
1D1
102
{ACAD_REACTORS
330
1C0
102
}
330
1C0
100
AcDbXrecord
340
0
  0
XRECORD
  5
1D7
102
{ACAD_REACTORS
330
1C0
102
}
330
1C0
100
AcDbXrecord
 10
0.0
 20
0.0
 30
0.0
  0
XRECORD
  5
1D3
102
{ACAD_REACTORS
330
1C0
102
}
330
1C0
100
AcDbXrecord
 10
0.0
 20
0.0
 30
0.0
  0
XRECORD
  5
1D6
102
{ACAD_REACTORS
330
1C0
102
}
330
1C0
100
AcDbXrecord
 10
0.0
 20
0.0
 30
0.0
  0
XRECORD
  5
1D4
102
{ACAD_REACTORS
330
1C0
102
}
330
1C0
100
AcDbXrecord
 10
0.0
 20
0.0
 30
0.0
  0
XRECORD
  5
1D5
102
{ACAD_REACTORS
330
1C0
102
}
330
1C0
100
AcDbXrecord
 10
0.0
 20
0.0
 30
0.0
  0
XRECORD
  5
1D2
102
{ACAD_REACTORS
330
1C0
102
}
330
1C0
100
AcDbXrecord
 10
0.0
 20
0.0
 30
0.0
  0
XRECORD
  5
1CF
102
{ACAD_REACTORS
330
1C0
102
}
330
1C0
100
AcDbXrecord
340
0
  0
XRECORD
  5
1D0
102
{ACAD_REACTORS
330
1C0
102
}
330
1C0
100
AcDbXrecord
 70
     0
  0
XRECORD
  5
1C4
102
{ACAD_REACTORS
330
1C0
102
}
330
1C0
100
AcDbXrecord
  1

  0
XRECORD
  5
1C1
102
{ACAD_REACTORS
330
1C0
102
}
330
1C0
100
AcDbXrecord
 90
        1
  0
XRECORD
  5
1C2
102
{ACAD_REACTORS
330
1C0
102
}
330
1C0
100
AcDbXrecord
 90
       70
  0
XRECORD
  5
1DA
102
{ACAD_REACTORS
330
1C0
102
}
330
1C0
100
AcDbXrecord
340
0
  0
XRECORD
  5
1E0
102
{ACAD_REACTORS
330
1C0
102
}
330
1C0
100
AcDbXrecord
 10
0.0
 20
0.0
 30
0.0
  0
XRECORD
  5
1DC
102
{ACAD_REACTORS
330
1C0
102
}
330
1C0
100
AcDbXrecord
 10
0.0
 20
0.0
 30
0.0
  0
XRECORD
  5
1DF
102
{ACAD_REACTORS
330
1C0
102
}
330
1C0
100
AcDbXrecord
 10
0.0
 20
0.0
 30
0.0
  0
XRECORD
  5
1DD
102
{ACAD_REACTORS
330
1C0
102
}
330
1C0
100
AcDbXrecord
 10
0.0
 20
0.0
 30
0.0
  0
XRECORD
  5
1DE
102
{ACAD_REACTORS
330
1C0
102
}
330
1C0
100
AcDbXrecord
 10
0.0
 20
0.0
 30
0.0
  0
XRECORD
  5
1DB
102
{ACAD_REACTORS
330
1C0
102
}
330
1C0
100
AcDbXrecord
 10
0.0
 20
0.0
 30
0.0
  0
XRECORD
  5
1D8
102
{ACAD_REACTORS
330
1C0
102
}
330
1C0
100
AcDbXrecord
340
0
  0
XRECORD
  5
1D9
102
{ACAD_REACTORS
330
1C0
102
}
330
1C0
100
AcDbXrecord
 70
     0
  0
XRECORD
  5
1CC
102
{ACAD_REACTORS
330
1C0
102
}
330
1C0
100
AcDbXrecord
  1
{06B0BA92-6F7C-43F5-99FC-763A9A1AC12B}
  0
DICTIONARYVAR
  5
2D
102
{ACAD_REACTORS
330
2C
102
}
330
2C
100
DictionaryVariables
280
     0
  1
0
  0
DICTIONARYVAR
  5
106
102
{ACAD_REACTORS
330
2C
102
}
330
2C
100
DictionaryVariables
280
     0
  1
1
  0
ENDSEC
  0
EOF
