  0
SECTION
  2
HEADER
  9
$ACADVER
  1
AC1014
  9
$ACADMAINTVER
 70
     9
  9
$DWGCODEPAGE
  3
ANSI_1252
  9
$INSBASE
 10
11.41044517008792
 20
7.972496238206308
 30
0.0
  9
$EXTMIN
 10
-0.4539813854731048
 20
6.503993663504418
 30
0.0
  9
$EXTMAX
 10
19.12320568819674
 20
14.0662462382063
 30
0.0
  9
$LIMMIN
 10
0.0
 20
0.0
  9
$LIMMAX
 10
36.0
 20
36.0
  9
$ORTHOMODE
 70
     1
  9
$REGENMODE
 70
     1
  9
$FILLMODE
 70
     1
  9
$QTEXTMODE
 70
     0
  9
$MIRRTEXT
 70
     1
  9
$DRAGMODE
 70
     0
  9
$LTSCALE
 40
1.0
  9
$OSMODE
 70
    37
  9
$ATTMODE
 70
     1
  9
$TEXTSIZE
 40
0.2
  9
$TRACEWID
 40
0.05
  9
$TEXTSTYLE
  7
STANDARD
  9
$CLAYER
  8
ADP1DETAIL
  9
$CELTYPE
  6
BYLAYER
  9
$CECOLOR
 62
   256
  9
$CELTSCALE
 40
1.0
  9
$DELOBJ
 70
     1
  9
$DISPSILH
 70
     0
  9
$DIMSCALE
 40
1.0
  9
$DIMASZ
 40
0.125
  9
$DIMEXO
 40
0.0625
  9
$DIMDLI
 40
0.38
  9
$DIMRND
 40
0.0
  9
$DIMDLE
 40
0.0
  9
$DIMEXE
 40
0.18
  9
$DIMTP
 40
0.0
  9
$DIMTM
 40
0.0
  9
$DIMTXT
 40
0.125
  9
$DIMCEN
 40
0.1875
  9
$DIMTSZ
 40
0.125
  9
$DIMTOL
 70
     0
  9
$DIMLIM
 70
     0
  9
$DIMTIH
 70
     0
  9
$DIMTOH
 70
     0
  9
$DIMSE1
 70
     0
  9
$DIMSE2
 70
     0
  9
$DIMTAD
 70
     0
  9
$DIMZIN
 70
     3
  9
$DIMBLK
  1

  9
$DIMASO
 70
     1
  9
$DIMSHO
 70
     1
  9
$DIMPOST
  1

  9
$DIMAPOST
  1

  9
$DIMALT
 70
     0
  9
$DIMALTD
 70
     1
  9
$DIMALTF
 40
25.4
  9
$DIMLFAC
 40
1.0
  9
$DIMTOFL
 70
     0
  9
$DIMTVP
 40
0.0
  9
$DIMTIX
 70
     0
  9
$DIMSOXD
 70
     0
  9
$DIMSAH
 70
     0
  9
$DIMBLK1
  1

  9
$DIMBLK2
  1

  9
$DIMSTYLE
  2
STANDARD
  9
$DIMCLRD
 70
     0
  9
$DIMCLRE
 70
     0
  9
$DIMCLRT
 70
     0
  9
$DIMTFAC
 40
1.0
  9
$DIMGAP
 40
0.125
  9
$DIMJUST
 70
     0
  9
$DIMSD1
 70
     0
  9
$DIMSD2
 70
     0
  9
$DIMTOLJ
 70
     1
  9
$DIMTZIN
 70
     3
  9
$DIMALTZ
 70
     3
  9
$DIMALTTZ
 70
     3
  9
$DIMFIT
 70
     5
  9
$DIMUPT
 70
     0
  9
$DIMUNIT
 70
     5
  9
$DIMDEC
 70
     4
  9
$DIMTDEC
 70
     4
  9
$DIMALTU
 70
     5
  9
$DIMALTTD
 70
     1
  9
$DIMTXSTY
  7
STANDARD
  9
$DIMAUNIT
 70
     0
  9
$LUNITS
 70
     5
  9
$LUPREC
 70
     4
  9
$SKETCHINC
 40
0.1
  9
$FILLETRAD
 40
0.187
  9
$AUNITS
 70
     0
  9
$AUPREC
 70
     0
  9
$MENU
  1
acad
  9
$ELEVATION
 40
0.0
  9
$PELEVATION
 40
0.0
  9
$THICKNESS
 40
0.0
  9
$LIMCHECK
 70
     0
  9
$BLIPMODE
 70
     0
  9
$CHAMFERA
 40
0.0
  9
$CHAMFERB
 40
0.0
  9
$CHAMFERC
 40
0.0
  9
$CHAMFERD
 40
0.0
  9
$SKPOLY
 70
     0
  9
$TDCREATE
 40
2450387.657824259
  9
$TDUPDATE
 40
2452297.082600903
  9
$TDINDWG
 40
0.0505510417
  9
$TDUSRTIMER
 40
0.0505510417
  9
$USRTIMER
 70
     1
  9
$ANGBASE
 50
0.0
  9
$ANGDIR
 70
     0
  9
$PDMODE
 70
     0
  9
$PDSIZE
 40
0.0
  9
$PLINEWID
 40
0.0
  9
$COORDS
 70
     2
  9
$SPLFRAME
 70
     0
  9
$SPLINETYPE
 70
     6
  9
$SPLINESEGS
 70
     8
  9
$ATTDIA
 70
     0
  9
$ATTREQ
 70
     1
  9
$HANDLING
 70
 22529
  9
$HANDSEED
  5
2B0
  9
$SURFTAB1
 70
     6
  9
$SURFTAB2
 70
     6
  9
$SURFTYPE
 70
     6
  9
$SURFU
 70
     6
  9
$SURFV
 70
     6
  9
$UCSNAME
  2

  9
$UCSORG
 10
0.0
 20
0.0
 30
0.0
  9
$UCSXDIR
 10
1.0
 20
0.0
 30
0.0
  9
$UCSYDIR
 10
0.0
 20
1.0
 30
0.0
  9
$PUCSNAME
  2

  9
$PUCSORG
 10
0.0
 20
0.0
 30
0.0
  9
$PUCSXDIR
 10
1.0
 20
0.0
 30
0.0
  9
$PUCSYDIR
 10
0.0
 20
1.0
 30
0.0
  9
$USERI1
 70
     0
  9
$USERI2
 70
     0
  9
$USERI3
 70
     0
  9
$USERI4
 70
     0
  9
$USERI5
 70
     0
  9
$USERR1
 40
0.0
  9
$USERR2
 40
0.0
  9
$USERR3
 40
0.0
  9
$USERR4
 40
0.0
  9
$USERR5
 40
0.0
  9
$WORLDVIEW
 70
     1
  9
$SHADEDGE
 70
     3
  9
$SHADEDIF
 70
    70
  9
$TILEMODE
 70
     1
  9
$MAXACTVP
 70
    15
  9
$PINSBASE
 10
0.0
 20
0.0
 30
0.0
  9
$PLIMCHECK
 70
     0
  9
$PEXTMIN
 10
1.000000000000000E+20
 20
1.000000000000000E+20
 30
1.000000000000000E+20
  9
$PEXTMAX
 10
-1.000000000000000E+20
 20
-1.000000000000000E+20
 30
-1.000000000000000E+20
  9
$PLIMMIN
 10
0.0
 20
0.0
  9
$PLIMMAX
 10
12.0
 20
9.0
  9
$UNITMODE
 70
     0
  9
$VISRETAIN
 70
     0
  9
$PLINEGEN
 70
     0
  9
$PSLTSCALE
 70
     1
  9
$TREEDEPTH
 70
  3020
  9
$PICKSTYLE
 70
     1
  9
$CMLSTYLE
  2
STANDARD
  9
$CMLJUST
 70
     0
  9
$CMLSCALE
 40
1.0
  9
$PROXYGRAPHICS
 70
     1
  9
$MEASUREMENT
 70
     0
  0
ENDSEC
  0
SECTION
  2
CLASSES
  0
CLASS
  1
ACDBDICTIONARYWDFLT
  2
AcDbDictionaryWithDefault
  3
AutoCAD 2000
 90
        0
280
     0
281
     0
  0
CLASS
  1
ACDBPLACEHOLDER
  2
AcDbPlaceHolder
  3
AutoCAD 2000
 90
        0
280
     0
281
     0
  0
CLASS
  1
LAYOUT
  2
AcDbLayout
  3
AutoCAD 2000
 90
        0
280
     0
281
     0
  0
CLASS
  1
DICTIONARYVAR
  2
AcDbDictionaryVar
  3
AutoCAD 2000
 90
        0
280
     0
281
     0
  0
CLASS
  1
LONG_TRANSACTION
  2
AcDbLongTransaction
  3
AutoCAD 2000
 90
        0
280
     0
281
     0
  0
CLASS
  1
LWPOLYLINE
  2
AcDbPolyline
  3
AutoCAD 2000
 90
        0
280
     0
281
     1
  0
CLASS
  1
HATCH
  2
AcDbHatch
  3
AutoCAD 2000
 90
        0
280
     0
281
     1
  0
CLASS
  1
XRECORD
  2
AcDbXrecord
  3
AutoCAD 2000
 90
        0
280
     0
281
     0
  0
CLASS
  1
LONG_TRANSACTION
  2
AcDbLongTransaction
  3
AutoCAD 2000
 90
        0
280
     0
281
     0
  0
CLASS
  1
LWPOLYLINE
  2
AcDbPolyline
  3
AutoCAD 2000
 90
        0
280
     0
281
     1
  0
CLASS
  1
HATCH
  2
AcDbHatch
  3
AutoCAD 2000
 90
        0
280
     0
281
     1
  0
CLASS
  1
XRECORD
  2
AcDbXrecord
  3
AutoCAD 2000
 90
        0
280
     0
281
     0
  0
CLASS
  1
LONG_TRANSACTION
  2
AcDbLongTransaction
  3
AutoCAD 2000
 90
        0
280
     0
281
     0
  0
CLASS
  1
LWPOLYLINE
  2
AcDbPolyline
  3
AutoCAD 2000
 90
        0
280
     0
281
     1
  0
CLASS
  1
HATCH
  2
AcDbHatch
  3
AutoCAD 2000
 90
        0
280
     0
281
     1
  0
CLASS
  1
XRECORD
  2
AcDbXrecord
  3
AutoCAD 2000
 90
        0
280
     0
281
     0
  0
CLASS
  1
LONG_TRANSACTION
  2
AcDbLongTransaction
  3
AutoCAD 2000
 90
        0
280
     0
281
     0
  0
CLASS
  1
LWPOLYLINE
  2
AcDbPolyline
  3
AutoCAD 2000
 90
        0
280
     0
281
     1
  0
CLASS
  1
HATCH
  2
AcDbHatch
  3
AutoCAD 2000
 90
        0
280
     0
281
     1
  0
CLASS
  1
XRECORD
  2
AcDbXrecord
  3
AutoCAD 2000
 90
        0
280
     0
281
     0
  0
CLASS
  1
LONG_TRANSACTION
  2
AcDbLongTransaction
  3
AutoCAD 2000
 90
        0
280
     0
281
     0
  0
CLASS
  1
LWPOLYLINE
  2
AcDbPolyline
  3
AutoCAD 2000
 90
        0
280
     0
281
     1
  0
CLASS
  1
HATCH
  2
AcDbHatch
  3
AutoCAD 2000
 90
        0
280
     0
281
     1
  0
CLASS
  1
XRECORD
  2
AcDbXrecord
  3
AutoCAD 2000
 90
        0
280
     0
281
     0
  0
CLASS
  1
LONG_TRANSACTION
  2
AcDbLongTransaction
  3
AutoCAD 2000
 90
        0
280
     0
281
     0
  0
CLASS
  1
LWPOLYLINE
  2
AcDbPolyline
  3
AutoCAD 2000
 90
        0
280
     0
281
     1
  0
CLASS
  1
HATCH
  2
AcDbHatch
  3
AutoCAD 2000
 90
        0
280
     0
281
     1
  0
CLASS
  1
XRECORD
  2
AcDbXrecord
  3
AutoCAD 2000
 90
        0
280
     0
281
     0
  0
ENDSEC
  0
SECTION
  2
TABLES
  0
TABLE
  2
VPORT
  5
8
330
0
100
AcDbSymbolTable
 70
     2
  0
VPORT
  5
28C
330
8
100
AcDbSymbolTableRecord
100
AcDbViewportTableRecord
  2
*ACTIVE
 70
     0
 10
0.0
 20
0.0
 11
1.0
 21
1.0
 12
9.350334462387717
 22
10.28485114905617
 13
0.0
 23
0.0
 14
0.5740882589684922
 24
0.5740882589684922
 15
0.5
 25
0.5
 16
0.0
 26
0.0
 36
1.0
 17
0.0
 27
0.0
 37
0.0
 40
12.54575361678661
 41
1.570528967254408
 42
50.0
 43
0.0
 44
0.0
 50
0.0
 51
0.0
 71
     0
 72
   100
 73
     1
 74
     0
 75
     0
 76
     0
 77
     0
 78
     0
  0
ENDTAB
  0
TABLE
  2
LTYPE
  5
5
330
0
100
AcDbSymbolTable
 70
     2
  0
LTYPE
  5
13
330
5
100
AcDbSymbolTableRecord
100
AcDbLinetypeTableRecord
  2
BYBLOCK
 70
     0
  3

 72
    65
 73
     0
 40
0.0
  0
LTYPE
  5
14
330
5
100
AcDbSymbolTableRecord
100
AcDbLinetypeTableRecord
  2
BYLAYER
 70
     0
  3

 72
    65
 73
     0
 40
0.0
  0
LTYPE
  5
15
330
5
100
AcDbSymbolTableRecord
100
AcDbLinetypeTableRecord
  2
CONTINUOUS
 70
     0
  3
Solid line
 72
    65
 73
     0
 40
0.0
  0
LTYPE
  5
7A
330
5
100
AcDbSymbolTableRecord
100
AcDbLinetypeTableRecord
  2
HIDDEN2
 70
     0
  3
_ _ _ _ _ _ _ _ _ _ _ _ _ _ _ _ _ _ _ _ _ _ _ _
 72
    65
 73
     2
 40
0.1875
 49
0.125
 74
     0
 49
-0.0625
 74
     0
  0
ENDTAB
  0
TABLE
  2
LAYER
  5
2
330
0
100
AcDbSymbolTable
 70
     5
  0
LAYER
  5
10
330
2
100
AcDbSymbolTableRecord
100
AcDbLayerTableRecord
  2
0
 70
     0
 62
     7
  6
CONTINUOUS
  0
LAYER
  5
7E
330
2
100
AcDbSymbolTableRecord
100
AcDbLayerTableRecord
  2
ADP1DETAIL
 70
     0
 62
     7
  6
CONTINUOUS
  0
LAYER
  5
80
330
2
100
AcDbSymbolTableRecord
100
AcDbLayerTableRecord
  2
DEFPOINTS
 70
     0
 62
     7
  6
CONTINUOUS
  0
LAYER
  5
81
330
2
100
AcDbSymbolTableRecord
100
AcDbLayerTableRecord
  2
ADPDIM
 70
     0
 62
     3
  6
CONTINUOUS
  0
LAYER
  5
82
330
2
100
AcDbSymbolTableRecord
100
AcDbLayerTableRecord
  2
ADP2DETAIL
 70
     0
 62
     5
  6
HIDDEN2
  0
ENDTAB
  0
TABLE
  2
STYLE
  5
3
330
0
100
AcDbSymbolTable
 70
     2
  0
STYLE
  5
11
330
3
100
AcDbSymbolTableRecord
100
AcDbTextStyleTableRecord
  2
STANDARD
 70
     0
 40
0.0
 41
1.0
 50
0.0
 71
     0
 42
0.2
  3
txt
  4

  0
STYLE
  5
BF
330
3
100
AcDbSymbolTableRecord
100
AcDbTextStyleTableRecord
  2
ARIAL_WIDE
 70
     0
 40
0.0
 41
1.25
 50
0.0
 71
     0
 42
0.2
  3
ARIAL.TTF
  4

1001
ACAD
1000
Arial
1071
       34
  0
ENDTAB
  0
TABLE
  2
VIEW
  5
6
330
0
100
AcDbSymbolTable
 70
     0
  0
ENDTAB
  0
TABLE
  2
UCS
  5
7
330
0
100
AcDbSymbolTable
 70
     0
  0
ENDTAB
  0
TABLE
  2
APPID
  5
9
330
0
100
AcDbSymbolTable
 70
     1
  0
APPID
  5
12
330
9
100
AcDbSymbolTableRecord
100
AcDbRegAppTableRecord
  2
ACAD
 70
     0
  0
ENDTAB
  0
TABLE
  2
DIMSTYLE
  5
A
330
0
100
AcDbSymbolTable
 70
     1
  0
DIMSTYLE
105
BD
330
A
100
AcDbSymbolTableRecord
100
AcDbDimStyleTableRecord
  2
STANDARD
 70
     0
  3

  4

  5

  6

  7

 40
1.0
 41
0.18
 42
0.0625
 43
0.38
 44
0.18
 45
0.0
 46
0.0
 47
0.0
 48
0.0
140
0.18
141
0.09
142
0.0
143
25.4
144
1.0
145
0.0
146
1.0
147
0.09
 71
     0
 72
     0
 73
     1
 74
     1
 75
     0
 76
     0
 77
     0
 78
     0
170
     0
171
     2
172
     0
173
     0
174
     0
175
     0
176
     0
177
     0
178
     0
270
     2
271
     4
272
     4
273
     2
274
     2
340
11
275
     0
280
     0
281
     0
282
     0
283
     1
284
     0
285
     0
286
     0
287
     3
288
     0
  0
ENDTAB
  0
TABLE
  2
BLOCK_RECORD
  5
1
330
0
100
AcDbSymbolTable
 70
     3
  0
BLOCK_RECORD
  5
1E
102
{ACAD_XDICTIONARY
360
FC
102
}
330
1
100
AcDbSymbolTableRecord
100
AcDbBlockTableRecord
  2
*MODEL_SPACE
  0
BLOCK_RECORD
  5
1A
102
{ACAD_XDICTIONARY
360
FE
102
}
330
1
100
AcDbSymbolTableRecord
100
AcDbBlockTableRecord
  2
*PAPER_SPACE
  0
BLOCK_RECORD
  5
64
330
1
100
AcDbSymbolTableRecord
100
AcDbBlockTableRecord
  2
*D0
  0
BLOCK_RECORD
  5
65
330
1
100
AcDbSymbolTableRecord
100
AcDbBlockTableRecord
  2
*D1
  0
BLOCK_RECORD
  5
66
330
1
100
AcDbSymbolTableRecord
100
AcDbBlockTableRecord
  2
*D2
  0
ENDTAB
  0
ENDSEC
  0
SECTION
  2
BLOCKS
  0
BLOCK
  5
85
330
1E
100
AcDbEntity
  8
0
100
AcDbBlockBegin
  2
*MODEL_SPACE
 70
     0
 10
0.0
 20
0.0
 30
0.0
  3
*MODEL_SPACE
  1

  0
ENDBLK
  5
86
330
1E
100
AcDbEntity
  8
0
100
AcDbBlockEnd
  0
BLOCK
  5
83
330
1A
100
AcDbEntity
 67
     1
  8
0
100
AcDbBlockBegin
  2
*PAPER_SPACE
 70
     0
 10
0.0
 20
0.0
 30
0.0
  3
*PAPER_SPACE
  1

  0
ENDBLK
  5
84
330
1A
100
AcDbEntity
 67
     1
  8
0
100
AcDbBlockEnd
  0
BLOCK
  5
88
330
64
100
AcDbEntity
  8
0
100
AcDbBlockBegin
  2
*D0
 70
     1
 10
0.0
 20
0.0
 30
0.0
  3
*D0
  1

  0
LINE
  5
89
330
64
100
AcDbEntity
  8
0
  6
BYBLOCK
 62
     0
100
AcDbLine
 10
11.18810121794013
 20
11.03354551183022
 30
0.0
 11
11.41155268634039
 21
10.92143199226293
 31
0.0
  0
LINE
  5
8A
330
64
100
AcDbEntity
  8
0
  6
BYBLOCK
 62
     0
100
AcDbLine
 10
11.02031872395635
 20
10.97787653741374
 30
0.0
 11
11.35588371192391
 21
11.08921448624671
 31
0.0
  0
LINE
  5
8B
330
64
100
AcDbEntity
  8
0
  6
BYBLOCK
 62
     0
100
AcDbLine
 10
9.129195170087921
 20
11.9724962382063
 30
0.0
 11
9.504195170087921
 21
11.9724962382063
 31
0.0
  0
LINE
  5
8C
330
64
100
AcDbEntity
  8
0
  6
BYBLOCK
 62
     0
100
AcDbLine
 10
9.316695170087921
 20
11.7849962382063
 30
0.0
 11
9.316695170087921
 21
12.1599962382063
 31
0.0
  0
TEXT
  5
8D
330
64
100
AcDbEntity
  8
0
  6
BYBLOCK
 62
     0
100
AcDbText
 10
11.4952500406487
 20
10.80951236537922
 30
0.0
 40
0.125
  1
%%c4 3/16
 50
333.3554576008424
 72
     1
 11
11.87707657884094
 21
10.68786215983107
 31
0.0
100
AcDbText
 73
     2
  0
POINT
  5
8F
330
64
100
AcDbEntity
  8
DEFPOINTS
  6
BYBLOCK
 62
     0
100
AcDbPoint
 10
11.18810121794013
 20
11.03354551183022
 30
0.0
  0
POINT
  5
90
330
64
100
AcDbEntity
  8
DEFPOINTS
  6
BYBLOCK
 62
     0
100
AcDbPoint
 10
7.44528912223571
 20
12.91144696458238
 30
0.0
  0
ENDBLK
  5
91
330
64
100
AcDbEntity
  8
0
100
AcDbBlockEnd
  0
BLOCK
  5
92
330
65
100
AcDbEntity
  8
0
100
AcDbBlockBegin
  2
*D1
 70
     1
 10
0.0
 20
0.0
 30
0.0
  3
*D1
  1

  0
LINE
  5
93
330
65
100
AcDbEntity
  8
0
  6
BYBLOCK
 62
     0
100
AcDbLine
 10
8.51292179223836
 20
11.37756064752416
 30
0.0
 11
7.500172797698424
 21
10.62794584578569
 31
0.0
  0
LINE
  5
94
330
65
100
AcDbEntity
  8
0
  6
BYBLOCK
 62
     0
100
AcDbLine
 10
8.486817068842432
 20
11.2027220264577
 30
0.0
 11
8.539026515634287
 21
11.55239926859062
 31
0.0
  0
LINE
  5
95
330
65
100
AcDbEntity
  8
0
  6
BYBLOCK
 62
     0
100
AcDbLine
 10
9.129195170087921
 20
11.9724962382063
 30
0.0
 11
9.504195170087921
 21
11.9724962382063
 31
0.0
  0
LINE
  5
96
330
65
100
AcDbEntity
  8
0
  6
BYBLOCK
 62
     0
100
AcDbLine
 10
9.316695170087921
 20
11.7849962382063
 30
0.0
 11
9.316695170087921
 21
12.1599962382063
 31
0.0
  0
TEXT
  5
97
330
65
100
AcDbEntity
  8
0
  6
BYBLOCK
 62
     0
100
AcDbText
 10
7.269431812832871
 20
10.37939814610938
 30
0.0
 40
0.125
  1
%%c2
 50
36.50804064141368
 72
     1
 11
7.315974731941233
 21
10.4916064395877
 31
0.0
100
AcDbText
 73
     2
  0
POINT
  5
98
330
65
100
AcDbEntity
  8
DEFPOINTS
  6
BYBLOCK
 62
     0
100
AcDbPoint
 10
8.51292179223836
 20
11.37756064752416
 30
0.0
  0
POINT
  5
99
330
65
100
AcDbEntity
  8
DEFPOINTS
  6
BYBLOCK
 62
     0
100
AcDbPoint
 10
10.12046854793748
 20
12.56743182888844
 30
0.0
  0
ENDBLK
  5
9A
330
65
100
AcDbEntity
  8
0
100
AcDbBlockEnd
  0
BLOCK
  5
9B
330
66
100
AcDbEntity
  8
0
100
AcDbBlockBegin
  2
*D2
 70
     1
 10
0.0
 20
0.0
 30
0.0
  3
*D2
  1

  0
LINE
  5
9C
330
66
100
AcDbEntity
  8
0
  6
BYBLOCK
 62
     0
100
AcDbLine
 10
10.47670364577702
 20
8.784996238206307
 30
0.0
 11
11.79567706692473
 21
8.784996238206307
 31
0.0
  0
LINE
  5
9D
330
66
100
AcDbEntity
  8
0
  6
BYBLOCK
 62
     0
100
AcDbLine
 10
11.47294517008792
 20
7.972496238206308
 30
0.0
 11
11.79567706692473
 21
7.972496238206308
 31
0.0
  0
LINE
  5
9E
330
66
100
AcDbEntity
  8
0
  6
BYBLOCK
 62
     0
100
AcDbLine
 10
11.61567706692473
 20
8.784996238206307
 30
0.0
 11
11.61567706692473
 21
9.034996238206307
 31
0.0
  0
LINE
  5
9F
330
66
100
AcDbEntity
  8
0
  6
BYBLOCK
 62
     0
100
AcDbLine
 10
11.61567706692473
 20
7.972496238206308
 30
0.0
 11
11.61567706692473
 21
7.722496238206308
 31
0.0
  0
LINE
  5
A0
330
66
100
AcDbEntity
  8
0
  6
BYBLOCK
 62
     0
100
AcDbLine
 10
11.74067706692473
 20
8.659996238206307
 30
0.0
 11
11.49067706692473
 21
8.909996238206307
 31
0.0
  0
LINE
  5
A1
330
66
100
AcDbEntity
  8
0
  6
BYBLOCK
 62
     0
100
AcDbLine
 10
11.74067706692473
 20
7.847496238206308
 30
0.0
 11
11.49067706692473
 21
8.097496238206309
 31
0.0
  0
TEXT
  5
A2
330
66
100
AcDbEntity
  8
0
  6
BYBLOCK
 62
     0
100
AcDbText
 10
11.67817706692473
 20
7.097496238206308
 30
0.0
 40
0.125
  1
13/16
 50
90.0
 72
     1
 11
11.61567706692473
 21
7.347496238206308
 31
0.0
100
AcDbText
 73
     2
  0
POINT
  5
A3
330
66
100
AcDbEntity
  8
DEFPOINTS
  6
BYBLOCK
 62
     0
100
AcDbPoint
 10
10.41420364577702
 20
8.784996238206307
 30
0.0
  0
POINT
  5
A4
330
66
100
AcDbEntity
  8
DEFPOINTS
  6
BYBLOCK
 62
     0
100
AcDbPoint
 10
11.41044517008792
 20
7.972496238206308
 30
0.0
  0
POINT
  5
A5
330
66
100
AcDbEntity
  8
DEFPOINTS
  6
BYBLOCK
 62
     0
100
AcDbPoint
 10
11.61567706692473
 20
7.972496238206308
 30
0.0
  0
ENDBLK
  5
A6
330
66
100
AcDbEntity
  8
0
100
AcDbBlockEnd
  0
ENDSEC
  0
SECTION
  2
ENTITIES
  0
DIMENSION
  5
A7
330
1E
100
AcDbEntity
  8
ADPDIM
100
AcDbDimension
  2
*D2
 10
11.61567706692473
 20
7.972496238206308
 30
0.0
 11
11.61567706692473
 21
7.347496238206308
 31
0.0
100
AcDbAlignedDimension
 13
10.41420364577702
 23
8.784996238206307
 33
0.0
 14
11.41044517008792
 24
7.972496238206308
 34
0.0
 50
90.0
100
AcDbRotatedDimension
  0
LINE
  5
A8
330
1E
100
AcDbEntity
  8
ADP1DETAIL
100
AcDbLine
 10
10.60170364577702
 20
8.159996238206307
 30
0.0
 11
7.352529132635718
 21
8.159996238206307
 31
0.0
  0
DIMENSION
  5
A9
330
1E
100
AcDbEntity
  8
ADPDIM
100
AcDbDimension
  2
*D1
 10
10.12046854793748
 20
12.56743182888844
 30
0.0
 11
7.315974731941233
 21
10.4916064395877
 31
0.0
 70
     3
100
AcDbDiametricDimension
 15
8.51292179223836
 25
11.37756064752416
 35
0.0
 40
1.259993205111464
  0
DIMENSION
  5
AA
330
1E
100
AcDbEntity
  8
ADPDIM
100
AcDbDimension
  2
*D0
 10
7.44528912223571
 20
12.91144696458238
 30
0.0
 11
11.87707657884094
 21
10.68786215983107
 31
0.0
 70
     3
100
AcDbDiametricDimension
 15
11.18810121794013
 25
11.03354551183022
 35
0.0
 40
0.0
  0
LINE
  5
AB
330
1E
100
AcDbEntity
  8
ADP1DETAIL
100
AcDbLine
 10
11.41044517008792
 20
7.972496238206308
 30
0.0
 11
7.258779132635718
 21
7.972496238206308
 31
0.0
  0
LINE
  5
AC
330
1E
100
AcDbEntity
  8
ADP1DETAIL
100
AcDbLine
 10
10.41420364577702
 20
8.784996238206307
 30
0.0
 11
8.255020656946619
 21
8.784996238206307
 31
0.0
  0
CIRCLE
  5
AD
330
1E
100
AcDbEntity
  8
ADP1DETAIL
100
AcDbCircle
 10
9.316695170087921
 20
11.9724962382063
 30
0.0
 40
2.09375
  0
CIRCLE
  5
AE
330
1E
100
AcDbEntity
  8
ADP1DETAIL
100
AcDbCircle
 10
9.316695170087921
 20
11.9724962382063
 30
0.0
 40
1.0
  0
CIRCLE
  5
AF
330
1E
100
AcDbEntity
  8
ADP1DETAIL
100
AcDbCircle
 10
9.316695170087921
 20
11.9724962382063
 30
0.0
 40
1.1875
  0
ARC
  5
B0
330
1E
100
AcDbEntity
  8
ADP1DETAIL
100
AcDbCircle
 10
7.352529132635718
 20
8.066246238206307
 30
0.0
 40
0.09375
100
AcDbArc
 50
90.0
 51
180.0
  0
LINE
  5
B1
330
1E
100
AcDbEntity
  8
ADP1DETAIL
100
AcDbLine
 10
7.258779132635718
 20
8.066246238206307
 30
0.0
 11
7.258779132635718
 21
7.972496238206308
 31
0.0
  0
LINE
  5
B2
330
1E
100
AcDbEntity
  8
ADP2DETAIL
100
AcDbLine
 10
8.348770656946619
 20
7.972496238206308
 30
0.0
 11
8.348770656946619
 21
8.784996238206307
 31
0.0
  0
LINE
  5
B3
330
1E
100
AcDbEntity
  8
ADP1DETAIL
100
AcDbLine
 10
8.161270656946619
 20
8.691246238206307
 30
0.0
 11
8.161270656946619
 21
8.253746238206307
 31
0.0
  0
ARC
  5
B4
330
1E
100
AcDbEntity
  8
ADP1DETAIL
100
AcDbCircle
 10
8.255020656946619
 20
8.691246238206307
 30
0.0
 40
0.09375
100
AcDbArc
 50
90.0
 51
180.0
  0
ARC
  5
B5
330
1E
100
AcDbEntity
  8
ADP1DETAIL
100
AcDbCircle
 10
8.067520656946619
 20
8.253746238206307
 30
0.0
 40
0.09375
100
AcDbArc
 50
270.0
 51
0.000000000000007
  0
LINE
  5
B6
330
1E
100
AcDbEntity
  8
ADP1DETAIL
100
AcDbLine
 10
10.60170364577702
 20
8.159996238206307
 30
0.0
 11
11.31669517008792
 21
8.159996238206307
 31
0.0
  0
LINE
  5
B7
330
1E
100
AcDbEntity
  8
ADP2DETAIL
100
AcDbLine
 10
10.32045364577702
 20
7.972496238206308
 30
0.0
 11
10.32045364577702
 21
8.784996238206307
 31
0.0
  0
ARC
  5
B8
330
1E
100
AcDbEntity
  8
ADP1DETAIL
100
AcDbCircle
 10
10.41420364577702
 20
8.691246238206307
 30
0.0
 40
0.09375
100
AcDbArc
 50
0.0
 51
90.0
  0
ARC
  5
B9
330
1E
100
AcDbEntity
  8
ADP1DETAIL
100
AcDbCircle
 10
10.60170364577702
 20
8.253746238206307
 30
0.0
 40
0.09375
100
AcDbArc
 50
180.0
 51
270.0
  0
LINE
  5
BA
330
1E
100
AcDbEntity
  8
ADP1DETAIL
100
AcDbLine
 10
10.50795364577702
 20
8.691246238206307
 30
0.0
 11
10.50795364577702
 21
8.253746238206307
 31
0.0
  0
ARC
  5
BB
330
1E
100
AcDbEntity
  8
ADP1DETAIL
100
AcDbCircle
 10
11.31669517008792
 20
8.066246238206307
 30
0.0
 40
0.09375
100
AcDbArc
 50
0.0
 51
90.0
  0
LINE
  5
BC
330
1E
100
AcDbEntity
  8
ADP1DETAIL
100
AcDbLine
 10
11.41044517008792
 20
8.066246238206307
 30
0.0
 11
11.41044517008792
 21
7.972496238206308
 31
0.0
  0
TEXT
  5
C0
330
1E
100
AcDbEntity
  8
ADPDIM
100
AcDbText
 10
-0.4539813854731048
 20
6.5595018490433
 30
0.0
 40
0.1875
  1
J U L I U S  B L U M  &  C O . ,  I N C .      ( 8 0 0 )  5 2 6 - 6 2 9 3        W W W . J U L I U S B L U M . C O M        P A R T  N o .  1 6 1 1
 41
1.25
  7
ARIAL_WIDE
 72
     1
 11
9.33461215136182
 21
6.7470018490433
 31
0.0
100
AcDbText
 73
     3
  0
ENDSEC
  0
SECTION
  2
OBJECTS
  0
DICTIONARY
  5
C
330
0
100
AcDbDictionary
  3
ACAD_GROUP
350
D
  3
ACAD_LAYOUT
350
19
  3
ACAD_MLINESTYLE
350
16
  3
ACAD_PLOTSETTINGS
350
18
  3
ACAD_PLOTSTYLENAME
350
E
  3
ACDBHEADERROUNDTRIPXREC
350
28D
  3
ACDBVARIABLEDICTIONARY
350
131
  0
DICTIONARY
  5
FC
330
1E
100
AcDbDictionary
280
     1
  3
ACAD_LAYOUTSELFREF
360
2AF
  0
DICTIONARY
  5
FE
330
1A
100
AcDbDictionary
280
     1
  3
ACAD_LAYOUTSELFREF
360
2AE
  0
DICTIONARY
  5
D
102
{ACAD_REACTORS
330
C
102
}
330
C
100
AcDbDictionary
  0
DICTIONARY
  5
19
102
{ACAD_REACTORS
330
C
102
}
330
C
100
AcDbDictionary
  0
DICTIONARY
  5
16
102
{ACAD_REACTORS
330
C
102
}
330
C
100
AcDbDictionary
  3
STANDARD
350
17
  0
DICTIONARY
  5
18
102
{ACAD_REACTORS
330
C
102
}
330
C
100
AcDbDictionary
  0
ACDBDICTIONARYWDFLT
  5
E
102
{ACAD_REACTORS
330
C
102
}
330
C
100
AcDbDictionary
281
     1
  3
Normal
350
F
100
AcDbDictionaryWithDefault
340
F
  0
DICTIONARY
  5
28D
102
{ACAD_REACTORS
330
C
102
}
330
C
100
AcDbDictionary
  3
CEPSNTYPE
350
297
  3
DIMSTYLEDATA
350
29B
  3
FINGERPRINTGUID
350
298
  3
HYPERLINKBASE
350
290
  3
INSUNITS
350
296
  3
LAYOUTDICT
350
292
  3
LWETCUNION
350
295
  3
PLOTSETDICT
350
293
  3
PLOTSTYLNAMDICT
350
294
  3
PSVPSCALE
350
29A
  3
PUCSBASE
350
29E
  3
PUCSORGBACK
350
2A4
  3
PUCSORGBOTTOM
350
2A0
  3
PUCSORGFRONT
350
2A3
  3
PUCSORGLEFT
350
2A1
  3
PUCSORGRIGHT
350
2A2
  3
PUCSORGTOP
350
29F
  3
PUCSORTHOREF
350
29C
  3
PUCSORTHOVIEW
350
29D
  3
STYLESHEET
350
291
  3
TSTACKALIGN
350
28E
  3
TSTACKSIZE
350
28F
  3
UCSBASE
350
2A7
  3
UCSORGBACK
350
2AD
  3
UCSORGBOTTOM
350
2A9
  3
UCSORGFRONT
350
2AC
  3
UCSORGLEFT
350
2AA
  3
UCSORGRIGHT
350
2AB
  3
UCSORGTOP
350
2A8
  3
UCSORTHOREF
350
2A5
  3
UCSORTHOVIEW
350
2A6
  3
VERSIONGUID
350
299
  0
DICTIONARY
  5
131
102
{ACAD_REACTORS
330
C
102
}
330
C
100
AcDbDictionary
  3
DIMASSOC
350
133
  3
HIDETEXT
350
132
  0
XRECORD
  5
2AF
102
{ACAD_REACTORS
330
FC
102
}
330
FC
100
AcDbXrecord
340
1E
  0
XRECORD
  5
2AE
102
{ACAD_REACTORS
330
FE
102
}
330
FE
100
AcDbXrecord
340
1A
  0
MLINESTYLE
  5
17
102
{ACAD_REACTORS
330
16
102
}
330
16
100
AcDbMlineStyle
  2
STANDARD
 70
     0
  3

 62
   256
 51
90.0
 52
90.0
 71
     2
 49
0.5
 62
   256
  6
BYLAYER
 49
-0.5
 62
   256
  6
BYLAYER
  0
ACDBPLACEHOLDER
  5
F
102
{ACAD_REACTORS
330
E
102
}
330
E
100
AcDbPlaceHolder
280
     0
  0
XRECORD
  5
297
102
{ACAD_REACTORS
330
28D
102
}
330
28D
100
AcDbXrecord
 90
        0
  0
XRECORD
  5
29B
102
{ACAD_REACTORS
330
28D
102
}
330
28D
100
AcDbXrecord
1000
DSTYLE
1002
{
1070
   277
 70
     5
1070
   279
 70
     2
1002
}
  0
XRECORD
  5
298
102
{ACAD_REACTORS
330
28D
102
}
330
28D
100
AcDbXrecord
  1
{FDE36769-426E-4B10-AE4C-9C39F77DBE12}
  0
XRECORD
  5
290
102
{ACAD_REACTORS
330
28D
102
}
330
28D
100
AcDbXrecord
  1

  0
XRECORD
  5
296
102
{ACAD_REACTORS
330
28D
102
}
330
28D
100
AcDbXrecord
 90
        0
  0
XRECORD
  5
292
102
{ACAD_REACTORS
330
28D
102
}
330
28D
100
AcDbXrecord
340
19
  0
XRECORD
  5
295
102
{ACAD_REACTORS
330
28D
102
}
330
28D
100
AcDbXrecord
 90
    14877
  0
XRECORD
  5
293
102
{ACAD_REACTORS
330
28D
102
}
330
28D
100
AcDbXrecord
340
18
  0
XRECORD
  5
294
102
{ACAD_REACTORS
330
28D
102
}
330
28D
100
AcDbXrecord
340
E
  0
XRECORD
  5
29A
102
{ACAD_REACTORS
330
28D
102
}
330
28D
100
AcDbXrecord
 40
0.0
  0
XRECORD
  5
29E
102
{ACAD_REACTORS
330
28D
102
}
330
28D
100
AcDbXrecord
340
0
  0
XRECORD
  5
2A4
102
{ACAD_REACTORS
330
28D
102
}
330
28D
100
AcDbXrecord
 10
0.0
 20
0.0
 30
0.0
  0
XRECORD
  5
2A0
102
{ACAD_REACTORS
330
28D
102
}
330
28D
100
AcDbXrecord
 10
0.0
 20
0.0
 30
0.0
  0
XRECORD
  5
2A3
102
{ACAD_REACTORS
330
28D
102
}
330
28D
100
AcDbXrecord
 10
0.0
 20
0.0
 30
0.0
  0
XRECORD
  5
2A1
102
{ACAD_REACTORS
330
28D
102
}
330
28D
100
AcDbXrecord
 10
0.0
 20
0.0
 30
0.0
  0
XRECORD
  5
2A2
102
{ACAD_REACTORS
330
28D
102
}
330
28D
100
AcDbXrecord
 10
0.0
 20
0.0
 30
0.0
  0
XRECORD
  5
29F
102
{ACAD_REACTORS
330
28D
102
}
330
28D
100
AcDbXrecord
 10
0.0
 20
0.0
 30
0.0
  0
XRECORD
  5
29C
102
{ACAD_REACTORS
330
28D
102
}
330
28D
100
AcDbXrecord
340
0
  0
XRECORD
  5
29D
102
{ACAD_REACTORS
330
28D
102
}
330
28D
100
AcDbXrecord
 70
     0
  0
XRECORD
  5
291
102
{ACAD_REACTORS
330
28D
102
}
330
28D
100
AcDbXrecord
  1

  0
XRECORD
  5
28E
102
{ACAD_REACTORS
330
28D
102
}
330
28D
100
AcDbXrecord
 90
        1
  0
XRECORD
  5
28F
102
{ACAD_REACTORS
330
28D
102
}
330
28D
100
AcDbXrecord
 90
       70
  0
XRECORD
  5
2A7
102
{ACAD_REACTORS
330
28D
102
}
330
28D
100
AcDbXrecord
340
0
  0
XRECORD
  5
2AD
102
{ACAD_REACTORS
330
28D
102
}
330
28D
100
AcDbXrecord
 10
0.0
 20
0.0
 30
0.0
  0
XRECORD
  5
2A9
102
{ACAD_REACTORS
330
28D
102
}
330
28D
100
AcDbXrecord
 10
0.0
 20
0.0
 30
0.0
  0
XRECORD
  5
2AC
102
{ACAD_REACTORS
330
28D
102
}
330
28D
100
AcDbXrecord
 10
0.0
 20
0.0
 30
0.0
  0
XRECORD
  5
2AA
102
{ACAD_REACTORS
330
28D
102
}
330
28D
100
AcDbXrecord
 10
0.0
 20
0.0
 30
0.0
  0
XRECORD
  5
2AB
102
{ACAD_REACTORS
330
28D
102
}
330
28D
100
AcDbXrecord
 10
0.0
 20
0.0
 30
0.0
  0
XRECORD
  5
2A8
102
{ACAD_REACTORS
330
28D
102
}
330
28D
100
AcDbXrecord
 10
0.0
 20
0.0
 30
0.0
  0
XRECORD
  5
2A5
102
{ACAD_REACTORS
330
28D
102
}
330
28D
100
AcDbXrecord
340
0
  0
XRECORD
  5
2A6
102
{ACAD_REACTORS
330
28D
102
}
330
28D
100
AcDbXrecord
 70
     0
  0
XRECORD
  5
299
102
{ACAD_REACTORS
330
28D
102
}
330
28D
100
AcDbXrecord
  1
{D27A9FBC-3FBF-4B29-8014-B4E255DAC0D1}
  0
DICTIONARYVAR
  5
133
102
{ACAD_REACTORS
330
131
102
}
330
131
100
DictionaryVariables
280
     0
  1
2
  0
DICTIONARYVAR
  5
132
102
{ACAD_REACTORS
330
131
102
}
330
131
100
DictionaryVariables
280
     0
  1
1
  0
ENDSEC
  0
EOF
