  0
SECTION
  2
HEADER
  9
$ACADVER
  1
AC1014
  9
$ACADMAINTVER
 70
     9
  9
$DWGCODEPAGE
  3
ANSI_1252
  9
$INSBASE
 10
8.481787065485441
 20
-28.75086765515393
 30
0.0
  9
$EXTMIN
 10
-0.7247609692678214
 20
-31.34472969044699
 30
0.0
  9
$EXTMAX
 10
18.85242610440202
 20
-20.08918852806619
 30
0.0
  9
$LIMMIN
 10
0.0
 20
0.0
  9
$LIMMAX
 10
36.0
 20
36.0
  9
$ORTHOMODE
 70
     1
  9
$REGENMODE
 70
     1
  9
$FILLMODE
 70
     1
  9
$QTEXTMODE
 70
     0
  9
$MIRRTEXT
 70
     1
  9
$DRAGMODE
 70
     0
  9
$LTSCALE
 40
1.0
  9
$OSMODE
 70
    37
  9
$ATTMODE
 70
     1
  9
$TEXTSIZE
 40
0.2
  9
$TRACEWID
 40
0.05
  9
$TEXTSTYLE
  7
STANDARD
  9
$CLAYER
  8
ADPDIM
  9
$CELTYPE
  6
BYLAYER
  9
$CECOLOR
 62
   256
  9
$CELTSCALE
 40
1.0
  9
$DELOBJ
 70
     1
  9
$DISPSILH
 70
     0
  9
$DIMSCALE
 40
1.0
  9
$DIMASZ
 40
0.125
  9
$DIMEXO
 40
0.0625
  9
$DIMDLI
 40
0.38
  9
$DIMRND
 40
0.0
  9
$DIMDLE
 40
0.0
  9
$DIMEXE
 40
0.18
  9
$DIMTP
 40
0.0
  9
$DIMTM
 40
0.0
  9
$DIMTXT
 40
0.125
  9
$DIMCEN
 40
0.1875
  9
$DIMTSZ
 40
0.125
  9
$DIMTOL
 70
     0
  9
$DIMLIM
 70
     0
  9
$DIMTIH
 70
     0
  9
$DIMTOH
 70
     0
  9
$DIMSE1
 70
     0
  9
$DIMSE2
 70
     0
  9
$DIMTAD
 70
     0
  9
$DIMZIN
 70
     3
  9
$DIMBLK
  1

  9
$DIMASO
 70
     1
  9
$DIMSHO
 70
     1
  9
$DIMPOST
  1

  9
$DIMAPOST
  1

  9
$DIMALT
 70
     0
  9
$DIMALTD
 70
     1
  9
$DIMALTF
 40
25.4
  9
$DIMLFAC
 40
1.0
  9
$DIMTOFL
 70
     0
  9
$DIMTVP
 40
0.0
  9
$DIMTIX
 70
     0
  9
$DIMSOXD
 70
     0
  9
$DIMSAH
 70
     0
  9
$DIMBLK1
  1

  9
$DIMBLK2
  1

  9
$DIMSTYLE
  2
STANDARD
  9
$DIMCLRD
 70
     0
  9
$DIMCLRE
 70
     0
  9
$DIMCLRT
 70
     0
  9
$DIMTFAC
 40
1.0
  9
$DIMGAP
 40
0.125
  9
$DIMJUST
 70
     0
  9
$DIMSD1
 70
     0
  9
$DIMSD2
 70
     0
  9
$DIMTOLJ
 70
     1
  9
$DIMTZIN
 70
     3
  9
$DIMALTZ
 70
     3
  9
$DIMALTTZ
 70
     3
  9
$DIMFIT
 70
     5
  9
$DIMUPT
 70
     0
  9
$DIMUNIT
 70
     5
  9
$DIMDEC
 70
     4
  9
$DIMTDEC
 70
     4
  9
$DIMALTU
 70
     5
  9
$DIMALTTD
 70
     1
  9
$DIMTXSTY
  7
STANDARD
  9
$DIMAUNIT
 70
     0
  9
$LUNITS
 70
     5
  9
$LUPREC
 70
     4
  9
$SKETCHINC
 40
0.1
  9
$FILLETRAD
 40
1.425
  9
$AUNITS
 70
     0
  9
$AUPREC
 70
     0
  9
$MENU
  1
acad
  9
$ELEVATION
 40
0.0
  9
$PELEVATION
 40
0.0
  9
$THICKNESS
 40
0.0
  9
$LIMCHECK
 70
     0
  9
$BLIPMODE
 70
     0
  9
$CHAMFERA
 40
0.0
  9
$CHAMFERB
 40
0.0
  9
$CHAMFERC
 40
0.0
  9
$CHAMFERD
 40
0.0
  9
$SKPOLY
 70
     0
  9
$TDCREATE
 40
2450234.587929976
  9
$TDUPDATE
 40
2452297.082441041
  9
$TDINDWG
 40
0.0552065278
  9
$TDUSRTIMER
 40
0.0552065278
  9
$USRTIMER
 70
     1
  9
$ANGBASE
 50
0.0
  9
$ANGDIR
 70
     0
  9
$PDMODE
 70
     0
  9
$PDSIZE
 40
0.0
  9
$PLINEWID
 40
0.0
  9
$COORDS
 70
     2
  9
$SPLFRAME
 70
     0
  9
$SPLINETYPE
 70
     6
  9
$SPLINESEGS
 70
     8
  9
$ATTDIA
 70
     0
  9
$ATTREQ
 70
     1
  9
$HANDLING
 70
 22529
  9
$HANDSEED
  5
2CD
  9
$SURFTAB1
 70
     6
  9
$SURFTAB2
 70
     6
  9
$SURFTYPE
 70
     6
  9
$SURFU
 70
     6
  9
$SURFV
 70
     6
  9
$UCSNAME
  2

  9
$UCSORG
 10
0.0
 20
0.0
 30
0.0
  9
$UCSXDIR
 10
1.0
 20
0.0
 30
0.0
  9
$UCSYDIR
 10
0.0
 20
1.0
 30
0.0
  9
$PUCSNAME
  2

  9
$PUCSORG
 10
0.0
 20
0.0
 30
0.0
  9
$PUCSXDIR
 10
1.0
 20
0.0
 30
0.0
  9
$PUCSYDIR
 10
0.0
 20
1.0
 30
0.0
  9
$USERI1
 70
     0
  9
$USERI2
 70
     0
  9
$USERI3
 70
     0
  9
$USERI4
 70
     0
  9
$USERI5
 70
     0
  9
$USERR1
 40
0.0
  9
$USERR2
 40
0.0
  9
$USERR3
 40
0.0
  9
$USERR4
 40
0.0
  9
$USERR5
 40
0.0
  9
$WORLDVIEW
 70
     1
  9
$SHADEDGE
 70
     3
  9
$SHADEDIF
 70
    70
  9
$TILEMODE
 70
     1
  9
$MAXACTVP
 70
    15
  9
$PINSBASE
 10
0.0
 20
-3.940976252993988E+99
 30
0.0
  9
$PLIMCHECK
 70
     0
  9
$PEXTMIN
 10
1.000000000000000E+20
 20
1.000000000000000E+20
 30
1.000000000000000E+20
  9
$PEXTMAX
 10
-1.000000000000000E+20
 20
-1.000000000000000E+20
 30
-1.000000000000000E+20
  9
$PLIMMIN
 10
0.0
 20
0.0
  9
$PLIMMAX
 10
12.0
 20
9.0
  9
$UNITMODE
 70
     0
  9
$VISRETAIN
 70
     0
  9
$PLINEGEN
 70
     0
  9
$PSLTSCALE
 70
     1
  9
$TREEDEPTH
 70
  3020
  9
$PICKSTYLE
 70
     1
  9
$CMLSTYLE
  2
STANDARD
  9
$CMLJUST
 70
     0
  9
$CMLSCALE
 40
1.0
  9
$PROXYGRAPHICS
 70
     1
  9
$MEASUREMENT
 70
     0
  0
ENDSEC
  0
SECTION
  2
CLASSES
  0
CLASS
  1
ACDBDICTIONARYWDFLT
  2
AcDbDictionaryWithDefault
  3
AutoCAD 2000
 90
        0
280
     0
281
     0
  0
CLASS
  1
ACDBPLACEHOLDER
  2
AcDbPlaceHolder
  3
AutoCAD 2000
 90
        0
280
     0
281
     0
  0
CLASS
  1
LAYOUT
  2
AcDbLayout
  3
AutoCAD 2000
 90
        0
280
     0
281
     0
  0
CLASS
  1
DICTIONARYVAR
  2
AcDbDictionaryVar
  3
AutoCAD 2000
 90
        0
280
     0
281
     0
  0
CLASS
  1
LONG_TRANSACTION
  2
AcDbLongTransaction
  3
AutoCAD 2000
 90
        0
280
     0
281
     0
  0
CLASS
  1
LWPOLYLINE
  2
AcDbPolyline
  3
AutoCAD 2000
 90
        0
280
     0
281
     1
  0
CLASS
  1
HATCH
  2
AcDbHatch
  3
AutoCAD 2000
 90
        0
280
     0
281
     1
  0
CLASS
  1
XRECORD
  2
AcDbXrecord
  3
AutoCAD 2000
 90
        0
280
     0
281
     0
  0
CLASS
  1
LONG_TRANSACTION
  2
AcDbLongTransaction
  3
AutoCAD 2000
 90
        0
280
     0
281
     0
  0
CLASS
  1
LWPOLYLINE
  2
AcDbPolyline
  3
AutoCAD 2000
 90
        0
280
     0
281
     1
  0
CLASS
  1
HATCH
  2
AcDbHatch
  3
AutoCAD 2000
 90
        0
280
     0
281
     1
  0
CLASS
  1
XRECORD
  2
AcDbXrecord
  3
AutoCAD 2000
 90
        0
280
     0
281
     0
  0
CLASS
  1
LONG_TRANSACTION
  2
AcDbLongTransaction
  3
AutoCAD 2000
 90
        0
280
     0
281
     0
  0
CLASS
  1
LWPOLYLINE
  2
AcDbPolyline
  3
AutoCAD 2000
 90
        0
280
     0
281
     1
  0
CLASS
  1
HATCH
  2
AcDbHatch
  3
AutoCAD 2000
 90
        0
280
     0
281
     1
  0
CLASS
  1
XRECORD
  2
AcDbXrecord
  3
AutoCAD 2000
 90
        0
280
     0
281
     0
  0
CLASS
  1
LONG_TRANSACTION
  2
AcDbLongTransaction
  3
AutoCAD 2000
 90
        0
280
     0
281
     0
  0
CLASS
  1
LWPOLYLINE
  2
AcDbPolyline
  3
AutoCAD 2000
 90
        0
280
     0
281
     1
  0
CLASS
  1
HATCH
  2
AcDbHatch
  3
AutoCAD 2000
 90
        0
280
     0
281
     1
  0
CLASS
  1
XRECORD
  2
AcDbXrecord
  3
AutoCAD 2000
 90
        0
280
     0
281
     0
  0
CLASS
  1
LONG_TRANSACTION
  2
AcDbLongTransaction
  3
AutoCAD 2000
 90
        0
280
     0
281
     0
  0
CLASS
  1
LWPOLYLINE
  2
AcDbPolyline
  3
AutoCAD 2000
 90
        0
280
     0
281
     1
  0
CLASS
  1
HATCH
  2
AcDbHatch
  3
AutoCAD 2000
 90
        0
280
     0
281
     1
  0
CLASS
  1
XRECORD
  2
AcDbXrecord
  3
AutoCAD 2000
 90
        0
280
     0
281
     0
  0
CLASS
  1
LONG_TRANSACTION
  2
AcDbLongTransaction
  3
AutoCAD 2000
 90
        0
280
     0
281
     0
  0
CLASS
  1
LWPOLYLINE
  2
AcDbPolyline
  3
AutoCAD 2000
 90
        0
280
     0
281
     1
  0
CLASS
  1
HATCH
  2
AcDbHatch
  3
AutoCAD 2000
 90
        0
280
     0
281
     1
  0
CLASS
  1
XRECORD
  2
AcDbXrecord
  3
AutoCAD 2000
 90
        0
280
     0
281
     0
  0
ENDSEC
  0
SECTION
  2
TABLES
  0
TABLE
  2
VPORT
  5
8
330
0
100
AcDbSymbolTable
 70
     2
  0
VPORT
  5
2A9
330
8
100
AcDbSymbolTableRecord
100
AcDbViewportTableRecord
  2
*ACTIVE
 70
     0
 10
0.0
 20
0.0
 11
1.0
 21
1.0
 12
9.079233176352545
 22
-25.71759901723797
 13
0.0
 23
0.0
 14
0.5740882589684922
 24
0.5740882589684922
 15
0.5
 25
0.5
 16
0.0
 26
0.0
 36
1.0
 17
0.0
 27
0.0
 37
0.0
 40
12.54602163512003
 41
1.570528967254408
 42
50.0
 43
0.0
 44
0.0
 50
0.0
 51
0.0
 71
     0
 72
   100
 73
     1
 74
     1
 75
     0
 76
     0
 77
     0
 78
     0
  0
ENDTAB
  0
TABLE
  2
LTYPE
  5
5
330
0
100
AcDbSymbolTable
 70
     3
  0
LTYPE
  5
13
330
5
100
AcDbSymbolTableRecord
100
AcDbLinetypeTableRecord
  2
BYBLOCK
 70
     0
  3

 72
    65
 73
     0
 40
0.0
  0
LTYPE
  5
14
330
5
100
AcDbSymbolTableRecord
100
AcDbLinetypeTableRecord
  2
BYLAYER
 70
     0
  3

 72
    65
 73
     0
 40
0.0
  0
LTYPE
  5
15
330
5
100
AcDbSymbolTableRecord
100
AcDbLinetypeTableRecord
  2
CONTINUOUS
 70
     0
  3
Solid line
 72
    65
 73
     0
 40
0.0
  0
LTYPE
  5
4D
330
5
100
AcDbSymbolTableRecord
100
AcDbLinetypeTableRecord
  2
CENTER2
 70
     0
  3
___ _ ___ _ ___ _ ___ _ ___ _ ___ _ ___ _ ___ _
 72
    65
 73
     4
 40
1.125
 49
0.75
 74
     0
 49
-0.125
 74
     0
 49
0.125
 74
     0
 49
-0.125
 74
     0
  0
LTYPE
  5
5C
330
5
100
AcDbSymbolTableRecord
100
AcDbLinetypeTableRecord
  2
HIDDEN2
 70
     0
  3
_ _ _ _ _ _ _ _ _ _ _ _ _ _ _ _ _ _ _ _ _ _ _ _
 72
    65
 73
     2
 40
0.1875
 49
0.125
 74
     0
 49
-0.0625
 74
     0
  0
ENDTAB
  0
TABLE
  2
LAYER
  5
2
330
0
100
AcDbSymbolTable
 70
     6
  0
LAYER
  5
10
330
2
100
AcDbSymbolTableRecord
100
AcDbLayerTableRecord
  2
0
 70
     0
 62
     7
  6
CONTINUOUS
  0
LAYER
  5
5D
330
2
100
AcDbSymbolTableRecord
100
AcDbLayerTableRecord
  2
ADP2DETAIL
 70
     0
 62
     5
  6
CONTINUOUS
  0
LAYER
  5
5E
330
2
100
AcDbSymbolTableRecord
100
AcDbLayerTableRecord
  2
ADPDIM
 70
     0
 62
     3
  6
CONTINUOUS
  0
LAYER
  5
60
330
2
100
AcDbSymbolTableRecord
100
AcDbLayerTableRecord
  2
ADP1DETAIL
 70
     0
 62
     7
  6
CONTINUOUS
  0
LAYER
  5
61
330
2
100
AcDbSymbolTableRecord
100
AcDbLayerTableRecord
  2
ADP3DETAIL
 70
     0
 62
     1
  6
CONTINUOUS
  0
LAYER
  5
62
330
2
100
AcDbSymbolTableRecord
100
AcDbLayerTableRecord
  2
DEFPOINTS
 70
     0
 62
     7
  6
CONTINUOUS
  0
ENDTAB
  0
TABLE
  2
STYLE
  5
3
330
0
100
AcDbSymbolTable
 70
     2
  0
STYLE
  5
11
330
3
100
AcDbSymbolTableRecord
100
AcDbTextStyleTableRecord
  2
STANDARD
 70
     0
 40
0.0
 41
1.0
 50
0.0
 71
     0
 42
0.2
  3
txt
  4

  0
STYLE
  5
DB
330
3
100
AcDbSymbolTableRecord
100
AcDbTextStyleTableRecord
  2
ARIAL_WIDE
 70
     0
 40
0.0
 41
1.25
 50
0.0
 71
     0
 42
0.2
  3
ARIAL.TTF
  4

1001
ACAD
1000
Arial
1071
       34
  0
ENDTAB
  0
TABLE
  2
VIEW
  5
6
330
0
100
AcDbSymbolTable
 70
     0
  0
ENDTAB
  0
TABLE
  2
UCS
  5
7
330
0
100
AcDbSymbolTable
 70
     0
  0
ENDTAB
  0
TABLE
  2
APPID
  5
9
330
0
100
AcDbSymbolTable
 70
     1
  0
APPID
  5
12
330
9
100
AcDbSymbolTableRecord
100
AcDbRegAppTableRecord
  2
ACAD
 70
     0
  0
ENDTAB
  0
TABLE
  2
DIMSTYLE
  5
A
330
0
100
AcDbSymbolTable
 70
     1
  0
DIMSTYLE
105
D9
330
A
100
AcDbSymbolTableRecord
100
AcDbDimStyleTableRecord
  2
STANDARD
 70
     0
  3

  4

  5

  6

  7

 40
1.0
 41
0.18
 42
0.0625
 43
0.38
 44
0.18
 45
0.0
 46
0.0
 47
0.0
 48
0.0
140
0.18
141
0.09
142
0.0
143
25.4
144
1.0
145
0.0
146
1.0
147
0.09
 71
     0
 72
     0
 73
     1
 74
     1
 75
     0
 76
     0
 77
     0
 78
     0
170
     0
171
     2
172
     0
173
     0
174
     0
175
     0
176
     0
177
     0
178
     0
270
     2
271
     4
272
     4
273
     2
274
     2
340
11
275
     0
280
     0
281
     0
282
     0
283
     1
284
     0
285
     0
286
     0
287
     3
288
     0
  0
ENDTAB
  0
TABLE
  2
BLOCK_RECORD
  5
1
330
0
100
AcDbSymbolTable
 70
     4
  0
BLOCK_RECORD
  5
1E
102
{ACAD_XDICTIONARY
360
118
102
}
330
1
100
AcDbSymbolTableRecord
100
AcDbBlockTableRecord
  2
*MODEL_SPACE
  0
BLOCK_RECORD
  5
1A
102
{ACAD_XDICTIONARY
360
11A
102
}
330
1
100
AcDbSymbolTableRecord
100
AcDbBlockTableRecord
  2
*PAPER_SPACE
  0
BLOCK_RECORD
  5
42
330
1
100
AcDbSymbolTableRecord
100
AcDbBlockTableRecord
  2
*D0
  0
BLOCK_RECORD
  5
45
330
1
100
AcDbSymbolTableRecord
100
AcDbBlockTableRecord
  2
*D1
  0
BLOCK_RECORD
  5
47
330
1
100
AcDbSymbolTableRecord
100
AcDbBlockTableRecord
  2
*D2
  0
BLOCK_RECORD
  5
48
330
1
100
AcDbSymbolTableRecord
100
AcDbBlockTableRecord
  2
*D3
  0
ENDTAB
  0
ENDSEC
  0
SECTION
  2
BLOCKS
  0
BLOCK
  5
65
330
1E
100
AcDbEntity
  8
0
100
AcDbBlockBegin
  2
*MODEL_SPACE
 70
     0
 10
0.0
 20
0.0
 30
0.0
  3
*MODEL_SPACE
  1

  0
ENDBLK
  5
66
330
1E
100
AcDbEntity
  8
0
100
AcDbBlockEnd
  0
BLOCK
  5
63
330
1A
100
AcDbEntity
 67
     1
  8
0
100
AcDbBlockBegin
  2
*PAPER_SPACE
 70
     0
 10
0.0
 20
0.0
 30
0.0
  3
*PAPER_SPACE
  1

  0
ENDBLK
  5
64
330
1A
100
AcDbEntity
 67
     1
  8
0
100
AcDbBlockEnd
  0
BLOCK
  5
68
330
42
100
AcDbEntity
  8
0
100
AcDbBlockBegin
  2
*D0
 70
     1
 10
0.0
 20
0.0
 30
0.0
  3
*D0
  1

  0
LINE
  5
69
330
42
100
AcDbEntity
  8
0
  6
BYBLOCK
 62
     0
100
AcDbLine
 10
11.86221187638854
 20
-21.53106713338424
 30
0.0
 11
12.30820243637703
 21
-21.53106713338424
 31
0.0
  0
LINE
  5
6A
330
42
100
AcDbEntity
  8
0
  6
BYBLOCK
 62
     0
100
AcDbLine
 10
8.788765600727243
 20
-24.53106713338424
 30
0.0
 11
12.30820243637703
 21
-24.53106713338424
 31
0.0
  0
LINE
  5
6B
330
42
100
AcDbEntity
  8
0
  6
BYBLOCK
 62
     0
100
AcDbLine
 10
12.12820243637703
 20
-21.53106713338424
 30
0.0
 11
12.12820243637703
 21
-22.86440046671758
 31
0.0
  0
LINE
  5
6C
330
42
100
AcDbEntity
  8
0
  6
BYBLOCK
 62
     0
100
AcDbLine
 10
12.12820243637703
 20
-24.53106713338424
 30
0.0
 11
12.12820243637703
 21
-23.19773380005091
 31
0.0
  0
LINE
  5
6D
330
42
100
AcDbEntity
  8
0
  6
BYBLOCK
 62
     0
100
AcDbLine
 10
12.25320243637703
 20
-21.65606713338424
 30
0.0
 11
12.00320243637703
 21
-21.40606713338424
 31
0.0
  0
LINE
  5
6E
330
42
100
AcDbEntity
  8
0
  6
BYBLOCK
 62
     0
100
AcDbLine
 10
12.25320243637703
 20
-24.65606713338424
 30
0.0
 11
12.00320243637703
 21
-24.40606713338425
 31
0.0
  0
TEXT
  5
6F
330
42
100
AcDbEntity
  8
0
  6
BYBLOCK
 62
     0
100
AcDbText
 10
12.19070243637703
 20
-23.07273380005091
 30
0.0
 40
0.125
  1
3
 50
90.0
 72
     1
 11
12.12820243637703
 21
-23.03106713338424
 31
0.0
100
AcDbText
 73
     2
  0
POINT
  5
71
330
42
100
AcDbEntity
  8
DEFPOINTS
  6
BYBLOCK
 62
     0
100
AcDbPoint
 10
11.79971187638854
 20
-21.53106713338424
 30
0.0
  0
POINT
  5
72
330
42
100
AcDbEntity
  8
DEFPOINTS
  6
BYBLOCK
 62
     0
100
AcDbPoint
 10
8.726265600727243
 20
-24.53106713338424
 30
0.0
  0
POINT
  5
73
330
42
100
AcDbEntity
  8
DEFPOINTS
  6
BYBLOCK
 62
     0
100
AcDbPoint
 10
12.12820243637703
 20
-24.53106713338424
 30
0.0
  0
ENDBLK
  5
74
330
42
100
AcDbEntity
  8
0
100
AcDbBlockEnd
  0
BLOCK
  5
75
330
45
100
AcDbEntity
  8
0
100
AcDbBlockBegin
  2
*D1
 70
     1
 10
0.0
 20
0.0
 30
0.0
  3
*D1
  1

  0
LINE
  5
76
330
45
100
AcDbEntity
  8
0
  6
BYBLOCK
 62
     0
100
AcDbLine
 10
10.02126560072724
 20
-28.75086765515393
 30
0.0
 11
12.30820243637703
 21
-28.75086765515393
 31
0.0
  0
LINE
  5
77
330
45
100
AcDbEntity
  8
0
  6
BYBLOCK
 62
     0
100
AcDbLine
 10
10.02126560072724
 20
-26.90836765515393
 30
0.0
 11
12.30820243637703
 21
-26.90836765515393
 31
0.0
  0
LINE
  5
78
330
45
100
AcDbEntity
  8
0
  6
BYBLOCK
 62
     0
100
AcDbLine
 10
12.12820243637703
 20
-28.75086765515393
 30
0.0
 11
12.12820243637703
 21
-28.3087843218206
 31
0.0
  0
LINE
  5
79
330
45
100
AcDbEntity
  8
0
  6
BYBLOCK
 62
     0
100
AcDbLine
 10
12.12820243637703
 20
-26.90836765515393
 30
0.0
 11
12.12820243637703
 21
-27.35045098848726
 31
0.0
  0
LINE
  5
7A
330
45
100
AcDbEntity
  8
0
  6
BYBLOCK
 62
     0
100
AcDbLine
 10
12.25320243637703
 20
-28.87586765515393
 30
0.0
 11
12.00320243637703
 21
-28.62586765515393
 31
0.0
  0
LINE
  5
7B
330
45
100
AcDbEntity
  8
0
  6
BYBLOCK
 62
     0
100
AcDbLine
 10
12.25320243637703
 20
-27.03336765515393
 30
0.0
 11
12.00320243637703
 21
-26.78336765515393
 31
0.0
  0
TEXT
  5
7C
330
45
100
AcDbEntity
  8
0
  6
BYBLOCK
 62
     0
100
AcDbText
 10
12.19070243637703
 20
-28.18378432182059
 30
0.0
 40
0.125
  1
1 13/16
 50
90.0
 72
     1
 11
12.12820243637703
 21
-27.82961765515393
 31
0.0
100
AcDbText
 73
     2
  0
POINT
  5
7D
330
45
100
AcDbEntity
  8
DEFPOINTS
  6
BYBLOCK
 62
     0
100
AcDbPoint
 10
9.958765600727241
 20
-28.75086765515393
 30
0.0
  0
POINT
  5
7E
330
45
100
AcDbEntity
  8
DEFPOINTS
  6
BYBLOCK
 62
     0
100
AcDbPoint
 10
9.958765600727241
 20
-26.90836765515393
 30
0.0
  0
POINT
  5
7F
330
45
100
AcDbEntity
  8
DEFPOINTS
  6
BYBLOCK
 62
     0
100
AcDbPoint
 10
12.12820243637703
 20
-26.90836765515393
 30
0.0
  0
ENDBLK
  5
80
330
45
100
AcDbEntity
  8
0
100
AcDbBlockEnd
  0
BLOCK
  5
81
330
47
100
AcDbEntity
  8
0
100
AcDbBlockBegin
  2
*D2
 70
     1
 10
0.0
 20
0.0
 30
0.0
  3
*D2
  1

  0
LINE
  5
82
330
47
100
AcDbEntity
  8
0
  6
BYBLOCK
 62
     0
100
AcDbLine
 10
7.896265600727241
 20
-28.85297886931724
 30
0.0
 11
7.896265600727241
 21
-30.28615495189087
 31
0.0
  0
LINE
  5
83
330
47
100
AcDbEntity
  8
0
  6
BYBLOCK
 62
     0
100
AcDbLine
 10
9.958765600727241
 20
-28.81336765515393
 30
0.0
 11
9.958765600727241
 21
-30.28615495189087
 31
0.0
  0
LINE
  5
84
330
47
100
AcDbEntity
  8
0
  6
BYBLOCK
 62
     0
100
AcDbLine
 10
7.896265600727241
 20
-30.10615495189087
 30
0.0
 11
8.490015600727241
 21
-30.10615495189087
 31
0.0
  0
LINE
  5
85
330
47
100
AcDbEntity
  8
0
  6
BYBLOCK
 62
     0
100
AcDbLine
 10
9.958765600727241
 20
-30.10615495189087
 30
0.0
 11
9.365015600727241
 21
-30.10615495189087
 31
0.0
  0
LINE
  5
86
330
47
100
AcDbEntity
  8
0
  6
BYBLOCK
 62
     0
100
AcDbLine
 10
7.771265600727241
 20
-30.23115495189087
 30
0.0
 11
8.021265600727241
 21
-29.98115495189087
 31
0.0
  0
LINE
  5
87
330
47
100
AcDbEntity
  8
0
  6
BYBLOCK
 62
     0
100
AcDbLine
 10
9.833765600727241
 20
-30.23115495189087
 30
0.0
 11
10.08376560072724
 21
-29.98115495189087
 31
0.0
  0
TEXT
  5
88
330
47
100
AcDbEntity
  8
0
  6
BYBLOCK
 62
     0
100
AcDbText
 10
8.615015600727241
 20
-30.16865495189087
 30
0.0
 40
0.125
  1
2 1/16
 72
     1
 11
8.927515600727241
 21
-30.10615495189087
 31
0.0
100
AcDbText
 73
     2
  0
POINT
  5
89
330
47
100
AcDbEntity
  8
DEFPOINTS
  6
BYBLOCK
 62
     0
100
AcDbPoint
 10
7.896265600727241
 20
-28.79047886931724
 30
0.0
  0
POINT
  5
8A
330
47
100
AcDbEntity
  8
DEFPOINTS
  6
BYBLOCK
 62
     0
100
AcDbPoint
 10
9.958765600727241
 20
-28.75086765515393
 30
0.0
  0
POINT
  5
8B
330
47
100
AcDbEntity
  8
DEFPOINTS
  6
BYBLOCK
 62
     0
100
AcDbPoint
 10
9.958765600727241
 20
-30.10615495189087
 30
0.0
  0
ENDBLK
  5
8C
330
47
100
AcDbEntity
  8
0
100
AcDbBlockEnd
  0
BLOCK
  5
8D
330
48
100
AcDbEntity
  8
0
100
AcDbBlockBegin
  2
*D3
 70
     1
 10
0.0
 20
0.0
 30
0.0
  3
*D3
  1

  0
LINE
  5
8E
330
48
100
AcDbEntity
  8
0
  6
BYBLOCK
 62
     0
100
AcDbLine
 10
7.896265600727241
 20
-28.81336765515393
 30
0.0
 11
7.896265600727241
 21
-30.28615495189087
 31
0.0
  0
LINE
  5
8F
330
48
100
AcDbEntity
  8
0
  6
BYBLOCK
 62
     0
100
AcDbLine
 10
6.208843710110306
 20
-28.13961765515393
 30
0.0
 11
6.208843710110306
 21
-30.28615495189087
 31
0.0
  0
LINE
  5
90
330
48
100
AcDbEntity
  8
0
  6
BYBLOCK
 62
     0
100
AcDbLine
 10
7.896265600727241
 20
-30.10615495189087
 30
0.0
 11
7.510887988752107
 21
-30.10615495189087
 31
0.0
  0
LINE
  5
91
330
48
100
AcDbEntity
  8
0
  6
BYBLOCK
 62
     0
100
AcDbLine
 10
6.208843710110306
 20
-30.10615495189087
 30
0.0
 11
6.594221322085441
 21
-30.10615495189087
 31
0.0
  0
LINE
  5
92
330
48
100
AcDbEntity
  8
0
  6
BYBLOCK
 62
     0
100
AcDbLine
 10
7.771265600727241
 20
-30.23115495189087
 30
0.0
 11
8.021265600727241
 21
-29.98115495189087
 31
0.0
  0
LINE
  5
93
330
48
100
AcDbEntity
  8
0
  6
BYBLOCK
 62
     0
100
AcDbLine
 10
6.083843710110306
 20
-30.23115495189087
 30
0.0
 11
6.333843710110306
 21
-29.98115495189087
 31
0.0
  0
TEXT
  5
94
330
48
100
AcDbEntity
  8
0
  6
BYBLOCK
 62
     0
100
AcDbText
 10
6.719221322085441
 20
-30.16865495189087
 30
0.0
 40
0.125
  1
1 11/16
 72
     1
 11
7.052554655418774
 21
-30.10615495189087
 31
0.0
100
AcDbText
 73
     2
  0
POINT
  5
95
330
48
100
AcDbEntity
  8
DEFPOINTS
  6
BYBLOCK
 62
     0
100
AcDbPoint
 10
7.896265600727241
 20
-28.75086765515393
 30
0.0
  0
POINT
  5
96
330
48
100
AcDbEntity
  8
DEFPOINTS
  6
BYBLOCK
 62
     0
100
AcDbPoint
 10
6.208843710110306
 20
-28.07711765515393
 30
0.0
  0
POINT
  5
97
330
48
100
AcDbEntity
  8
DEFPOINTS
  6
BYBLOCK
 62
     0
100
AcDbPoint
 10
6.208843710110306
 20
-30.10615495189087
 30
0.0
  0
ENDBLK
  5
98
330
48
100
AcDbEntity
  8
0
100
AcDbBlockEnd
  0
ENDSEC
  0
SECTION
  2
ENTITIES
  0
LINE
  5
99
330
1E
100
AcDbEntity
  8
ADP3DETAIL
  6
CENTER2
100
AcDbLine
 10
11.79971187638854
 20
-21.53106713338424
 30
0.0
 11
9.261265600727243
 21
-21.53106713338424
 31
0.0
  0
DIMENSION
  5
9A
330
1E
100
AcDbEntity
  8
ADPDIM
100
AcDbDimension
  2
*D1
 10
12.12820243637703
 20
-26.90836765515393
 30
0.0
 11
12.12820243637703
 21
-27.82961765515393
 31
0.0
100
AcDbAlignedDimension
 13
9.958765600727241
 23
-28.75086765515393
 33
0.0
 14
9.958765600727241
 24
-26.90836765515393
 34
0.0
 50
90.0
100
AcDbRotatedDimension
  0
DIMENSION
  5
9B
330
1E
100
AcDbEntity
  8
ADPDIM
100
AcDbDimension
  2
*D0
 10
12.12820243637703
 20
-24.53106713338424
 30
0.0
 11
12.12820243637703
 21
-23.03106713338424
 31
0.0
100
AcDbAlignedDimension
 13
11.79971187638854
 23
-21.53106713338424
 33
0.0
 14
8.726265600727243
 24
-24.53106713338424
 34
0.0
 50
90.0
100
AcDbRotatedDimension
  0
ARC
  5
9C
330
1E
100
AcDbEntity
  8
ADP2DETAIL
  6
HIDDEN2
100
AcDbCircle
 10
6.94026336715966
 20
-27.85836765515393
 30
0.0
 40
1.78125
100
AcDbArc
 50
332.2273125958643
 51
32.23095263550209
  0
ARC
  5
9D
330
1E
100
AcDbEntity
  8
ADP2DETAIL
  6
HIDDEN2
100
AcDbCircle
 10
6.94026336715966
 20
-27.85836765515393
 30
0.0
 40
1.59375
100
AcDbArc
 50
328.6151235723856
 51
36.58954926635241
  0
ARC
  5
9E
330
1E
100
AcDbEntity
  8
ADP1DETAIL
100
AcDbCircle
 10
6.94026336715966
 20
-27.85836765515393
 30
0.0
 40
1.78125
100
AcDbArc
 50
32.23095263550206
 51
329.9303339853475
  0
ARC
  5
9F
330
1E
100
AcDbEntity
  8
ADP1DETAIL
100
AcDbCircle
 10
6.94026336715966
 20
-27.85836765515393
 30
0.0
 40
1.59375
100
AcDbArc
 50
36.58954926635241
 51
325.944202257432
  0
LINE
  5
A0
330
1E
100
AcDbEntity
  8
ADP1DETAIL
100
AcDbLine
 10
11.33376560072724
 20
-28.43725837376727
 30
0.0
 11
11.33376560072724
 21
-27.22713143650899
 31
0.0
  0
LINE
  5
A1
330
1E
100
AcDbEntity
  8
ADP1DETAIL
100
AcDbLine
 10
9.958765600727241
 20
-26.90836765515393
 30
0.0
 11
9.958765600727241
 21
-28.68836765515393
 31
0.0
  0
ARC
  5
A2
330
1E
100
AcDbEntity
  8
ADP1DETAIL
100
AcDbCircle
 10
7.86547979241067
 20
-27.82961765515393
 30
0.0
 40
0.9217642477844895
100
AcDbArc
 50
88.0860344865211
 51
271.9139655134788
  0
DIMENSION
  5
A3
330
1E
100
AcDbEntity
  8
ADPDIM
100
AcDbDimension
  2
*D3
 10
6.208843710110306
 20
-30.10615495189087
 30
0.0
 11
7.052554655418774
 21
-30.10615495189087
 31
0.0
100
AcDbAlignedDimension
 13
7.896265600727241
 23
-28.75086765515393
 33
0.0
 14
6.208843710110306
 24
-28.07711765515393
 34
0.0
100
AcDbRotatedDimension
  0
CIRCLE
  5
A4
330
1E
100
AcDbEntity
  8
ADP1DETAIL
100
AcDbCircle
 10
6.208843710110306
 20
-27.85836765515393
 30
0.0
 40
0.21875
  0
DIMENSION
  5
A5
330
1E
100
AcDbEntity
  8
ADPDIM
100
AcDbDimension
  2
*D2
 10
9.958765600727241
 20
-30.10615495189087
 30
0.0
 11
8.927515600727241
 21
-30.10615495189087
 31
0.0
100
AcDbAlignedDimension
 13
7.896265600727241
 23
-28.79047886931724
 33
0.0
 14
9.958765600727241
 24
-28.75086765515393
 34
0.0
100
AcDbRotatedDimension
  0
LINE
  5
A6
330
1E
100
AcDbEntity
  8
ADP1DETAIL
100
AcDbLine
 10
7.896265600727241
 20
-28.75086765515393
 30
0.0
 11
9.958765600727241
 21
-28.75086765515393
 31
0.0
  0
LINE
  5
A7
330
1E
100
AcDbEntity
  8
ADP1DETAIL
100
AcDbLine
 10
11.33376560072724
 20
-28.43725837376727
 30
0.0
 11
9.958765600727241
 21
-28.43725837376727
 31
0.0
  0
LINE
  5
A8
330
1E
100
AcDbEntity
  8
ADP1DETAIL
100
AcDbLine
 10
11.24001560072724
 20
-28.59886184823015
 30
0.0
 11
10.05251560072724
 21
-28.59886184823015
 31
0.0
  0
LINE
  5
A9
330
1E
100
AcDbEntity
  8
ADP1DETAIL
100
AcDbLine
 10
11.33376560072724
 20
-27.78027502448079
 30
0.0
 11
9.958765600727241
 21
-27.78027502448079
 31
0.0
  0
LINE
  5
AA
330
1E
100
AcDbEntity
  8
ADP1DETAIL
100
AcDbLine
 10
11.33376560072724
 20
-27.78963888112688
 30
0.0
 11
9.958765600727241
 21
-27.78963888112688
 31
0.0
  0
LINE
  5
AB
330
1E
100
AcDbEntity
  8
ADP1DETAIL
100
AcDbLine
 10
11.33376560072724
 20
-27.92697529084417
 30
0.0
 11
9.958765600727241
 21
-27.92697529084417
 31
0.0
  0
LINE
  5
AC
330
1E
100
AcDbEntity
  8
ADP1DETAIL
100
AcDbLine
 10
11.33376560072724
 20
-27.9363391088839
 30
0.0
 11
9.958765600727241
 21
-27.9363391088839
 31
0.0
  0
LINE
  5
AD
330
1E
100
AcDbEntity
  8
ADP1DETAIL
100
AcDbLine
 10
10.05251560072724
 20
-28.59886184823015
 30
0.0
 11
9.958765600727241
 21
-28.43725837376727
 31
0.0
  0
LINE
  5
AE
330
1E
100
AcDbEntity
  8
ADP1DETAIL
100
AcDbLine
 10
10.05251560072724
 20
-27.9363391088839
 30
0.0
 11
10.05251560072724
 21
-27.78027502448079
 31
0.0
  0
LINE
  5
AF
330
1E
100
AcDbEntity
  8
ADP1DETAIL
100
AcDbLine
 10
11.24001560072724
 20
-28.59886184823015
 30
0.0
 11
11.33376560072724
 21
-28.43725837376727
 31
0.0
  0
LINE
  5
B0
330
1E
100
AcDbEntity
  8
ADP1DETAIL
100
AcDbLine
 10
11.24001560072724
 20
-27.9363391088839
 30
0.0
 11
11.24001560072724
 21
-27.78027502448079
 31
0.0
  0
LINE
  5
B1
330
1E
100
AcDbEntity
  8
ADP1DETAIL
100
AcDbLine
 10
5.34054229602388
 20
-24.21856713338425
 30
0.0
 11
8.549488905430605
 21
-24.21856713338424
 31
0.0
  0
LINE
  5
B2
330
1E
100
AcDbEntity
  8
ADP1DETAIL
100
AcDbLine
 10
5.163765600727243
 20
-24.34356713338424
 30
0.0
 11
8.726265600727243
 21
-24.34356713338424
 31
0.0
  0
LINE
  5
B3
330
1E
100
AcDbEntity
  8
ADP1DETAIL
100
AcDbLine
 10
8.726265600727243
 20
-24.53106713338424
 30
0.0
 11
5.163765600727243
 21
-24.53106713338424
 31
0.0
  0
LINE
  5
B4
330
1E
100
AcDbEntity
  8
ADP1DETAIL
100
AcDbLine
 10
5.163765600727243
 20
-24.53106713338424
 30
0.0
 11
5.163765600727243
 21
-24.34356713338424
 31
0.0
  0
ARC
  5
B5
330
1E
100
AcDbEntity
  8
ADP1DETAIL
100
AcDbCircle
 10
5.163765600727243
 20
-24.15606713338425
 30
0.0
 40
0.1875
100
AcDbArc
 50
270.0
 51
340.5287793655082
  0
LINE
  5
B6
330
1E
100
AcDbEntity
  8
ADP2DETAIL
  6
HIDDEN2
100
AcDbLine
 10
5.982259710662327
 20
-24.53106713338424
 30
0.0
 11
5.982259710662327
 21
-24.21856713338425
 31
0.0
  0
ARC
  5
B7
330
1E
100
AcDbEntity
  8
ADP3DETAIL
  6
CENTER2
100
AcDbCircle
 10
9.261265600727243
 20
-22.95606713338425
 30
0.0
 40
1.425
100
AcDbArc
 50
90.0
 51
180.0
  0
ARC
  5
B8
330
1E
100
AcDbEntity
  8
ADP1DETAIL
100
AcDbCircle
 10
9.321265600727242
 20
-22.95606713338425
 30
0.0
 40
2.375
100
AcDbArc
 50
90.0
 51
180.0
  0
LINE
  5
B9
330
1E
100
AcDbEntity
  8
ADP1DETAIL
100
AcDbLine
 10
9.95775742612326
 20
-20.58106713338424
 30
0.0
 11
9.95775742612326
 21
-22.48106713338425
 31
0.0
  0
ARC
  5
BA
330
1E
100
AcDbEntity
  8
ADP1DETAIL
100
AcDbCircle
 10
9.066265600727243
 20
-22.82106713338424
 30
0.0
 40
0.3399999999999999
100
AcDbArc
 50
90.0
 51
180.0
  0
LINE
  5
BB
330
1E
100
AcDbEntity
  8
ADP1DETAIL
100
AcDbLine
 10
7.896265600727241
 20
-26.90836765515393
 30
0.0
 11
9.958765600727241
 21
-26.90836765515393
 31
0.0
  0
LINE
  5
BC
330
1E
100
AcDbEntity
  8
ADP1DETAIL
100
AcDbLine
 10
7.066265600727243
 20
-24.53106713338424
 30
0.0
 11
8.726265600727243
 21
-24.53106713338424
 31
0.0
  0
LINE
  5
BD
330
1E
100
AcDbEntity
  8
ADP1DETAIL
100
AcDbLine
 10
6.946265600727242
 20
-22.95606713338425
 30
0.0
 11
6.946265600727243
 21
-23.96856713338424
 31
0.0
  0
ARC
  5
BE
330
1E
100
AcDbEntity
  8
ADP1DETAIL
100
AcDbCircle
 10
6.696265600727243
 20
-23.96856713338424
 30
0.0
 40
0.25
100
AcDbArc
 50
270.0
 51
0.0
  0
LINE
  5
BF
330
1E
100
AcDbEntity
  8
ADP2DETAIL
  6
HIDDEN2
100
AcDbLine
 10
6.423069367551453
 20
-24.53106713338424
 30
0.0
 11
6.423069367551453
 21
-24.21856713338425
 31
0.0
  0
LINE
  5
C0
330
1E
100
AcDbEntity
  8
ADP3DETAIL
  6
CENTER2
100
AcDbLine
 10
7.836265600727243
 20
-22.95606713338425
 30
0.0
 11
7.836265600727243
 21
-24.92222208795338
 31
0.0
  0
LINE
  5
C1
330
1E
100
AcDbEntity
  8
ADP1DETAIL
100
AcDbLine
 10
8.726265600727243
 20
-24.53106713338424
 30
0.0
 11
8.726265600727243
 21
-22.82106713338424
 31
0.0
  0
LINE
  5
C2
330
1E
100
AcDbEntity
  8
ADP1DETAIL
100
AcDbLine
 10
8.726265600727243
 20
-24.21856713338424
 30
0.0
 11
8.726265600727243
 21
-24.53106713338424
 31
0.0
  0
ARC
  5
C3
330
1E
100
AcDbEntity
  8
ADP1DETAIL
100
AcDbCircle
 10
8.726265600727243
 20
-24.15606713338425
 30
0.0
 40
0.1875
100
AcDbArc
 50
199.4712206344917
 51
270.0
  0
LINE
  5
C4
330
1E
100
AcDbEntity
  8
ADP1DETAIL
100
AcDbLine
 10
9.958765600727241
 20
-27.22713143650899
 30
0.0
 11
11.33376560072724
 21
-27.22713143650899
 31
0.0
  0
LINE
  5
C5
330
1E
100
AcDbEntity
  8
ADP1DETAIL
100
AcDbLine
 10
11.24001560072724
 20
-27.06552796204611
 30
0.0
 11
10.05251560072724
 21
-27.06552796204611
 31
0.0
  0
LINE
  5
C6
330
1E
100
AcDbEntity
  8
ADP1DETAIL
100
AcDbLine
 10
10.05251560072724
 20
-27.06552796204611
 30
0.0
 11
9.958765600727241
 21
-27.22713143650899
 31
0.0
  0
LINE
  5
C7
330
1E
100
AcDbEntity
  8
ADP1DETAIL
100
AcDbLine
 10
11.24001560072724
 20
-27.06552796204611
 30
0.0
 11
11.33376560072724
 21
-27.22713143650899
 31
0.0
  0
LINE
  5
C8
330
1E
100
AcDbEntity
  8
ADP1DETAIL
100
AcDbLine
 10
9.95775742612326
 20
-22.48106713338424
 30
0.0
 11
9.066265600727243
 21
-22.48106713338424
 31
0.0
  0
LINE
  5
C9
330
1E
100
AcDbEntity
  8
ADP1DETAIL
100
AcDbLine
 10
9.95775742612326
 20
-20.89983091473931
 30
0.0
 11
11.33275742612326
 21
-20.89983091473931
 31
0.0
  0
LINE
  5
CA
330
1E
100
AcDbEntity
  8
ADP1DETAIL
100
AcDbLine
 10
11.23900742612326
 20
-20.73822744027642
 30
0.0
 11
10.05150742612326
 21
-20.73822744027642
 31
0.0
  0
LINE
  5
CB
330
1E
100
AcDbEntity
  8
ADP1DETAIL
100
AcDbLine
 10
11.33275742612326
 20
-22.16745785199758
 30
0.0
 11
9.95775742612326
 21
-22.16745785199758
 31
0.0
  0
LINE
  5
CC
330
1E
100
AcDbEntity
  8
ADP1DETAIL
100
AcDbLine
 10
11.23900742612326
 20
-22.32906132646047
 30
0.0
 11
10.05150742612326
 21
-22.32906132646047
 31
0.0
  0
LINE
  5
CD
330
1E
100
AcDbEntity
  8
ADP1DETAIL
100
AcDbLine
 10
11.33275742612326
 20
-21.45297450271111
 30
0.0
 11
9.95775742612326
 21
-21.45297450271111
 31
0.0
  0
LINE
  5
CE
330
1E
100
AcDbEntity
  8
ADP1DETAIL
100
AcDbLine
 10
11.33275742612326
 20
-21.4623383593572
 30
0.0
 11
9.95775742612326
 21
-21.4623383593572
 31
0.0
  0
LINE
  5
CF
330
1E
100
AcDbEntity
  8
ADP1DETAIL
100
AcDbLine
 10
11.33275742612326
 20
-21.59967476907448
 30
0.0
 11
9.95775742612326
 21
-21.59967476907448
 31
0.0
  0
LINE
  5
D0
330
1E
100
AcDbEntity
  8
ADP1DETAIL
100
AcDbLine
 10
11.33275742612326
 20
-21.60903858711422
 30
0.0
 11
9.95775742612326
 21
-21.60903858711422
 31
0.0
  0
LINE
  5
D1
330
1E
100
AcDbEntity
  8
ADP1DETAIL
100
AcDbLine
 10
10.05150742612326
 20
-22.32906132646047
 30
0.0
 11
9.95775742612326
 21
-22.16745785199758
 31
0.0
  0
LINE
  5
D2
330
1E
100
AcDbEntity
  8
ADP1DETAIL
100
AcDbLine
 10
10.05150742612326
 20
-21.60903858711422
 30
0.0
 11
10.05150742612326
 21
-21.45297450271111
 31
0.0
  0
LINE
  5
D3
330
1E
100
AcDbEntity
  8
ADP1DETAIL
100
AcDbLine
 10
9.95775742612326
 20
-20.58106713338424
 30
0.0
 11
9.321265600727242
 21
-20.58106713338424
 31
0.0
  0
LINE
  5
D4
330
1E
100
AcDbEntity
  8
ADP1DETAIL
100
AcDbLine
 10
10.05150742612326
 20
-20.73822744027642
 30
0.0
 11
9.95775742612326
 21
-20.89983091473931
 31
0.0
  0
LINE
  5
D5
330
1E
100
AcDbEntity
  8
ADP1DETAIL
100
AcDbLine
 10
11.33275742612326
 20
-22.16745785199758
 30
0.0
 11
11.33275742612326
 21
-20.89983091473931
 31
0.0
  0
LINE
  5
D6
330
1E
100
AcDbEntity
  8
ADP1DETAIL
100
AcDbLine
 10
11.23900742612326
 20
-22.32906132646047
 30
0.0
 11
11.33275742612326
 21
-22.16745785199758
 31
0.0
  0
LINE
  5
D7
330
1E
100
AcDbEntity
  8
ADP1DETAIL
100
AcDbLine
 10
11.23900742612326
 20
-21.60903858711422
 30
0.0
 11
11.23900742612326
 21
-21.45297450271111
 31
0.0
  0
LINE
  5
D8
330
1E
100
AcDbEntity
  8
ADP1DETAIL
100
AcDbLine
 10
11.23900742612326
 20
-20.73822744027642
 30
0.0
 11
11.33275742612326
 21
-20.89983091473931
 31
0.0
  0
TEXT
  5
DC
330
1E
100
AcDbEntity
  8
ADPDIM
100
AcDbText
 10
-0.7247609692678214
 20
-31.28922150490811
 30
0.0
 40
0.1875
  1
J U L I U S  B L U M  &  C O . ,  I N C .      ( 8 0 0 )  5 2 6 - 6 2 9 3        W W W . J U L I U S B L U M . C O M        P A R T  N o .  1 6 0 5
 41
1.25
  7
ARIAL_WIDE
 72
     1
 11
9.063832567567104
 21
-31.10172150490811
 31
0.0
100
AcDbText
 73
     3
  0
ENDSEC
  0
SECTION
  2
OBJECTS
  0
DICTIONARY
  5
C
330
0
100
AcDbDictionary
  3
ACAD_GROUP
350
D
  3
ACAD_LAYOUT
350
19
  3
ACAD_MLINESTYLE
350
16
  3
ACAD_PLOTSETTINGS
350
18
  3
ACAD_PLOTSTYLENAME
350
E
  3
ACDBHEADERROUNDTRIPXREC
350
2AA
  3
ACDBVARIABLEDICTIONARY
350
14D
  0
DICTIONARY
  5
118
330
1E
100
AcDbDictionary
280
     1
  3
ACAD_LAYOUTSELFREF
360
2CC
  0
DICTIONARY
  5
11A
330
1A
100
AcDbDictionary
280
     1
  3
ACAD_LAYOUTSELFREF
360
2CB
  0
DICTIONARY
  5
D
102
{ACAD_REACTORS
330
C
102
}
330
C
100
AcDbDictionary
  0
DICTIONARY
  5
19
102
{ACAD_REACTORS
330
C
102
}
330
C
100
AcDbDictionary
  0
DICTIONARY
  5
16
102
{ACAD_REACTORS
330
C
102
}
330
C
100
AcDbDictionary
  3
STANDARD
350
17
  0
DICTIONARY
  5
18
102
{ACAD_REACTORS
330
C
102
}
330
C
100
AcDbDictionary
  0
ACDBDICTIONARYWDFLT
  5
E
102
{ACAD_REACTORS
330
C
102
}
330
C
100
AcDbDictionary
281
     1
  3
Normal
350
F
100
AcDbDictionaryWithDefault
340
F
  0
DICTIONARY
  5
2AA
102
{ACAD_REACTORS
330
C
102
}
330
C
100
AcDbDictionary
  3
CEPSNTYPE
350
2B4
  3
DIMSTYLEDATA
350
2B8
  3
FINGERPRINTGUID
350
2B5
  3
HYPERLINKBASE
350
2AD
  3
INSUNITS
350
2B3
  3
LAYOUTDICT
350
2AF
  3
LWETCUNION
350
2B2
  3
PLOTSETDICT
350
2B0
  3
PLOTSTYLNAMDICT
350
2B1
  3
PSVPSCALE
350
2B7
  3
PUCSBASE
350
2BB
  3
PUCSORGBACK
350
2C1
  3
PUCSORGBOTTOM
350
2BD
  3
PUCSORGFRONT
350
2C0
  3
PUCSORGLEFT
350
2BE
  3
PUCSORGRIGHT
350
2BF
  3
PUCSORGTOP
350
2BC
  3
PUCSORTHOREF
350
2B9
  3
PUCSORTHOVIEW
350
2BA
  3
STYLESHEET
350
2AE
  3
TSTACKALIGN
350
2AB
  3
TSTACKSIZE
350
2AC
  3
UCSBASE
350
2C4
  3
UCSORGBACK
350
2CA
  3
UCSORGBOTTOM
350
2C6
  3
UCSORGFRONT
350
2C9
  3
UCSORGLEFT
350
2C7
  3
UCSORGRIGHT
350
2C8
  3
UCSORGTOP
350
2C5
  3
UCSORTHOREF
350
2C2
  3
UCSORTHOVIEW
350
2C3
  3
VERSIONGUID
350
2B6
  0
DICTIONARY
  5
14D
102
{ACAD_REACTORS
330
C
102
}
330
C
100
AcDbDictionary
  3
DIMASSOC
350
14F
  3
HIDETEXT
350
14E
  0
XRECORD
  5
2CC
102
{ACAD_REACTORS
330
118
102
}
330
118
100
AcDbXrecord
340
1E
  0
XRECORD
  5
2CB
102
{ACAD_REACTORS
330
11A
102
}
330
11A
100
AcDbXrecord
340
1A
  0
MLINESTYLE
  5
17
102
{ACAD_REACTORS
330
16
102
}
330
16
100
AcDbMlineStyle
  2
STANDARD
 70
     0
  3

 62
   256
 51
90.0
 52
90.0
 71
     2
 49
0.5
 62
   256
  6
BYLAYER
 49
-0.5
 62
   256
  6
BYLAYER
  0
ACDBPLACEHOLDER
  5
F
102
{ACAD_REACTORS
330
E
102
}
330
E
100
AcDbPlaceHolder
280
     0
  0
XRECORD
  5
2B4
102
{ACAD_REACTORS
330
2AA
102
}
330
2AA
100
AcDbXrecord
 90
        0
  0
XRECORD
  5
2B8
102
{ACAD_REACTORS
330
2AA
102
}
330
2AA
100
AcDbXrecord
1000
DSTYLE
1002
{
1070
   277
 70
     5
1070
   279
 70
     2
1002
}
  0
XRECORD
  5
2B5
102
{ACAD_REACTORS
330
2AA
102
}
330
2AA
100
AcDbXrecord
  1
{C6D0C3B4-6D6A-42B2-BE6C-E9910DA700F8}
  0
XRECORD
  5
2AD
102
{ACAD_REACTORS
330
2AA
102
}
330
2AA
100
AcDbXrecord
  1

  0
XRECORD
  5
2B3
102
{ACAD_REACTORS
330
2AA
102
}
330
2AA
100
AcDbXrecord
 90
        0
  0
XRECORD
  5
2AF
102
{ACAD_REACTORS
330
2AA
102
}
330
2AA
100
AcDbXrecord
340
19
  0
XRECORD
  5
2B2
102
{ACAD_REACTORS
330
2AA
102
}
330
2AA
100
AcDbXrecord
 90
    14877
  0
XRECORD
  5
2B0
102
{ACAD_REACTORS
330
2AA
102
}
330
2AA
100
AcDbXrecord
340
18
  0
XRECORD
  5
2B1
102
{ACAD_REACTORS
330
2AA
102
}
330
2AA
100
AcDbXrecord
340
E
  0
XRECORD
  5
2B7
102
{ACAD_REACTORS
330
2AA
102
}
330
2AA
100
AcDbXrecord
 40
0.0
  0
XRECORD
  5
2BB
102
{ACAD_REACTORS
330
2AA
102
}
330
2AA
100
AcDbXrecord
340
0
  0
XRECORD
  5
2C1
102
{ACAD_REACTORS
330
2AA
102
}
330
2AA
100
AcDbXrecord
 10
0.0
 20
0.0
 30
0.0
  0
XRECORD
  5
2BD
102
{ACAD_REACTORS
330
2AA
102
}
330
2AA
100
AcDbXrecord
 10
0.0
 20
0.0
 30
0.0
  0
XRECORD
  5
2C0
102
{ACAD_REACTORS
330
2AA
102
}
330
2AA
100
AcDbXrecord
 10
0.0
 20
0.0
 30
0.0
  0
XRECORD
  5
2BE
102
{ACAD_REACTORS
330
2AA
102
}
330
2AA
100
AcDbXrecord
 10
0.0
 20
0.0
 30
0.0
  0
XRECORD
  5
2BF
102
{ACAD_REACTORS
330
2AA
102
}
330
2AA
100
AcDbXrecord
 10
0.0
 20
0.0
 30
0.0
  0
XRECORD
  5
2BC
102
{ACAD_REACTORS
330
2AA
102
}
330
2AA
100
AcDbXrecord
 10
0.0
 20
0.0
 30
0.0
  0
XRECORD
  5
2B9
102
{ACAD_REACTORS
330
2AA
102
}
330
2AA
100
AcDbXrecord
340
0
  0
XRECORD
  5
2BA
102
{ACAD_REACTORS
330
2AA
102
}
330
2AA
100
AcDbXrecord
 70
     0
  0
XRECORD
  5
2AE
102
{ACAD_REACTORS
330
2AA
102
}
330
2AA
100
AcDbXrecord
  1

  0
XRECORD
  5
2AB
102
{ACAD_REACTORS
330
2AA
102
}
330
2AA
100
AcDbXrecord
 90
        1
  0
XRECORD
  5
2AC
102
{ACAD_REACTORS
330
2AA
102
}
330
2AA
100
AcDbXrecord
 90
       70
  0
XRECORD
  5
2C4
102
{ACAD_REACTORS
330
2AA
102
}
330
2AA
100
AcDbXrecord
340
0
  0
XRECORD
  5
2CA
102
{ACAD_REACTORS
330
2AA
102
}
330
2AA
100
AcDbXrecord
 10
0.0
 20
0.0
 30
0.0
  0
XRECORD
  5
2C6
102
{ACAD_REACTORS
330
2AA
102
}
330
2AA
100
AcDbXrecord
 10
0.0
 20
0.0
 30
0.0
  0
XRECORD
  5
2C9
102
{ACAD_REACTORS
330
2AA
102
}
330
2AA
100
AcDbXrecord
 10
0.0
 20
0.0
 30
0.0
  0
XRECORD
  5
2C7
102
{ACAD_REACTORS
330
2AA
102
}
330
2AA
100
AcDbXrecord
 10
0.0
 20
0.0
 30
0.0
  0
XRECORD
  5
2C8
102
{ACAD_REACTORS
330
2AA
102
}
330
2AA
100
AcDbXrecord
 10
0.0
 20
0.0
 30
0.0
  0
XRECORD
  5
2C5
102
{ACAD_REACTORS
330
2AA
102
}
330
2AA
100
AcDbXrecord
 10
0.0
 20
0.0
 30
0.0
  0
XRECORD
  5
2C2
102
{ACAD_REACTORS
330
2AA
102
}
330
2AA
100
AcDbXrecord
340
0
  0
XRECORD
  5
2C3
102
{ACAD_REACTORS
330
2AA
102
}
330
2AA
100
AcDbXrecord
 70
     0
  0
XRECORD
  5
2B6
102
{ACAD_REACTORS
330
2AA
102
}
330
2AA
100
AcDbXrecord
  1
{4FF8A5F4-757B-46FC-BC2B-F2EF3393A16F}
  0
DICTIONARYVAR
  5
14F
102
{ACAD_REACTORS
330
14D
102
}
330
14D
100
DictionaryVariables
280
     0
  1
2
  0
DICTIONARYVAR
  5
14E
102
{ACAD_REACTORS
330
14D
102
}
330
14D
100
DictionaryVariables
280
     0
  1
1
  0
ENDSEC
  0
EOF
