  0
SECTION
  2
HEADER
  9
$ACADVER
  1
AC1014
  9
$ACADMAINTVER
 70
     9
  9
$DWGCODEPAGE
  3
ANSI_1252
  9
$INSBASE
 10
20.80426768539493
 20
15.28385499998996
 30
0.0
  9
$EXTMIN
 10
17.74048488475187
 20
13.64203077332158
 30
0.0
  9
$EXTMAX
 10
30.53699750412431
 20
19.87241108165351
 30
0.0
  9
$LIMMIN
 10
0.0
 20
0.0
  9
$LIMMAX
 10
36.0
 20
36.0
  9
$ORTHOMODE
 70
     1
  9
$REGENMODE
 70
     1
  9
$FILLMODE
 70
     1
  9
$QTEXTMODE
 70
     0
  9
$MIRRTEXT
 70
     1
  9
$DRAGMODE
 70
     0
  9
$LTSCALE
 40
1.0
  9
$OSMODE
 70
    37
  9
$ATTMODE
 70
     1
  9
$TEXTSIZE
 40
0.2
  9
$TRACEWID
 40
0.05
  9
$TEXTSTYLE
  7
STANDARD
  9
$CLAYER
  8
ADP1DETAIL
  9
$CELTYPE
  6
BYLAYER
  9
$CECOLOR
 62
   256
  9
$CELTSCALE
 40
1.0
  9
$DELOBJ
 70
     1
  9
$DISPSILH
 70
     0
  9
$DIMSCALE
 40
1.0
  9
$DIMASZ
 40
0.125
  9
$DIMEXO
 40
0.0625
  9
$DIMDLI
 40
0.38
  9
$DIMRND
 40
0.0
  9
$DIMDLE
 40
0.0
  9
$DIMEXE
 40
0.18
  9
$DIMTP
 40
0.0
  9
$DIMTM
 40
0.0
  9
$DIMTXT
 40
0.125
  9
$DIMCEN
 40
0.1875
  9
$DIMTSZ
 40
0.125
  9
$DIMTOL
 70
     0
  9
$DIMLIM
 70
     0
  9
$DIMTIH
 70
     0
  9
$DIMTOH
 70
     0
  9
$DIMSE1
 70
     0
  9
$DIMSE2
 70
     0
  9
$DIMTAD
 70
     0
  9
$DIMZIN
 70
     3
  9
$DIMBLK
  1

  9
$DIMASO
 70
     1
  9
$DIMSHO
 70
     1
  9
$DIMPOST
  1

  9
$DIMAPOST
  1

  9
$DIMALT
 70
     0
  9
$DIMALTD
 70
     1
  9
$DIMALTF
 40
25.4
  9
$DIMLFAC
 40
1.0
  9
$DIMTOFL
 70
     0
  9
$DIMTVP
 40
0.0
  9
$DIMTIX
 70
     0
  9
$DIMSOXD
 70
     0
  9
$DIMSAH
 70
     0
  9
$DIMBLK1
  1

  9
$DIMBLK2
  1

  9
$DIMSTYLE
  2
STANDARD
  9
$DIMCLRD
 70
     0
  9
$DIMCLRE
 70
     0
  9
$DIMCLRT
 70
     0
  9
$DIMTFAC
 40
1.0
  9
$DIMGAP
 40
0.125
  9
$DIMJUST
 70
     0
  9
$DIMSD1
 70
     0
  9
$DIMSD2
 70
     0
  9
$DIMTOLJ
 70
     1
  9
$DIMTZIN
 70
     3
  9
$DIMALTZ
 70
     3
  9
$DIMALTTZ
 70
     3
  9
$DIMFIT
 70
     5
  9
$DIMUPT
 70
     0
  9
$DIMUNIT
 70
     5
  9
$DIMDEC
 70
     4
  9
$DIMTDEC
 70
     4
  9
$DIMALTU
 70
     5
  9
$DIMALTTD
 70
     1
  9
$DIMTXSTY
  7
STANDARD
  9
$DIMAUNIT
 70
     0
  9
$LUNITS
 70
     5
  9
$LUPREC
 70
     4
  9
$SKETCHINC
 40
0.1
  9
$FILLETRAD
 40
0.062
  9
$AUNITS
 70
     0
  9
$AUPREC
 70
     0
  9
$MENU
  1
acad
  9
$ELEVATION
 40
0.0
  9
$PELEVATION
 40
0.0
  9
$THICKNESS
 40
0.0
  9
$LIMCHECK
 70
     0
  9
$BLIPMODE
 70
     0
  9
$CHAMFERA
 40
0.0
  9
$CHAMFERB
 40
0.0
  9
$CHAMFERC
 40
0.0
  9
$CHAMFERD
 40
0.0
  9
$SKPOLY
 70
     0
  9
$TDCREATE
 40
2450375.455440578
  9
$TDUPDATE
 40
2452297.064297407
  9
$TDINDWG
 40
0.0064673264
  9
$TDUSRTIMER
 40
0.0064673264
  9
$USRTIMER
 70
     1
  9
$ANGBASE
 50
0.0
  9
$ANGDIR
 70
     0
  9
$PDMODE
 70
     0
  9
$PDSIZE
 40
0.0
  9
$PLINEWID
 40
0.0
  9
$COORDS
 70
     2
  9
$SPLFRAME
 70
     0
  9
$SPLINETYPE
 70
     6
  9
$SPLINESEGS
 70
     8
  9
$ATTDIA
 70
     0
  9
$ATTREQ
 70
     1
  9
$HANDLING
 70
 22529
  9
$HANDSEED
  5
1D2
  9
$SURFTAB1
 70
     6
  9
$SURFTAB2
 70
     6
  9
$SURFTYPE
 70
     6
  9
$SURFU
 70
     6
  9
$SURFV
 70
     6
  9
$UCSNAME
  2

  9
$UCSORG
 10
0.0
 20
0.0
 30
0.0
  9
$UCSXDIR
 10
1.0
 20
0.0
 30
0.0
  9
$UCSYDIR
 10
0.0
 20
1.0
 30
0.0
  9
$PUCSNAME
  2

  9
$PUCSORG
 10
0.0
 20
0.0
 30
0.0
  9
$PUCSXDIR
 10
1.0
 20
0.0
 30
0.0
  9
$PUCSYDIR
 10
0.0
 20
1.0
 30
0.0
  9
$USERI1
 70
     0
  9
$USERI2
 70
     0
  9
$USERI3
 70
     0
  9
$USERI4
 70
     0
  9
$USERI5
 70
     0
  9
$USERR1
 40
0.0
  9
$USERR2
 40
0.0
  9
$USERR3
 40
0.0
  9
$USERR4
 40
0.0
  9
$USERR5
 40
0.0
  9
$WORLDVIEW
 70
     1
  9
$SHADEDGE
 70
     3
  9
$SHADEDIF
 70
    70
  9
$TILEMODE
 70
     1
  9
$MAXACTVP
 70
    15
  9
$PINSBASE
 10
6.111119585016845E+90
 20
8.346071047958366E+93
 30
0.0
  9
$PLIMCHECK
 70
     0
  9
$PEXTMIN
 10
1.000000000000000E+20
 20
1.000000000000000E+20
 30
1.000000000000000E+20
  9
$PEXTMAX
 10
-1.000000000000000E+20
 20
-1.000000000000000E+20
 30
-1.000000000000000E+20
  9
$PLIMMIN
 10
0.0
 20
0.0
  9
$PLIMMAX
 10
12.0
 20
9.0
  9
$UNITMODE
 70
     0
  9
$VISRETAIN
 70
     0
  9
$PLINEGEN
 70
     0
  9
$PSLTSCALE
 70
     1
  9
$TREEDEPTH
 70
  3020
  9
$PICKSTYLE
 70
     1
  9
$CMLSTYLE
  2
STANDARD
  9
$CMLJUST
 70
     0
  9
$CMLSCALE
 40
1.0
  9
$PROXYGRAPHICS
 70
     1
  9
$MEASUREMENT
 70
     0
  0
ENDSEC
  0
SECTION
  2
CLASSES
  0
CLASS
  1
DICTIONARYVAR
  2
AcDbDictionaryVar
  3
AutoCAD 2000
 90
        0
280
     0
281
     0
  0
CLASS
  1
ACDBDICTIONARYWDFLT
  2
AcDbDictionaryWithDefault
  3
AutoCAD 2000
 90
        0
280
     0
281
     0
  0
CLASS
  1
ACDBPLACEHOLDER
  2
AcDbPlaceHolder
  3
AutoCAD 2000
 90
        0
280
     0
281
     0
  0
CLASS
  1
LAYOUT
  2
AcDbLayout
  3
AutoCAD 2000
 90
        0
280
     0
281
     0
  0
CLASS
  1
LONG_TRANSACTION
  2
AcDbLongTransaction
  3
AutoCAD 2000
 90
        0
280
     0
281
     0
  0
CLASS
  1
LWPOLYLINE
  2
AcDbPolyline
  3
AutoCAD 2000
 90
        0
280
     0
281
     1
  0
CLASS
  1
HATCH
  2
AcDbHatch
  3
AutoCAD 2000
 90
        0
280
     0
281
     1
  0
CLASS
  1
XRECORD
  2
AcDbXrecord
  3
AutoCAD 2000
 90
        0
280
     0
281
     0
  0
CLASS
  1
LONG_TRANSACTION
  2
AcDbLongTransaction
  3
AutoCAD 2000
 90
        0
280
     0
281
     0
  0
CLASS
  1
LWPOLYLINE
  2
AcDbPolyline
  3
AutoCAD 2000
 90
        0
280
     0
281
     1
  0
CLASS
  1
HATCH
  2
AcDbHatch
  3
AutoCAD 2000
 90
        0
280
     0
281
     1
  0
CLASS
  1
XRECORD
  2
AcDbXrecord
  3
AutoCAD 2000
 90
        0
280
     0
281
     0
  0
CLASS
  1
LONG_TRANSACTION
  2
AcDbLongTransaction
  3
AutoCAD 2000
 90
        0
280
     0
281
     0
  0
CLASS
  1
LWPOLYLINE
  2
AcDbPolyline
  3
AutoCAD 2000
 90
        0
280
     0
281
     1
  0
CLASS
  1
HATCH
  2
AcDbHatch
  3
AutoCAD 2000
 90
        0
280
     0
281
     1
  0
CLASS
  1
XRECORD
  2
AcDbXrecord
  3
AutoCAD 2000
 90
        0
280
     0
281
     0
  0
CLASS
  1
LONG_TRANSACTION
  2
AcDbLongTransaction
  3
AutoCAD 2000
 90
        0
280
     0
281
     0
  0
CLASS
  1
LWPOLYLINE
  2
AcDbPolyline
  3
AutoCAD 2000
 90
        0
280
     0
281
     1
  0
CLASS
  1
HATCH
  2
AcDbHatch
  3
AutoCAD 2000
 90
        0
280
     0
281
     1
  0
CLASS
  1
XRECORD
  2
AcDbXrecord
  3
AutoCAD 2000
 90
        0
280
     0
281
     0
  0
CLASS
  1
LONG_TRANSACTION
  2
AcDbLongTransaction
  3
AutoCAD 2000
 90
        0
280
     0
281
     0
  0
CLASS
  1
LWPOLYLINE
  2
AcDbPolyline
  3
AutoCAD 2000
 90
        0
280
     0
281
     1
  0
CLASS
  1
HATCH
  2
AcDbHatch
  3
AutoCAD 2000
 90
        0
280
     0
281
     1
  0
CLASS
  1
XRECORD
  2
AcDbXrecord
  3
AutoCAD 2000
 90
        0
280
     0
281
     0
  0
ENDSEC
  0
SECTION
  2
TABLES
  0
TABLE
  2
VPORT
  5
8
330
0
100
AcDbSymbolTable
 70
     2
  0
VPORT
  5
1AE
330
8
100
AcDbSymbolTableRecord
100
AcDbViewportTableRecord
  2
*ACTIVE
 70
     0
 10
0.0
 20
0.0
 11
1.0
 21
1.0
 12
24.13861093080907
 22
16.75717171323156
 13
0.0
 23
0.0
 14
0.5740882589684922
 24
0.5740882589684922
 15
0.5
 25
0.5
 16
0.0
 26
0.0
 36
1.0
 17
0.0
 27
0.0
 37
0.0
 40
8.188692084136921
 41
1.570528967254408
 42
50.0
 43
0.0
 44
0.0
 50
0.0
 51
0.0
 71
     0
 72
   100
 73
     1
 74
     0
 75
     0
 76
     0
 77
     0
 78
     0
  0
ENDTAB
  0
TABLE
  2
LTYPE
  5
5
330
0
100
AcDbSymbolTable
 70
     2
  0
LTYPE
  5
11
330
5
100
AcDbSymbolTableRecord
100
AcDbLinetypeTableRecord
  2
BYBLOCK
 70
     0
  3

 72
    65
 73
     0
 40
0.0
  0
LTYPE
  5
12
330
5
100
AcDbSymbolTableRecord
100
AcDbLinetypeTableRecord
  2
BYLAYER
 70
     0
  3

 72
    65
 73
     0
 40
0.0
  0
LTYPE
  5
13
330
5
100
AcDbSymbolTableRecord
100
AcDbLinetypeTableRecord
  2
CONTINUOUS
 70
     0
  3
Solid line
 72
    65
 73
     0
 40
0.0
  0
LTYPE
  5
21
330
5
100
AcDbSymbolTableRecord
100
AcDbLinetypeTableRecord
  2
HIDDEN2
 70
     0
  3
_ _ _ _ _ _ _ _ _ _ _ _ _ _ _ _ _ _ _ _ _ _ _ _
 72
    65
 73
     2
 40
0.1875
 49
0.125
 74
     0
 49
-0.0625
 74
     0
  0
ENDTAB
  0
TABLE
  2
LAYER
  5
2
330
0
100
AcDbSymbolTable
 70
     5
  0
LAYER
  5
E
330
2
100
AcDbSymbolTableRecord
100
AcDbLayerTableRecord
  2
0
 70
     0
 62
     7
  6
CONTINUOUS
  0
LAYER
  5
23
330
2
100
AcDbSymbolTableRecord
100
AcDbLayerTableRecord
  2
ADP1DETAIL
 70
     0
 62
     7
  6
CONTINUOUS
  0
LAYER
  5
24
330
2
100
AcDbSymbolTableRecord
100
AcDbLayerTableRecord
  2
DEFPOINTS
 70
     0
 62
     7
  6
CONTINUOUS
  0
LAYER
  5
25
330
2
100
AcDbSymbolTableRecord
100
AcDbLayerTableRecord
  2
ADP2DETAIL
 70
     0
 62
     5
  6
CONTINUOUS
  0
LAYER
  5
26
330
2
100
AcDbSymbolTableRecord
100
AcDbLayerTableRecord
  2
ADPDIM
 70
     0
 62
     3
  6
CONTINUOUS
  0
ENDTAB
  0
TABLE
  2
STYLE
  5
3
330
0
100
AcDbSymbolTable
 70
     2
  0
STYLE
  5
F
330
3
100
AcDbSymbolTableRecord
100
AcDbTextStyleTableRecord
  2
STANDARD
 70
     0
 40
0.0
 41
1.0
 50
0.0
 71
     0
 42
0.2
  3
txt
  4

  0
STYLE
  5
B6
330
3
100
AcDbSymbolTableRecord
100
AcDbTextStyleTableRecord
  2
ARIAL_WIDE
 70
     0
 40
0.0
 41
1.25
 50
0.0
 71
     0
 42
0.2
  3
ARIAL.TTF
  4

1001
ACAD
1000
Arial
1071
       34
  0
ENDTAB
  0
TABLE
  2
VIEW
  5
6
330
0
100
AcDbSymbolTable
 70
     0
  0
ENDTAB
  0
TABLE
  2
UCS
  5
7
330
0
100
AcDbSymbolTable
 70
     0
  0
ENDTAB
  0
TABLE
  2
APPID
  5
9
330
0
100
AcDbSymbolTable
 70
     1
  0
APPID
  5
10
330
9
100
AcDbSymbolTableRecord
100
AcDbRegAppTableRecord
  2
ACAD
 70
     0
  0
ENDTAB
  0
TABLE
  2
DIMSTYLE
  5
A
330
0
100
AcDbSymbolTable
 70
     1
  0
DIMSTYLE
105
B4
330
A
100
AcDbSymbolTableRecord
100
AcDbDimStyleTableRecord
  2
STANDARD
 70
     0
  3

  4

  5

  6

  7

 40
1.0
 41
0.18
 42
0.0625
 43
0.38
 44
0.18
 45
0.0
 46
0.0
 47
0.0
 48
0.0
140
0.18
141
0.09
142
0.0
143
25.4
144
1.0
145
0.0
146
1.0
147
0.09
 71
     0
 72
     0
 73
     1
 74
     1
 75
     0
 76
     0
 77
     0
 78
     0
170
     0
171
     2
172
     0
173
     0
174
     0
175
     0
176
     0
177
     0
178
     0
270
     2
271
     4
272
     4
273
     2
274
     2
340
F
275
     0
280
     0
281
     0
282
     0
283
     1
284
     0
285
     0
286
     0
287
     3
288
     0
  0
ENDTAB
  0
TABLE
  2
BLOCK_RECORD
  5
1
330
0
100
AcDbSymbolTable
 70
     5
  0
BLOCK_RECORD
  5
17
102
{ACAD_XDICTIONARY
360
EF
102
}
330
1
100
AcDbSymbolTableRecord
100
AcDbBlockTableRecord
  2
*MODEL_SPACE
  0
BLOCK_RECORD
  5
14
102
{ACAD_XDICTIONARY
360
ED
102
}
330
1
100
AcDbSymbolTableRecord
100
AcDbBlockTableRecord
  2
*PAPER_SPACE
  0
BLOCK_RECORD
  5
1C
330
1
100
AcDbSymbolTableRecord
100
AcDbBlockTableRecord
  2
*D0
  0
BLOCK_RECORD
  5
1D
330
1
100
AcDbSymbolTableRecord
100
AcDbBlockTableRecord
  2
*D1
  0
BLOCK_RECORD
  5
1E
330
1
100
AcDbSymbolTableRecord
100
AcDbBlockTableRecord
  2
*D2
  0
BLOCK_RECORD
  5
1F
330
1
100
AcDbSymbolTableRecord
100
AcDbBlockTableRecord
  2
*D3
  0
BLOCK_RECORD
  5
20
330
1
100
AcDbSymbolTableRecord
100
AcDbBlockTableRecord
  2
*D4
  0
ENDTAB
  0
ENDSEC
  0
SECTION
  2
BLOCKS
  0
BLOCK
  5
29
330
17
100
AcDbEntity
  8
0
100
AcDbBlockBegin
  2
*MODEL_SPACE
 70
     0
 10
0.0
 20
0.0
 30
0.0
  3
*MODEL_SPACE
  1

  0
ENDBLK
  5
2A
330
17
100
AcDbEntity
  8
0
100
AcDbBlockEnd
  0
BLOCK
  5
27
330
14
100
AcDbEntity
 67
     1
  8
0
100
AcDbBlockBegin
  2
*PAPER_SPACE
 70
     0
 10
0.0
 20
0.0
 30
0.0
  3
*PAPER_SPACE
  1

  0
ENDBLK
  5
28
330
14
100
AcDbEntity
 67
     1
  8
0
100
AcDbBlockEnd
  0
BLOCK
  5
2D
330
1C
100
AcDbEntity
  8
0
100
AcDbBlockBegin
  2
*D0
 70
     1
 10
0.0
 20
0.0
 30
0.0
  3
*D0
  1

  0
LINE
  5
2E
330
1C
100
AcDbEntity
  8
0
  6
BYBLOCK
 62
     0
100
AcDbLine
 10
23.9309343520616
 20
19.34635499998996
 30
0.0
 11
23.9309343520616
 21
19.87241108165351
 31
0.0
  0
LINE
  5
2F
330
1C
100
AcDbEntity
  8
0
  6
BYBLOCK
 62
     0
100
AcDbLine
 10
26.9309343520616
 20
19.34635499998996
 30
0.0
 11
26.9309343520616
 21
19.87241108165351
 31
0.0
  0
LINE
  5
30
330
1C
100
AcDbEntity
  8
0
  6
BYBLOCK
 62
     0
100
AcDbLine
 10
23.9309343520616
 20
19.69241108165351
 30
0.0
 11
25.26426768539494
 21
19.69241108165351
 31
0.0
  0
LINE
  5
31
330
1C
100
AcDbEntity
  8
0
  6
BYBLOCK
 62
     0
100
AcDbLine
 10
26.9309343520616
 20
19.69241108165351
 30
0.0
 11
25.59760101872827
 21
19.69241108165351
 31
0.0
  0
LINE
  5
32
330
1C
100
AcDbEntity
  8
0
  6
BYBLOCK
 62
     0
100
AcDbLine
 10
23.8059343520616
 20
19.56741108165351
 30
0.0
 11
24.0559343520616
 21
19.81741108165351
 31
0.0
  0
LINE
  5
33
330
1C
100
AcDbEntity
  8
0
  6
BYBLOCK
 62
     0
100
AcDbLine
 10
26.8059343520616
 20
19.56741108165351
 30
0.0
 11
27.0559343520616
 21
19.81741108165351
 31
0.0
  0
TEXT
  5
34
330
1C
100
AcDbEntity
  8
0
  6
BYBLOCK
 62
     0
100
AcDbText
 10
25.38926768539493
 20
19.62991108165351
 30
0.0
 40
0.125
  1
3
 72
     1
 11
25.4309343520616
 21
19.69241108165351
 31
0.0
100
AcDbText
 73
     2
  0
POINT
  5
36
330
1C
100
AcDbEntity
  8
DEFPOINTS
  6
BYBLOCK
 62
     0
100
AcDbPoint
 10
23.9309343520616
 20
19.28385499998995
 30
0.0
  0
POINT
  5
37
330
1C
100
AcDbEntity
  8
DEFPOINTS
  6
BYBLOCK
 62
     0
100
AcDbPoint
 10
26.9309343520616
 20
19.28385499998995
 30
0.0
  0
POINT
  5
38
330
1C
100
AcDbEntity
  8
DEFPOINTS
  6
BYBLOCK
 62
     0
100
AcDbPoint
 10
26.9309343520616
 20
19.69241108165351
 30
0.0
  0
ENDBLK
  5
39
330
1C
100
AcDbEntity
  8
0
100
AcDbBlockEnd
  0
BLOCK
  5
3A
330
1D
100
AcDbEntity
  8
0
100
AcDbBlockBegin
  2
*D1
 70
     1
 10
0.0
 20
0.0
 30
0.0
  3
*D1
  1

  0
LINE
  5
3B
330
1D
100
AcDbEntity
  8
0
  6
BYBLOCK
 62
     0
100
AcDbLine
 10
22.62010101872827
 20
18.78385499998995
 30
0.0
 11
23.15574787080637
 21
18.78385499998995
 31
0.0
  0
LINE
  5
3C
330
1D
100
AcDbEntity
  8
0
  6
BYBLOCK
 62
     0
100
AcDbLine
 10
22.62010101872827
 20
15.78385499998995
 30
0.0
 11
23.15574787080637
 21
15.78385499998995
 31
0.0
  0
LINE
  5
3D
330
1D
100
AcDbEntity
  8
0
  6
BYBLOCK
 62
     0
100
AcDbLine
 10
22.97574787080637
 20
18.78385499998995
 30
0.0
 11
22.97574787080637
 21
17.45052166665662
 31
0.0
  0
LINE
  5
3E
330
1D
100
AcDbEntity
  8
0
  6
BYBLOCK
 62
     0
100
AcDbLine
 10
22.97574787080637
 20
15.78385499998995
 30
0.0
 11
22.97574787080637
 21
17.11718833332329
 31
0.0
  0
LINE
  5
3F
330
1D
100
AcDbEntity
  8
0
  6
BYBLOCK
 62
     0
100
AcDbLine
 10
23.10074787080637
 20
18.65885499998995
 30
0.0
 11
22.85074787080637
 21
18.90885499998995
 31
0.0
  0
LINE
  5
40
330
1D
100
AcDbEntity
  8
0
  6
BYBLOCK
 62
     0
100
AcDbLine
 10
23.10074787080637
 20
15.65885499998995
 30
0.0
 11
22.85074787080637
 21
15.90885499998996
 31
0.0
  0
TEXT
  5
41
330
1D
100
AcDbEntity
  8
0
  6
BYBLOCK
 62
     0
100
AcDbText
 10
23.03824787080637
 20
17.24218833332329
 30
0.0
 40
0.125
  1
3
 50
90.0
 72
     1
 11
22.97574787080637
 21
17.28385499998996
 31
0.0
100
AcDbText
 73
     2
  0
POINT
  5
42
330
1D
100
AcDbEntity
  8
DEFPOINTS
  6
BYBLOCK
 62
     0
100
AcDbPoint
 10
22.55760101872827
 20
18.78385499998995
 30
0.0
  0
POINT
  5
43
330
1D
100
AcDbEntity
  8
DEFPOINTS
  6
BYBLOCK
 62
     0
100
AcDbPoint
 10
22.55760101872827
 20
15.78385499998995
 30
0.0
  0
POINT
  5
44
330
1D
100
AcDbEntity
  8
DEFPOINTS
  6
BYBLOCK
 62
     0
100
AcDbPoint
 10
22.97574787080637
 20
15.78385499998995
 30
0.0
  0
ENDBLK
  5
45
330
1D
100
AcDbEntity
  8
0
100
AcDbBlockEnd
  0
BLOCK
  5
46
330
1E
100
AcDbEntity
  8
0
100
AcDbBlockBegin
  2
*D2
 70
     1
 10
0.0
 20
0.0
 30
0.0
  3
*D2
  1

  0
LINE
  5
47
330
1E
100
AcDbEntity
  8
0
  6
BYBLOCK
 62
     0
100
AcDbLine
 10
21.05760101872827
 20
15.22135499998995
 30
0.0
 11
21.05760101872827
 21
14.88561629636003
 31
0.0
  0
LINE
  5
48
330
1E
100
AcDbEntity
  8
0
  6
BYBLOCK
 62
     0
100
AcDbLine
 10
20.80426768539493
 20
15.22135499998995
 30
0.0
 11
20.80426768539493
 21
14.88561629636003
 31
0.0
  0
LINE
  5
49
330
1E
100
AcDbEntity
  8
0
  6
BYBLOCK
 62
     0
100
AcDbLine
 10
21.05760101872827
 20
15.06561629636003
 30
0.0
 11
21.30760101872827
 21
15.06561629636003
 31
0.0
  0
LINE
  5
4A
330
1E
100
AcDbEntity
  8
0
  6
BYBLOCK
 62
     0
100
AcDbLine
 10
20.80426768539493
 20
15.06561629636003
 30
0.0
 11
20.55426768539493
 21
15.06561629636003
 31
0.0
  0
LINE
  5
4B
330
1E
100
AcDbEntity
  8
0
  6
BYBLOCK
 62
     0
100
AcDbLine
 10
20.93260101872826
 20
14.94061629636003
 30
0.0
 11
21.18260101872827
 21
15.19061629636003
 31
0.0
  0
LINE
  5
4C
330
1E
100
AcDbEntity
  8
0
  6
BYBLOCK
 62
     0
100
AcDbLine
 10
20.67926768539493
 20
14.94061629636003
 30
0.0
 11
20.92926768539493
 21
15.19061629636003
 31
0.0
  0
TEXT
  5
4D
330
1E
100
AcDbEntity
  8
0
  6
BYBLOCK
 62
     0
100
AcDbText
 10
20.13760101872827
 20
15.00311629636003
 30
0.0
 40
0.125
  1
1/4
 72
     1
 11
20.2834343520616
 21
15.06561629636003
 31
0.0
100
AcDbText
 73
     2
  0
POINT
  5
4E
330
1E
100
AcDbEntity
  8
DEFPOINTS
  6
BYBLOCK
 62
     0
100
AcDbPoint
 10
21.05760101872827
 20
15.28385499998996
 30
0.0
  0
POINT
  5
4F
330
1E
100
AcDbEntity
  8
DEFPOINTS
  6
BYBLOCK
 62
     0
100
AcDbPoint
 10
20.80426768539493
 20
15.28385499998996
 30
0.0
  0
POINT
  5
50
330
1E
100
AcDbEntity
  8
DEFPOINTS
  6
BYBLOCK
 62
     0
100
AcDbPoint
 10
20.80426768539493
 20
15.06561629636003
 30
0.0
  0
ENDBLK
  5
51
330
1E
100
AcDbEntity
  8
0
100
AcDbBlockEnd
  0
BLOCK
  5
52
330
1F
100
AcDbEntity
  8
0
100
AcDbBlockBegin
  2
*D3
 70
     1
 10
0.0
 20
0.0
 30
0.0
  3
*D3
  1

  0
LINE
  5
53
330
1F
100
AcDbEntity
  8
0
  6
BYBLOCK
 62
     0
100
AcDbLine
 10
20.80426768539493
 20
19.34635499998996
 30
0.0
 11
20.80426768539493
 21
19.87241108165351
 31
0.0
  0
LINE
  5
54
330
1F
100
AcDbEntity
  8
0
  6
BYBLOCK
 62
     0
100
AcDbLine
 10
22.55760101872827
 20
18.84635499998996
 30
0.0
 11
22.55760101872827
 21
19.87241108165351
 31
0.0
  0
LINE
  5
55
330
1F
100
AcDbEntity
  8
0
  6
BYBLOCK
 62
     0
100
AcDbLine
 10
20.80426768539493
 20
19.69241108165351
 30
0.0
 11
21.28510101872827
 21
19.69241108165351
 31
0.0
  0
LINE
  5
56
330
1F
100
AcDbEntity
  8
0
  6
BYBLOCK
 62
     0
100
AcDbLine
 10
22.55760101872827
 20
19.69241108165351
 30
0.0
 11
22.07676768539494
 21
19.69241108165351
 31
0.0
  0
LINE
  5
57
330
1F
100
AcDbEntity
  8
0
  6
BYBLOCK
 62
     0
100
AcDbLine
 10
20.67926768539493
 20
19.56741108165351
 30
0.0
 11
20.92926768539493
 21
19.81741108165351
 31
0.0
  0
LINE
  5
58
330
1F
100
AcDbEntity
  8
0
  6
BYBLOCK
 62
     0
100
AcDbLine
 10
22.43260101872827
 20
19.56741108165351
 30
0.0
 11
22.68260101872827
 21
19.81741108165351
 31
0.0
  0
TEXT
  5
59
330
1F
100
AcDbEntity
  8
0
  6
BYBLOCK
 62
     0
100
AcDbText
 10
21.41010101872827
 20
19.62991108165351
 30
0.0
 40
0.125
  1
1 3/4
 72
     1
 11
21.6809343520616
 21
19.69241108165351
 31
0.0
100
AcDbText
 73
     2
  0
POINT
  5
5A
330
1F
100
AcDbEntity
  8
DEFPOINTS
  6
BYBLOCK
 62
     0
100
AcDbPoint
 10
20.80426768539493
 20
19.28385499998995
 30
0.0
  0
POINT
  5
5B
330
1F
100
AcDbEntity
  8
DEFPOINTS
  6
BYBLOCK
 62
     0
100
AcDbPoint
 10
22.55760101872827
 20
18.78385499998995
 30
0.0
  0
POINT
  5
5C
330
1F
100
AcDbEntity
  8
DEFPOINTS
  6
BYBLOCK
 62
     0
100
AcDbPoint
 10
22.55760101872827
 20
19.69241108165351
 30
0.0
  0
ENDBLK
  5
5D
330
1F
100
AcDbEntity
  8
0
100
AcDbBlockEnd
  0
BLOCK
  5
5E
330
20
100
AcDbEntity
  8
0
100
AcDbBlockBegin
  2
*D4
 70
     1
 10
0.0
 20
0.0
 30
0.0
  3
*D4
  1

  0
LINE
  5
5F
330
20
100
AcDbEntity
  8
0
  6
BYBLOCK
 62
     0
100
AcDbLine
 10
26.9934343520616
 20
19.28385499998995
 30
0.0
 11
27.68580270286859
 21
19.28385499998995
 31
0.0
  0
LINE
  5
60
330
20
100
AcDbEntity
  8
0
  6
BYBLOCK
 62
     0
100
AcDbLine
 10
26.9934343520616
 20
15.28385499998996
 30
0.0
 11
27.68580270286859
 21
15.28385499998996
 31
0.0
  0
LINE
  5
61
330
20
100
AcDbEntity
  8
0
  6
BYBLOCK
 62
     0
100
AcDbLine
 10
27.50580270286858
 20
19.28385499998995
 30
0.0
 11
27.50580270286858
 21
17.45052166665662
 31
0.0
  0
LINE
  5
62
330
20
100
AcDbEntity
  8
0
  6
BYBLOCK
 62
     0
100
AcDbLine
 10
27.50580270286858
 20
15.28385499998996
 30
0.0
 11
27.50580270286858
 21
17.11718833332329
 31
0.0
  0
LINE
  5
63
330
20
100
AcDbEntity
  8
0
  6
BYBLOCK
 62
     0
100
AcDbLine
 10
27.63080270286859
 20
19.15885499998996
 30
0.0
 11
27.38080270286859
 21
19.40885499998995
 31
0.0
  0
LINE
  5
64
330
20
100
AcDbEntity
  8
0
  6
BYBLOCK
 62
     0
100
AcDbLine
 10
27.63080270286859
 20
15.15885499998995
 30
0.0
 11
27.38080270286859
 21
15.40885499998996
 31
0.0
  0
TEXT
  5
65
330
20
100
AcDbEntity
  8
0
  6
BYBLOCK
 62
     0
100
AcDbText
 10
27.56830270286859
 20
17.24218833332329
 30
0.0
 40
0.125
  1
4
 50
90.0
 72
     1
 11
27.50580270286858
 21
17.28385499998996
 31
0.0
100
AcDbText
 73
     2
  0
POINT
  5
66
330
20
100
AcDbEntity
  8
DEFPOINTS
  6
BYBLOCK
 62
     0
100
AcDbPoint
 10
26.9309343520616
 20
19.28385499998995
 30
0.0
  0
POINT
  5
67
330
20
100
AcDbEntity
  8
DEFPOINTS
  6
BYBLOCK
 62
     0
100
AcDbPoint
 10
26.9309343520616
 20
15.28385499998996
 30
0.0
  0
POINT
  5
68
330
20
100
AcDbEntity
  8
DEFPOINTS
  6
BYBLOCK
 62
     0
100
AcDbPoint
 10
27.50580270286858
 20
15.28385499998996
 30
0.0
  0
ENDBLK
  5
69
330
20
100
AcDbEntity
  8
0
100
AcDbBlockEnd
  0
ENDSEC
  0
SECTION
  2
ENTITIES
  0
LINE
  5
6A
330
17
100
AcDbEntity
  8
ADP2DETAIL
  6
HIDDEN2
100
AcDbLine
 10
22.49760101872826
 20
16.03052166665662
 30
0.0
 11
22.3109343520616
 21
15.91718833332329
 31
0.0
  0
LINE
  5
6B
330
17
100
AcDbEntity
  8
ADP1DETAIL
100
AcDbLine
 10
20.80426768539493
 20
19.28385499998995
 30
0.0
 11
20.80426768539493
 21
15.28385499998996
 31
0.0
  0
LINE
  5
6C
330
17
100
AcDbEntity
  8
ADP1DETAIL
100
AcDbLine
 10
21.05760101872827
 20
15.28385499998996
 30
0.0
 11
21.05760101872827
 21
19.28385499998995
 31
0.0
  0
LINE
  5
6D
330
17
100
AcDbEntity
  8
ADP1DETAIL
100
AcDbLine
 10
22.55760101872827
 20
15.78385499998995
 30
0.0
 11
22.55760101872827
 21
18.78385499998995
 31
0.0
  0
LINE
  5
6E
330
17
100
AcDbEntity
  8
ADP1DETAIL
100
AcDbLine
 10
22.17760101872827
 20
16.65718833332329
 30
0.0
 11
22.30426768539493
 21
15.78385499998995
 31
0.0
  0
LINE
  5
6F
330
17
100
AcDbEntity
  8
ADP1DETAIL
100
AcDbLine
 10
23.9309343520616
 20
19.28385499998995
 30
0.0
 11
23.9309343520616
 21
15.28385499998996
 31
0.0
  0
LINE
  5
70
330
17
100
AcDbEntity
  8
ADP1DETAIL
100
AcDbLine
 10
24.9309343520616
 20
18.78385499998995
 30
0.0
 11
24.9309343520616
 21
15.78385499998995
 31
0.0
  0
LINE
  5
71
330
17
100
AcDbEntity
  8
ADP1DETAIL
100
AcDbLine
 10
25.9309343520616
 20
15.78385499998995
 30
0.0
 11
25.9309343520616
 21
18.78385499998995
 31
0.0
  0
LINE
  5
72
330
17
100
AcDbEntity
  8
ADP1DETAIL
100
AcDbLine
 10
26.9309343520616
 20
15.28385499998996
 30
0.0
 11
26.9309343520616
 21
19.28385499998995
 31
0.0
  0
DIMENSION
  5
73
330
17
100
AcDbEntity
  8
ADPDIM
100
AcDbDimension
  2
*D1
 10
22.97574787080637
 20
15.78385499998995
 30
0.0
 11
22.97574787080637
 21
17.28385499998996
 31
0.0
100
AcDbAlignedDimension
 13
22.55760101872827
 23
18.78385499998995
 33
0.0
 14
22.55760101872827
 24
15.78385499998995
 34
0.0
 50
90.0
100
AcDbRotatedDimension
  0
DIMENSION
  5
74
330
17
100
AcDbEntity
  8
ADPDIM
100
AcDbDimension
  2
*D4
 10
27.50580270286858
 20
15.28385499998996
 30
0.0
 11
27.50580270286858
 21
17.28385499998996
 31
0.0
100
AcDbAlignedDimension
 13
26.9309343520616
 23
19.28385499998995
 33
0.0
 14
26.9309343520616
 24
15.28385499998996
 34
0.0
 50
90.0
100
AcDbRotatedDimension
  0
LINE
  5
75
330
17
100
AcDbEntity
  8
ADP1DETAIL
100
AcDbLine
 10
23.9309343520616
 20
15.28385499998996
 30
0.0
 11
26.9309343520616
 21
15.28385499998996
 31
0.0
  0
DIMENSION
  5
76
330
17
100
AcDbEntity
  8
ADPDIM
100
AcDbDimension
  2
*D2
 10
20.80426768539493
 20
15.06561629636003
 30
0.0
 11
20.2834343520616
 21
15.06561629636003
 31
0.0
100
AcDbAlignedDimension
 13
21.05760101872827
 23
15.28385499998996
 33
0.0
 14
20.80426768539493
 24
15.28385499998996
 34
0.0
100
AcDbRotatedDimension
  0
LINE
  5
77
330
17
100
AcDbEntity
  8
ADP1DETAIL
100
AcDbLine
 10
20.80426768539493
 20
15.28385499998996
 30
0.0
 11
21.05760101872827
 21
15.28385499998996
 31
0.0
  0
LINE
  5
78
330
17
100
AcDbEntity
  8
0
100
AcDbLine
 10
21.05760101872827
 20
15.28385499998996
 30
0.0
 11
21.05760101872827
 21
15.28385499998996
 31
0.0
  0
LINE
  5
79
330
17
100
AcDbEntity
  8
ADP1DETAIL
100
AcDbLine
 10
22.30426768539493
 20
15.78385499998995
 30
0.0
 11
22.55760101872827
 21
15.78385499998995
 31
0.0
  0
LINE
  5
7A
330
17
100
AcDbEntity
  8
ADP1DETAIL
100
AcDbLine
 10
24.9309343520616
 20
15.78385499998995
 30
0.0
 11
25.9309343520616
 21
15.78385499998995
 31
0.0
  0
LINE
  5
7B
330
17
100
AcDbEntity
  8
0
100
AcDbLine
 10
25.9309343520616
 20
15.78385499998995
 30
0.0
 11
25.9309343520616
 21
15.78385499998995
 31
0.0
  0
LINE
  5
7C
330
17
100
AcDbEntity
  8
0
100
AcDbLine
 10
26.9309343520616
 20
15.28385499998996
 30
0.0
 11
26.9309343520616
 21
15.28385499998996
 31
0.0
  0
LINE
  5
7D
330
17
100
AcDbEntity
  8
ADP1DETAIL
100
AcDbLine
 10
26.9309343520616
 20
19.28385499998995
 30
0.0
 11
23.9309343520616
 21
19.28385499998995
 31
0.0
  0
DIMENSION
  5
7E
330
17
100
AcDbEntity
  8
ADPDIM
100
AcDbDimension
  2
*D0
 10
26.9309343520616
 20
19.69241108165351
 30
0.0
 11
25.4309343520616
 21
19.69241108165351
 31
0.0
100
AcDbAlignedDimension
 13
23.9309343520616
 23
19.28385499998995
 33
0.0
 14
26.9309343520616
 24
19.28385499998995
 34
0.0
100
AcDbRotatedDimension
  0
DIMENSION
  5
7F
330
17
100
AcDbEntity
  8
ADPDIM
100
AcDbDimension
  2
*D3
 10
22.55760101872827
 20
19.69241108165351
 30
0.0
 11
21.6809343520616
 21
19.69241108165351
 31
0.0
100
AcDbAlignedDimension
 13
20.80426768539493
 23
19.28385499998995
 33
0.0
 14
22.55760101872827
 24
18.78385499998995
 34
0.0
100
AcDbRotatedDimension
  0
LINE
  5
80
330
17
100
AcDbEntity
  8
ADP2DETAIL
  6
HIDDEN2
100
AcDbLine
 10
22.3109343520616
 20
16.91052166665662
 30
0.0
 11
20.80267573675349
 21
16.91052166665662
 31
0.0
  0
LINE
  5
81
330
17
100
AcDbEntity
  8
ADP2DETAIL
  6
HIDDEN2
100
AcDbLine
 10
21.05685185732357
 20
17.47161025472895
 30
0.0
 11
21.94223202183315
 21
17.47161025472895
 31
0.0
  0
LINE
  5
82
330
17
100
AcDbEntity
  8
ADP2DETAIL
  6
HIDDEN2
100
AcDbLine
 10
21.05685185732357
 20
17.09914422560061
 30
0.0
 11
21.94223202183315
 21
17.09914422560061
 31
0.0
  0
LINE
  5
83
330
17
100
AcDbEntity
  8
ADP2DETAIL
  6
HIDDEN2
100
AcDbLine
 10
20.80267573675349
 20
17.65718833332329
 30
0.0
 11
22.3109343520616
 21
17.65718833332329
 31
0.0
  0
LINE
  5
84
330
17
100
AcDbEntity
  8
ADP1DETAIL
100
AcDbLine
 10
21.05760101872827
 20
16.28385499998995
 30
0.0
 11
21.24426768539493
 21
16.28385499998995
 31
0.0
  0
LINE
  5
85
330
17
100
AcDbEntity
  8
ADP1DETAIL
100
AcDbLine
 10
21.24426768539493
 20
18.28385499998995
 30
0.0
 11
21.05760101872827
 21
18.28385499998995
 31
0.0
  0
LINE
  5
86
330
17
100
AcDbEntity
  8
ADP1DETAIL
100
AcDbLine
 10
21.05760101872827
 20
18.28385499998995
 30
0.0
 11
21.05760101872827
 21
16.28385499998995
 31
0.0
  0
LINE
  5
87
330
17
100
AcDbEntity
  8
ADP2DETAIL
  6
HIDDEN2
100
AcDbLine
 10
22.3109343520616
 20
17.65718833332329
 30
0.0
 11
22.3109343520616
 21
16.91052166665662
 31
0.0
  0
LINE
  5
88
330
17
100
AcDbEntity
  8
ADP2DETAIL
  6
HIDDEN2
100
AcDbLine
 10
21.94426768539493
 20
16.90385499998995
 30
0.0
 11
21.94426768539493
 21
17.65718833332329
 31
0.0
  0
LINE
  5
89
330
17
100
AcDbEntity
  8
ADP2DETAIL
  6
HIDDEN2
100
AcDbLine
 10
21.37033573936001
 20
17.65361069797487
 30
0.0
 11
21.37033573936001
 21
16.90867863971819
 31
0.0
  0
LINE
  5
8A
330
17
100
AcDbEntity
  8
ADP2DETAIL
  6
HIDDEN2
100
AcDbLine
 10
21.64145695701567
 20
17.65361069797487
 30
0.0
 11
21.64145695701567
 21
16.90867863971819
 31
0.0
  0
LINE
  5
8B
330
17
100
AcDbEntity
  8
ADP2DETAIL
  6
HIDDEN2
100
AcDbLine
 10
21.58638545303503
 20
17.55626162300508
 30
0.0
 11
21.58638545303503
 21
17.00179515063084
 31
0.0
  0
LINE
  5
8C
330
17
100
AcDbEntity
  8
ADP2DETAIL
  6
HIDDEN2
100
AcDbLine
 10
21.42964350082636
 20
17.55626162300508
 30
0.0
 11
21.42964350082636
 21
17.00179515063084
 31
0.0
  0
LINE
  5
8D
330
17
100
AcDbEntity
  8
ADP1DETAIL
100
AcDbLine
 10
21.30426768539493
 20
16.65718833332329
 30
0.0
 11
22.17760101872827
 21
16.65718833332329
 31
0.0
  0
LINE
  5
8E
330
17
100
AcDbEntity
  8
0
100
AcDbLine
 10
21.37880827671235
 20
16.90867863971819
 30
0.0
 11
21.37880827671235
 21
16.65895709894692
 31
0.0
  0
LINE
  5
8F
330
17
100
AcDbEntity
  8
0
100
AcDbLine
 10
21.63298441966333
 20
16.90867863971819
 30
0.0
 11
21.63298441966333
 21
16.65895709894692
 31
0.0
  0
LINE
  5
90
330
17
100
AcDbEntity
  8
ADP2DETAIL
  6
HIDDEN2
100
AcDbLine
 10
21.37880827671235
 20
16.70551534714213
 30
0.0
 11
21.63298441966333
 21
16.70551534714213
 31
0.0
  0
LINE
  5
91
330
17
100
AcDbEntity
  8
ADP1DETAIL
100
AcDbLine
 10
21.24426768539493
 20
16.28385499998995
 30
0.0
 11
21.30426768539493
 21
16.65718833332329
 31
0.0
  0
LINE
  5
92
330
17
100
AcDbEntity
  8
ADP2DETAIL
  6
HIDDEN2
100
AcDbLine
 10
21.6309343520616
 20
16.65718833332329
 30
0.0
 11
21.6309343520616
 21
16.71052166665663
 31
0.0
  0
LINE
  5
93
330
17
100
AcDbEntity
  8
ADP2DETAIL
  6
HIDDEN2
100
AcDbLine
 10
21.58638545303503
 20
17.00179515063084
 30
0.0
 11
21.64145695701567
 21
16.90867863971819
 31
0.0
  0
LINE
  5
94
330
17
100
AcDbEntity
  8
ADP2DETAIL
  6
HIDDEN2
100
AcDbLine
 10
21.37880827671235
 20
16.74360846722306
 30
0.0
 11
21.63298441966333
 21
16.74360846722306
 31
0.0
  0
LINE
  5
95
330
17
100
AcDbEntity
  8
ADP2DETAIL
  6
HIDDEN2
100
AcDbLine
 10
21.37880827671235
 20
16.85788781294362
 30
0.0
 11
21.63298441966333
 21
16.85788781294362
 31
0.0
  0
LINE
  5
96
330
17
100
AcDbEntity
  8
ADP2DETAIL
  6
HIDDEN2
100
AcDbLine
 10
21.37880827671235
 20
16.82402727144206
 30
0.0
 11
21.63298441966333
 21
16.82402727144206
 31
0.0
  0
LINE
  5
97
330
17
100
AcDbEntity
  8
ADP2DETAIL
  6
HIDDEN2
100
AcDbLine
 10
21.37880827671235
 20
16.78593415136113
 30
0.0
 11
21.63298441966333
 21
16.78593415136113
 31
0.0
  0
LINE
  5
98
330
17
100
AcDbEntity
  8
ADP2DETAIL
  6
HIDDEN2
100
AcDbLine
 10
21.42964350082636
 20
17.00179515063084
 30
0.0
 11
21.37033573936001
 21
16.90867863971819
 31
0.0
  0
LINE
  5
99
330
17
100
AcDbEntity
  8
ADP2DETAIL
  6
HIDDEN2
100
AcDbLine
 10
21.42964350082636
 20
17.00179515063084
 30
0.0
 11
21.58638545303503
 21
17.00179515063084
 31
0.0
  0
LINE
  5
9A
330
17
100
AcDbEntity
  8
ADP2DETAIL
  6
HIDDEN2
100
AcDbLine
 10
22.49760101872826
 20
16.03052166665662
 30
0.0
 11
22.5509343520616
 21
16.03052166665662
 31
0.0
  0
LINE
  5
9B
330
17
100
AcDbEntity
  8
ADP2DETAIL
  6
HIDDEN2
100
AcDbLine
 10
22.47760101872827
 20
16.28385499998995
 30
0.0
 11
22.53760101872826
 21
16.28385499998995
 31
0.0
  0
LINE
  5
9C
330
17
100
AcDbEntity
  8
ADP2DETAIL
  6
HIDDEN2
100
AcDbLine
 10
22.2109343520616
 20
16.47718833332329
 30
0.0
 11
22.47760101872827
 21
16.28385499998995
 31
0.0
  0
LINE
  5
9D
330
17
100
AcDbEntity
  8
ADP1DETAIL
100
AcDbLine
 10
22.17760101872827
 20
17.91052166665662
 30
0.0
 11
21.30426768539493
 21
17.91052166665662
 31
0.0
  0
LINE
  5
9E
330
17
100
AcDbEntity
  8
ADP2DETAIL
  6
HIDDEN2
100
AcDbLine
 10
21.58638545303503
 20
17.55626162300508
 30
0.0
 11
21.64145695701567
 21
17.65361069797487
 31
0.0
  0
LINE
  5
9F
330
17
100
AcDbEntity
  8
ADP2DETAIL
  6
HIDDEN2
100
AcDbLine
 10
21.42964350082636
 20
17.55626162300508
 30
0.0
 11
21.37033573936001
 21
17.65361069797487
 31
0.0
  0
LINE
  5
A0
330
17
100
AcDbEntity
  8
ADP2DETAIL
  6
HIDDEN2
100
AcDbLine
 10
21.42964350082636
 20
17.55626162300508
 30
0.0
 11
21.58638545303503
 21
17.55626162300508
 31
0.0
  0
LINE
  5
A1
330
17
100
AcDbEntity
  8
ADP1DETAIL
100
AcDbLine
 10
21.30426768539493
 20
17.91052166665662
 30
0.0
 11
21.24426768539493
 21
18.28385499998995
 31
0.0
  0
LINE
  5
A2
330
17
100
AcDbEntity
  8
ADP2DETAIL
  6
HIDDEN2
100
AcDbLine
 10
21.94426768539493
 20
17.65718833332329
 30
0.0
 11
21.64426768539493
 21
17.65718833332329
 31
0.0
  0
LINE
  5
A3
330
17
100
AcDbEntity
  8
ADP1DETAIL
100
AcDbLine
 10
22.30426768539493
 20
18.78385499998995
 30
0.0
 11
22.17760101872827
 21
17.91052166665662
 31
0.0
  0
LINE
  5
A4
330
17
100
AcDbEntity
  8
ADP2DETAIL
  6
HIDDEN2
100
AcDbLine
 10
22.4709343520616
 20
18.28385499998995
 30
0.0
 11
22.55225473358225
 21
18.28385499998995
 31
0.0
  0
LINE
  5
A5
330
17
100
AcDbEntity
  8
ADP2DETAIL
  6
HIDDEN2
100
AcDbLine
 10
22.20426768539493
 20
18.09052166665662
 30
0.0
 11
22.4709343520616
 21
18.28385499998995
 31
0.0
  0
LINE
  5
A6
330
17
100
AcDbEntity
  8
ADP2DETAIL
  6
HIDDEN2
100
AcDbLine
 10
22.48426768539493
 20
18.53718833332329
 30
0.0
 11
22.54426768539493
 21
18.53718833332329
 31
0.0
  0
LINE
  5
A7
330
17
100
AcDbEntity
  8
ADP2DETAIL
  6
HIDDEN2
100
AcDbLine
 10
22.4909343520616
 20
18.53718833332329
 30
0.0
 11
22.54426768539493
 21
18.53718833332329
 31
0.0
  0
LINE
  5
A8
330
17
100
AcDbEntity
  8
ADP2DETAIL
  6
HIDDEN2
100
AcDbLine
 10
22.4909343520616
 20
18.53718833332329
 30
0.0
 11
22.30426768539493
 21
18.65052166665662
 31
0.0
  0
LINE
  5
A9
330
17
100
AcDbEntity
  8
ADP1DETAIL
100
AcDbLine
 10
22.55760101872827
 20
18.78385499998995
 30
0.0
 11
22.30426768539493
 21
18.78385499998995
 31
0.0
  0
LINE
  5
AA
330
17
100
AcDbEntity
  8
0
100
AcDbLine
 10
22.55760101872827
 20
18.78385499998995
 30
0.0
 11
22.55760101872827
 21
18.78385499998995
 31
0.0
  0
LINE
  5
AB
330
17
100
AcDbEntity
  8
ADP1DETAIL
100
AcDbLine
 10
21.05760101872827
 20
19.28385499998995
 30
0.0
 11
20.80426768539493
 21
19.28385499998995
 31
0.0
  0
LINE
  5
AC
330
17
100
AcDbEntity
  8
ADP2DETAIL
  6
HIDDEN2
100
AcDbLine
 10
24.93216510860322
 20
18.28802775233718
 30
0.0
 11
25.9271194363412
 21
18.28802775233718
 31
0.0
  0
LINE
  5
AD
330
17
100
AcDbEntity
  8
ADP2DETAIL
  6
HIDDEN2
100
AcDbLine
 10
24.93216510860322
 20
17.91096093859923
 30
0.0
 11
25.9271194363412
 21
17.91096093859923
 31
0.0
  0
LINE
  5
AE
330
17
100
AcDbEntity
  8
ADP2DETAIL
  6
HIDDEN2
100
AcDbLine
 10
24.93216510860322
 20
16.65978466134763
 30
0.0
 11
25.9271194363412
 21
16.65978466134763
 31
0.0
  0
LINE
  5
AF
330
17
100
AcDbEntity
  8
ADP2DETAIL
  6
HIDDEN2
100
AcDbLine
 10
24.93216510860322
 20
16.28271783309583
 30
0.0
 11
25.9271194363412
 21
16.28271783309583
 31
0.0
  0
LINE
  5
B0
330
17
100
AcDbEntity
  8
ADP1DETAIL
100
AcDbLine
 10
25.9309343520616
 20
18.78385499998995
 30
0.0
 11
24.9309343520616
 21
18.78385499998995
 31
0.0
  0
CIRCLE
  5
B1
330
17
100
AcDbEntity
  8
ADP2DETAIL
  6
HIDDEN2
100
AcDbCircle
 10
25.43689037458059
 20
17.27914628897666
 30
0.0
 40
0.374854548219421
  0
CIRCLE
  5
B2
330
17
100
AcDbEntity
  8
ADP1DETAIL
100
AcDbCircle
 10
25.4300236204017
 20
16.16274202608578
 30
0.0
 40
0.1205715584721166
  0
CIRCLE
  5
B3
330
17
100
AcDbEntity
  8
ADP1DETAIL
100
AcDbCircle
 10
25.4300236204017
 20
18.4028654335888
 30
0.0
 40
0.1205715584721166
  0
TEXT
  5
BD
330
17
100
AcDbEntity
  8
ADPDIM
100
AcDbText
 10
17.74048488475187
 20
13.6790362303475
 30
0.0
 40
0.125
  1
J U L I U S  B L U M  &  C O . ,  I N C .      ( 8 0 0 )  5 2 6 - 6 2 9 3        W W W . J U L I U S B L U M . C O M        P A R T  N O .  160
 41
1.25
  7
ARIAL_WIDE
 72
     1
 11
24.13874119443809
 21
13.8040362303475
 31
0.0
100
AcDbText
 73
     3
  0
ENDSEC
  0
SECTION
  2
OBJECTS
  0
DICTIONARY
  5
C
330
0
100
AcDbDictionary
  3
ACAD_GROUP
350
D
  3
ACAD_LAYOUT
350
C2
  3
ACAD_MLINESTYLE
350
1A
  3
ACAD_PLOTSETTINGS
350
C3
  3
ACAD_PLOTSTYLENAME
350
C0
  3
ACDBHEADERROUNDTRIPXREC
350
1AF
  3
ACDBVARIABLEDICTIONARY
350
2B
  0
DICTIONARY
  5
EF
330
17
100
AcDbDictionary
280
     1
  3
ACAD_LAYOUTSELFREF
360
1D1
  0
DICTIONARY
  5
ED
330
14
100
AcDbDictionary
280
     1
  3
ACAD_LAYOUTSELFREF
360
1D0
  0
DICTIONARY
  5
D
102
{ACAD_REACTORS
330
C
102
}
330
C
100
AcDbDictionary
  0
DICTIONARY
  5
C2
102
{ACAD_REACTORS
330
C
102
}
330
C
100
AcDbDictionary
  0
DICTIONARY
  5
1A
102
{ACAD_REACTORS
330
C
102
}
330
C
100
AcDbDictionary
  3
STANDARD
350
1B
  0
DICTIONARY
  5
C3
102
{ACAD_REACTORS
330
C
102
}
330
C
100
AcDbDictionary
  0
ACDBDICTIONARYWDFLT
  5
C0
102
{ACAD_REACTORS
330
C
102
}
330
C
100
AcDbDictionary
281
     1
  3
Normal
350
C1
100
AcDbDictionaryWithDefault
340
C1
  0
DICTIONARY
  5
1AF
102
{ACAD_REACTORS
330
C
102
}
330
C
100
AcDbDictionary
  3
CEPSNTYPE
350
1B9
  3
DIMSTYLEDATA
350
1BD
  3
FINGERPRINTGUID
350
1BA
  3
HYPERLINKBASE
350
1B2
  3
INSUNITS
350
1B8
  3
LAYOUTDICT
350
1B4
  3
LWETCUNION
350
1B7
  3
PLOTSETDICT
350
1B5
  3
PLOTSTYLNAMDICT
350
1B6
  3
PSVPSCALE
350
1BC
  3
PUCSBASE
350
1C0
  3
PUCSORGBACK
350
1C6
  3
PUCSORGBOTTOM
350
1C2
  3
PUCSORGFRONT
350
1C5
  3
PUCSORGLEFT
350
1C3
  3
PUCSORGRIGHT
350
1C4
  3
PUCSORGTOP
350
1C1
  3
PUCSORTHOREF
350
1BE
  3
PUCSORTHOVIEW
350
1BF
  3
STYLESHEET
350
1B3
  3
TSTACKALIGN
350
1B0
  3
TSTACKSIZE
350
1B1
  3
UCSBASE
350
1C9
  3
UCSORGBACK
350
1CF
  3
UCSORGBOTTOM
350
1CB
  3
UCSORGFRONT
350
1CE
  3
UCSORGLEFT
350
1CC
  3
UCSORGRIGHT
350
1CD
  3
UCSORGTOP
350
1CA
  3
UCSORTHOREF
350
1C7
  3
UCSORTHOVIEW
350
1C8
  3
VERSIONGUID
350
1BB
  0
DICTIONARY
  5
2B
102
{ACAD_REACTORS
330
C
102
}
330
C
100
AcDbDictionary
  3
DIMADEC
350
2C
  3
DIMASSOC
350
F5
  0
XRECORD
  5
1D1
102
{ACAD_REACTORS
330
EF
102
}
330
EF
100
AcDbXrecord
340
17
  0
XRECORD
  5
1D0
102
{ACAD_REACTORS
330
ED
102
}
330
ED
100
AcDbXrecord
340
14
  0
MLINESTYLE
  5
1B
102
{ACAD_REACTORS
330
1A
102
}
330
1A
100
AcDbMlineStyle
  2
STANDARD
 70
     0
  3

 62
   256
 51
90.0
 52
90.0
 71
     2
 49
0.5
 62
   256
  6
BYLAYER
 49
-0.5
 62
   256
  6
BYLAYER
  0
ACDBPLACEHOLDER
  5
C1
102
{ACAD_REACTORS
330
C0
102
}
330
C0
100
AcDbPlaceHolder
280
     0
  0
XRECORD
  5
1B9
102
{ACAD_REACTORS
330
1AF
102
}
330
1AF
100
AcDbXrecord
 90
        0
  0
XRECORD
  5
1BD
102
{ACAD_REACTORS
330
1AF
102
}
330
1AF
100
AcDbXrecord
1000
DSTYLE
1002
{
1070
   277
 70
     5
1070
   279
 70
     2
1002
}
  0
XRECORD
  5
1BA
102
{ACAD_REACTORS
330
1AF
102
}
330
1AF
100
AcDbXrecord
  1
{3B134BBE-D2B6-4938-9D64-074FAA9B9F7C}
  0
XRECORD
  5
1B2
102
{ACAD_REACTORS
330
1AF
102
}
330
1AF
100
AcDbXrecord
  1

  0
XRECORD
  5
1B8
102
{ACAD_REACTORS
330
1AF
102
}
330
1AF
100
AcDbXrecord
 90
        0
  0
XRECORD
  5
1B4
102
{ACAD_REACTORS
330
1AF
102
}
330
1AF
100
AcDbXrecord
340
C2
  0
XRECORD
  5
1B7
102
{ACAD_REACTORS
330
1AF
102
}
330
1AF
100
AcDbXrecord
 90
    14877
  0
XRECORD
  5
1B5
102
{ACAD_REACTORS
330
1AF
102
}
330
1AF
100
AcDbXrecord
340
C3
  0
XRECORD
  5
1B6
102
{ACAD_REACTORS
330
1AF
102
}
330
1AF
100
AcDbXrecord
340
C0
  0
XRECORD
  5
1BC
102
{ACAD_REACTORS
330
1AF
102
}
330
1AF
100
AcDbXrecord
 40
0.0
  0
XRECORD
  5
1C0
102
{ACAD_REACTORS
330
1AF
102
}
330
1AF
100
AcDbXrecord
340
0
  0
XRECORD
  5
1C6
102
{ACAD_REACTORS
330
1AF
102
}
330
1AF
100
AcDbXrecord
 10
0.0
 20
0.0
 30
0.0
  0
XRECORD
  5
1C2
102
{ACAD_REACTORS
330
1AF
102
}
330
1AF
100
AcDbXrecord
 10
0.0
 20
0.0
 30
0.0
  0
XRECORD
  5
1C5
102
{ACAD_REACTORS
330
1AF
102
}
330
1AF
100
AcDbXrecord
 10
0.0
 20
0.0
 30
0.0
  0
XRECORD
  5
1C3
102
{ACAD_REACTORS
330
1AF
102
}
330
1AF
100
AcDbXrecord
 10
0.0
 20
0.0
 30
0.0
  0
XRECORD
  5
1C4
102
{ACAD_REACTORS
330
1AF
102
}
330
1AF
100
AcDbXrecord
 10
0.0
 20
0.0
 30
0.0
  0
XRECORD
  5
1C1
102
{ACAD_REACTORS
330
1AF
102
}
330
1AF
100
AcDbXrecord
 10
0.0
 20
0.0
 30
0.0
  0
XRECORD
  5
1BE
102
{ACAD_REACTORS
330
1AF
102
}
330
1AF
100
AcDbXrecord
340
0
  0
XRECORD
  5
1BF
102
{ACAD_REACTORS
330
1AF
102
}
330
1AF
100
AcDbXrecord
 70
     0
  0
XRECORD
  5
1B3
102
{ACAD_REACTORS
330
1AF
102
}
330
1AF
100
AcDbXrecord
  1

  0
XRECORD
  5
1B0
102
{ACAD_REACTORS
330
1AF
102
}
330
1AF
100
AcDbXrecord
 90
        1
  0
XRECORD
  5
1B1
102
{ACAD_REACTORS
330
1AF
102
}
330
1AF
100
AcDbXrecord
 90
       70
  0
XRECORD
  5
1C9
102
{ACAD_REACTORS
330
1AF
102
}
330
1AF
100
AcDbXrecord
340
0
  0
XRECORD
  5
1CF
102
{ACAD_REACTORS
330
1AF
102
}
330
1AF
100
AcDbXrecord
 10
0.0
 20
0.0
 30
0.0
  0
XRECORD
  5
1CB
102
{ACAD_REACTORS
330
1AF
102
}
330
1AF
100
AcDbXrecord
 10
0.0
 20
0.0
 30
0.0
  0
XRECORD
  5
1CE
102
{ACAD_REACTORS
330
1AF
102
}
330
1AF
100
AcDbXrecord
 10
0.0
 20
0.0
 30
0.0
  0
XRECORD
  5
1CC
102
{ACAD_REACTORS
330
1AF
102
}
330
1AF
100
AcDbXrecord
 10
0.0
 20
0.0
 30
0.0
  0
XRECORD
  5
1CD
102
{ACAD_REACTORS
330
1AF
102
}
330
1AF
100
AcDbXrecord
 10
0.0
 20
0.0
 30
0.0
  0
XRECORD
  5
1CA
102
{ACAD_REACTORS
330
1AF
102
}
330
1AF
100
AcDbXrecord
 10
0.0
 20
0.0
 30
0.0
  0
XRECORD
  5
1C7
102
{ACAD_REACTORS
330
1AF
102
}
330
1AF
100
AcDbXrecord
340
0
  0
XRECORD
  5
1C8
102
{ACAD_REACTORS
330
1AF
102
}
330
1AF
100
AcDbXrecord
 70
     0
  0
XRECORD
  5
1BB
102
{ACAD_REACTORS
330
1AF
102
}
330
1AF
100
AcDbXrecord
  1
{770D8A16-BA81-48DE-AF71-CF1EFFF3F193}
  0
DICTIONARYVAR
  5
2C
102
{ACAD_REACTORS
330
2B
102
}
330
2B
100
DictionaryVariables
280
     0
  1
0
  0
DICTIONARYVAR
  5
F5
102
{ACAD_REACTORS
330
2B
102
}
330
2B
100
DictionaryVariables
280
     0
  1
1
  0
ENDSEC
  0
EOF
