  0
SECTION
  2
HEADER
  9
$ACADVER
  1
AC1014
  9
$ACADMAINTVER
 70
     9
  9
$DWGCODEPAGE
  3
ANSI_1252
  9
$INSBASE
 10
21.78193208808484
 20
3.80750916388406
 30
0.0
  9
$EXTMIN
 10
-10.20007677958227
 20
0.1506828719064979
 30
0.0
  9
$EXTMAX
 10
54.38894095575196
 20
39.94673993311483
 30
0.0
  9
$LIMMIN
 10
0.0
 20
0.0
  9
$LIMMAX
 10
36.0
 20
36.0
  9
$ORTHOMODE
 70
     1
  9
$REGENMODE
 70
     1
  9
$FILLMODE
 70
     1
  9
$QTEXTMODE
 70
     0
  9
$MIRRTEXT
 70
     1
  9
$DRAGMODE
 70
     0
  9
$LTSCALE
 40
1.0
  9
$OSMODE
 70
    37
  9
$ATTMODE
 70
     1
  9
$TEXTSIZE
 40
0.2
  9
$TRACEWID
 40
0.05
  9
$TEXTSTYLE
  7
STANDARD
  9
$CLAYER
  8
ADPDIM
  9
$CELTYPE
  6
BYLAYER
  9
$CECOLOR
 62
   256
  9
$CELTSCALE
 40
1.0
  9
$DELOBJ
 70
     1
  9
$DISPSILH
 70
     0
  9
$DIMSCALE
 40
1.0
  9
$DIMASZ
 40
0.125
  9
$DIMEXO
 40
0.0625
  9
$DIMDLI
 40
0.38
  9
$DIMRND
 40
0.0
  9
$DIMDLE
 40
0.0
  9
$DIMEXE
 40
0.18
  9
$DIMTP
 40
0.0
  9
$DIMTM
 40
0.0
  9
$DIMTXT
 40
0.125
  9
$DIMCEN
 40
0.1875
  9
$DIMTSZ
 40
0.125
  9
$DIMTOL
 70
     0
  9
$DIMLIM
 70
     0
  9
$DIMTIH
 70
     0
  9
$DIMTOH
 70
     0
  9
$DIMSE1
 70
     0
  9
$DIMSE2
 70
     0
  9
$DIMTAD
 70
     0
  9
$DIMZIN
 70
     3
  9
$DIMBLK
  1

  9
$DIMASO
 70
     1
  9
$DIMSHO
 70
     1
  9
$DIMPOST
  1

  9
$DIMAPOST
  1

  9
$DIMALT
 70
     0
  9
$DIMALTD
 70
     1
  9
$DIMALTF
 40
25.4
  9
$DIMLFAC
 40
1.0
  9
$DIMTOFL
 70
     0
  9
$DIMTVP
 40
0.0
  9
$DIMTIX
 70
     0
  9
$DIMSOXD
 70
     0
  9
$DIMSAH
 70
     0
  9
$DIMBLK1
  1

  9
$DIMBLK2
  1

  9
$DIMSTYLE
  2
STANDARD
  9
$DIMCLRD
 70
     0
  9
$DIMCLRE
 70
     0
  9
$DIMCLRT
 70
     0
  9
$DIMTFAC
 40
1.0
  9
$DIMGAP
 40
0.125
  9
$DIMJUST
 70
     0
  9
$DIMSD1
 70
     0
  9
$DIMSD2
 70
     0
  9
$DIMTOLJ
 70
     1
  9
$DIMTZIN
 70
     3
  9
$DIMALTZ
 70
     3
  9
$DIMALTTZ
 70
     3
  9
$DIMFIT
 70
     5
  9
$DIMUPT
 70
     0
  9
$DIMUNIT
 70
     5
  9
$DIMDEC
 70
     4
  9
$DIMTDEC
 70
     4
  9
$DIMALTU
 70
     5
  9
$DIMALTTD
 70
     1
  9
$DIMTXSTY
  7
STANDARD
  9
$DIMAUNIT
 70
     0
  9
$LUNITS
 70
     5
  9
$LUPREC
 70
     4
  9
$SKETCHINC
 40
0.1
  9
$FILLETRAD
 40
0.062
  9
$AUNITS
 70
     0
  9
$AUPREC
 70
     0
  9
$MENU
  1
acad
  9
$ELEVATION
 40
0.0
  9
$PELEVATION
 40
0.0
  9
$THICKNESS
 40
0.0
  9
$LIMCHECK
 70
     0
  9
$BLIPMODE
 70
     0
  9
$CHAMFERA
 40
0.0
  9
$CHAMFERB
 40
0.0
  9
$CHAMFERC
 40
0.0
  9
$CHAMFERD
 40
0.0
  9
$SKPOLY
 70
     0
  9
$TDCREATE
 40
2450373.709625381
  9
$TDUPDATE
 40
2452297.064271366
  9
$TDINDWG
 40
0.0763025231
  9
$TDUSRTIMER
 40
0.0763025231
  9
$USRTIMER
 70
     1
  9
$ANGBASE
 50
0.0
  9
$ANGDIR
 70
     0
  9
$PDMODE
 70
     0
  9
$PDSIZE
 40
0.0
  9
$PLINEWID
 40
0.0
  9
$COORDS
 70
     2
  9
$SPLFRAME
 70
     0
  9
$SPLINETYPE
 70
     6
  9
$SPLINESEGS
 70
     8
  9
$ATTDIA
 70
     0
  9
$ATTREQ
 70
     1
  9
$HANDLING
 70
 22529
  9
$HANDSEED
  5
201
  9
$SURFTAB1
 70
     6
  9
$SURFTAB2
 70
     6
  9
$SURFTYPE
 70
     6
  9
$SURFU
 70
     6
  9
$SURFV
 70
     6
  9
$UCSNAME
  2

  9
$UCSORG
 10
0.0
 20
0.0
 30
0.0
  9
$UCSXDIR
 10
1.0
 20
0.0
 30
0.0
  9
$UCSYDIR
 10
0.0
 20
1.0
 30
0.0
  9
$PUCSNAME
  2

  9
$PUCSORG
 10
0.0
 20
0.0
 30
0.0
  9
$PUCSXDIR
 10
1.0
 20
0.0
 30
0.0
  9
$PUCSYDIR
 10
0.0
 20
1.0
 30
0.0
  9
$USERI1
 70
     0
  9
$USERI2
 70
     0
  9
$USERI3
 70
     0
  9
$USERI4
 70
     0
  9
$USERI5
 70
     0
  9
$USERR1
 40
0.0
  9
$USERR2
 40
0.0
  9
$USERR3
 40
0.0
  9
$USERR4
 40
0.0
  9
$USERR5
 40
0.0
  9
$WORLDVIEW
 70
     1
  9
$SHADEDGE
 70
     3
  9
$SHADEDIF
 70
    70
  9
$TILEMODE
 70
     1
  9
$MAXACTVP
 70
    15
  9
$PINSBASE
 10
1.667196317885514E+99
 20
2.439420651286265E+99
 30
0.0
  9
$PLIMCHECK
 70
     0
  9
$PEXTMIN
 10
1.000000000000000E+20
 20
1.000000000000000E+20
 30
1.000000000000000E+20
  9
$PEXTMAX
 10
-1.000000000000000E+20
 20
-1.000000000000000E+20
 30
-1.000000000000000E+20
  9
$PLIMMIN
 10
0.0
 20
0.0
  9
$PLIMMAX
 10
12.0
 20
9.0
  9
$UNITMODE
 70
     0
  9
$VISRETAIN
 70
     0
  9
$PLINEGEN
 70
     0
  9
$PSLTSCALE
 70
     1
  9
$TREEDEPTH
 70
  3020
  9
$PICKSTYLE
 70
     1
  9
$CMLSTYLE
  2
STANDARD
  9
$CMLJUST
 70
     0
  9
$CMLSCALE
 40
1.0
  9
$PROXYGRAPHICS
 70
     1
  9
$MEASUREMENT
 70
     0
  0
ENDSEC
  0
SECTION
  2
CLASSES
  0
CLASS
  1
DICTIONARYVAR
  2
AcDbDictionaryVar
  3
AutoCAD 2000
 90
        0
280
     0
281
     0
  0
CLASS
  1
LWPOLYLINE
  2
AcDbPolyline
  3
AutoCAD 2000
 90
        0
280
     0
281
     1
  0
CLASS
  1
ACDBDICTIONARYWDFLT
  2
AcDbDictionaryWithDefault
  3
AutoCAD 2000
 90
        0
280
     0
281
     0
  0
CLASS
  1
ACDBPLACEHOLDER
  2
AcDbPlaceHolder
  3
AutoCAD 2000
 90
        0
280
     0
281
     0
  0
CLASS
  1
LAYOUT
  2
AcDbLayout
  3
AutoCAD 2000
 90
        0
280
     0
281
     0
  0
CLASS
  1
LONG_TRANSACTION
  2
AcDbLongTransaction
  3
AutoCAD 2000
 90
        0
280
     0
281
     0
  0
CLASS
  1
LWPOLYLINE
  2
AcDbPolyline
  3
AutoCAD 2000
 90
        0
280
     0
281
     1
  0
CLASS
  1
HATCH
  2
AcDbHatch
  3
AutoCAD 2000
 90
        0
280
     0
281
     1
  0
CLASS
  1
XRECORD
  2
AcDbXrecord
  3
AutoCAD 2000
 90
        0
280
     0
281
     0
  0
CLASS
  1
LONG_TRANSACTION
  2
AcDbLongTransaction
  3
AutoCAD 2000
 90
        0
280
     0
281
     0
  0
CLASS
  1
LWPOLYLINE
  2
AcDbPolyline
  3
AutoCAD 2000
 90
        0
280
     0
281
     1
  0
CLASS
  1
HATCH
  2
AcDbHatch
  3
AutoCAD 2000
 90
        0
280
     0
281
     1
  0
CLASS
  1
XRECORD
  2
AcDbXrecord
  3
AutoCAD 2000
 90
        0
280
     0
281
     0
  0
CLASS
  1
LONG_TRANSACTION
  2
AcDbLongTransaction
  3
AutoCAD 2000
 90
        0
280
     0
281
     0
  0
CLASS
  1
LWPOLYLINE
  2
AcDbPolyline
  3
AutoCAD 2000
 90
        0
280
     0
281
     1
  0
CLASS
  1
HATCH
  2
AcDbHatch
  3
AutoCAD 2000
 90
        0
280
     0
281
     1
  0
CLASS
  1
XRECORD
  2
AcDbXrecord
  3
AutoCAD 2000
 90
        0
280
     0
281
     0
  0
CLASS
  1
LONG_TRANSACTION
  2
AcDbLongTransaction
  3
AutoCAD 2000
 90
        0
280
     0
281
     0
  0
CLASS
  1
LWPOLYLINE
  2
AcDbPolyline
  3
AutoCAD 2000
 90
        0
280
     0
281
     1
  0
CLASS
  1
HATCH
  2
AcDbHatch
  3
AutoCAD 2000
 90
        0
280
     0
281
     1
  0
CLASS
  1
XRECORD
  2
AcDbXrecord
  3
AutoCAD 2000
 90
        0
280
     0
281
     0
  0
CLASS
  1
LONG_TRANSACTION
  2
AcDbLongTransaction
  3
AutoCAD 2000
 90
        0
280
     0
281
     0
  0
CLASS
  1
LWPOLYLINE
  2
AcDbPolyline
  3
AutoCAD 2000
 90
        0
280
     0
281
     1
  0
CLASS
  1
HATCH
  2
AcDbHatch
  3
AutoCAD 2000
 90
        0
280
     0
281
     1
  0
CLASS
  1
XRECORD
  2
AcDbXrecord
  3
AutoCAD 2000
 90
        0
280
     0
281
     0
  0
ENDSEC
  0
SECTION
  2
TABLES
  0
TABLE
  2
VPORT
  5
8
330
0
100
AcDbSymbolTable
 70
     2
  0
VPORT
  5
1DD
330
8
100
AcDbSymbolTableRecord
100
AcDbViewportTableRecord
  2
*ACTIVE
 70
     0
 10
0.0
 20
0.0
 11
1.0
 21
1.0
 12
22.09585434889042
 22
20.04845583888858
 13
0.0
 23
0.0
 14
0.5740882589684922
 24
0.5740882589684922
 15
0.5
 25
0.5
 16
0.0
 26
0.0
 36
1.0
 17
0.0
 27
0.0
 37
0.0
 40
41.32622796703834
 41
1.570528967254408
 42
50.0
 43
0.0
 44
0.0
 50
0.0
 51
0.0
 71
     0
 72
   100
 73
     1
 74
     0
 75
     0
 76
     0
 77
     0
 78
     0
  0
ENDTAB
  0
TABLE
  2
LTYPE
  5
5
330
0
100
AcDbSymbolTable
 70
     1
  0
LTYPE
  5
11
330
5
100
AcDbSymbolTableRecord
100
AcDbLinetypeTableRecord
  2
BYBLOCK
 70
     0
  3

 72
    65
 73
     0
 40
0.0
  0
LTYPE
  5
12
330
5
100
AcDbSymbolTableRecord
100
AcDbLinetypeTableRecord
  2
BYLAYER
 70
     0
  3

 72
    65
 73
     0
 40
0.0
  0
LTYPE
  5
13
330
5
100
AcDbSymbolTableRecord
100
AcDbLinetypeTableRecord
  2
CONTINUOUS
 70
     0
  3
Solid line
 72
    65
 73
     0
 40
0.0
  0
ENDTAB
  0
TABLE
  2
LAYER
  5
2
330
0
100
AcDbSymbolTable
 70
     4
  0
LAYER
  5
E
330
2
100
AcDbSymbolTableRecord
100
AcDbLayerTableRecord
  2
0
 70
     0
 62
     7
  6
CONTINUOUS
  0
LAYER
  5
1F
330
2
100
AcDbSymbolTableRecord
100
AcDbLayerTableRecord
  2
ADPDIM
 70
     0
 62
     3
  6
CONTINUOUS
  0
LAYER
  5
20
330
2
100
AcDbSymbolTableRecord
100
AcDbLayerTableRecord
  2
ADP1DETAIL
 70
     0
 62
     7
  6
CONTINUOUS
  0
LAYER
  5
21
330
2
100
AcDbSymbolTableRecord
100
AcDbLayerTableRecord
  2
DEFPOINTS
 70
     0
 62
     7
  6
CONTINUOUS
  0
ENDTAB
  0
TABLE
  2
STYLE
  5
3
330
0
100
AcDbSymbolTable
 70
     2
  0
STYLE
  5
F
330
3
100
AcDbSymbolTableRecord
100
AcDbTextStyleTableRecord
  2
STANDARD
 70
     0
 40
0.0
 41
1.0
 50
0.0
 71
     0
 42
0.2
  3
txt
  4

  0
STYLE
  5
E5
330
3
100
AcDbSymbolTableRecord
100
AcDbTextStyleTableRecord
  2
ARIAL_WIDE
 70
     0
 40
0.0
 41
1.25
 50
0.0
 71
     0
 42
0.2
  3
ARIAL.TTF
  4

1001
ACAD
1000
Arial
1071
       34
  0
ENDTAB
  0
TABLE
  2
VIEW
  5
6
330
0
100
AcDbSymbolTable
 70
     0
  0
ENDTAB
  0
TABLE
  2
UCS
  5
7
330
0
100
AcDbSymbolTable
 70
     0
  0
ENDTAB
  0
TABLE
  2
APPID
  5
9
330
0
100
AcDbSymbolTable
 70
     1
  0
APPID
  5
10
330
9
100
AcDbSymbolTableRecord
100
AcDbRegAppTableRecord
  2
ACAD
 70
     0
  0
ENDTAB
  0
TABLE
  2
DIMSTYLE
  5
A
330
0
100
AcDbSymbolTable
 70
     1
  0
DIMSTYLE
105
E3
330
A
100
AcDbSymbolTableRecord
100
AcDbDimStyleTableRecord
  2
STANDARD
 70
     0
  3

  4

  5

  6

  7

 40
1.0
 41
0.18
 42
0.0625
 43
0.38
 44
0.18
 45
0.0
 46
0.0
 47
0.0
 48
0.0
140
0.18
141
0.09
142
0.0
143
25.4
144
1.0
145
0.0
146
1.0
147
0.09
 71
     0
 72
     0
 73
     1
 74
     1
 75
     0
 76
     0
 77
     0
 78
     0
170
     0
171
     2
172
     0
173
     0
174
     0
175
     0
176
     0
177
     0
178
     0
270
     2
271
     4
272
     4
273
     2
274
     2
340
F
275
     0
280
     0
281
     0
282
     0
283
     1
284
     0
285
     0
286
     0
287
     3
288
     0
  0
ENDTAB
  0
TABLE
  2
BLOCK_RECORD
  5
1
330
0
100
AcDbSymbolTable
 70
     2
  0
BLOCK_RECORD
  5
17
102
{ACAD_XDICTIONARY
360
11E
102
}
330
1
100
AcDbSymbolTableRecord
100
AcDbBlockTableRecord
  2
*MODEL_SPACE
  0
BLOCK_RECORD
  5
14
102
{ACAD_XDICTIONARY
360
11C
102
}
330
1
100
AcDbSymbolTableRecord
100
AcDbBlockTableRecord
  2
*PAPER_SPACE
  0
BLOCK_RECORD
  5
1C
330
1
100
AcDbSymbolTableRecord
100
AcDbBlockTableRecord
  2
*D0
  0
BLOCK_RECORD
  5
1D
330
1
100
AcDbSymbolTableRecord
100
AcDbBlockTableRecord
  2
*D1
  0
ENDTAB
  0
ENDSEC
  0
SECTION
  2
BLOCKS
  0
BLOCK
  5
24
330
17
100
AcDbEntity
  8
0
100
AcDbBlockBegin
  2
*MODEL_SPACE
 70
     0
 10
0.0
 20
0.0
 30
0.0
  3
*MODEL_SPACE
  1

  0
ENDBLK
  5
25
330
17
100
AcDbEntity
  8
0
100
AcDbBlockEnd
  0
BLOCK
  5
22
330
14
100
AcDbEntity
 67
     1
  8
0
100
AcDbBlockBegin
  2
*PAPER_SPACE
 70
     0
 10
0.0
 20
0.0
 30
0.0
  3
*PAPER_SPACE
  1

  0
ENDBLK
  5
23
330
14
100
AcDbEntity
 67
     1
  8
0
100
AcDbBlockEnd
  0
BLOCK
  5
28
330
1C
100
AcDbEntity
  8
0
100
AcDbBlockBegin
  2
*D0
 70
     1
 10
0.0
 20
0.0
 30
0.0
  3
*D0
  1

  0
LINE
  5
29
330
1C
100
AcDbEntity
  8
0
  6
BYBLOCK
 62
     0
100
AcDbLine
 10
21.78193208808484
 20
3.87000916388406
 30
0.0
 11
21.78193208808484
 21
3.294497015414709
 31
0.0
  0
LINE
  5
2A
330
1C
100
AcDbEntity
  8
0
  6
BYBLOCK
 62
     0
100
AcDbLine
 10
22.4199628573156
 20
3.87000916388406
 30
0.0
 11
22.4199628573156
 21
3.294497015414709
 31
0.0
  0
LINE
  5
2B
330
1C
100
AcDbEntity
  8
0
  6
BYBLOCK
 62
     0
100
AcDbLine
 10
21.78193208808484
 20
3.474497015414709
 30
0.0
 11
21.53193208808484
 21
3.474497015414709
 31
0.0
  0
LINE
  5
2C
330
1C
100
AcDbEntity
  8
0
  6
BYBLOCK
 62
     0
100
AcDbLine
 10
22.4199628573156
 20
3.474497015414709
 30
0.0
 11
22.6699628573156
 21
3.474497015414709
 31
0.0
  0
LINE
  5
2D
330
1C
100
AcDbEntity
  8
0
  6
BYBLOCK
 62
     0
100
AcDbLine
 10
21.65693208808483
 20
3.349497015414709
 30
0.0
 11
21.90693208808484
 21
3.599497015414709
 31
0.0
  0
LINE
  5
2E
330
1C
100
AcDbEntity
  8
0
  6
BYBLOCK
 62
     0
100
AcDbLine
 10
22.2949628573156
 20
3.349497015414709
 30
0.0
 11
22.5449628573156
 21
3.599497015414709
 31
0.0
  0
TEXT
  5
2F
330
1C
100
AcDbEntity
  8
0
  6
BYBLOCK
 62
     0
100
AcDbText
 10
22.7949628573156
 20
3.411997015414709
 30
0.0
 40
0.125
  1
5/8
 72
     1
 11
22.96162952398227
 21
3.474497015414709
 31
0.0
100
AcDbText
 73
     2
  0
POINT
  5
31
330
1C
100
AcDbEntity
  8
DEFPOINTS
  6
BYBLOCK
 62
     0
100
AcDbPoint
 10
21.78193208808484
 20
3.93250916388406
 30
0.0
  0
POINT
  5
32
330
1C
100
AcDbEntity
  8
DEFPOINTS
  6
BYBLOCK
 62
     0
100
AcDbPoint
 10
22.4199628573156
 20
3.93250916388406
 30
0.0
  0
POINT
  5
33
330
1C
100
AcDbEntity
  8
DEFPOINTS
  6
BYBLOCK
 62
     0
100
AcDbPoint
 10
22.4199628573156
 20
3.474497015414709
 30
0.0
  0
ENDBLK
  5
34
330
1C
100
AcDbEntity
  8
0
100
AcDbBlockEnd
  0
BLOCK
  5
35
330
1D
100
AcDbEntity
  8
0
100
AcDbBlockBegin
  2
*D1
 70
     1
 10
0.0
 20
0.0
 30
0.0
  3
*D1
  1

  0
LINE
  5
36
330
1D
100
AcDbEntity
  8
0
  6
BYBLOCK
 62
     0
100
AcDbLine
 10
21.71943208808484
 20
39.82173993311482
 30
0.0
 11
17.64333958586172
 21
39.82173993311482
 31
0.0
  0
LINE
  5
37
330
1D
100
AcDbEntity
  8
0
  6
BYBLOCK
 62
     0
100
AcDbLine
 10
21.71943208808484
 20
3.80750916388406
 30
0.0
 11
17.64333958586172
 21
3.807509163884061
 31
0.0
  0
LINE
  5
38
330
1D
100
AcDbEntity
  8
0
  6
BYBLOCK
 62
     0
100
AcDbLine
 10
17.82333958586172
 20
39.82173993311482
 30
0.0
 11
17.82333958586172
 21
22.04379121516611
 31
0.0
  0
LINE
  5
39
330
1D
100
AcDbEntity
  8
0
  6
BYBLOCK
 62
     0
100
AcDbLine
 10
17.82333958586172
 20
3.807509163884061
 30
0.0
 11
17.82333958586172
 21
21.58545788183277
 31
0.0
  0
LINE
  5
3A
330
1D
100
AcDbEntity
  8
0
  6
BYBLOCK
 62
     0
100
AcDbLine
 10
17.94833958586172
 20
39.69673993311483
 30
0.0
 11
17.69833958586172
 21
39.94673993311483
 31
0.0
  0
LINE
  5
3B
330
1D
100
AcDbEntity
  8
0
  6
BYBLOCK
 62
     0
100
AcDbLine
 10
17.94833958586172
 20
3.682509163884061
 30
0.0
 11
17.69833958586172
 21
3.932509163884061
 31
0.0
  0
TEXT
  5
3C
330
1D
100
AcDbEntity
  8
0
  6
BYBLOCK
 62
     0
100
AcDbText
 10
17.88583958586172
 20
21.71045788183277
 30
0.0
 40
0.125
  1
36
 50
90.0
 72
     1
 11
17.82333958586172
 21
21.81462454849944
 31
0.0
100
AcDbText
 73
     2
  0
POINT
  5
3D
330
1D
100
AcDbEntity
  8
DEFPOINTS
  6
BYBLOCK
 62
     0
100
AcDbPoint
 10
21.78193208808484
 20
39.82173993311482
 30
0.0
  0
POINT
  5
3E
330
1D
100
AcDbEntity
  8
DEFPOINTS
  6
BYBLOCK
 62
     0
100
AcDbPoint
 10
21.78193208808484
 20
3.80750916388406
 30
0.0
  0
POINT
  5
3F
330
1D
100
AcDbEntity
  8
DEFPOINTS
  6
BYBLOCK
 62
     0
100
AcDbPoint
 10
17.82333958586172
 20
3.807509163884061
 30
0.0
  0
ENDBLK
  5
40
330
1D
100
AcDbEntity
  8
0
100
AcDbBlockEnd
  0
ENDSEC
  0
SECTION
  2
ENTITIES
  0
DIMENSION
  5
41
330
17
100
AcDbEntity
  8
ADPDIM
100
AcDbDimension
  2
*D1
 10
17.82333958586172
 20
3.807509163884061
 30
0.0
 11
17.82333958586172
 21
21.81462454849944
 31
0.0
100
AcDbAlignedDimension
 13
21.78193208808484
 23
39.82173993311482
 33
0.0
 14
21.78193208808484
 24
3.80750916388406
 34
0.0
 50
90.0
100
AcDbRotatedDimension
  0
LINE
  5
42
330
17
100
AcDbEntity
  8
ADP1DETAIL
100
AcDbLine
 10
21.78193208808484
 20
29.42970650917523
 30
0.0
 11
21.78193208808484
 21
17.27348048842814
 31
0.0
  0
LINE
  5
43
330
17
100
AcDbEntity
  8
ADP1DETAIL
100
AcDbLine
 10
22.4199628573156
 20
17.29640219617354
 30
0.0
 11
22.4199628573156
 21
29.41466491313077
 31
0.0
  0
LINE
  5
44
330
17
100
AcDbEntity
  8
ADP1DETAIL
100
AcDbLine
 10
22.4199628573156
 20
3.80750916388406
 30
0.0
 11
22.4199628573156
 21
10.90640337466922
 31
0.0
  0
LINE
  5
45
330
17
100
AcDbEntity
  8
ADP1DETAIL
100
AcDbLine
 10
21.78193208808484
 20
10.92144497071369
 30
0.0
 11
21.78193208808484
 21
3.80750916388406
 31
0.0
  0
DIMENSION
  5
46
330
17
100
AcDbEntity
  8
ADPDIM
100
AcDbDimension
  2
*D0
 10
22.4199628573156
 20
3.349497015414709
 30
0.0
 11
22.96162952398227
 21
3.474497015414709
 31
0.0
 12
0.0
 22
-0.125
 32
0.0
100
AcDbAlignedDimension
 13
21.78193208808484
 23
3.80750916388406
 33
0.0
 14
22.4199628573156
 24
3.80750916388406
 34
0.0
100
AcDbRotatedDimension
  0
LWPOLYLINE
  5
47
330
17
100
AcDbEntity
  8
ADP1DETAIL
100
AcDbPolyline
 90
        4
 70
     1
 43
0.0
 10
21.78193208808484
 20
1.919497015414709
 10
21.78193208808484
 20
2.544497015414709
 10
22.40693208808484
 20
2.544497015414709
 10
22.40693208808484
 20
1.919497015414709
  0
LINE
  5
4D
330
17
100
AcDbEntity
  8
ADP1DETAIL
100
AcDbLine
 10
21.78193208808484
 20
3.80750916388406
 30
0.0
 11
22.4199628573156
 21
3.80750916388406
 31
0.0
  0
LWPOLYLINE
  5
4E
330
17
100
AcDbEntity
  8
ADP1DETAIL
100
AcDbPolyline
 90
       10
 70
     0
 43
0.0
 10
22.3113716723983
 20
16.05681265255123
 42
0.1723452674114336
 10
22.7798774982252
 20
15.1203072011427
 10
24.13133652383645
 20
13.58948086564433
 42
-0.3567586253354827
 10
24.22143375435845
 20
11.21219770904686
 42
-0.404519538472089
 10
22.83393576083423
 20
10.99608117352645
 42
-0.3917636418746539
 10
22.65374129979023
 20
11.84253799462555
 42
-0.5167955687445332
 10
23.10422764166065
 20
11.87855739611441
 42
0.2256874857278384
 10
23.01413041113865
 20
12.4368587521281
 42
0.5608888334317105
 10
22.68978007844279
 20
12.41884905138367
 42
0.4149353340874345
 10
22.22127425261589
 20
13.2112767702495
 42
-0.4182419180862511
  0
LWPOLYLINE
  5
5A
330
17
100
AcDbEntity
  8
ADP1DETAIL
100
AcDbPolyline
 90
        6
 70
     0
 43
0.0
 10
22.20325495791982
 20
11.33826586743244
 42
0.380806997674243
 10
23.55471398353106
 20
10.45578951825719
 42
0.403484017679917
 10
24.97825094496824
 20
12.31079072032982
 42
0.2289814457813121
 10
24.11331703987996
 20
14.0577335913486
 42
0.0081531178431743
 10
22.88799421270368
 20
15.44448219430426
 42
-0.0939103660413973
 10
22.61925293051234
 20
16.04972454849944
 42
-0.2795832199957317
  0
LWPOLYLINE
  5
62
330
17
100
AcDbEntity
  8
ADP1DETAIL
100
AcDbPolyline
 90
       11
 70
     0
 43
0.0
 10
22.62517280938953
 20
16.88713993311482
 42
-0.037097561766338
 10
22.70779956239927
 20
17.13739596308976
 42
-0.2795832199957317
 10
23.2483833240521
 20
17.53360975922902
 42
-0.1235315424449242
 10
23.69886966592251
 20
17.46157082966402
 42
-0.170433300940386
 10
23.82500586435748
 20
16.92127930098205
 42
-0.5715885929446989
 10
23.26640280800858
 20
16.6691431107982
 42
0.3563480343920818
 10
23.57273346748754
 20
16.41700704720164
 42
0.3294555088913994
 10
24.11331703987996
 20
16.8132209699282
 42
0.2163925195261673
 10
24.02321980935796
 20
17.53360975922902
 42
0.2491668374314122
 10
23.19432487218265
 20
17.83977505164616
 42
0.3566784370592611
 10
22.3050626191718
 20
16.88713993311482
 42
-0.0645168721934322
  0
LWPOLYLINE
  5
6F
330
17
100
AcDbEntity
  8
ADP1DETAIL
100
AcDbPolyline
 90
       10
 70
     0
 43
0.0
 10
21.87890443596354
 20
16.05681265255123
 42
-0.1723452674114336
 10
21.41039861013664
 20
15.1203072011427
 10
20.05893958452539
 20
13.58948086564433
 42
0.3567586253354827
 10
19.96884235400339
 20
11.21219770904686
 42
0.404519538472089
 10
21.35634034752761
 20
10.99608117352645
 42
0.3917636418746539
 10
21.53653480857161
 20
11.84253799462555
 42
0.5167955687445332
 10
21.08604846670119
 20
11.87855739611441
 42
-0.2256874857278384
 10
21.17614569722319
 20
12.4368587521281
 42
-0.5608888334317105
 10
21.50049602991905
 20
12.41884905138367
 42
-0.4149353340874345
 10
21.96900185574595
 20
13.2112767702495
 42
0.4182419180862511
  0
LWPOLYLINE
  5
7B
330
17
100
AcDbEntity
  8
ADP1DETAIL
100
AcDbPolyline
 90
        6
 70
     0
 43
0.0
 10
21.98702115044202
 20
11.33826586743244
 42
-0.380806997674243
 10
20.63556212483077
 20
10.45578951825719
 42
-0.403484017679917
 10
19.2120251633936
 20
12.31079072032982
 42
-0.2289814457813121
 10
20.07695906848188
 20
14.0577335913486
 42
-0.0081531178431743
 10
21.30228189565816
 20
15.44448219430426
 42
0.0939103660413973
 10
21.57102317784949
 20
16.04972454849944
 42
0.2795832199957317
  0
LINE
  5
83
330
17
100
AcDbEntity
  8
ADP1DETAIL
100
AcDbLine
 10
22.09513805418092
 20
13.48142253459048
 30
0.0
 11
22.22127425261589
 21
13.2112767702495
 31
0.0
  0
LINE
  5
84
330
17
100
AcDbEntity
  8
ADP1DETAIL
100
AcDbLine
 10
21.96900185574595
 20
13.2112767702495
 30
0.0
 11
22.09513805418092
 21
13.48142253459048
 31
0.0
  0
LWPOLYLINE
  5
85
330
17
100
AcDbEntity
  8
ADP1DETAIL
100
AcDbPolyline
 90
       11
 70
     0
 43
0.0
 10
21.56510329897231
 20
16.88713993311482
 42
0.037097561766338
 10
21.48247654596257
 20
17.13739596308976
 42
0.2795832199957317
 10
20.94189278430974
 20
17.53360975922902
 42
0.1235315424449242
 10
20.49140644243933
 20
17.46157082966402
 42
0.170433300940386
 10
20.36527024400436
 20
16.92127930098205
 42
0.5715885929446989
 10
20.92387330035326
 20
16.6691431107982
 42
-0.3563480343920818
 10
20.61754264087429
 20
16.41700704720164
 42
-0.3294555088913994
 10
20.07695906848188
 20
16.8132209699282
 42
-0.2163925195261673
 10
20.16705629900388
 20
17.53360975922902
 42
-0.2491668374314122
 10
20.99595123617919
 20
17.83977505164616
 42
-0.3566784370592611
 10
21.88521348919004
 20
16.88713993311482
 42
0.0645168721934322
  0
LINE
  5
92
330
17
100
AcDbEntity
  8
ADP1DETAIL
100
AcDbLine
 10
22.77885516500791
 20
16.88713993311482
 30
0.0
 11
21.42303978039253
 21
16.88713993311482
 31
0.0
  0
LINE
  5
93
330
17
100
AcDbEntity
  8
ADP1DETAIL
100
AcDbLine
 10
21.42303978039253
 20
16.04972454849944
 30
0.0
 11
22.77885516500791
 21
16.04972454849944
 31
0.0
  0
LINE
  5
94
330
17
100
AcDbEntity
  8
ADP1DETAIL
100
AcDbLine
 10
21.42303978039253
 20
16.88713993311482
 30
0.0
 11
21.42303978039253
 21
16.04972454849944
 31
0.0
  0
LINE
  5
95
330
17
100
AcDbEntity
  8
ADP1DETAIL
100
AcDbLine
 10
22.77885516500791
 20
16.04972454849944
 30
0.0
 11
22.77885516500791
 21
16.88713993311482
 31
0.0
  0
LINE
  5
96
330
17
100
AcDbEntity
  8
ADP1DETAIL
100
AcDbLine
 10
22.77885516500791
 20
16.04972454849944
 30
0.0
 11
22.77885516500791
 21
16.04972454849944
 31
0.0
  0
LWPOLYLINE
  5
97
330
17
100
AcDbEntity
  8
ADP1DETAIL
100
AcDbPolyline
 90
       10
 70
     0
 43
0.0
 10
22.3113716723983
 20
34.56507419101277
 42
0.1723452674114336
 10
22.7798774982252
 20
33.62856873960424
 10
24.13133652383645
 20
32.09774240410587
 42
-0.3567586253354827
 10
24.22143375435845
 20
29.7204592475084
 42
-0.404519538472089
 10
22.83393576083423
 20
29.50434271198799
 42
-0.3917636418746539
 10
22.65374129979023
 20
30.35079953308709
 42
-0.5167955687445332
 10
23.10422764166065
 20
30.38681893457594
 42
0.2256874857278384
 10
23.01413041113865
 20
30.94512029058964
 42
0.5608888334317105
 10
22.68978007844279
 20
30.92711058984521
 42
0.4149353340874345
 10
22.22127425261589
 20
31.71953830871103
 42
-0.4182419180862511
  0
LWPOLYLINE
  5
A3
330
17
100
AcDbEntity
  8
ADP1DETAIL
100
AcDbPolyline
 90
        6
 70
     0
 43
0.0
 10
22.20325495791982
 20
29.84652740589398
 42
0.380806997674243
 10
23.55471398353106
 20
28.96405105671872
 42
0.403484017679917
 10
24.97825094496824
 20
30.81905225879136
 42
0.2289814457813121
 10
24.11331703987996
 20
32.56599512981014
 42
0.0081531178431743
 10
22.88799421270368
 20
33.95274373276579
 42
-0.0939103660413973
 10
22.61925293051234
 20
34.55798608696098
 42
-0.2795832199957317
  0
LWPOLYLINE
  5
AB
330
17
100
AcDbEntity
  8
ADP1DETAIL
100
AcDbPolyline
 90
       10
 70
     0
 43
0.0
 10
21.87890443596354
 20
34.56507419101277
 42
-0.1723452674114336
 10
21.41039861013664
 20
33.62856873960424
 10
20.05893958452539
 20
32.09774240410587
 42
0.3567586253354827
 10
19.96884235400339
 20
29.7204592475084
 42
0.404519538472089
 10
21.35634034752761
 20
29.50434271198799
 42
0.3917636418746539
 10
21.53653480857161
 20
30.35079953308709
 42
0.5167955687445332
 10
21.08604846670119
 20
30.38681893457594
 42
-0.2256874857278384
 10
21.17614569722319
 20
30.94512029058964
 42
-0.5608888334317105
 10
21.50049602991905
 20
30.92711058984521
 42
-0.4149353340874345
 10
21.96900185574595
 20
31.71953830871103
 42
0.4182419180862511
  0
LWPOLYLINE
  5
B7
330
17
100
AcDbEntity
  8
ADP1DETAIL
100
AcDbPolyline
 90
        6
 70
     0
 43
0.0
 10
21.98702115044202
 20
29.84652740589398
 42
-0.380806997674243
 10
20.63556212483077
 20
28.96405105671872
 42
-0.403484017679917
 10
19.2120251633936
 20
30.81905225879136
 42
-0.2289814457813121
 10
20.07695906848188
 20
32.56599512981014
 42
-0.0081531178431743
 10
21.30228189565816
 20
33.95274373276579
 42
0.0939103660413973
 10
21.57102317784949
 20
34.55798608696098
 42
0.2795832199957317
  0
LINE
  5
BF
330
17
100
AcDbEntity
  8
ADP1DETAIL
100
AcDbLine
 10
22.09513805418092
 20
31.98968407305202
 30
0.0
 11
22.22127425261589
 21
31.71953830871103
 31
0.0
  0
LINE
  5
C0
330
17
100
AcDbEntity
  8
ADP1DETAIL
100
AcDbLine
 10
21.96900185574595
 20
31.71953830871103
 30
0.0
 11
22.09513805418092
 21
31.98968407305202
 31
0.0
  0
LWPOLYLINE
  5
C1
330
17
100
AcDbEntity
  8
ADP1DETAIL
100
AcDbPolyline
 90
       11
 70
     0
 43
0.0
 10
22.62517280938953
 20
35.39540147157635
 42
-0.037097561766338
 10
22.70779956239927
 20
35.64565750155129
 42
-0.2795832199957317
 10
23.2483833240521
 20
36.04187129769056
 42
-0.1235315424449242
 10
23.69886966592251
 20
35.96983236812556
 42
-0.170433300940386
 10
23.82500586435748
 20
35.42954083944358
 42
-0.5715885929446989
 10
23.26640280800858
 20
35.17740464925974
 42
0.3563480343920818
 10
23.57273346748754
 20
34.92526858566318
 42
0.3294555088913994
 10
24.11331703987996
 20
35.32148250838974
 42
0.2163925195261673
 10
24.02321980935796
 20
36.04187129769056
 42
0.2491668374314122
 10
23.19432487218265
 20
36.34803659010769
 42
0.3566784370592611
 10
22.3050626191718
 20
35.39540147157635
 42
-0.0645168721934322
  0
LWPOLYLINE
  5
CE
330
17
100
AcDbEntity
  8
ADP1DETAIL
100
AcDbPolyline
 90
       11
 70
     0
 43
0.0
 10
21.56510329897231
 20
35.39540147157635
 42
0.037097561766338
 10
21.48247654596257
 20
35.64565750155129
 42
0.2795832199957317
 10
20.94189278430974
 20
36.04187129769056
 42
0.1235315424449242
 10
20.49140644243933
 20
35.96983236812556
 42
0.170433300940386
 10
20.36527024400436
 20
35.42954083944358
 42
0.5715885929446989
 10
20.92387330035326
 20
35.17740464925974
 42
-0.3563480343920818
 10
20.61754264087429
 20
34.92526858566318
 42
-0.3294555088913994
 10
20.07695906848188
 20
35.32148250838974
 42
-0.2163925195261673
 10
20.16705629900388
 20
36.04187129769056
 42
-0.2491668374314122
 10
20.99595123617919
 20
36.34803659010769
 42
-0.3566784370592611
 10
21.88521348919004
 20
35.39540147157635
 42
0.0645168721934322
  0
LINE
  5
DB
330
17
100
AcDbEntity
  8
ADP1DETAIL
100
AcDbLine
 10
21.78193208808484
 20
39.82173993311482
 30
0.0
 11
21.78193208808484
 21
35.78174202688968
 31
0.0
  0
LINE
  5
DC
330
17
100
AcDbEntity
  8
ADP1DETAIL
100
AcDbLine
 10
22.4199628573156
 20
35.80466373463508
 30
0.0
 11
22.4199628573156
 21
39.82173993311482
 31
0.0
  0
LINE
  5
DD
330
17
100
AcDbEntity
  8
ADP1DETAIL
100
AcDbLine
 10
22.77885516500791
 20
35.39540147157636
 30
0.0
 11
21.42303978039253
 21
35.39540147157636
 31
0.0
  0
LINE
  5
DE
330
17
100
AcDbEntity
  8
ADP1DETAIL
100
AcDbLine
 10
21.42303978039253
 20
34.55798608696098
 30
0.0
 11
22.77885516500791
 21
34.55798608696098
 31
0.0
  0
LINE
  5
DF
330
17
100
AcDbEntity
  8
ADP1DETAIL
100
AcDbLine
 10
21.42303978039253
 20
35.39540147157636
 30
0.0
 11
21.42303978039253
 21
34.55798608696098
 31
0.0
  0
LINE
  5
E0
330
17
100
AcDbEntity
  8
ADP1DETAIL
100
AcDbLine
 10
22.77885516500791
 20
34.55798608696098
 30
0.0
 11
22.77885516500791
 21
35.39540147157636
 31
0.0
  0
LINE
  5
E1
330
17
100
AcDbEntity
  8
ADP1DETAIL
100
AcDbLine
 10
22.4199628573156
 20
39.82173993311482
 30
0.0
 11
21.78193208808484
 21
39.82173993311482
 31
0.0
  0
LINE
  5
E2
330
17
100
AcDbEntity
  8
ADP1DETAIL
100
AcDbLine
 10
21.78193208808484
 20
39.82173993311482
 30
0.0
 11
21.78193208808484
 21
39.82173993311482
 31
0.0
  0
TEXT
  5
EC
330
17
100
AcDbEntity
  8
ADPDIM
100
AcDbText
 10
-10.20007677958227
 20
0.3357101570361023
 30
0.0
 40
0.625
  1
J U L I U S  B L U M  &  C O . ,  I N C .      ( 8 0 0 )  5 2 6 - 6 2 9 3        W W W . J U L I U S B L U M . C O M        P A R T  N O .  1 5 9
 41
1.25
  7
ARIAL_WIDE
 72
     1
 11
22.09443208808484
 21
0.9607101570361022
 31
0.0
100
AcDbText
 73
     3
  0
ENDSEC
  0
SECTION
  2
OBJECTS
  0
DICTIONARY
  5
C
330
0
100
AcDbDictionary
  3
ACAD_GROUP
350
D
  3
ACAD_LAYOUT
350
F1
  3
ACAD_MLINESTYLE
350
1A
  3
ACAD_PLOTSETTINGS
350
F2
  3
ACAD_PLOTSTYLENAME
350
EF
  3
ACDBHEADERROUNDTRIPXREC
350
1DE
  3
ACDBVARIABLEDICTIONARY
350
26
  0
DICTIONARY
  5
11E
330
17
100
AcDbDictionary
280
     1
  3
ACAD_LAYOUTSELFREF
360
200
  0
DICTIONARY
  5
11C
330
14
100
AcDbDictionary
280
     1
  3
ACAD_LAYOUTSELFREF
360
1FF
  0
DICTIONARY
  5
D
102
{ACAD_REACTORS
330
C
102
}
330
C
100
AcDbDictionary
  0
DICTIONARY
  5
F1
102
{ACAD_REACTORS
330
C
102
}
330
C
100
AcDbDictionary
  0
DICTIONARY
  5
1A
102
{ACAD_REACTORS
330
C
102
}
330
C
100
AcDbDictionary
  3
STANDARD
350
1B
  0
DICTIONARY
  5
F2
102
{ACAD_REACTORS
330
C
102
}
330
C
100
AcDbDictionary
  0
ACDBDICTIONARYWDFLT
  5
EF
102
{ACAD_REACTORS
330
C
102
}
330
C
100
AcDbDictionary
281
     1
  3
Normal
350
F0
100
AcDbDictionaryWithDefault
340
F0
  0
DICTIONARY
  5
1DE
102
{ACAD_REACTORS
330
C
102
}
330
C
100
AcDbDictionary
  3
CEPSNTYPE
350
1E8
  3
DIMSTYLEDATA
350
1EC
  3
FINGERPRINTGUID
350
1E9
  3
HYPERLINKBASE
350
1E1
  3
INSUNITS
350
1E7
  3
LAYOUTDICT
350
1E3
  3
LWETCUNION
350
1E6
  3
PLOTSETDICT
350
1E4
  3
PLOTSTYLNAMDICT
350
1E5
  3
PSVPSCALE
350
1EB
  3
PUCSBASE
350
1EF
  3
PUCSORGBACK
350
1F5
  3
PUCSORGBOTTOM
350
1F1
  3
PUCSORGFRONT
350
1F4
  3
PUCSORGLEFT
350
1F2
  3
PUCSORGRIGHT
350
1F3
  3
PUCSORGTOP
350
1F0
  3
PUCSORTHOREF
350
1ED
  3
PUCSORTHOVIEW
350
1EE
  3
STYLESHEET
350
1E2
  3
TSTACKALIGN
350
1DF
  3
TSTACKSIZE
350
1E0
  3
UCSBASE
350
1F8
  3
UCSORGBACK
350
1FE
  3
UCSORGBOTTOM
350
1FA
  3
UCSORGFRONT
350
1FD
  3
UCSORGLEFT
350
1FB
  3
UCSORGRIGHT
350
1FC
  3
UCSORGTOP
350
1F9
  3
UCSORTHOREF
350
1F6
  3
UCSORTHOVIEW
350
1F7
  3
VERSIONGUID
350
1EA
  0
DICTIONARY
  5
26
102
{ACAD_REACTORS
330
C
102
}
330
C
100
AcDbDictionary
  3
DIMADEC
350
27
  3
DIMASSOC
350
124
  0
XRECORD
  5
200
102
{ACAD_REACTORS
330
11E
102
}
330
11E
100
AcDbXrecord
340
17
  0
XRECORD
  5
1FF
102
{ACAD_REACTORS
330
11C
102
}
330
11C
100
AcDbXrecord
340
14
  0
MLINESTYLE
  5
1B
102
{ACAD_REACTORS
330
1A
102
}
330
1A
100
AcDbMlineStyle
  2
STANDARD
 70
     0
  3

 62
   256
 51
90.0
 52
90.0
 71
     2
 49
0.5
 62
   256
  6
BYLAYER
 49
-0.5
 62
   256
  6
BYLAYER
  0
ACDBPLACEHOLDER
  5
F0
102
{ACAD_REACTORS
330
EF
102
}
330
EF
100
AcDbPlaceHolder
280
     0
  0
XRECORD
  5
1E8
102
{ACAD_REACTORS
330
1DE
102
}
330
1DE
100
AcDbXrecord
 90
        0
  0
XRECORD
  5
1EC
102
{ACAD_REACTORS
330
1DE
102
}
330
1DE
100
AcDbXrecord
1000
DSTYLE
1002
{
1070
   277
 70
     5
1070
   279
 70
     2
1002
}
  0
XRECORD
  5
1E9
102
{ACAD_REACTORS
330
1DE
102
}
330
1DE
100
AcDbXrecord
  1
{5BCE0CDE-C94C-4D6E-9D90-D0E8D2180A10}
  0
XRECORD
  5
1E1
102
{ACAD_REACTORS
330
1DE
102
}
330
1DE
100
AcDbXrecord
  1

  0
XRECORD
  5
1E7
102
{ACAD_REACTORS
330
1DE
102
}
330
1DE
100
AcDbXrecord
 90
        0
  0
XRECORD
  5
1E3
102
{ACAD_REACTORS
330
1DE
102
}
330
1DE
100
AcDbXrecord
340
F1
  0
XRECORD
  5
1E6
102
{ACAD_REACTORS
330
1DE
102
}
330
1DE
100
AcDbXrecord
 90
    14877
  0
XRECORD
  5
1E4
102
{ACAD_REACTORS
330
1DE
102
}
330
1DE
100
AcDbXrecord
340
F2
  0
XRECORD
  5
1E5
102
{ACAD_REACTORS
330
1DE
102
}
330
1DE
100
AcDbXrecord
340
EF
  0
XRECORD
  5
1EB
102
{ACAD_REACTORS
330
1DE
102
}
330
1DE
100
AcDbXrecord
 40
0.0
  0
XRECORD
  5
1EF
102
{ACAD_REACTORS
330
1DE
102
}
330
1DE
100
AcDbXrecord
340
0
  0
XRECORD
  5
1F5
102
{ACAD_REACTORS
330
1DE
102
}
330
1DE
100
AcDbXrecord
 10
0.0
 20
0.0
 30
0.0
  0
XRECORD
  5
1F1
102
{ACAD_REACTORS
330
1DE
102
}
330
1DE
100
AcDbXrecord
 10
0.0
 20
0.0
 30
0.0
  0
XRECORD
  5
1F4
102
{ACAD_REACTORS
330
1DE
102
}
330
1DE
100
AcDbXrecord
 10
0.0
 20
0.0
 30
0.0
  0
XRECORD
  5
1F2
102
{ACAD_REACTORS
330
1DE
102
}
330
1DE
100
AcDbXrecord
 10
0.0
 20
0.0
 30
0.0
  0
XRECORD
  5
1F3
102
{ACAD_REACTORS
330
1DE
102
}
330
1DE
100
AcDbXrecord
 10
0.0
 20
0.0
 30
0.0
  0
XRECORD
  5
1F0
102
{ACAD_REACTORS
330
1DE
102
}
330
1DE
100
AcDbXrecord
 10
0.0
 20
0.0
 30
0.0
  0
XRECORD
  5
1ED
102
{ACAD_REACTORS
330
1DE
102
}
330
1DE
100
AcDbXrecord
340
0
  0
XRECORD
  5
1EE
102
{ACAD_REACTORS
330
1DE
102
}
330
1DE
100
AcDbXrecord
 70
     0
  0
XRECORD
  5
1E2
102
{ACAD_REACTORS
330
1DE
102
}
330
1DE
100
AcDbXrecord
  1

  0
XRECORD
  5
1DF
102
{ACAD_REACTORS
330
1DE
102
}
330
1DE
100
AcDbXrecord
 90
        1
  0
XRECORD
  5
1E0
102
{ACAD_REACTORS
330
1DE
102
}
330
1DE
100
AcDbXrecord
 90
       70
  0
XRECORD
  5
1F8
102
{ACAD_REACTORS
330
1DE
102
}
330
1DE
100
AcDbXrecord
340
0
  0
XRECORD
  5
1FE
102
{ACAD_REACTORS
330
1DE
102
}
330
1DE
100
AcDbXrecord
 10
0.0
 20
0.0
 30
0.0
  0
XRECORD
  5
1FA
102
{ACAD_REACTORS
330
1DE
102
}
330
1DE
100
AcDbXrecord
 10
0.0
 20
0.0
 30
0.0
  0
XRECORD
  5
1FD
102
{ACAD_REACTORS
330
1DE
102
}
330
1DE
100
AcDbXrecord
 10
0.0
 20
0.0
 30
0.0
  0
XRECORD
  5
1FB
102
{ACAD_REACTORS
330
1DE
102
}
330
1DE
100
AcDbXrecord
 10
0.0
 20
0.0
 30
0.0
  0
XRECORD
  5
1FC
102
{ACAD_REACTORS
330
1DE
102
}
330
1DE
100
AcDbXrecord
 10
0.0
 20
0.0
 30
0.0
  0
XRECORD
  5
1F9
102
{ACAD_REACTORS
330
1DE
102
}
330
1DE
100
AcDbXrecord
 10
0.0
 20
0.0
 30
0.0
  0
XRECORD
  5
1F6
102
{ACAD_REACTORS
330
1DE
102
}
330
1DE
100
AcDbXrecord
340
0
  0
XRECORD
  5
1F7
102
{ACAD_REACTORS
330
1DE
102
}
330
1DE
100
AcDbXrecord
 70
     0
  0
XRECORD
  5
1EA
102
{ACAD_REACTORS
330
1DE
102
}
330
1DE
100
AcDbXrecord
  1
{888F0F2B-8FCF-4B82-A1F1-2D60181DDC96}
  0
DICTIONARYVAR
  5
27
102
{ACAD_REACTORS
330
26
102
}
330
26
100
DictionaryVariables
280
     0
  1
0
  0
DICTIONARYVAR
  5
124
102
{ACAD_REACTORS
330
26
102
}
330
26
100
DictionaryVariables
280
     0
  1
1
  0
ENDSEC
  0
EOF
