  0
SECTION
  2
HEADER
  9
$ACADVER
  1
AC1014
  9
$ACADMAINTVER
 70
     9
  9
$DWGCODEPAGE
  3
ANSI_1252
  9
$INSBASE
 10
82.36506114714833
 20
-0.9989808476606745
 30
0.0
  9
$EXTMIN
 10
49.69721894614787
 20
-4.688462727045719
 30
0.0
  9
$EXTMAX
 10
114.2862366814821
 20
35.12601915233932
 30
0.0
  9
$LIMMIN
 10
0.0
 20
0.0
  9
$LIMMAX
 10
36.0
 20
36.0
  9
$ORTHOMODE
 70
     1
  9
$REGENMODE
 70
     1
  9
$FILLMODE
 70
     1
  9
$QTEXTMODE
 70
     0
  9
$MIRRTEXT
 70
     1
  9
$DRAGMODE
 70
     0
  9
$LTSCALE
 40
1.0
  9
$OSMODE
 70
    37
  9
$ATTMODE
 70
     1
  9
$TEXTSIZE
 40
0.2
  9
$TRACEWID
 40
0.05
  9
$TEXTSTYLE
  7
STANDARD
  9
$CLAYER
  8
ADPDIM
  9
$CELTYPE
  6
BYLAYER
  9
$CECOLOR
 62
   256
  9
$CELTSCALE
 40
1.0
  9
$DELOBJ
 70
     1
  9
$DISPSILH
 70
     0
  9
$DIMSCALE
 40
1.0
  9
$DIMASZ
 40
0.125
  9
$DIMEXO
 40
0.0625
  9
$DIMDLI
 40
0.38
  9
$DIMRND
 40
0.0
  9
$DIMDLE
 40
0.0
  9
$DIMEXE
 40
0.18
  9
$DIMTP
 40
0.0
  9
$DIMTM
 40
0.0
  9
$DIMTXT
 40
0.125
  9
$DIMCEN
 40
0.1875
  9
$DIMTSZ
 40
0.125
  9
$DIMTOL
 70
     0
  9
$DIMLIM
 70
     0
  9
$DIMTIH
 70
     0
  9
$DIMTOH
 70
     0
  9
$DIMSE1
 70
     0
  9
$DIMSE2
 70
     0
  9
$DIMTAD
 70
     0
  9
$DIMZIN
 70
     3
  9
$DIMBLK
  1

  9
$DIMASO
 70
     1
  9
$DIMSHO
 70
     1
  9
$DIMPOST
  1

  9
$DIMAPOST
  1

  9
$DIMALT
 70
     0
  9
$DIMALTD
 70
     1
  9
$DIMALTF
 40
25.4
  9
$DIMLFAC
 40
1.0
  9
$DIMTOFL
 70
     0
  9
$DIMTVP
 40
0.0
  9
$DIMTIX
 70
     0
  9
$DIMSOXD
 70
     0
  9
$DIMSAH
 70
     0
  9
$DIMBLK1
  1

  9
$DIMBLK2
  1

  9
$DIMSTYLE
  2
STANDARD
  9
$DIMCLRD
 70
     0
  9
$DIMCLRE
 70
     0
  9
$DIMCLRT
 70
     0
  9
$DIMTFAC
 40
1.0
  9
$DIMGAP
 40
0.125
  9
$DIMJUST
 70
     0
  9
$DIMSD1
 70
     0
  9
$DIMSD2
 70
     0
  9
$DIMTOLJ
 70
     1
  9
$DIMTZIN
 70
     0
  9
$DIMALTZ
 70
     0
  9
$DIMALTTZ
 70
     0
  9
$DIMFIT
 70
     3
  9
$DIMUPT
 70
     0
  9
$DIMUNIT
 70
     2
  9
$DIMDEC
 70
     4
  9
$DIMTDEC
 70
     4
  9
$DIMALTU
 70
     2
  9
$DIMALTTD
 70
     2
  9
$DIMTXSTY
  7
STANDARD
  9
$DIMAUNIT
 70
     0
  9
$LUNITS
 70
     5
  9
$LUPREC
 70
     4
  9
$SKETCHINC
 40
0.1
  9
$FILLETRAD
 40
0.062
  9
$AUNITS
 70
     0
  9
$AUPREC
 70
     0
  9
$MENU
  1
acad
  9
$ELEVATION
 40
0.0
  9
$PELEVATION
 40
0.0
  9
$THICKNESS
 40
0.0
  9
$LIMCHECK
 70
     0
  9
$BLIPMODE
 70
     0
  9
$CHAMFERA
 40
0.0
  9
$CHAMFERB
 40
0.0
  9
$CHAMFERC
 40
0.0
  9
$CHAMFERD
 40
0.0
  9
$SKPOLY
 70
     0
  9
$TDCREATE
 40
2450399.546660301
  9
$TDUPDATE
 40
2452297.064182037
  9
$TDINDWG
 40
0.0067621875
  9
$TDUSRTIMER
 40
0.0067621875
  9
$USRTIMER
 70
     1
  9
$ANGBASE
 50
0.0
  9
$ANGDIR
 70
     0
  9
$PDMODE
 70
     0
  9
$PDSIZE
 40
0.0
  9
$PLINEWID
 40
0.0
  9
$COORDS
 70
     2
  9
$SPLFRAME
 70
     0
  9
$SPLINETYPE
 70
     6
  9
$SPLINESEGS
 70
     8
  9
$ATTDIA
 70
     0
  9
$ATTREQ
 70
     1
  9
$HANDLING
 70
 22529
  9
$HANDSEED
  5
23D
  9
$SURFTAB1
 70
     6
  9
$SURFTAB2
 70
     6
  9
$SURFTYPE
 70
     6
  9
$SURFU
 70
     6
  9
$SURFV
 70
     6
  9
$UCSNAME
  2

  9
$UCSORG
 10
0.0
 20
0.0
 30
0.0
  9
$UCSXDIR
 10
1.0
 20
0.0
 30
0.0
  9
$UCSYDIR
 10
0.0
 20
1.0
 30
0.0
  9
$PUCSNAME
  2

  9
$PUCSORG
 10
0.0
 20
0.0
 30
0.0
  9
$PUCSXDIR
 10
1.0
 20
0.0
 30
0.0
  9
$PUCSYDIR
 10
0.0
 20
1.0
 30
0.0
  9
$USERI1
 70
     0
  9
$USERI2
 70
     0
  9
$USERI3
 70
     0
  9
$USERI4
 70
     0
  9
$USERI5
 70
     0
  9
$USERR1
 40
0.0
  9
$USERR2
 40
0.0
  9
$USERR3
 40
0.0
  9
$USERR4
 40
0.0
  9
$USERR5
 40
0.0
  9
$WORLDVIEW
 70
     1
  9
$SHADEDGE
 70
     3
  9
$SHADEDIF
 70
    70
  9
$TILEMODE
 70
     1
  9
$MAXACTVP
 70
    15
  9
$PINSBASE
 10
0.0
 20
0.0
 30
0.0
  9
$PLIMCHECK
 70
     0
  9
$PEXTMIN
 10
1.000000000000000E+20
 20
1.000000000000000E+20
 30
1.000000000000000E+20
  9
$PEXTMAX
 10
-1.000000000000000E+20
 20
-1.000000000000000E+20
 30
-1.000000000000000E+20
  9
$PLIMMIN
 10
0.0
 20
0.0
  9
$PLIMMAX
 10
12.0
 20
9.0
  9
$UNITMODE
 70
     0
  9
$VISRETAIN
 70
     0
  9
$PLINEGEN
 70
     0
  9
$PSLTSCALE
 70
     1
  9
$TREEDEPTH
 70
  3020
  9
$PICKSTYLE
 70
     1
  9
$CMLSTYLE
  2
STANDARD
  9
$CMLJUST
 70
     0
  9
$CMLSCALE
 40
1.0
  9
$PROXYGRAPHICS
 70
     1
  9
$MEASUREMENT
 70
     0
  0
ENDSEC
  0
SECTION
  2
CLASSES
  0
CLASS
  1
LWPOLYLINE
  2
AcDbPolyline
  3
AutoCAD 2000
 90
        0
280
     0
281
     1
  0
CLASS
  1
ACDBDICTIONARYWDFLT
  2
AcDbDictionaryWithDefault
  3
AutoCAD 2000
 90
        0
280
     0
281
     0
  0
CLASS
  1
ACDBPLACEHOLDER
  2
AcDbPlaceHolder
  3
AutoCAD 2000
 90
        0
280
     0
281
     0
  0
CLASS
  1
LAYOUT
  2
AcDbLayout
  3
AutoCAD 2000
 90
        0
280
     0
281
     0
  0
CLASS
  1
DICTIONARYVAR
  2
AcDbDictionaryVar
  3
AutoCAD 2000
 90
        0
280
     0
281
     0
  0
CLASS
  1
LONG_TRANSACTION
  2
AcDbLongTransaction
  3
AutoCAD 2000
 90
        0
280
     0
281
     0
  0
CLASS
  1
LWPOLYLINE
  2
AcDbPolyline
  3
AutoCAD 2000
 90
        0
280
     0
281
     1
  0
CLASS
  1
HATCH
  2
AcDbHatch
  3
AutoCAD 2000
 90
        0
280
     0
281
     1
  0
CLASS
  1
XRECORD
  2
AcDbXrecord
  3
AutoCAD 2000
 90
        0
280
     0
281
     0
  0
CLASS
  1
LONG_TRANSACTION
  2
AcDbLongTransaction
  3
AutoCAD 2000
 90
        0
280
     0
281
     0
  0
CLASS
  1
LWPOLYLINE
  2
AcDbPolyline
  3
AutoCAD 2000
 90
        0
280
     0
281
     1
  0
CLASS
  1
HATCH
  2
AcDbHatch
  3
AutoCAD 2000
 90
        0
280
     0
281
     1
  0
CLASS
  1
XRECORD
  2
AcDbXrecord
  3
AutoCAD 2000
 90
        0
280
     0
281
     0
  0
CLASS
  1
LONG_TRANSACTION
  2
AcDbLongTransaction
  3
AutoCAD 2000
 90
        0
280
     0
281
     0
  0
CLASS
  1
LWPOLYLINE
  2
AcDbPolyline
  3
AutoCAD 2000
 90
        0
280
     0
281
     1
  0
CLASS
  1
HATCH
  2
AcDbHatch
  3
AutoCAD 2000
 90
        0
280
     0
281
     1
  0
CLASS
  1
XRECORD
  2
AcDbXrecord
  3
AutoCAD 2000
 90
        0
280
     0
281
     0
  0
CLASS
  1
LONG_TRANSACTION
  2
AcDbLongTransaction
  3
AutoCAD 2000
 90
        0
280
     0
281
     0
  0
CLASS
  1
LWPOLYLINE
  2
AcDbPolyline
  3
AutoCAD 2000
 90
        0
280
     0
281
     1
  0
CLASS
  1
HATCH
  2
AcDbHatch
  3
AutoCAD 2000
 90
        0
280
     0
281
     1
  0
CLASS
  1
XRECORD
  2
AcDbXrecord
  3
AutoCAD 2000
 90
        0
280
     0
281
     0
  0
CLASS
  1
LONG_TRANSACTION
  2
AcDbLongTransaction
  3
AutoCAD 2000
 90
        0
280
     0
281
     0
  0
CLASS
  1
LWPOLYLINE
  2
AcDbPolyline
  3
AutoCAD 2000
 90
        0
280
     0
281
     1
  0
CLASS
  1
HATCH
  2
AcDbHatch
  3
AutoCAD 2000
 90
        0
280
     0
281
     1
  0
CLASS
  1
XRECORD
  2
AcDbXrecord
  3
AutoCAD 2000
 90
        0
280
     0
281
     0
  0
ENDSEC
  0
SECTION
  2
TABLES
  0
TABLE
  2
VPORT
  5
8
330
0
100
AcDbSymbolTable
 70
     2
  0
VPORT
  5
21A
330
8
100
AcDbSymbolTableRecord
100
AcDbViewportTableRecord
  2
*ACTIVE
 70
     0
 10
0.0
 20
0.0
 11
1.0
 21
1.0
 12
81.99237064620795
 22
15.22011847427584
 13
0.0
 23
0.0
 14
0.5740882589684922
 24
0.5740882589684922
 15
0.5
 25
0.5
 16
0.0
 26
0.0
 36
1.0
 17
0.0
 27
0.0
 37
0.0
 40
41.33310506577927
 41
1.570528967254408
 42
50.0
 43
0.0
 44
0.0
 50
0.0
 51
0.0
 71
     0
 72
   100
 73
     1
 74
     0
 75
     0
 76
     0
 77
     0
 78
     0
  0
ENDTAB
  0
TABLE
  2
LTYPE
  5
5
330
0
100
AcDbSymbolTable
 70
     1
  0
LTYPE
  5
12
330
5
100
AcDbSymbolTableRecord
100
AcDbLinetypeTableRecord
  2
BYBLOCK
 70
     0
  3

 72
    65
 73
     0
 40
0.0
  0
LTYPE
  5
13
330
5
100
AcDbSymbolTableRecord
100
AcDbLinetypeTableRecord
  2
BYLAYER
 70
     0
  3

 72
    65
 73
     0
 40
0.0
  0
LTYPE
  5
14
330
5
100
AcDbSymbolTableRecord
100
AcDbLinetypeTableRecord
  2
CONTINUOUS
 70
     0
  3
Solid line
 72
    65
 73
     0
 40
0.0
  0
ENDTAB
  0
TABLE
  2
LAYER
  5
2
330
0
100
AcDbSymbolTable
 70
     4
  0
LAYER
  5
F
330
2
100
AcDbSymbolTableRecord
100
AcDbLayerTableRecord
  2
0
 70
     0
 62
     7
  6
CONTINUOUS
  0
LAYER
  5
1F
330
2
100
AcDbSymbolTableRecord
100
AcDbLayerTableRecord
  2
ADPDIM
 70
     0
 62
     3
  6
CONTINUOUS
  0
LAYER
  5
20
330
2
100
AcDbSymbolTableRecord
100
AcDbLayerTableRecord
  2
ADP1DETAIL
 70
     0
 62
     7
  6
CONTINUOUS
  0
LAYER
  5
21
330
2
100
AcDbSymbolTableRecord
100
AcDbLayerTableRecord
  2
DEFPOINTS
 70
     0
 62
     7
  6
CONTINUOUS
  0
ENDTAB
  0
TABLE
  2
STYLE
  5
3
330
0
100
AcDbSymbolTable
 70
     2
  0
STYLE
  5
10
330
3
100
AcDbSymbolTableRecord
100
AcDbTextStyleTableRecord
  2
STANDARD
 70
     0
 40
0.0
 41
1.0
 50
0.0
 71
     0
 42
0.2
  3
txt
  4

  0
STYLE
  5
11E
330
3
100
AcDbSymbolTableRecord
100
AcDbTextStyleTableRecord
  2
ARIAL_WIDE
 70
     0
 40
0.0
 41
1.25
 50
0.0
 71
     0
 42
0.2
  3
ARIAL.TTF
  4

1001
ACAD
1000
Arial
1071
       34
  0
ENDTAB
  0
TABLE
  2
VIEW
  5
6
330
0
100
AcDbSymbolTable
 70
     0
  0
ENDTAB
  0
TABLE
  2
UCS
  5
7
330
0
100
AcDbSymbolTable
 70
     0
  0
ENDTAB
  0
TABLE
  2
APPID
  5
9
330
0
100
AcDbSymbolTable
 70
     1
  0
APPID
  5
11
330
9
100
AcDbSymbolTableRecord
100
AcDbRegAppTableRecord
  2
ACAD
 70
     0
  0
ENDTAB
  0
TABLE
  2
DIMSTYLE
  5
A
330
0
100
AcDbSymbolTable
 70
     1
  0
DIMSTYLE
105
118
330
A
100
AcDbSymbolTableRecord
100
AcDbDimStyleTableRecord
  2
STANDARD
 70
     0
  3

  4

  5

  6

  7

 40
1.0
 41
0.18
 42
0.0625
 43
0.38
 44
0.18
 45
0.0
 46
0.0
 47
0.0
 48
0.0
140
0.18
141
0.09
142
0.0
143
25.4
144
1.0
145
0.0
146
1.0
147
0.09
 71
     0
 72
     0
 73
     1
 74
     1
 75
     0
 76
     0
 77
     0
 78
     0
170
     0
171
     2
172
     0
173
     0
174
     0
175
     0
176
     0
177
     0
178
     0
270
     2
271
     4
272
     4
273
     2
274
     2
340
10
275
     0
280
     0
281
     0
282
     0
283
     1
284
     0
285
     0
286
     0
287
     3
288
     0
  0
ENDTAB
  0
TABLE
  2
BLOCK_RECORD
  5
1
330
0
100
AcDbSymbolTable
 70
     2
  0
BLOCK_RECORD
  5
18
102
{ACAD_XDICTIONARY
360
156
102
}
330
1
100
AcDbSymbolTableRecord
100
AcDbBlockTableRecord
  2
*MODEL_SPACE
  0
BLOCK_RECORD
  5
15
102
{ACAD_XDICTIONARY
360
154
102
}
330
1
100
AcDbSymbolTableRecord
100
AcDbBlockTableRecord
  2
*PAPER_SPACE
  0
BLOCK_RECORD
  5
1C
330
1
100
AcDbSymbolTableRecord
100
AcDbBlockTableRecord
  2
*D0
  0
BLOCK_RECORD
  5
1D
330
1
100
AcDbSymbolTableRecord
100
AcDbBlockTableRecord
  2
*D1
  0
ENDTAB
  0
ENDSEC
  0
SECTION
  2
BLOCKS
  0
BLOCK
  5
24
330
18
100
AcDbEntity
  8
0
100
AcDbBlockBegin
  2
*MODEL_SPACE
 70
     0
 10
0.0
 20
0.0
 30
0.0
  3
*MODEL_SPACE
  1

  0
ENDBLK
  5
25
330
18
100
AcDbEntity
  8
0
100
AcDbBlockEnd
  0
BLOCK
  5
22
330
15
100
AcDbEntity
 67
     1
  8
0
100
AcDbBlockBegin
  2
*PAPER_SPACE
 70
     0
 10
0.0
 20
0.0
 30
0.0
  3
*PAPER_SPACE
  1

  0
ENDBLK
  5
23
330
15
100
AcDbEntity
 67
     1
  8
0
100
AcDbBlockEnd
  0
BLOCK
  5
26
330
1C
100
AcDbEntity
  8
0
100
AcDbBlockBegin
  2
*D0
 70
     1
 10
0.0
 20
0.0
 30
0.0
  3
*D0
  1

  0
LINE
  5
27
330
1C
100
AcDbEntity
  8
0
  6
BYBLOCK
 62
     0
100
AcDbLine
 10
81.58256114714832
 20
-0.9989808476606745
 30
0.0
 11
78.23322765121472
 21
-0.9989808476606743
 31
0.0
  0
LINE
  5
28
330
1C
100
AcDbEntity
  8
0
  6
BYBLOCK
 62
     0
100
AcDbLine
 10
81.58256114714832
 20
35.00101915233932
 30
0.0
 11
78.23322765121472
 21
35.00101915233932
 31
0.0
  0
LINE
  5
29
330
1C
100
AcDbEntity
  8
0
  6
BYBLOCK
 62
     0
100
AcDbLine
 10
78.41322765121472
 20
-0.9989808476606743
 30
0.0
 11
78.41322765121472
 21
16.77185248567266
 31
0.0
  0
LINE
  5
2A
330
1C
100
AcDbEntity
  8
0
  6
BYBLOCK
 62
     0
100
AcDbLine
 10
78.41322765121472
 20
35.00101915233932
 30
0.0
 11
78.41322765121472
 21
17.23018581900599
 31
0.0
  0
LINE
  5
2B
330
1C
100
AcDbEntity
  8
0
  6
BYBLOCK
 62
     0
100
AcDbLine
 10
78.53822765121472
 20
-1.123980847660674
 30
0.0
 11
78.28822765121472
 21
-0.8739808476606743
 31
0.0
  0
LINE
  5
2C
330
1C
100
AcDbEntity
  8
0
  6
BYBLOCK
 62
     0
100
AcDbLine
 10
78.53822765121472
 20
34.87601915233932
 30
0.0
 11
78.28822765121472
 21
35.12601915233932
 31
0.0
  0
TEXT
  5
2D
330
1C
100
AcDbEntity
  8
0
  6
BYBLOCK
 62
     0
100
AcDbText
 10
78.47572765121473
 20
16.89685248567266
 30
0.0
 40
0.125
  1
36
 50
90.0
 72
     1
 11
78.41322765121472
 21
17.00101915233932
 31
0.0
100
AcDbText
 73
     2
  0
POINT
  5
2E
330
1C
100
AcDbEntity
  8
DEFPOINTS
  6
BYBLOCK
 62
     0
100
AcDbPoint
 10
81.64506114714832
 20
-0.9989808476606745
 30
0.0
  0
POINT
  5
2F
330
1C
100
AcDbEntity
  8
DEFPOINTS
  6
BYBLOCK
 62
     0
100
AcDbPoint
 10
81.64506114714832
 20
35.00101915233932
 30
0.0
  0
POINT
  5
30
330
1C
100
AcDbEntity
  8
DEFPOINTS
  6
BYBLOCK
 62
     0
100
AcDbPoint
 10
78.41322765121472
 20
35.00101915233932
 30
0.0
  0
ENDBLK
  5
31
330
1C
100
AcDbEntity
  8
0
100
AcDbBlockEnd
  0
BLOCK
  5
32
330
1D
100
AcDbEntity
  8
0
100
AcDbBlockBegin
  2
*D1
 70
     1
 10
0.0
 20
0.0
 30
0.0
  3
*D1
  1

  0
LINE
  5
33
330
1D
100
AcDbEntity
  8
0
  6
BYBLOCK
 62
     0
100
AcDbLine
 10
82.03592198763914
 20
-1.894495879758114
 30
0.0
 11
82.41657086212343
 21
-1.513847005273838
 31
0.0
  0
LINE
  5
34
330
1D
100
AcDbEntity
  8
0
  6
BYBLOCK
 62
     0
100
AcDbLine
 10
82.38947537823241
 20
-2.248049270351388
 30
0.0
 11
82.77012425271669
 21
-1.867400395867113
 31
0.0
  0
LINE
  5
35
330
1D
100
AcDbEntity
  8
0
  6
BYBLOCK
 62
     0
100
AcDbLine
 10
82.28929164150986
 20
-1.641126225887414
 30
0.0
 11
82.11251494621322
 21
-1.464349530590775
 31
0.0
  0
LINE
  5
36
330
1D
100
AcDbEntity
  8
0
  6
BYBLOCK
 62
     0
100
AcDbLine
 10
82.64284503210312
 20
-1.994679616480689
 30
0.0
 11
82.81962172739975
 21
-2.171456311777329
 31
0.0
  0
LINE
  5
37
330
1D
100
AcDbEntity
  8
0
  6
BYBLOCK
 62
     0
100
AcDbLine
 10
82.11251494621322
 20
-1.641126225887411
 30
0.0
 11
82.46606833680649
 21
-1.641126225887417
 31
0.0
  0
LINE
  5
38
330
1D
100
AcDbEntity
  8
0
  6
BYBLOCK
 62
     0
100
AcDbLine
 10
82.46606833680649
 20
-1.994679616480686
 30
0.0
 11
82.81962172739977
 21
-1.994679616480692
 31
0.0
  0
TEXT
  5
39
330
1D
100
AcDbEntity
  8
0
  6
BYBLOCK
 62
     0
100
AcDbText
 10
82.8638159012239
 20
-2.304038833249809
 30
0.0
 40
0.125
  1
1/2
 50
314.999999999999
 72
     1
 11
83.0111298139711
 21
-2.362964398348691
 31
0.0
100
AcDbText
 73
     2
  0
POINT
  5
3A
330
1D
100
AcDbEntity
  8
DEFPOINTS
  6
BYBLOCK
 62
     0
100
AcDbPoint
 10
81.99172781381498
 20
-1.938690053582272
 30
0.0
  0
POINT
  5
3B
330
1D
100
AcDbEntity
  8
DEFPOINTS
  6
BYBLOCK
 62
     0
100
AcDbPoint
 10
82.34528120440826
 20
-2.292243444175547
 30
0.0
  0
POINT
  5
3C
330
1D
100
AcDbEntity
  8
DEFPOINTS
  6
BYBLOCK
 62
     0
100
AcDbPoint
 10
82.64284503210312
 20
-1.994679616480689
 30
0.0
  0
ENDBLK
  5
3D
330
1D
100
AcDbEntity
  8
0
100
AcDbBlockEnd
  0
ENDSEC
  0
SECTION
  2
ENTITIES
  0
DIMENSION
  5
3E
330
18
100
AcDbEntity
  8
ADPDIM
100
AcDbDimension
  2
*D0
 10
78.41322765121472
 20
35.00101915233932
 30
0.0
 11
78.41322765121472
 21
17.00101915233932
 31
0.0
100
AcDbAlignedDimension
 13
81.64506114714832
 23
-0.9989808476606745
 33
0.0
 14
81.64506114714832
 24
35.00101915233932
 34
0.0
 50
90.0
100
AcDbRotatedDimension
  0
LWPOLYLINE
  5
3F
330
18
100
AcDbEntity
  8
ADP1DETAIL
100
AcDbPolyline
 90
        3
 70
     0
 43
0.0
 10
79.42884126673192
 20
27.26250974327962
 42
0.2684557397318328
 10
80.27152188098602
 20
26.99128468287803
 42
0.3728810409571263
 10
81.98544816870096
 20
28.47588517356637
 42
-0.8661985648564034
  0
LWPOLYLINE
  5
44
330
18
100
AcDbEntity
  8
ADP1DETAIL
100
AcDbPolyline
 90
        7
 70
     0
 43
0.0
 10
81.62838017486997
 20
29.14681034480843
 42
-0.2554285563057439
 10
80.70000334957244
 20
27.44808477005527
 42
-0.3092587159398036
 10
79.72877852209553
 20
27.47663482734443
 42
-0.3128939442875822
 10
79.82875746942696
 20
27.89060989770871
 42
0.2042329685219655
 10
79.37171052826453
 20
27.70503487093305
 42
0.3499609514876201
 10
79.42884126673192
 20
27.27678484104496
 42
0.1947722192381964
 10
78.90038064412943
 20
26.99128468287803
 42
1.707094454140684
  0
LWPOLYLINE
  5
4D
330
18
100
AcDbEntity
  8
ADP1DETAIL
100
AcDbPolyline
 90
        7
 70
     0
 43
0.0
 10
82.34251616253198
 20
29.14681034480843
 42
0.2554285563057439
 10
83.27089298782951
 20
27.44808477005527
 42
0.3092587159398036
 10
84.24211781530642
 20
27.47663482734443
 42
0.3128939442875822
 10
84.14213886797499
 20
27.89060989770871
 42
-0.2042329685219655
 10
84.59918580913742
 20
27.70503487093305
 42
-0.3499609514876201
 10
84.54205507067003
 20
27.27678484104496
 42
-0.1947722192381964
 10
85.07051569327252
 20
26.99128468287803
 42
-1.707094454140684
  0
LWPOLYLINE
  5
56
330
18
100
AcDbEntity
  8
ADP1DETAIL
100
AcDbPolyline
 90
        3
 70
     0
 43
0.0
 10
84.54205507067003
 20
27.26250974327962
 42
-0.2684557397318328
 10
83.69937445641591
 20
26.99128468287803
 42
-0.3728810409571263
 10
81.98544816870096
 20
28.47588517356637
 42
0.8661985648564034
  0
LINE
  5
5B
330
18
100
AcDbEntity
  8
ADP1DETAIL
100
AcDbLine
 10
81.99172781381498
 20
24.10930020880225
 30
0.0
 11
81.991727813815
 21
13.89719178302547
 31
0.0
  0
LINE
  5
5C
330
18
100
AcDbEntity
  8
ADP1DETAIL
100
AcDbLine
 10
81.64506114714832
 20
24.11167834478872
 30
0.0
 11
81.64506114714832
 21
13.89719178302547
 31
0.0
  0
LINE
  5
5D
330
18
100
AcDbEntity
  8
ADP1DETAIL
100
AcDbLine
 10
82.36506114714833
 20
-0.9989808476606745
 30
0.0
 11
82.36506114714833
 21
8.110525116358804
 31
0.0
  0
LWPOLYLINE
  5
5E
330
18
100
AcDbEntity
  8
ADP1DETAIL
100
AcDbPolyline
 90
        4
 70
     1
 43
0.0
 10
81.63817442322171
 20
-2.292243444175547
 10
81.99172781381498
 20
-2.645796834768821
 10
82.34528120440826
 20
-2.292243444175547
 10
81.99172781381498
 20
-1.938690053582273
  0
LINE
  5
64
330
18
100
AcDbEntity
  8
ADP1DETAIL
100
AcDbLine
 10
81.64506114714832
 20
-0.9989808476606745
 30
0.0
 11
82.36506114714833
 21
-0.9989808476606745
 31
0.0
  0
DIMENSION
  5
65
330
18
100
AcDbEntity
  8
ADPDIM
100
AcDbDimension
  2
*D1
 10
82.64284503210312
 20
-1.994679616480689
 30
0.0
 11
83.0111298139711
 21
-2.362964398348691
 31
0.0
 70
     1
100
AcDbAlignedDimension
 13
81.99172781381498
 23
-1.938690053582273
 33
0.0
 14
82.34528120440826
 24
-2.292243444175548
 34
0.0
  0
LINE
  5
66
330
18
100
AcDbEntity
  8
ADP1DETAIL
100
AcDbLine
 10
82.36506114714833
 20
-0.9989808476606745
 30
0.0
 11
82.36506114714833
 21
-0.9989808476606745
 31
0.0
  0
LWPOLYLINE
  5
67
330
18
100
AcDbEntity
  8
ADP1DETAIL
100
AcDbPolyline
 90
        7
 70
     0
 43
0.0
 10
81.62838017486997
 20
24.83575902094763
 42
0.2554285563057439
 10
80.70000334957244
 20
26.53448459570079
 42
0.3092587159398036
 10
79.72877852209553
 20
26.50593453841164
 42
0.3128939442875822
 10
79.82875746942696
 20
26.09195946804736
 42
-0.2042329685219655
 10
79.37171052826453
 20
26.27753449482302
 42
-0.3499609514876201
 10
79.42884126673192
 20
26.7057845247111
 42
-0.1947722192381964
 10
78.90038064412943
 20
26.99128468287803
 42
-1.707094454140684
  0
LWPOLYLINE
  5
70
330
18
100
AcDbEntity
  8
ADP1DETAIL
100
AcDbPolyline
 90
        3
 70
     0
 43
0.0
 10
79.42884126673192
 20
26.72005962247645
 42
-0.2684557397318328
 10
80.27152188098602
 20
26.99128468287803
 42
-0.3728810409571263
 10
81.98544816870096
 20
25.50668419218969
 42
0.8661985648564034
  0
LWPOLYLINE
  5
75
330
18
100
AcDbEntity
  8
ADP1DETAIL
100
AcDbPolyline
 90
        7
 70
     0
 43
0.0
 10
82.34251616253198
 20
24.83575902094763
 42
-0.2554285563057439
 10
83.27089298782951
 20
26.53448459570079
 42
-0.3092587159398036
 10
84.24211781530642
 20
26.50593453841164
 42
-0.3128939442875822
 10
84.14213886797499
 20
26.09195946804736
 42
0.2042329685219655
 10
84.59918580913742
 20
26.27753449482302
 42
0.3499609514876201
 10
84.54205507067003
 20
26.7057845247111
 42
0.1947722192381964
 10
85.07051569327252
 20
26.99128468287803
 42
1.707094454140684
  0
LWPOLYLINE
  5
7E
330
18
100
AcDbEntity
  8
ADP1DETAIL
100
AcDbPolyline
 90
        3
 70
     0
 43
0.0
 10
84.54205507067003
 20
26.72005962247645
 42
0.2684557397318328
 10
83.69937445641591
 20
26.99128468287803
 42
0.3728810409571263
 10
81.98544816870096
 20
25.50668419218969
 42
-0.8661985648564034
  0
LINE
  5
83
330
18
100
AcDbEntity
  8
ADP1DETAIL
100
AcDbLine
 10
81.49569544387279
 20
24.69719178302547
 30
0.0
 11
81.49569544387279
 21
24.83052511635881
 31
0.0
  0
LINE
  5
84
330
18
100
AcDbEntity
  8
ADP1DETAIL
100
AcDbLine
 10
82.45569544387278
 20
24.69719178302547
 30
0.0
 11
82.45569544387278
 21
24.83052511635881
 31
0.0
  0
LINE
  5
85
330
18
100
AcDbEntity
  8
ADP1DETAIL
100
AcDbLine
 10
81.49569544387281
 20
24.1105251163588
 30
0.0
 11
81.97569544387279
 21
24.1105251163588
 31
0.0
  0
LWPOLYLINE
  5
86
330
18
100
AcDbEntity
  8
ADP1DETAIL
100
AcDbPolyline
 90
        4
 70
     1
 43
0.0
 10
81.36236211053946
 20
24.56385844969213
 10
81.36236211053946
 20
24.37719178302547
 10
82.58902877720613
 20
24.37719178302547
 10
82.58902877720613
 20
24.56385844969213
  0
ARC
  5
8C
330
18
100
AcDbEntity
  8
ADP1DETAIL
100
AcDbCircle
 10
81.36236211053946
 20
24.24385844969214
 30
0.0
 40
0.133333333333334
100
AcDbArc
 50
359.9999999999984
 51
90.00000000000003
  0
ARC
  5
8D
330
18
100
AcDbEntity
  8
ADP1DETAIL
100
AcDbCircle
 10
81.36236211053946
 20
24.69719178302547
 30
0.0
 40
0.133333333333334
100
AcDbArc
 50
270.0
 51
0.0000000000015314
  0
LINE
  5
8E
330
18
100
AcDbEntity
  8
ADP1DETAIL
100
AcDbLine
 10
81.37839448048167
 20
24.53719178302547
 30
0.0
 11
81.37839448048167
 21
24.53719178302547
 31
0.0
  0
LINE
  5
8F
330
18
100
AcDbEntity
  8
ADP1DETAIL
100
AcDbLine
 10
81.49569544387281
 20
24.24385844969213
 30
0.0
 11
81.49569544387281
 21
24.1105251163588
 31
0.0
  0
ARC
  5
90
330
18
100
AcDbEntity
  8
ADP1DETAIL
100
AcDbCircle
 10
82.58902877720613
 20
24.24385844969214
 30
0.0
 40
0.133333333333334
100
AcDbArc
 50
90.00000000000003
 51
180.0000000000015
  0
ARC
  5
91
330
18
100
AcDbEntity
  8
ADP1DETAIL
100
AcDbCircle
 10
82.58902877720613
 20
24.69719178302547
 30
0.0
 40
0.133333333333334
100
AcDbArc
 50
179.9999999999984
 51
270.0
  0
LINE
  5
92
330
18
100
AcDbEntity
  8
ADP1DETAIL
100
AcDbLine
 10
82.45569544387279
 20
24.24385844969213
 30
0.0
 11
82.45569544387279
 21
24.1105251163588
 31
0.0
  0
LINE
  5
93
330
18
100
AcDbEntity
  8
ADP1DETAIL
100
AcDbLine
 10
82.45569544387279
 20
24.1105251163588
 30
0.0
 11
81.97569544387279
 21
24.1105251163588
 31
0.0
  0
LINE
  5
94
330
18
100
AcDbEntity
  8
ADP1DETAIL
100
AcDbLine
 10
82.01839448048167
 20
24.83052511635881
 30
0.0
 11
81.49569544387279
 21
24.83052511635881
 31
0.0
  0
LINE
  5
95
330
18
100
AcDbEntity
  8
ADP1DETAIL
100
AcDbLine
 10
81.99172781381498
 20
24.83052511635881
 30
0.0
 11
82.01839448048167
 21
24.83052511635881
 31
0.0
  0
LINE
  5
96
330
18
100
AcDbEntity
  8
ADP1DETAIL
100
AcDbLine
 10
82.45569544387278
 20
24.83052511635881
 30
0.0
 11
81.99172781381498
 21
24.83052511635881
 31
0.0
  0
LINE
  5
97
330
18
100
AcDbEntity
  8
ADP1DETAIL
100
AcDbLine
 10
82.45569544387278
 20
24.83052511635881
 30
0.0
 11
81.97569544387279
 21
24.83052511635881
 31
0.0
  0
LINE
  5
98
330
18
100
AcDbEntity
  8
ADP1DETAIL
100
AcDbLine
 10
81.99172781381498
 20
34.97435248567265
 30
0.0
 11
81.99172781381498
 21
29.92385844969215
 31
0.0
  0
LINE
  5
99
330
18
100
AcDbEntity
  8
ADP1DETAIL
100
AcDbLine
 10
81.64506114714832
 20
35.00101915233932
 30
0.0
 11
81.64506114714832
 21
29.89370470914082
 31
0.0
  0
LINE
  5
9A
330
18
100
AcDbEntity
  8
ADP1DETAIL
100
AcDbLine
 10
82.36506114714833
 20
29.90565400607457
 30
0.0
 11
82.36506114714833
 21
35.00101915233932
 31
0.0
  0
LINE
  5
9B
330
18
100
AcDbEntity
  8
ADP1DETAIL
100
AcDbLine
 10
81.49569544387281
 20
29.15052511635881
 30
0.0
 11
81.97569544387279
 21
29.15052511635881
 31
0.0
  0
LINE
  5
9C
330
18
100
AcDbEntity
  8
ADP1DETAIL
100
AcDbLine
 10
81.51172781381498
 20
29.89719178302547
 30
0.0
 11
82.01839448048167
 21
29.89719178302547
 31
0.0
  0
LINE
  5
9D
330
18
100
AcDbEntity
  8
ADP1DETAIL
100
AcDbLine
 10
81.49569544387279
 20
29.89719178302547
 30
0.0
 11
82.45569544387278
 21
29.89719178302547
 31
0.0
  0
LWPOLYLINE
  5
9E
330
18
100
AcDbEntity
  8
ADP1DETAIL
100
AcDbPolyline
 90
        4
 70
     1
 43
0.0
 10
81.36236211053946
 20
29.63052511635881
 10
81.36236211053946
 20
29.44385844969215
 10
82.58902877720613
 20
29.44385844969215
 10
82.58902877720613
 20
29.63052511635881
  0
LINE
  5
A4
330
18
100
AcDbEntity
  8
ADP1DETAIL
100
AcDbLine
 10
81.37839448048167
 20
29.63052511635881
 30
0.0
 11
81.45839448048166
 21
29.65719178302547
 31
0.0
  0
ARC
  5
A5
330
18
100
AcDbEntity
  8
ADP1DETAIL
100
AcDbCircle
 10
81.36236211053946
 20
29.28385844969215
 30
0.0
 40
0.133333333333334
100
AcDbArc
 50
359.9999999999984
 51
90.00000000000003
  0
LINE
  5
A6
330
18
100
AcDbEntity
  8
ADP1DETAIL
100
AcDbLine
 10
81.49569544387281
 20
29.28385844969214
 30
0.0
 11
81.49569544387281
 21
29.15052511635881
 31
0.0
  0
LINE
  5
A7
330
18
100
AcDbEntity
  8
ADP1DETAIL
100
AcDbLine
 10
81.45839448048166
 20
29.65719178302547
 30
0.0
 11
81.51172781381498
 21
29.76385844969214
 31
0.0
  0
LINE
  5
A8
330
18
100
AcDbEntity
  8
ADP1DETAIL
100
AcDbLine
 10
81.49569544387279
 20
29.76385844969214
 30
0.0
 11
81.49569544387279
 21
29.89719178302547
 31
0.0
  0
ARC
  5
A9
330
18
100
AcDbEntity
  8
ADP1DETAIL
100
AcDbCircle
 10
82.58902877720613
 20
29.76385844969214
 30
0.0
 40
0.133333333333334
100
AcDbArc
 50
179.9999999999984
 51
270.0
  0
ARC
  5
AA
330
18
100
AcDbEntity
  8
ADP1DETAIL
100
AcDbCircle
 10
82.58902877720613
 20
29.28385844969215
 30
0.0
 40
0.133333333333334
100
AcDbArc
 50
90.00000000000003
 51
180.0000000000015
  0
LINE
  5
AB
330
18
100
AcDbEntity
  8
ADP1DETAIL
100
AcDbLine
 10
82.45569544387279
 20
29.28385844969214
 30
0.0
 11
82.45569544387279
 21
29.15052511635881
 31
0.0
  0
LINE
  5
AC
330
18
100
AcDbEntity
  8
ADP1DETAIL
100
AcDbLine
 10
82.45569544387279
 20
29.15052511635881
 30
0.0
 11
81.97569544387279
 21
29.15052511635881
 31
0.0
  0
LINE
  5
AD
330
18
100
AcDbEntity
  8
ADP1DETAIL
100
AcDbLine
 10
82.01839448048167
 20
29.89719178302547
 30
0.0
 11
81.99172781381498
 21
29.89719178302547
 31
0.0
  0
LINE
  5
AE
330
18
100
AcDbEntity
  8
ADP1DETAIL
100
AcDbLine
 10
82.45569544387278
 20
29.76385844969214
 30
0.0
 11
82.45569544387278
 21
29.89719178302547
 31
0.0
  0
LINE
  5
AF
330
18
100
AcDbEntity
  8
ADP1DETAIL
100
AcDbLine
 10
82.45569544387278
 20
29.89719178302547
 30
0.0
 11
81.97569544387279
 21
29.89719178302547
 31
0.0
  0
LINE
  5
B0
330
18
100
AcDbEntity
  8
ADP1DETAIL
100
AcDbLine
 10
82.36506114714833
 20
35.00101915233932
 30
0.0
 11
81.64506114714832
 21
35.00101915233932
 31
0.0
  0
LWPOLYLINE
  5
B1
330
18
100
AcDbEntity
  8
ADP1DETAIL
100
AcDbPolyline
 90
        7
 70
     0
 43
0.0
 10
82.34251616253198
 20
13.14681034480843
 42
0.2554285563057439
 10
83.27089298782951
 20
11.44808477005527
 42
0.3092587159398036
 10
84.24211781530642
 20
11.47663482734443
 42
0.3128939442875822
 10
84.14213886797499
 20
11.89060989770871
 42
-0.2042329685219655
 10
84.59918580913742
 20
11.70503487093305
 42
-0.3499609514876201
 10
84.54205507067003
 20
11.27678484104496
 42
-0.1947722192381964
 10
85.07051569327252
 20
10.99128468287803
 42
-1.707094454140684
  0
LWPOLYLINE
  5
BA
330
18
100
AcDbEntity
  8
ADP1DETAIL
100
AcDbPolyline
 90
        3
 70
     0
 43
0.0
 10
84.54205507067003
 20
11.26250974327962
 42
-0.2684557397318328
 10
83.69937445641591
 20
10.99128468287803
 42
-0.3728810409571263
 10
81.98544816870096
 20
12.47588517356637
 42
0.8661985648564034
  0
LWPOLYLINE
  5
BF
330
18
100
AcDbEntity
  8
ADP1DETAIL
100
AcDbPolyline
 90
        3
 70
     0
 43
0.0
 10
84.54205507067003
 20
10.72005962247645
 42
0.2684557397318328
 10
83.69937445641591
 20
10.99128468287803
 42
0.3728810409571263
 10
81.98544816870096
 20
9.506684192189691
 42
-0.8661985648564034
  0
LWPOLYLINE
  5
C4
330
18
100
AcDbEntity
  8
ADP1DETAIL
100
AcDbPolyline
 90
        7
 70
     0
 43
0.0
 10
82.34251616253198
 20
8.835759020947637
 42
-0.2554285563057439
 10
83.27089298782951
 20
10.53448459570079
 42
-0.3092587159398036
 10
84.24211781530642
 20
10.50593453841164
 42
-0.3128939442875822
 10
84.14213886797499
 20
10.09195946804736
 42
0.2042329685219655
 10
84.59918580913742
 20
10.27753449482301
 42
0.3499609514876201
 10
84.54205507067003
 20
10.7057845247111
 42
0.1947722192381964
 10
85.07051569327252
 20
10.99128468287803
 42
1.707094454140684
  0
LWPOLYLINE
  5
CD
330
18
100
AcDbEntity
  8
ADP1DETAIL
100
AcDbPolyline
 90
        7
 70
     0
 43
0.0
 10
81.62838017486997
 20
8.835759020947637
 42
0.2554285563057439
 10
80.70000334957244
 20
10.53448459570079
 42
0.3092587159398036
 10
79.72877852209553
 20
10.50593453841164
 42
0.3128939442875822
 10
79.82875746942696
 20
10.09195946804736
 42
-0.2042329685219655
 10
79.37171052826453
 20
10.27753449482301
 42
-0.3499609514876201
 10
79.42884126673192
 20
10.7057845247111
 42
-0.1947722192381964
 10
78.90038064412943
 20
10.99128468287803
 42
-1.707094454140684
  0
LWPOLYLINE
  5
D6
330
18
100
AcDbEntity
  8
ADP1DETAIL
100
AcDbPolyline
 90
        4
 70
     1
 43
0.0
 10
81.36236211053946
 20
8.563858449692137
 10
81.36236211053946
 20
8.377191783025477
 10
82.58902877720613
 20
8.377191783025477
 10
82.58902877720613
 20
8.563858449692137
  0
LINE
  5
DC
330
18
100
AcDbEntity
  8
ADP1DETAIL
100
AcDbLine
 10
82.45569544387278
 20
8.83052511635881
 30
0.0
 11
81.97569544387279
 21
8.83052511635881
 31
0.0
  0
LINE
  5
DD
330
18
100
AcDbEntity
  8
ADP1DETAIL
100
AcDbLine
 10
82.45569544387278
 20
8.83052511635881
 30
0.0
 11
81.99172781381498
 21
8.83052511635881
 31
0.0
  0
LINE
  5
DE
330
18
100
AcDbEntity
  8
ADP1DETAIL
100
AcDbLine
 10
82.45569544387279
 20
8.110525116358804
 30
0.0
 11
81.97569544387279
 21
8.110525116358804
 31
0.0
  0
ARC
  5
DF
330
18
100
AcDbEntity
  8
ADP1DETAIL
100
AcDbCircle
 10
81.36236211053946
 20
8.69719178302547
 30
0.0
 40
0.133333333333334
100
AcDbArc
 50
270.0
 51
0.0000000000015314
  0
ARC
  5
E0
330
18
100
AcDbEntity
  8
ADP1DETAIL
100
AcDbCircle
 10
81.36236211053946
 20
8.24385844969214
 30
0.0
 40
0.133333333333334
100
AcDbArc
 50
359.9999999999984
 51
90.00000000000003
  0
LINE
  5
E1
330
18
100
AcDbEntity
  8
ADP1DETAIL
100
AcDbLine
 10
81.37839448048167
 20
8.537191783025477
 30
0.0
 11
81.37839448048167
 21
8.537191783025477
 31
0.0
  0
LINE
  5
E2
330
18
100
AcDbEntity
  8
ADP1DETAIL
100
AcDbLine
 10
81.49569544387281
 20
8.243858449692137
 30
0.0
 11
81.49569544387281
 21
8.110525116358804
 31
0.0
  0
LINE
  5
E3
330
18
100
AcDbEntity
  8
ADP1DETAIL
100
AcDbLine
 10
81.49569544387281
 20
8.110525116358804
 30
0.0
 11
81.97569544387279
 21
8.110525116358804
 31
0.0
  0
LINE
  5
E4
330
18
100
AcDbEntity
  8
ADP1DETAIL
100
AcDbLine
 10
81.99172781381498
 20
8.83052511635881
 30
0.0
 11
82.01839448048167
 21
8.83052511635881
 31
0.0
  0
LINE
  5
E5
330
18
100
AcDbEntity
  8
ADP1DETAIL
100
AcDbLine
 10
82.01839448048167
 20
8.83052511635881
 30
0.0
 11
81.49569544387279
 21
8.83052511635881
 31
0.0
  0
LINE
  5
E6
330
18
100
AcDbEntity
  8
ADP1DETAIL
100
AcDbLine
 10
81.49569544387279
 20
8.697191783025473
 30
0.0
 11
81.49569544387279
 21
8.83052511635881
 31
0.0
  0
ARC
  5
E7
330
18
100
AcDbEntity
  8
ADP1DETAIL
100
AcDbCircle
 10
82.58902877720613
 20
8.69719178302547
 30
0.0
 40
0.133333333333334
100
AcDbArc
 50
179.9999999999984
 51
270.0
  0
LINE
  5
E8
330
18
100
AcDbEntity
  8
ADP1DETAIL
100
AcDbLine
 10
82.45569544387279
 20
8.243858449692137
 30
0.0
 11
82.45569544387279
 21
8.110525116358804
 31
0.0
  0
ARC
  5
E9
330
18
100
AcDbEntity
  8
ADP1DETAIL
100
AcDbCircle
 10
82.58902877720613
 20
8.24385844969214
 30
0.0
 40
0.133333333333334
100
AcDbArc
 50
90.00000000000003
 51
180.0000000000015
  0
LINE
  5
EA
330
18
100
AcDbEntity
  8
ADP1DETAIL
100
AcDbLine
 10
82.45569544387278
 20
8.697191783025473
 30
0.0
 11
82.45569544387278
 21
8.83052511635881
 31
0.0
  0
LWPOLYLINE
  5
EB
330
18
100
AcDbEntity
  8
ADP1DETAIL
100
AcDbPolyline
 90
        7
 70
     0
 43
0.0
 10
81.62838017486997
 20
13.14681034480843
 42
-0.2554285563057439
 10
80.70000334957244
 20
11.44808477005527
 42
-0.3092587159398036
 10
79.72877852209553
 20
11.47663482734443
 42
-0.3128939442875822
 10
79.82875746942696
 20
11.89060989770871
 42
0.2042329685219655
 10
79.37171052826453
 20
11.70503487093305
 42
0.3499609514876201
 10
79.42884126673192
 20
11.27678484104496
 42
0.1947722192381964
 10
78.90038064412943
 20
10.99128468287803
 42
1.707094454140684
  0
LWPOLYLINE
  5
F4
330
18
100
AcDbEntity
  8
ADP1DETAIL
100
AcDbPolyline
 90
        3
 70
     0
 43
0.0
 10
79.42884126673192
 20
11.26250974327962
 42
0.2684557397318328
 10
80.27152188098602
 20
10.99128468287803
 42
0.3728810409571263
 10
81.98544816870096
 20
12.47588517356637
 42
-0.8661985648564034
  0
LWPOLYLINE
  5
F9
330
18
100
AcDbEntity
  8
ADP1DETAIL
100
AcDbPolyline
 90
        3
 70
     0
 43
0.0
 10
79.42884126673192
 20
10.72005962247645
 42
-0.2684557397318328
 10
80.27152188098602
 20
10.99128468287803
 42
-0.3728810409571263
 10
81.98544816870096
 20
9.506684192189691
 42
0.8661985648564034
  0
LWPOLYLINE
  5
FE
330
18
100
AcDbEntity
  8
ADP1DETAIL
100
AcDbPolyline
 90
        4
 70
     1
 43
0.0
 10
81.36236211053946
 20
13.6305251163588
 10
81.36236211053946
 20
13.44385844969214
 10
82.58902877720613
 20
13.44385844969214
 10
82.58902877720613
 20
13.6305251163588
  0
LINE
  5
104
330
18
100
AcDbEntity
  8
ADP1DETAIL
100
AcDbLine
 10
82.45569544387279
 20
13.1505251163588
 30
0.0
 11
81.97569544387279
 21
13.1505251163588
 31
0.0
  0
LINE
  5
105
330
18
100
AcDbEntity
  8
ADP1DETAIL
100
AcDbLine
 10
82.45569544387278
 20
13.89719178302547
 30
0.0
 11
81.97569544387279
 21
13.89719178302547
 31
0.0
  0
LINE
  5
106
330
18
100
AcDbEntity
  8
ADP1DETAIL
100
AcDbLine
 10
81.99172781381498
 20
13.89719178302547
 30
0.0
 11
82.47172781381499
 21
13.89719178302547
 31
0.0
  0
ARC
  5
107
330
18
100
AcDbEntity
  8
ADP1DETAIL
100
AcDbCircle
 10
81.36236211053946
 20
13.76385844969214
 30
0.0
 40
0.133333333333334
100
AcDbArc
 50
270.0
 51
0.0000000000015314
  0
ARC
  5
108
330
18
100
AcDbEntity
  8
ADP1DETAIL
100
AcDbCircle
 10
81.36236211053946
 20
13.28385844969214
 30
0.0
 40
0.133333333333334
100
AcDbArc
 50
359.9999999999984
 51
90.00000000000003
  0
LINE
  5
109
330
18
100
AcDbEntity
  8
ADP1DETAIL
100
AcDbLine
 10
81.49569544387281
 20
13.1505251163588
 30
0.0
 11
81.97569544387279
 21
13.1505251163588
 31
0.0
  0
LINE
  5
10A
330
18
100
AcDbEntity
  8
ADP1DETAIL
100
AcDbLine
 10
81.49569544387281
 20
13.28385844969214
 30
0.0
 11
81.49569544387281
 21
13.1505251163588
 31
0.0
  0
LINE
  5
10B
330
18
100
AcDbEntity
  8
ADP1DETAIL
100
AcDbLine
 10
81.37839448048167
 20
13.6305251163588
 30
0.0
 11
81.45839448048166
 21
13.65719178302547
 31
0.0
  0
LINE
  5
10C
330
18
100
AcDbEntity
  8
ADP1DETAIL
100
AcDbLine
 10
82.01839448048167
 20
13.89719178302547
 30
0.0
 11
81.99172781381498
 21
13.89719178302547
 31
0.0
  0
LINE
  5
10D
330
18
100
AcDbEntity
  8
ADP1DETAIL
100
AcDbLine
 10
81.49569544387279
 20
13.76385844969214
 30
0.0
 11
81.49569544387279
 21
13.89719178302547
 31
0.0
  0
LINE
  5
10E
330
18
100
AcDbEntity
  8
ADP1DETAIL
100
AcDbLine
 10
81.49569544387279
 20
13.89719178302547
 30
0.0
 11
81.97569544387279
 21
13.89719178302547
 31
0.0
  0
LINE
  5
10F
330
18
100
AcDbEntity
  8
ADP1DETAIL
100
AcDbLine
 10
81.51172781381498
 20
13.89719178302547
 30
0.0
 11
82.01839448048167
 21
13.89719178302547
 31
0.0
  0
ARC
  5
110
330
18
100
AcDbEntity
  8
ADP1DETAIL
100
AcDbCircle
 10
82.58902877720613
 20
13.76385844969214
 30
0.0
 40
0.133333333333334
100
AcDbArc
 50
179.9999999999984
 51
270.0
  0
ARC
  5
111
330
18
100
AcDbEntity
  8
ADP1DETAIL
100
AcDbCircle
 10
82.58902877720613
 20
13.28385844969214
 30
0.0
 40
0.133333333333334
100
AcDbArc
 50
90.00000000000003
 51
180.0000000000015
  0
LINE
  5
112
330
18
100
AcDbEntity
  8
ADP1DETAIL
100
AcDbLine
 10
82.45569544387279
 20
13.28385844969214
 30
0.0
 11
82.45569544387279
 21
13.1505251163588
 31
0.0
  0
LINE
  5
113
330
18
100
AcDbEntity
  8
ADP1DETAIL
100
AcDbLine
 10
82.47172781381499
 20
13.89719178302547
 30
0.0
 11
82.47172781381499
 21
13.76385844969214
 31
0.0
  0
LINE
  5
114
330
18
100
AcDbEntity
  8
ADP1DETAIL
100
AcDbLine
 10
82.55172781381499
 20
13.65719178302547
 30
0.0
 11
82.60506114714832
 21
13.6305251163588
 31
0.0
  0
LINE
  5
115
330
18
100
AcDbEntity
  8
ADP1DETAIL
100
AcDbLine
 10
81.64506114714832
 20
8.110525116358804
 30
0.0
 11
81.64506114714832
 21
-0.9989808476606745
 31
0.0
  0
LINE
  5
116
330
18
100
AcDbEntity
  8
ADP1DETAIL
100
AcDbLine
 10
81.991727813815
 20
8.110525116358804
 30
0.0
 11
81.99172781381498
 21
-0.9989808476606745
 31
0.0
  0
LINE
  5
117
330
18
100
AcDbEntity
  8
ADP1DETAIL
100
AcDbLine
 10
82.36506114714833
 20
13.89719178302547
 30
0.0
 11
82.36506114714833
 21
24.11167834478872
 31
0.0
  0
TEXT
  5
125
330
18
100
AcDbEntity
  8
ADPDIM
100
AcDbText
 10
49.69721894614787
 20
-4.503435441916115
 30
0.0
 40
0.625
  1
J U L I U S  B L U M  &  C O . ,  I N C .      ( 8 0 0 )  5 2 6 - 6 2 9 3        W W W . J U L I U S B L U M . C O M        P A R T  N O .  1 5 3
 41
1.25
  7
ARIAL_WIDE
 72
     1
 11
81.99172781381498
 21
-3.878435441916115
 31
0.0
100
AcDbText
 73
     3
  0
ENDSEC
  0
SECTION
  2
OBJECTS
  0
DICTIONARY
  5
C
330
0
100
AcDbDictionary
  3
ACAD_GROUP
350
D
  3
ACAD_LAYOUT
350
12A
  3
ACAD_MLINESTYLE
350
E
  3
ACAD_PLOTSETTINGS
350
12B
  3
ACAD_PLOTSTYLENAME
350
128
  3
ACDBHEADERROUNDTRIPXREC
350
21B
  3
ACDBVARIABLEDICTIONARY
350
15C
  0
DICTIONARY
  5
156
330
18
100
AcDbDictionary
280
     1
  3
ACAD_LAYOUTSELFREF
360
23C
  0
DICTIONARY
  5
154
330
15
100
AcDbDictionary
280
     1
  3
ACAD_LAYOUTSELFREF
360
23B
  0
DICTIONARY
  5
D
102
{ACAD_REACTORS
330
C
102
}
330
C
100
AcDbDictionary
  0
DICTIONARY
  5
12A
102
{ACAD_REACTORS
330
C
102
}
330
C
100
AcDbDictionary
  0
DICTIONARY
  5
E
102
{ACAD_REACTORS
330
C
102
}
330
C
100
AcDbDictionary
  3
STANDARD
350
1B
  0
DICTIONARY
  5
12B
102
{ACAD_REACTORS
330
C
102
}
330
C
100
AcDbDictionary
  0
ACDBDICTIONARYWDFLT
  5
128
102
{ACAD_REACTORS
330
C
102
}
330
C
100
AcDbDictionary
281
     1
  3
Normal
350
129
100
AcDbDictionaryWithDefault
340
129
  0
DICTIONARY
  5
21B
102
{ACAD_REACTORS
330
C
102
}
330
C
100
AcDbDictionary
  3
CEPSNTYPE
350
225
  3
FINGERPRINTGUID
350
226
  3
HYPERLINKBASE
350
21E
  3
INSUNITS
350
224
  3
LAYOUTDICT
350
220
  3
LWETCUNION
350
223
  3
PLOTSETDICT
350
221
  3
PLOTSTYLNAMDICT
350
222
  3
PSVPSCALE
350
228
  3
PUCSBASE
350
22B
  3
PUCSORGBACK
350
231
  3
PUCSORGBOTTOM
350
22D
  3
PUCSORGFRONT
350
230
  3
PUCSORGLEFT
350
22E
  3
PUCSORGRIGHT
350
22F
  3
PUCSORGTOP
350
22C
  3
PUCSORTHOREF
350
229
  3
PUCSORTHOVIEW
350
22A
  3
STYLESHEET
350
21F
  3
TSTACKALIGN
350
21C
  3
TSTACKSIZE
350
21D
  3
UCSBASE
350
234
  3
UCSORGBACK
350
23A
  3
UCSORGBOTTOM
350
236
  3
UCSORGFRONT
350
239
  3
UCSORGLEFT
350
237
  3
UCSORGRIGHT
350
238
  3
UCSORGTOP
350
235
  3
UCSORTHOREF
350
232
  3
UCSORTHOVIEW
350
233
  3
VERSIONGUID
350
227
  0
DICTIONARY
  5
15C
102
{ACAD_REACTORS
330
C
102
}
330
C
100
AcDbDictionary
  3
DIMASSOC
350
15D
  0
XRECORD
  5
23C
102
{ACAD_REACTORS
330
156
102
}
330
156
100
AcDbXrecord
340
18
  0
XRECORD
  5
23B
102
{ACAD_REACTORS
330
154
102
}
330
154
100
AcDbXrecord
340
15
  0
MLINESTYLE
  5
1B
102
{ACAD_REACTORS
330
E
102
}
330
E
100
AcDbMlineStyle
  2
STANDARD
 70
     0
  3

 62
     0
 51
90.0
 52
90.0
 71
     2
 49
0.5
 62
   256
  6
BYLAYER
 49
-0.5
 62
   256
  6
BYLAYER
  0
ACDBPLACEHOLDER
  5
129
102
{ACAD_REACTORS
330
128
102
}
330
128
100
AcDbPlaceHolder
280
     0
  0
XRECORD
  5
225
102
{ACAD_REACTORS
330
21B
102
}
330
21B
100
AcDbXrecord
 90
        0
  0
XRECORD
  5
226
102
{ACAD_REACTORS
330
21B
102
}
330
21B
100
AcDbXrecord
  1
{405A051F-3E7E-4AEF-8414-0D45C755AF54}
  0
XRECORD
  5
21E
102
{ACAD_REACTORS
330
21B
102
}
330
21B
100
AcDbXrecord
  1

  0
XRECORD
  5
224
102
{ACAD_REACTORS
330
21B
102
}
330
21B
100
AcDbXrecord
 90
        0
  0
XRECORD
  5
220
102
{ACAD_REACTORS
330
21B
102
}
330
21B
100
AcDbXrecord
340
12A
  0
XRECORD
  5
223
102
{ACAD_REACTORS
330
21B
102
}
330
21B
100
AcDbXrecord
 90
    14877
  0
XRECORD
  5
221
102
{ACAD_REACTORS
330
21B
102
}
330
21B
100
AcDbXrecord
340
12B
  0
XRECORD
  5
222
102
{ACAD_REACTORS
330
21B
102
}
330
21B
100
AcDbXrecord
340
128
  0
XRECORD
  5
228
102
{ACAD_REACTORS
330
21B
102
}
330
21B
100
AcDbXrecord
 40
0.0
  0
XRECORD
  5
22B
102
{ACAD_REACTORS
330
21B
102
}
330
21B
100
AcDbXrecord
340
0
  0
XRECORD
  5
231
102
{ACAD_REACTORS
330
21B
102
}
330
21B
100
AcDbXrecord
 10
0.0
 20
0.0
 30
0.0
  0
XRECORD
  5
22D
102
{ACAD_REACTORS
330
21B
102
}
330
21B
100
AcDbXrecord
 10
0.0
 20
0.0
 30
0.0
  0
XRECORD
  5
230
102
{ACAD_REACTORS
330
21B
102
}
330
21B
100
AcDbXrecord
 10
0.0
 20
0.0
 30
0.0
  0
XRECORD
  5
22E
102
{ACAD_REACTORS
330
21B
102
}
330
21B
100
AcDbXrecord
 10
0.0
 20
0.0
 30
0.0
  0
XRECORD
  5
22F
102
{ACAD_REACTORS
330
21B
102
}
330
21B
100
AcDbXrecord
 10
0.0
 20
0.0
 30
0.0
  0
XRECORD
  5
22C
102
{ACAD_REACTORS
330
21B
102
}
330
21B
100
AcDbXrecord
 10
0.0
 20
0.0
 30
0.0
  0
XRECORD
  5
229
102
{ACAD_REACTORS
330
21B
102
}
330
21B
100
AcDbXrecord
340
0
  0
XRECORD
  5
22A
102
{ACAD_REACTORS
330
21B
102
}
330
21B
100
AcDbXrecord
 70
     0
  0
XRECORD
  5
21F
102
{ACAD_REACTORS
330
21B
102
}
330
21B
100
AcDbXrecord
  1

  0
XRECORD
  5
21C
102
{ACAD_REACTORS
330
21B
102
}
330
21B
100
AcDbXrecord
 90
        1
  0
XRECORD
  5
21D
102
{ACAD_REACTORS
330
21B
102
}
330
21B
100
AcDbXrecord
 90
       70
  0
XRECORD
  5
234
102
{ACAD_REACTORS
330
21B
102
}
330
21B
100
AcDbXrecord
340
0
  0
XRECORD
  5
23A
102
{ACAD_REACTORS
330
21B
102
}
330
21B
100
AcDbXrecord
 10
0.0
 20
0.0
 30
0.0
  0
XRECORD
  5
236
102
{ACAD_REACTORS
330
21B
102
}
330
21B
100
AcDbXrecord
 10
0.0
 20
0.0
 30
0.0
  0
XRECORD
  5
239
102
{ACAD_REACTORS
330
21B
102
}
330
21B
100
AcDbXrecord
 10
0.0
 20
0.0
 30
0.0
  0
XRECORD
  5
237
102
{ACAD_REACTORS
330
21B
102
}
330
21B
100
AcDbXrecord
 10
0.0
 20
0.0
 30
0.0
  0
XRECORD
  5
238
102
{ACAD_REACTORS
330
21B
102
}
330
21B
100
AcDbXrecord
 10
0.0
 20
0.0
 30
0.0
  0
XRECORD
  5
235
102
{ACAD_REACTORS
330
21B
102
}
330
21B
100
AcDbXrecord
 10
0.0
 20
0.0
 30
0.0
  0
XRECORD
  5
232
102
{ACAD_REACTORS
330
21B
102
}
330
21B
100
AcDbXrecord
340
0
  0
XRECORD
  5
233
102
{ACAD_REACTORS
330
21B
102
}
330
21B
100
AcDbXrecord
 70
     0
  0
XRECORD
  5
227
102
{ACAD_REACTORS
330
21B
102
}
330
21B
100
AcDbXrecord
  1
{2C1BA753-D3C0-4892-9E2E-513AC4C357DB}
  0
DICTIONARYVAR
  5
15D
102
{ACAD_REACTORS
330
15C
102
}
330
15C
100
DictionaryVariables
280
     0
  1
1
  0
ENDSEC
  0
EOF
