  0
SECTION
  2
HEADER
  9
$ACADVER
  1
AC1015
  9
$ACADMAINTVER
 70
    20
  9
$DWGCODEPAGE
  3
ANSI_1252
  9
$INSBASE
 10
12.51975487670095
 20
16.28608902879713
 30
0.0
  9
$EXTMIN
 10
4.481094964237088
 20
13.91817314721476
 30
0.0
  9
$EXTMAX
 10
17.39889851130393
 20
18.67978088216937
 30
0.0
  9
$LIMMIN
 10
0.0
 20
0.0
  9
$LIMMAX
 10
36.0
 20
36.0
  9
$ORTHOMODE
 70
     0
  9
$REGENMODE
 70
     1
  9
$FILLMODE
 70
     1
  9
$QTEXTMODE
 70
     0
  9
$MIRRTEXT
 70
     1
  9
$LTSCALE
 40
1.0
  9
$ATTMODE
 70
     1
  9
$TEXTSIZE
 40
0.2
  9
$TRACEWID
 40
0.05
  9
$TEXTSTYLE
  7
STANDARD
  9
$CLAYER
  8
ADP1DETAIL
  9
$CELTYPE
  6
BYLAYER
  9
$CECOLOR
 62
   256
  9
$CELTSCALE
 40
1.0
  9
$DISPSILH
 70
     0
  9
$DIMSCALE
 40
1.0
  9
$DIMASZ
 40
0.125
  9
$DIMEXO
 40
0.0625
  9
$DIMDLI
 40
0.38
  9
$DIMRND
 40
0.0
  9
$DIMDLE
 40
0.0
  9
$DIMEXE
 40
0.18
  9
$DIMTP
 40
0.0
  9
$DIMTM
 40
0.0
  9
$DIMTXT
 40
0.125
  9
$DIMCEN
 40
0.1875
  9
$DIMTSZ
 40
0.125
  9
$DIMTOL
 70
     0
  9
$DIMLIM
 70
     0
  9
$DIMTIH
 70
     0
  9
$DIMTOH
 70
     0
  9
$DIMSE1
 70
     0
  9
$DIMSE2
 70
     0
  9
$DIMTAD
 70
     0
  9
$DIMZIN
 70
     3
  9
$DIMBLK
  1

  9
$DIMASO
 70
     1
  9
$DIMSHO
 70
     1
  9
$DIMPOST
  1

  9
$DIMAPOST
  1

  9
$DIMALT
 70
     0
  9
$DIMALTD
 70
     1
  9
$DIMALTF
 40
25.4
  9
$DIMLFAC
 40
1.0
  9
$DIMTOFL
 70
     0
  9
$DIMTVP
 40
0.0
  9
$DIMTIX
 70
     0
  9
$DIMSOXD
 70
     0
  9
$DIMSAH
 70
     0
  9
$DIMBLK1
  1

  9
$DIMBLK2
  1

  9
$DIMSTYLE
  2
STANDARD
  9
$DIMCLRD
 70
     0
  9
$DIMCLRE
 70
     0
  9
$DIMCLRT
 70
     0
  9
$DIMTFAC
 40
1.0
  9
$DIMGAP
 40
0.125
  9
$DIMJUST
 70
     0
  9
$DIMSD1
 70
     0
  9
$DIMSD2
 70
     0
  9
$DIMTOLJ
 70
     1
  9
$DIMTZIN
 70
     3
  9
$DIMALTZ
 70
     3
  9
$DIMALTTZ
 70
     3
  9
$DIMUPT
 70
     0
  9
$DIMDEC
 70
     4
  9
$DIMTDEC
 70
     4
  9
$DIMALTU
 70
     5
  9
$DIMALTTD
 70
     1
  9
$DIMTXSTY
  7
STANDARD
  9
$DIMAUNIT
 70
     0
  9
$DIMADEC
 70
     0
  9
$DIMALTRND
 40
0.0
  9
$DIMAZIN
 70
     0
  9
$DIMDSEP
 70
    46
  9
$DIMATFIT
 70
     3
  9
$DIMFRAC
 70
     0
  9
$DIMLDRBLK
  1

  9
$DIMLUNIT
 70
     5
  9
$DIMLWD
 70
    -2
  9
$DIMLWE
 70
    -2
  9
$DIMTMOVE
 70
     2
  9
$LUNITS
 70
     5
  9
$LUPREC
 70
     4
  9
$SKETCHINC
 40
0.1
  9
$FILLETRAD
 40
0.062
  9
$AUNITS
 70
     0
  9
$AUPREC
 70
     0
  9
$MENU
  1
acad
  9
$ELEVATION
 40
0.0
  9
$PELEVATION
 40
0.0
  9
$THICKNESS
 40
0.0
  9
$LIMCHECK
 70
     0
  9
$CHAMFERA
 40
0.0
  9
$CHAMFERB
 40
0.0
  9
$CHAMFERC
 40
0.0
  9
$CHAMFERD
 40
0.0
  9
$SKPOLY
 70
     0
  9
$TDCREATE
 40
2450375.453444248
  9
$TDUCREATE
 40
2450375.620110915
  9
$TDUPDATE
 40
2453944.971642384
  9
$TDUUPDATE
 40
2453945.138309051
  9
$TDINDWG
 40
0.0109182639
  9
$TDUSRTIMER
 40
0.0109182639
  9
$USRTIMER
 70
     1
  9
$ANGBASE
 50
0.0
  9
$ANGDIR
 70
     0
  9
$PDMODE
 70
     0
  9
$PDSIZE
 40
0.0
  9
$PLINEWID
 40
0.0
  9
$SPLFRAME
 70
     0
  9
$SPLINETYPE
 70
     6
  9
$SPLINESEGS
 70
     8
  9
$HANDSEED
  5
2E8
  9
$SURFTAB1
 70
     6
  9
$SURFTAB2
 70
     6
  9
$SURFTYPE
 70
     6
  9
$SURFU
 70
     6
  9
$SURFV
 70
     6
  9
$UCSBASE
  2

  9
$UCSNAME
  2

  9
$UCSORG
 10
0.0
 20
0.0
 30
0.0
  9
$UCSXDIR
 10
1.0
 20
0.0
 30
0.0
  9
$UCSYDIR
 10
0.0
 20
1.0
 30
0.0
  9
$UCSORTHOREF
  2

  9
$UCSORTHOVIEW
 70
     0
  9
$UCSORGTOP
 10
0.0
 20
0.0
 30
0.0
  9
$UCSORGBOTTOM
 10
0.0
 20
0.0
 30
0.0
  9
$UCSORGLEFT
 10
0.0
 20
0.0
 30
0.0
  9
$UCSORGRIGHT
 10
0.0
 20
0.0
 30
0.0
  9
$UCSORGFRONT
 10
0.0
 20
0.0
 30
0.0
  9
$UCSORGBACK
 10
0.0
 20
0.0
 30
0.0
  9
$PUCSBASE
  2

  9
$PUCSNAME
  2

  9
$PUCSORG
 10
0.0
 20
0.0
 30
0.0
  9
$PUCSXDIR
 10
1.0
 20
0.0
 30
0.0
  9
$PUCSYDIR
 10
0.0
 20
1.0
 30
0.0
  9
$PUCSORTHOREF
  2

  9
$PUCSORTHOVIEW
 70
     0
  9
$PUCSORGTOP
 10
0.0
 20
0.0
 30
0.0
  9
$PUCSORGBOTTOM
 10
0.0
 20
0.0
 30
0.0
  9
$PUCSORGLEFT
 10
0.0
 20
0.0
 30
0.0
  9
$PUCSORGRIGHT
 10
0.0
 20
0.0
 30
0.0
  9
$PUCSORGFRONT
 10
0.0
 20
0.0
 30
0.0
  9
$PUCSORGBACK
 10
0.0
 20
0.0
 30
0.0
  9
$USERI1
 70
     0
  9
$USERI2
 70
     0
  9
$USERI3
 70
     0
  9
$USERI4
 70
     0
  9
$USERI5
 70
     0
  9
$USERR1
 40
0.0
  9
$USERR2
 40
0.0
  9
$USERR3
 40
0.0
  9
$USERR4
 40
0.0
  9
$USERR5
 40
0.0
  9
$WORLDVIEW
 70
     1
  9
$SHADEDGE
 70
     3
  9
$SHADEDIF
 70
    70
  9
$TILEMODE
 70
     1
  9
$MAXACTVP
 70
    15
  9
$PINSBASE
 10
6.111119585016845E+90
 20
8.346071047958366E+93
 30
0.0
  9
$PLIMCHECK
 70
     0
  9
$PEXTMIN
 10
1.000000000000000E+20
 20
1.000000000000000E+20
 30
1.000000000000000E+20
  9
$PEXTMAX
 10
-1.000000000000000E+20
 20
-1.000000000000000E+20
 30
-1.000000000000000E+20
  9
$PLIMMIN
 10
0.0
 20
0.0
  9
$PLIMMAX
 10
12.0
 20
9.0
  9
$UNITMODE
 70
     0
  9
$VISRETAIN
 70
     0
  9
$PLINEGEN
 70
     0
  9
$PSLTSCALE
 70
     1
  9
$TREEDEPTH
 70
  3020
  9
$CMLSTYLE
  2
STANDARD
  9
$CMLJUST
 70
     0
  9
$CMLSCALE
 40
1.0
  9
$PROXYGRAPHICS
 70
     1
  9
$MEASUREMENT
 70
     0
  9
$CELWEIGHT
370
    -1
  9
$ENDCAPS
280
     0
  9
$JOINSTYLE
280
     0
  9
$LWDISPLAY
290
     0
  9
$INSUNITS
 70
     0
  9
$HYPERLINKBASE
  1

  9
$STYLESHEET
  1

  9
$XEDIT
290
     1
  9
$CEPSNTYPE
380
     0
  9
$PSTYLEMODE
290
     1
  9
$FINGERPRINTGUID
  2
{48498756-05E7-4F99-A044-7AF14153DAE6}
  9
$VERSIONGUID
  2
{51721275-FD96-4F68-BE99-62AD9FC7BF61}
  9
$EXTNAMES
290
     1
  9
$PSVPSCALE
 40
0.0
  9
$OLESTARTUP
290
     0
  0
ENDSEC
  0
SECTION
  2
CLASSES
  0
CLASS
  1
DICTIONARYVAR
  2
AcDbDictionaryVar
  3
ObjectDBX Classes
 90
        0
280
     0
281
     0
  0
CLASS
  1
ACDBDICTIONARYWDFLT
  2
AcDbDictionaryWithDefault
  3
ObjectDBX Classes
 90
        0
280
     0
281
     0
  0
CLASS
  1
ACDBPLACEHOLDER
  2
AcDbPlaceHolder
  3
ObjectDBX Classes
 90
        0
280
     0
281
     0
  0
CLASS
  1
LAYOUT
  2
AcDbLayout
  3
ObjectDBX Classes
 90
        0
280
     0
281
     0
  0
CLASS
  1
MATERIAL
  2
AcDbMaterial
  3
ObjectDBX Classes
 90
     1024
280
     0
281
     0
  0
CLASS
  1
VISUALSTYLE
  2
AcDbVisualStyle
  3
ObjectDBX Classes
 90
     4095
280
     0
281
     0
  0
CLASS
  1
TABLESTYLE
  2
AcDbTableStyle
  3
ObjectDBX Classes
 90
     4095
280
     0
281
     0
  0
ENDSEC
  0
SECTION
  2
TABLES
  0
TABLE
  2
VPORT
  5
8
330
0
100
AcDbSymbolTable
 70
     1
  0
VPORT
  5
1C4
330
8
100
AcDbSymbolTableRecord
100
AcDbViewportTableRecord
  2
*Active
 70
     0
 10
0.0
 20
0.0
 11
1.0
 21
1.0
 12
10.11991614392628
 22
16.20890086322304
 13
0.0
 23
0.0
 14
0.5740882589684922
 24
0.5740882589684922
 15
0.5
 25
0.5
 16
0.0
 26
0.0
 36
1.0
 17
0.0
 27
0.0
 37
0.0
 40
8.272317478427954
 41
2.023012552301255
 42
50.0
 43
0.0
 44
0.0
 50
0.0
 51
0.0
 71
     0
 72
   100
 73
     1
 74
     0
 75
     0
 76
     0
 77
     0
 78
     0
281
     0
 65
     1
110
0.0
120
0.0
130
0.0
111
1.0
121
0.0
131
0.0
112
0.0
122
1.0
132
0.0
 79
     0
146
0.0
  0
ENDTAB
  0
TABLE
  2
LTYPE
  5
5
330
0
100
AcDbSymbolTable
 70
     1
  0
LTYPE
  5
11
330
5
100
AcDbSymbolTableRecord
100
AcDbLinetypeTableRecord
  2
BYBLOCK
 70
     0
  3

 72
    65
 73
     0
 40
0.0
  0
LTYPE
  5
12
330
5
100
AcDbSymbolTableRecord
100
AcDbLinetypeTableRecord
  2
BYLAYER
 70
     0
  3

 72
    65
 73
     0
 40
0.0
  0
LTYPE
  5
13
330
5
100
AcDbSymbolTableRecord
100
AcDbLinetypeTableRecord
  2
CONTINUOUS
 70
     0
  3
Solid line
 72
    65
 73
     0
 40
0.0
  0
ENDTAB
  0
TABLE
  2
LAYER
  5
2
330
0
100
AcDbSymbolTable
 70
     5
  0
LAYER
  5
E
330
2
100
AcDbSymbolTableRecord
100
AcDbLayerTableRecord
  2
0
 70
     0
 62
     7
  6
CONTINUOUS
370
    -3
390
D7
  0
LAYER
  5
23
330
2
100
AcDbSymbolTableRecord
100
AcDbLayerTableRecord
  2
ADP1DETAIL
 70
     0
 62
     7
  6
CONTINUOUS
370
    -3
390
D7
  0
LAYER
  5
24
330
2
100
AcDbSymbolTableRecord
100
AcDbLayerTableRecord
  2
DEFPOINTS
 70
     0
 62
     7
  6
CONTINUOUS
290
     0
370
    -3
390
D7
  0
LAYER
  5
25
330
2
100
AcDbSymbolTableRecord
100
AcDbLayerTableRecord
  2
ADP2DETAIL
 70
     0
 62
     5
  6
CONTINUOUS
370
    -3
390
D7
  0
LAYER
  5
26
330
2
100
AcDbSymbolTableRecord
100
AcDbLayerTableRecord
  2
ADPDIM
 70
     0
 62
     3
  6
CONTINUOUS
370
    -3
390
D7
  0
ENDTAB
  0
TABLE
  2
STYLE
  5
3
330
0
100
AcDbSymbolTable
 70
     2
  0
STYLE
  5
F
330
3
100
AcDbSymbolTableRecord
100
AcDbTextStyleTableRecord
  2
STANDARD
 70
     0
 40
0.0
 41
1.0
 50
0.0
 71
     0
 42
0.2
  3
txt
  4

  0
STYLE
  5
CC
330
3
100
AcDbSymbolTableRecord
100
AcDbTextStyleTableRecord
  2
ARIAL_WIDE
 70
     0
 40
0.0
 41
1.25
 50
0.0
 71
     0
 42
0.2
  3
ARIAL.TTF
  4

1001
ACAD
1000
Arial
1071
       34
  0
ENDTAB
  0
TABLE
  2
VIEW
  5
6
330
0
100
AcDbSymbolTable
 70
     0
  0
ENDTAB
  0
TABLE
  2
UCS
  5
7
330
0
100
AcDbSymbolTable
 70
     0
  0
ENDTAB
  0
TABLE
  2
APPID
  5
9
330
0
100
AcDbSymbolTable
 70
     2
  0
APPID
  5
10
330
9
100
AcDbSymbolTableRecord
100
AcDbRegAppTableRecord
  2
ACAD
 70
     0
  0
APPID
  5
290
330
9
100
AcDbSymbolTableRecord
100
AcDbRegAppTableRecord
  2
DCO15
 70
     0
  0
ENDTAB
  0
TABLE
  2
DIMSTYLE
  5
A
330
0
100
AcDbSymbolTable
 70
     1
100
AcDbDimStyleTable
 71
     1
340
CA
  0
DIMSTYLE
105
CA
102
{ACAD_REACTORS
330
7D
330
BF
330
7C
330
297
102
}
330
A
100
AcDbSymbolTableRecord
100
AcDbDimStyleTableRecord
  2
STANDARD
 70
     0
340
F
  0
ENDTAB
  0
TABLE
  2
BLOCK_RECORD
  5
1
330
0
100
AcDbSymbolTable
 70
    12
  0
BLOCK_RECORD
  5
17
102
{ACAD_XDICTIONARY
360
105
102
}
330
1
100
AcDbSymbolTableRecord
100
AcDbBlockTableRecord
  2
*MODEL_SPACE
340
DA
  0
BLOCK_RECORD
  5
14
102
{ACAD_XDICTIONARY
360
103
102
}
330
1
100
AcDbSymbolTableRecord
100
AcDbBlockTableRecord
  2
*PAPER_SPACE
340
DB
  0
BLOCK_RECORD
  5
1C
330
1
100
AcDbSymbolTableRecord
100
AcDbBlockTableRecord
  2
*D0
340
0
  0
BLOCK_RECORD
  5
1D
330
1
100
AcDbSymbolTableRecord
100
AcDbBlockTableRecord
  2
*D1
340
0
  0
BLOCK_RECORD
  5
1E
330
1
100
AcDbSymbolTableRecord
100
AcDbBlockTableRecord
  2
*D2
340
0
  0
BLOCK_RECORD
  5
1F
330
1
100
AcDbSymbolTableRecord
100
AcDbBlockTableRecord
  2
*D3
340
0
  0
BLOCK_RECORD
  5
20
330
1
100
AcDbSymbolTableRecord
100
AcDbBlockTableRecord
  2
*D4
340
0
  0
BLOCK_RECORD
  5
21
330
1
100
AcDbSymbolTableRecord
100
AcDbBlockTableRecord
  2
*D5
340
0
  0
BLOCK_RECORD
  5
20A
330
1
100
AcDbSymbolTableRecord
100
AcDbBlockTableRecord
  2
*D6
340
0
  0
BLOCK_RECORD
  5
217
330
1
100
AcDbSymbolTableRecord
100
AcDbBlockTableRecord
  2
*D7
340
0
  0
BLOCK_RECORD
  5
224
330
1
100
AcDbSymbolTableRecord
100
AcDbBlockTableRecord
  2
*D8
340
0
  0
BLOCK_RECORD
  5
283
330
1
100
AcDbSymbolTableRecord
100
AcDbBlockTableRecord
  2
*D9
340
0
  0
BLOCK_RECORD
  5
298
330
1
100
AcDbSymbolTableRecord
100
AcDbBlockTableRecord
  2
*D11
340
0
  0
ENDTAB
  0
ENDSEC
  0
SECTION
  2
BLOCKS
  0
BLOCK
  5
29
330
17
100
AcDbEntity
  8
0
100
AcDbBlockBegin
  2
*MODEL_SPACE
 70
     0
 10
0.0
 20
0.0
 30
0.0
  3
*MODEL_SPACE
  1

  0
ENDBLK
  5
2A
330
17
100
AcDbEntity
  8
0
100
AcDbBlockEnd
  0
BLOCK
  5
27
330
14
100
AcDbEntity
 67
     1
  8
0
100
AcDbBlockBegin
  2
*PAPER_SPACE
 70
     0
 10
0.0
 20
0.0
 30
0.0
  3
*PAPER_SPACE
  1

  0
ENDBLK
  5
28
330
14
100
AcDbEntity
 67
     1
  8
0
100
AcDbBlockEnd
  0
BLOCK
  5
2D
330
1C
100
AcDbEntity
  8
0
100
AcDbBlockBegin
  2
*D0
 70
     1
 10
0.0
 20
0.0
 30
0.0
  3
*D0
  1

  0
LINE
  5
2E
330
1C
100
AcDbEntity
  8
0
  6
ByBlock
 62
     0
100
AcDbLine
 10
12.13558821003429
 20
18.27942236213046
 30
0.0
 11
13.01851972058784
 21
18.27942236213046
 31
0.0
  0
LINE
  5
2F
330
1C
100
AcDbEntity
  8
0
  6
ByBlock
 62
     0
100
AcDbLine
 10
12.06674605920627
 20
15.28608902879713
 30
0.0
 11
13.01851972058784
 21
15.28608902879713
 31
0.0
  0
LINE
  5
30
330
1C
100
AcDbEntity
  8
0
  6
ByBlock
 62
     0
100
AcDbLine
 10
12.83851972058783
 20
18.27942236213046
 30
0.0
 11
12.83851972058783
 21
16.94942236213046
 31
0.0
  0
LINE
  5
31
330
1C
100
AcDbEntity
  8
0
  6
ByBlock
 62
     0
100
AcDbLine
 10
12.83851972058783
 20
15.28608902879713
 30
0.0
 11
12.83851972058783
 21
16.61608902879713
 31
0.0
  0
LINE
  5
32
330
1C
100
AcDbEntity
  8
0
  6
ByBlock
 62
     0
100
AcDbLine
 10
12.96351972058783
 20
18.15442236213046
 30
0.0
 11
12.71351972058784
 21
18.40442236213046
 31
0.0
  0
LINE
  5
33
330
1C
100
AcDbEntity
  8
0
  6
ByBlock
 62
     0
100
AcDbLine
 10
12.96351972058783
 20
15.16108902879713
 30
0.0
 11
12.71351972058784
 21
15.41108902879713
 31
0.0
  0
TEXT
  5
34
330
1C
100
AcDbEntity
  8
0
  6
ByBlock
 62
     0
100
AcDbText
 10
12.90101972058783
 20
16.74108902879713
 30
0.0
 40
0.125
  1
3
 50
90.0
 72
     1
 11
12.83851972058783
 21
16.7827556954638
 31
0.0
100
AcDbText
 73
     2
  0
POINT
  5
36
330
1C
100
AcDbEntity
  8
DEFPOINTS
  6
ByBlock
 62
     0
100
AcDbPoint
 10
12.07308821003429
 20
18.27942236213046
 30
0.0
  0
POINT
  5
37
330
1C
100
AcDbEntity
  8
DEFPOINTS
  6
ByBlock
 62
     0
100
AcDbPoint
 10
12.00424605920626
 20
15.28608902879713
 30
0.0
  0
POINT
  5
38
330
1C
100
AcDbEntity
  8
DEFPOINTS
  6
ByBlock
 62
     0
100
AcDbPoint
 10
12.83851972058783
 20
15.28608902879713
 30
0.0
  0
ENDBLK
  5
39
330
1C
100
AcDbEntity
  8
0
100
AcDbBlockEnd
  0
BLOCK
  5
3A
330
1D
100
AcDbEntity
  8
0
100
AcDbBlockBegin
  2
*D1
 70
     1
 10
0.0
 20
0.0
 30
0.0
  3
*D1
  1

  0
LINE
  5
3B
330
1D
100
AcDbEntity
  8
0
  6
ByBlock
 62
     0
100
AcDbLine
 10
10.89308821003429
 20
16.22358902879713
 30
0.0
 11
10.89308821003429
 21
14.81997009461848
 31
0.0
  0
LINE
  5
3C
330
1D
100
AcDbEntity
  8
0
  6
ByBlock
 62
     0
100
AcDbLine
 10
12.51975487670095
 20
16.22358902879713
 30
0.0
 11
12.51975487670095
 21
14.81997009461848
 31
0.0
  0
LINE
  5
3D
330
1D
100
AcDbEntity
  8
0
  6
ByBlock
 62
     0
100
AcDbLine
 10
10.89308821003429
 20
14.99997009461848
 30
0.0
 11
11.31058821003429
 21
14.99997009461848
 31
0.0
  0
LINE
  5
3E
330
1D
100
AcDbEntity
  8
0
  6
ByBlock
 62
     0
100
AcDbLine
 10
12.51975487670095
 20
14.99997009461848
 30
0.0
 11
12.10225487670095
 21
14.99997009461848
 31
0.0
  0
LINE
  5
3F
330
1D
100
AcDbEntity
  8
0
  6
ByBlock
 62
     0
100
AcDbLine
 10
10.76808821003429
 20
14.87497009461848
 30
0.0
 11
11.01808821003429
 21
15.12497009461848
 31
0.0
  0
LINE
  5
40
330
1D
100
AcDbEntity
  8
0
  6
ByBlock
 62
     0
100
AcDbLine
 10
12.39475487670095
 20
14.87497009461848
 30
0.0
 11
12.64475487670095
 21
15.12497009461848
 31
0.0
  0
TEXT
  5
41
330
1D
100
AcDbEntity
  8
0
  6
ByBlock
 62
     0
100
AcDbText
 10
11.43558821003429
 20
14.93747009461848
 30
0.0
 40
0.125
  1
1 5/8
 72
     1
 11
11.70642154336762
 21
14.99997009461848
 31
0.0
100
AcDbText
 73
     2
  0
POINT
  5
42
330
1D
100
AcDbEntity
  8
DEFPOINTS
  6
ByBlock
 62
     0
100
AcDbPoint
 10
10.89308821003429
 20
16.28608902879713
 30
0.0
  0
POINT
  5
43
330
1D
100
AcDbEntity
  8
DEFPOINTS
  6
ByBlock
 62
     0
100
AcDbPoint
 10
12.51975487670095
 20
16.28608902879713
 30
0.0
  0
POINT
  5
44
330
1D
100
AcDbEntity
  8
DEFPOINTS
  6
ByBlock
 62
     0
100
AcDbPoint
 10
12.51975487670095
 20
14.99997009461848
 30
0.0
  0
ENDBLK
  5
45
330
1D
100
AcDbEntity
  8
0
100
AcDbBlockEnd
  0
BLOCK
  5
46
330
1E
100
AcDbEntity
  8
0
100
AcDbBlockBegin
  2
*D2
 70
     1
 10
0.0
 20
0.0
 30
0.0
  3
*D2
  1

  0
LINE
  5
47
330
1E
100
AcDbEntity
  8
0
  6
ByBlock
 62
     0
100
AcDbLine
 10
9.277254876700965
 20
16.28608902879713
 30
0.0
 11
8.70162964057425
 21
16.28608902879713
 31
0.0
  0
LINE
  5
48
330
1E
100
AcDbEntity
  8
0
  6
ByBlock
 62
     0
100
AcDbLine
 10
9.337254876700967
 20
15.28608902879713
 30
0.0
 11
8.70162964057425
 21
15.28608902879713
 31
0.0
  0
LINE
  5
49
330
1E
100
AcDbEntity
  8
0
  6
ByBlock
 62
     0
100
AcDbLine
 10
8.881629640574249
 20
16.28608902879713
 30
0.0
 11
8.881629640574249
 21
15.93192236213047
 31
0.0
  0
LINE
  5
4A
330
1E
100
AcDbEntity
  8
0
  6
ByBlock
 62
     0
100
AcDbLine
 10
8.881629640574249
 20
15.28608902879713
 30
0.0
 11
8.881629640574249
 21
15.6402556954638
 31
0.0
  0
LINE
  5
4B
330
1E
100
AcDbEntity
  8
0
  6
ByBlock
 62
     0
100
AcDbLine
 10
9.006629640574249
 20
16.16108902879713
 30
0.0
 11
8.756629640574249
 21
16.41108902879713
 31
0.0
  0
LINE
  5
4C
330
1E
100
AcDbEntity
  8
0
  6
ByBlock
 62
     0
100
AcDbLine
 10
9.006629640574249
 20
15.16108902879713
 30
0.0
 11
8.756629640574249
 21
15.41108902879713
 31
0.0
  0
TEXT
  5
4D
330
1E
100
AcDbEntity
  8
0
  6
ByBlock
 62
     0
100
AcDbText
 10
8.944129640574249
 20
15.7652556954638
 30
0.0
 40
0.125
  1
1
 50
90.0
 72
     1
 11
8.881629640574249
 21
15.78608902879713
 31
0.0
100
AcDbText
 73
     2
  0
POINT
  5
4E
330
1E
100
AcDbEntity
  8
DEFPOINTS
  6
ByBlock
 62
     0
100
AcDbPoint
 10
9.339754876700965
 20
16.28608902879713
 30
0.0
  0
POINT
  5
4F
330
1E
100
AcDbEntity
  8
DEFPOINTS
  6
ByBlock
 62
     0
100
AcDbPoint
 10
9.399754876700967
 20
15.28608902879713
 30
0.0
  0
POINT
  5
50
330
1E
100
AcDbEntity
  8
DEFPOINTS
  6
ByBlock
 62
     0
100
AcDbPoint
 10
8.881629640574249
 20
15.28608902879713
 30
0.0
  0
ENDBLK
  5
51
330
1E
100
AcDbEntity
  8
0
100
AcDbBlockEnd
  0
BLOCK
  5
52
330
1F
100
AcDbEntity
  8
0
100
AcDbBlockBegin
  2
*D3
 70
     1
 10
0.0
 20
0.0
 30
0.0
  3
*D3
  1

  0
LINE
  5
53
330
1F
100
AcDbEntity
  8
0
  6
ByBlock
 62
     0
100
AcDbLine
 10
11.31975487670096
 20
18.34192236213046
 30
0.0
 11
11.31975487670096
 21
18.66408669555945
 31
0.0
  0
LINE
  5
54
330
1F
100
AcDbEntity
  8
0
  6
ByBlock
 62
     0
100
AcDbLine
 10
12.07308821003429
 20
18.34192236213046
 30
0.0
 11
12.07308821003429
 21
18.66408669555945
 31
0.0
  0
LINE
  5
55
330
1F
100
AcDbEntity
  8
0
  6
ByBlock
 62
     0
100
AcDbLine
 10
11.31975487670096
 20
18.48408669555945
 30
0.0
 11
11.06975487670096
 21
18.48408669555945
 31
0.0
  0
LINE
  5
56
330
1F
100
AcDbEntity
  8
0
  6
ByBlock
 62
     0
100
AcDbLine
 10
12.07308821003429
 20
18.48408669555945
 30
0.0
 11
12.32308821003429
 21
18.48408669555945
 31
0.0
  0
LINE
  5
57
330
1F
100
AcDbEntity
  8
0
  6
ByBlock
 62
     0
100
AcDbLine
 10
11.19475487670096
 20
18.35908669555945
 30
0.0
 11
11.44475487670096
 21
18.60908669555945
 31
0.0
  0
LINE
  5
58
330
1F
100
AcDbEntity
  8
0
  6
ByBlock
 62
     0
100
AcDbLine
 10
11.94808821003429
 20
18.35908669555945
 30
0.0
 11
12.19808821003429
 21
18.60908669555945
 31
0.0
  0
TEXT
  5
59
330
1F
100
AcDbEntity
  8
0
  6
ByBlock
 62
     0
100
AcDbText
 10
12.44808821003429
 20
18.42158669555945
 30
0.0
 40
0.125
  1
3/4
 72
     1
 11
12.61475487670095
 21
18.48408669555945
 31
0.0
100
AcDbText
 73
     2
  0
POINT
  5
5A
330
1F
100
AcDbEntity
  8
DEFPOINTS
  6
ByBlock
 62
     0
100
AcDbPoint
 10
11.31975487670096
 20
18.27942236213046
 30
0.0
  0
POINT
  5
5B
330
1F
100
AcDbEntity
  8
DEFPOINTS
  6
ByBlock
 62
     0
100
AcDbPoint
 10
12.07308821003429
 20
18.27942236213046
 30
0.0
  0
POINT
  5
5C
330
1F
100
AcDbEntity
  8
DEFPOINTS
  6
ByBlock
 62
     0
100
AcDbPoint
 10
12.07308821003429
 20
18.48408669555945
 30
0.0
  0
ENDBLK
  5
5D
330
1F
100
AcDbEntity
  8
0
100
AcDbBlockEnd
  0
BLOCK
  5
5E
330
20
100
AcDbEntity
  8
0
100
AcDbBlockBegin
  2
*D4
 70
     1
 10
0.0
 20
0.0
 30
0.0
  3
*D4
  1

  0
LINE
  5
5F
330
20
100
AcDbEntity
  8
0
  6
ByBlock
 62
     0
100
AcDbLine
 10
9.343921543367631
 20
18.27275569546379
 30
0.0
 11
8.70162964057425
 21
18.27275569546379
 31
0.0
  0
LINE
  5
60
330
20
100
AcDbEntity
  8
0
  6
ByBlock
 62
     0
100
AcDbLine
 10
9.343921543367631
 20
17.11712018929883
 30
0.0
 11
8.70162964057425
 21
17.11712018929883
 31
0.0
  0
LINE
  5
61
330
20
100
AcDbEntity
  8
0
  6
ByBlock
 62
     0
100
AcDbLine
 10
8.881629640574249
 20
18.27275569546379
 30
0.0
 11
8.881629640574249
 21
18.52275569546379
 31
0.0
  0
LINE
  5
62
330
20
100
AcDbEntity
  8
0
  6
ByBlock
 62
     0
100
AcDbLine
 10
8.881629640574249
 20
17.11712018929883
 30
0.0
 11
8.881629640574249
 21
16.86712018929884
 31
0.0
  0
LINE
  5
63
330
20
100
AcDbEntity
  8
0
  6
ByBlock
 62
     0
100
AcDbLine
 10
9.006629640574249
 20
18.14775569546379
 30
0.0
 11
8.756629640574249
 21
18.39775569546379
 31
0.0
  0
LINE
  5
64
330
20
100
AcDbEntity
  8
0
  6
ByBlock
 62
     0
100
AcDbLine
 10
9.006629640574249
 20
16.99212018929884
 30
0.0
 11
8.756629640574249
 21
17.24212018929884
 31
0.0
  0
TEXT
  5
65
330
20
100
AcDbEntity
  8
0
  6
ByBlock
 62
     0
100
AcDbText
 10
8.944129640574249
 20
16.24212018929884
 30
0.0
 40
0.125
  1
1 1/8
 50
90.0
 72
     1
 11
8.881629640574249
 21
16.49212018929883
 31
0.0
100
AcDbText
 73
     2
  0
POINT
  5
66
330
20
100
AcDbEntity
  8
DEFPOINTS
  6
ByBlock
 62
     0
100
AcDbPoint
 10
9.406421543367631
 20
18.27275569546379
 30
0.0
  0
POINT
  5
67
330
20
100
AcDbEntity
  8
DEFPOINTS
  6
ByBlock
 62
     0
100
AcDbPoint
 10
9.406421543367631
 20
17.11712018929883
 30
0.0
  0
POINT
  5
68
330
20
100
AcDbEntity
  8
DEFPOINTS
  6
ByBlock
 62
     0
100
AcDbPoint
 10
8.881629640574249
 20
17.11712018929883
 30
0.0
  0
ENDBLK
  5
69
330
20
100
AcDbEntity
  8
0
100
AcDbBlockEnd
  0
BLOCK
  5
6A
330
21
100
AcDbEntity
  8
0
100
AcDbBlockBegin
  2
*D5
 70
     1
 10
0.0
 20
0.0
 30
0.0
  3
*D5
  1

  0
LINE
  5
6B
330
21
100
AcDbEntity
  8
0
  6
ByBlock
 62
     0
100
AcDbLine
 10
10.1530882100343
 20
18.33525569546379
 30
0.0
 11
10.1530882100343
 21
18.67978088216937
 31
0.0
  0
LINE
  5
6C
330
21
100
AcDbEntity
  8
0
  6
ByBlock
 62
     0
100
AcDbLine
 10
9.406421543367631
 20
18.33525569546379
 30
0.0
 11
9.406421543367631
 21
18.67978088216937
 31
0.0
  0
LINE
  5
6D
330
21
100
AcDbEntity
  8
0
  6
ByBlock
 62
     0
100
AcDbLine
 10
10.1530882100343
 20
18.49978088216937
 30
0.0
 11
10.4030882100343
 21
18.49978088216937
 31
0.0
  0
LINE
  5
6E
330
21
100
AcDbEntity
  8
0
  6
ByBlock
 62
     0
100
AcDbLine
 10
9.406421543367631
 20
18.49978088216937
 30
0.0
 11
9.156421543367631
 21
18.49978088216937
 31
0.0
  0
LINE
  5
6F
330
21
100
AcDbEntity
  8
0
  6
ByBlock
 62
     0
100
AcDbLine
 10
10.0280882100343
 20
18.37478088216937
 30
0.0
 11
10.27808821003429
 21
18.62478088216937
 31
0.0
  0
LINE
  5
70
330
21
100
AcDbEntity
  8
0
  6
ByBlock
 62
     0
100
AcDbLine
 10
9.281421543367631
 20
18.37478088216937
 30
0.0
 11
9.531421543367631
 21
18.62478088216937
 31
0.0
  0
TEXT
  5
71
330
21
100
AcDbEntity
  8
0
  6
ByBlock
 62
     0
100
AcDbText
 10
8.698088210034299
 20
18.43728088216937
 30
0.0
 40
0.125
  1
3/4
 72
     1
 11
8.864754876700965
 21
18.49978088216937
 31
0.0
100
AcDbText
 73
     2
  0
POINT
  5
72
330
21
100
AcDbEntity
  8
DEFPOINTS
  6
ByBlock
 62
     0
100
AcDbPoint
 10
10.1530882100343
 20
18.27275569546379
 30
0.0
  0
POINT
  5
73
330
21
100
AcDbEntity
  8
DEFPOINTS
  6
ByBlock
 62
     0
100
AcDbPoint
 10
9.406421543367631
 20
18.27275569546379
 30
0.0
  0
POINT
  5
74
330
21
100
AcDbEntity
  8
DEFPOINTS
  6
ByBlock
 62
     0
100
AcDbPoint
 10
9.406421543367631
 20
18.49978088216937
 30
0.0
  0
ENDBLK
  5
75
330
21
100
AcDbEntity
  8
0
100
AcDbBlockEnd
  0
BLOCK
  5
215
330
20A
100
AcDbEntity
  8
0
100
AcDbBlockBegin
  2
*D6
 70
     1
 10
0.0
 20
0.0
 30
0.0
  3
*D6
  1

  0
LINE
  5
20B
330
20A
100
AcDbEntity
  8
ADPDIM
 62
     0
370
    -2
100
AcDbLine
 10
10.1530882100343
 20
18.33525569546379
 30
0.0
 11
10.1530882100343
 21
18.67978088216937
 31
0.0
  0
LINE
  5
20C
330
20A
100
AcDbEntity
  8
ADPDIM
 62
     0
370
    -2
100
AcDbLine
 10
9.406421543367631
 20
18.33525569546379
 30
0.0
 11
9.406421543367631
 21
18.67978088216937
 31
0.0
  0
LINE
  5
20D
330
20A
100
AcDbEntity
  8
ADPDIM
 62
     0
370
    -2
100
AcDbLine
 10
10.1530882100343
 20
18.49978088216937
 30
0.0
 11
9.92606687543167
 21
18.49978088216937
 31
0.0
  0
LINE
  5
20E
330
20A
100
AcDbEntity
  8
ADPDIM
 62
     0
370
    -2
100
AcDbLine
 10
9.406421543367631
 20
18.49978088216937
 30
0.0
 11
9.592733542098338
 21
18.49978088216937
 31
0.0
  0
MTEXT
  5
20F
330
20A
100
AcDbEntity
  8
ADPDIM
 62
     0
100
AcDbMText
 10
9.759400208765004
 20
18.49978088216937
 30
0.0
 40
0.125
 41
0.0
 71
     5
 72
     1
  1
\A1;{\H1.000000x;\S3/4;}
 73
     1
 44
1.0
1001
ACAD
1000
MTEXTBEGIN
1070
    73
1070
     1
1070
    44
1040
1.0
1070
    74
1070
     0
1000
MTEXTEND
  0
LINE
  5
210
330
20A
100
AcDbEntity
  8
ADPDIM
 62
     0
370
    -2
100
AcDbLine
 10
9.281421543367631
 20
18.37478088216937
 30
0.0
 11
9.531421543367631
 21
18.62478088216937
 31
0.0
  0
LINE
  5
211
330
20A
100
AcDbEntity
  8
ADPDIM
 62
     0
370
    -2
100
AcDbLine
 10
10.0280882100343
 20
18.37478088216937
 30
0.0
 11
10.27808821003429
 21
18.62478088216937
 31
0.0
  0
POINT
  5
212
330
20A
100
AcDbEntity
  8
DEFPOINTS
 62
     0
100
AcDbPoint
 10
10.1530882100343
 20
18.27275569546379
 30
0.0
  0
POINT
  5
213
330
20A
100
AcDbEntity
  8
DEFPOINTS
 62
     0
100
AcDbPoint
 10
9.406421543367631
 20
18.27275569546379
 30
0.0
  0
POINT
  5
214
330
20A
100
AcDbEntity
  8
DEFPOINTS
 62
     0
100
AcDbPoint
 10
9.406421543367631
 20
18.49978088216937
 30
0.0
  0
ENDBLK
  5
216
330
20A
100
AcDbEntity
  8
0
100
AcDbBlockEnd
  0
BLOCK
  5
222
330
217
100
AcDbEntity
  8
0
100
AcDbBlockBegin
  2
*D7
 70
     1
 10
0.0
 20
0.0
 30
0.0
  3
*D7
  1

  0
LINE
  5
218
330
217
100
AcDbEntity
  8
ADPDIM
 62
     0
370
    -2
100
AcDbLine
 10
11.31975487670096
 20
18.34192236213046
 30
0.0
 11
11.31975487670096
 21
18.66408669555945
 31
0.0
  0
LINE
  5
219
330
217
100
AcDbEntity
  8
ADPDIM
 62
     0
370
    -2
100
AcDbLine
 10
12.07308821003429
 20
18.34192236213046
 30
0.0
 11
12.07308821003429
 21
18.66408669555945
 31
0.0
  0
LINE
  5
21A
330
217
100
AcDbEntity
  8
ADPDIM
 62
     0
370
    -2
100
AcDbLine
 10
11.31975487670096
 20
18.48408669555945
 30
0.0
 11
11.52250336053669
 21
18.48408669555945
 31
0.0
  0
LINE
  5
21B
330
217
100
AcDbEntity
  8
ADPDIM
 62
     0
370
    -2
100
AcDbLine
 10
12.07308821003429
 20
18.48408669555945
 30
0.0
 11
11.85583669387003
 21
18.48408669555945
 31
0.0
  0
MTEXT
  5
21C
330
217
100
AcDbEntity
  8
ADPDIM
 62
     0
100
AcDbMText
 10
11.68917002720336
 20
18.48408669555945
 30
0.0
 40
0.125
 41
0.0
 71
     5
 72
     1
  1
\A1;{\H1.000000x;\S3/4;}
 73
     1
 44
1.0
1001
ACAD
1000
MTEXTBEGIN
1070
    73
1070
     1
1070
    44
1040
1.0
1070
    74
1070
     0
1000
MTEXTEND
  0
LINE
  5
21D
330
217
100
AcDbEntity
  8
ADPDIM
 62
     0
370
    -2
100
AcDbLine
 10
11.94808821003429
 20
18.35908669555945
 30
0.0
 11
12.19808821003429
 21
18.60908669555945
 31
0.0
  0
LINE
  5
21E
330
217
100
AcDbEntity
  8
ADPDIM
 62
     0
370
    -2
100
AcDbLine
 10
11.19475487670096
 20
18.35908669555945
 30
0.0
 11
11.44475487670096
 21
18.60908669555945
 31
0.0
  0
POINT
  5
21F
330
217
100
AcDbEntity
  8
DEFPOINTS
 62
     0
100
AcDbPoint
 10
11.31975487670096
 20
18.27942236213046
 30
0.0
  0
POINT
  5
220
330
217
100
AcDbEntity
  8
DEFPOINTS
 62
     0
100
AcDbPoint
 10
12.07308821003429
 20
18.27942236213046
 30
0.0
  0
POINT
  5
221
330
217
100
AcDbEntity
  8
DEFPOINTS
 62
     0
100
AcDbPoint
 10
12.07308821003429
 20
18.48408669555945
 30
0.0
  0
ENDBLK
  5
223
330
217
100
AcDbEntity
  8
0
100
AcDbBlockEnd
  0
BLOCK
  5
22F
330
224
100
AcDbEntity
  8
0
100
AcDbBlockBegin
  2
*D8
 70
     1
 10
0.0
 20
0.0
 30
0.0
  3
*D8
  1

  0
LINE
  5
2AF
330
224
100
AcDbEntity
  8
ADPDIM
 62
     0
370
    -2
100
AcDbLine
 10
9.343921543367631
 20
18.27275569546379
 30
0.0
 11
8.70162964057425
 21
18.27275569546379
 31
0.0
  0
LINE
  5
2B0
330
224
100
AcDbEntity
  8
ADPDIM
 62
     0
370
    -2
100
AcDbLine
 10
9.713094563076229
 20
17.136015644531
 30
0.0
 11
8.70162964057425
 21
17.136015644531
 31
0.0
  0
LINE
  5
2B1
330
224
100
AcDbEntity
  8
ADPDIM
 62
     0
370
    -2
100
AcDbLine
 10
8.881629640574249
 20
18.27275569546379
 30
0.0
 11
8.881629640574249
 21
17.92923933731553
 31
0.0
  0
LINE
  5
2B2
330
224
100
AcDbEntity
  8
ADPDIM
 62
     0
370
    -2
100
AcDbLine
 10
8.881629640574249
 20
17.136015644531
 30
0.0
 11
8.881629640574249
 21
17.51257267064887
 31
0.0
  0
MTEXT
  5
2B3
330
224
100
AcDbEntity
  8
ADPDIM
 62
     0
100
AcDbMText
 10
8.881629640574249
 20
17.7209060039822
 30
0.0
 40
0.125
 41
0.0
 71
     5
 72
     1
  1
\A1;1{\H1.000000x;\S1/8;}
 11
0.0000000000000001
 21
1.0
 31
0.0
 73
     1
 44
1.0
1001
ACAD
1000
MTEXTBEGIN
1070
    73
1070
     1
1070
    44
1040
1.0
1070
    74
1070
     0
1000
MTEXTEND
  0
LINE
  5
2B4
330
224
100
AcDbEntity
  8
ADPDIM
 62
     0
370
    -2
100
AcDbLine
 10
9.006629640574249
 20
17.011015644531
 30
0.0
 11
8.756629640574249
 21
17.261015644531
 31
0.0
  0
LINE
  5
2B5
330
224
100
AcDbEntity
  8
ADPDIM
 62
     0
370
    -2
100
AcDbLine
 10
9.006629640574249
 20
18.14775569546379
 30
0.0
 11
8.756629640574249
 21
18.39775569546379
 31
0.0
  0
POINT
  5
2B6
330
224
100
AcDbEntity
  8
DEFPOINTS
 62
     0
100
AcDbPoint
 10
9.406421543367631
 20
18.27275569546379
 30
0.0
  0
POINT
  5
2B7
330
224
100
AcDbEntity
  8
DEFPOINTS
 62
     0
100
AcDbPoint
 10
9.775594563076229
 20
17.136015644531
 30
0.0
  0
POINT
  5
2B8
330
224
100
AcDbEntity
  8
DEFPOINTS
 62
     0
100
AcDbPoint
 10
8.881629640574249
 20
17.136015644531
 30
0.0
  0
ENDBLK
  5
230
330
224
100
AcDbEntity
  8
0
100
AcDbBlockEnd
  0
BLOCK
  5
284
330
283
100
AcDbEntity
  8
0
100
AcDbBlockBegin
  2
*D9
 70
     1
 10
0.0
 20
0.0
 30
0.0
  3
*D9
  1

  0
LINE
  5
285
330
283
100
AcDbEntity
  8
ADPDIM
 62
     0
370
    -2
100
AcDbLine
 10
10.1530882100343
 20
18.33525569546379
 30
0.0
 11
10.1530882100343
 21
18.67978088216937
 31
0.0
  0
LINE
  5
286
330
283
100
AcDbEntity
  8
ADPDIM
 62
     0
370
    -2
100
AcDbLine
 10
9.406421543367631
 20
18.33525569546379
 30
0.0
 11
9.406421543367631
 21
18.67978088216937
 31
0.0
  0
LINE
  5
287
330
283
100
AcDbEntity
  8
ADPDIM
 62
     0
370
    -2
100
AcDbLine
 10
10.1530882100343
 20
18.49978088216937
 30
0.0
 11
9.92606687543167
 21
18.49978088216937
 31
0.0
  0
LINE
  5
288
330
283
100
AcDbEntity
  8
ADPDIM
 62
     0
370
    -2
100
AcDbLine
 10
9.406421543367631
 20
18.49978088216937
 30
0.0
 11
9.592733542098338
 21
18.49978088216937
 31
0.0
  0
MTEXT
  5
289
330
283
100
AcDbEntity
  8
ADPDIM
 62
     0
100
AcDbMText
 10
9.759400208765004
 20
18.49978088216937
 30
0.0
 40
0.125
 41
0.0
 71
     5
 72
     1
  1
\A1;{\H1.000000x;\S3/4;}
 73
     1
 44
1.0
1001
ACAD
1000
MTEXTBEGIN
1070
    73
1070
     1
1070
    44
1040
1.0
1070
    74
1070
     0
1000
MTEXTEND
  0
LINE
  5
28A
330
283
100
AcDbEntity
  8
ADPDIM
 62
     0
370
    -2
100
AcDbLine
 10
9.281421543367631
 20
18.37478088216937
 30
0.0
 11
9.531421543367631
 21
18.62478088216937
 31
0.0
  0
LINE
  5
28B
330
283
100
AcDbEntity
  8
ADPDIM
 62
     0
370
    -2
100
AcDbLine
 10
10.0280882100343
 20
18.37478088216937
 30
0.0
 11
10.27808821003429
 21
18.62478088216937
 31
0.0
  0
POINT
  5
28C
330
283
100
AcDbEntity
  8
DEFPOINTS
 62
     0
100
AcDbPoint
 10
10.1530882100343
 20
18.27275569546379
 30
0.0
  0
POINT
  5
28D
330
283
100
AcDbEntity
  8
DEFPOINTS
 62
     0
100
AcDbPoint
 10
9.406421543367631
 20
18.27275569546379
 30
0.0
  0
POINT
  5
28E
330
283
100
AcDbEntity
  8
DEFPOINTS
 62
     0
100
AcDbPoint
 10
9.406421543367631
 20
18.49978088216937
 30
0.0
  0
ENDBLK
  5
28F
330
283
100
AcDbEntity
  8
0
100
AcDbBlockEnd
  0
BLOCK
  5
2A3
330
298
100
AcDbEntity
  8
0
100
AcDbBlockBegin
  2
*D11
 70
     1
 10
0.0
 20
0.0
 30
0.0
  3
*D11
  1

  0
LINE
  5
2A5
330
298
100
AcDbEntity
  8
ADPDIM
 62
     0
370
    -2
100
AcDbLine
 10
10.15141191800216
 20
14.88364178448165
 30
0.0
 11
10.15141191800216
 21
15.22816697118723
 31
0.0
  0
LINE
  5
2A6
330
298
100
AcDbEntity
  8
ADPDIM
 62
     0
370
    -2
100
AcDbLine
 10
9.404745251335494
 20
14.88364178448165
 30
0.0
 11
9.404745251335494
 21
15.22816697118723
 31
0.0
  0
LINE
  5
2A7
330
298
100
AcDbEntity
  8
ADPDIM
 62
     0
370
    -2
100
AcDbLine
 10
10.15141191800216
 20
15.04816697118723
 30
0.0
 11
9.924390583399533
 21
15.04816697118723
 31
0.0
  0
LINE
  5
2A8
330
298
100
AcDbEntity
  8
ADPDIM
 62
     0
370
    -2
100
AcDbLine
 10
9.404745251335494
 20
15.04816697118723
 30
0.0
 11
9.591057250066201
 21
15.04816697118723
 31
0.0
  0
MTEXT
  5
2A9
330
298
100
AcDbEntity
  8
ADPDIM
 62
     0
100
AcDbMText
 10
9.757723916732867
 20
15.04816697118723
 30
0.0
 40
0.125
 41
0.0
 71
     5
 72
     1
  1
\A1;{\H1.000000x;\S3/4;}
 73
     1
 44
1.0
1001
ACAD
1000
MTEXTBEGIN
1070
    73
1070
     1
1070
    44
1040
1.0
1070
    74
1070
     0
1000
MTEXTEND
  0
LINE
  5
2AA
330
298
100
AcDbEntity
  8
ADPDIM
 62
     0
370
    -2
100
AcDbLine
 10
9.279745251335494
 20
14.92316697118723
 30
0.0
 11
9.529745251335494
 21
15.17316697118723
 31
0.0
  0
LINE
  5
2AB
330
298
100
AcDbEntity
  8
ADPDIM
 62
     0
370
    -2
100
AcDbLine
 10
10.02641191800216
 20
14.92316697118723
 30
0.0
 11
10.27641191800216
 21
15.17316697118723
 31
0.0
  0
POINT
  5
2AC
330
298
100
AcDbEntity
  8
DEFPOINTS
 62
     0
100
AcDbPoint
 10
10.15141191800216
 20
14.82114178448165
 30
0.0
  0
POINT
  5
2AD
330
298
100
AcDbEntity
  8
DEFPOINTS
 62
     0
100
AcDbPoint
 10
9.404745251335494
 20
14.82114178448165
 30
0.0
  0
POINT
  5
2AE
330
298
100
AcDbEntity
  8
DEFPOINTS
 62
     0
100
AcDbPoint
 10
9.404745251335494
 20
15.04816697118723
 30
0.0
  0
ENDBLK
  5
2A4
330
298
100
AcDbEntity
  8
0
100
AcDbBlockEnd
  0
ENDSEC
  0
SECTION
  2
ENTITIES
  0
DIMENSION
  5
76
330
17
100
AcDbEntity
  8
ADPDIM
100
AcDbDimension
  2
*D1
 10
12.51975487670095
 20
14.99997009461848
 30
0.0
 11
11.70642154336762
 21
14.99997009461848
 31
0.0
 71
     5
 42
-1.0
100
AcDbAlignedDimension
 13
10.89308821003429
 23
16.28608902879713
 33
0.0
 14
12.51975487670095
 24
16.28608902879713
 34
0.0
100
AcDbRotatedDimension
  0
LINE
  5
77
330
17
100
AcDbEntity
  8
ADP1DETAIL
100
AcDbLine
 10
10.1530882100343
 20
15.28608902879713
 30
0.0
 11
10.1530882100343
 21
16.28608902879713
 31
0.0
  0
LINE
  5
78
330
17
100
AcDbEntity
  8
ADP1DETAIL
100
AcDbLine
 10
9.399754876700967
 20
16.28608902879713
 30
0.0
 11
9.399754876700967
 21
15.28608902879713
 31
0.0
  0
DIMENSION
  5
79
330
17
100
AcDbEntity
  8
ADPDIM
100
AcDbDimension
  2
*D2
 10
8.881629640574249
 20
15.28608902879713
 30
0.0
 11
8.881629640574249
 21
15.78608902879713
 31
0.0
 71
     5
 42
-1.0
100
AcDbAlignedDimension
 13
9.339754876700965
 23
16.28608902879713
 33
0.0
 14
9.399754876700967
 24
15.28608902879713
 34
0.0
 50
90.0
100
AcDbRotatedDimension
  0
LINE
  5
7A
330
17
100
AcDbEntity
  8
ADP1DETAIL
100
AcDbLine
 10
9.399754876700967
 20
15.28608902879713
 30
0.0
 11
10.1530882100343
 21
15.28608902879713
 31
0.0
  0
LINE
  5
7B
330
17
100
AcDbEntity
  8
ADP1DETAIL
100
AcDbLine
 10
9.399754876700967
 20
15.31942236213047
 30
0.0
 11
10.1530882100343
 21
15.31942236213047
 31
0.0
  0
DIMENSION
  5
7C
330
17
100
AcDbEntity
  8
ADPDIM
100
AcDbDimension
  2
*D8
 10
8.881629640574249
 20
17.136015644531
 30
0.0
 11
8.881629640574249
 21
17.7209060039822
 31
0.0
 70
   160
 71
     5
 42
1.136740050932793
  3
STANDARD
100
AcDbAlignedDimension
 13
9.406421543367631
 23
18.27275569546379
 33
0.0
 14
9.775594563076229
 24
17.136015644531
 34
0.0
 50
90.0
100
AcDbRotatedDimension
1001
ACAD
1000
DSTYLE
1002
{
1070
    41
1040
0.125
1070
    73
1070
     0
1070
    74
1070
     0
1070
    78
1070
     3
1070
   140
1040
0.125
1070
   141
1040
0.1875
1070
   142
1040
0.125
1070
   147
1040
0.125
1070
   171
1070
     1
1070
   273
1070
     5
1070
   274
1070
     1
1070
   277
1070
     5
1070
   279
1070
     2
1070
   284
1070
     3
1070
   285
1070
     3
1070
   286
1070
     3
1002
}
  0
DIMENSION
  5
7D
330
17
100
AcDbEntity
  8
ADPDIM
100
AcDbDimension
  2
*D6
 10
9.406421543367631
 20
18.49978088216937
 30
0.0
 11
9.759400208765004
 21
18.49978088216937
 31
0.0
 70
   160
 71
     5
 42
0.7466666666666662
  3
STANDARD
100
AcDbAlignedDimension
 13
10.1530882100343
 23
18.27275569546379
 33
0.0
 14
9.406421543367631
 24
18.27275569546379
 34
0.0
100
AcDbRotatedDimension
1001
ACAD
1000
DSTYLE
1002
{
1070
    41
1040
0.125
1070
    73
1070
     0
1070
    74
1070
     0
1070
    78
1070
     3
1070
   140
1040
0.125
1070
   141
1040
0.1875
1070
   142
1040
0.125
1070
   147
1040
0.125
1070
   171
1070
     1
1070
   273
1070
     5
1070
   274
1070
     1
1070
   277
1070
     5
1070
   279
1070
     2
1070
   284
1070
     3
1070
   285
1070
     3
1070
   286
1070
     3
1002
}
  0
LINE
  5
7E
330
17
100
AcDbEntity
  8
ADP1DETAIL
100
AcDbLine
 10
9.773088210034298
 20
17.57275569546379
 30
0.0
 11
9.773088210034298
 21
17.49942236213046
 31
0.0
  0
LINE
  5
7F
330
17
100
AcDbEntity
  8
ADP1DETAIL
100
AcDbLine
 10
9.78642154336763
 20
17.49942236213046
 30
0.0
 11
9.78642154336763
 21
17.57275569546379
 31
0.0
  0
CIRCLE
  5
80
330
17
100
AcDbEntity
  8
ADP1DETAIL
100
AcDbCircle
 10
9.775594563076229
 20
17.58124321742722
 30
0.0
 40
0.1176346495886643
  0
LINE
  5
81
330
17
100
AcDbEntity
  8
ADP1DETAIL
100
AcDbLine
 10
10.21975487670096
 20
17.40608902879713
 30
0.0
 11
10.1530882100343
 21
18.27275569546379
 31
0.0
  0
LINE
  5
82
330
17
100
AcDbEntity
  8
ADP1DETAIL
100
AcDbLine
 10
9.406421543367631
 20
18.27275569546379
 30
0.0
 11
9.333088210034297
 21
17.39942236213046
 31
0.0
  0
LINE
  5
83
330
17
100
AcDbEntity
  8
ADP1DETAIL
100
AcDbLine
 10
10.1530882100343
 20
16.28608902879713
 30
0.0
 11
9.399754876700967
 21
16.28608902879713
 31
0.0
  0
LINE
  5
84
330
17
100
AcDbEntity
  8
ADP1DETAIL
100
AcDbLine
 10
10.27975487670096
 20
17.40608902879713
 30
0.0
 11
9.279754876700962
 21
17.40608902879713
 31
0.0
  0
CIRCLE
  5
85
330
17
100
AcDbEntity
  8
ADP1DETAIL
100
AcDbCircle
 10
9.775594563076229
 20
17.136015644531
 30
0.0
 40
0.1844424331728669
  0
LINE
  5
86
330
17
100
AcDbEntity
  8
ADP2DETAIL
100
AcDbLine
 10
10.27975487670096
 20
16.46608902879713
 30
0.0
 11
9.293088210034298
 21
16.46608902879713
 31
0.0
  0
LINE
  5
87
330
17
100
AcDbEntity
  8
ADP2DETAIL
100
AcDbLine
 10
9.779754876700962
 20
16.65942236213046
 30
0.0
 11
10.27308821003429
 21
16.70608902879713
 31
0.0
  0
LINE
  5
88
330
17
100
AcDbEntity
  8
ADP1DETAIL
100
AcDbLine
 10
9.279754876700962
 20
17.40608902879713
 30
0.0
 11
9.279754876700962
 21
16.28608902879713
 31
0.0
  0
LINE
  5
89
330
17
100
AcDbEntity
  8
ADP2DETAIL
100
AcDbLine
 10
9.333088210034297
 20
17.39942236213046
 30
0.0
 11
9.279754876700962
 21
16.70608902879713
 31
0.0
  0
LINE
  5
8A
330
17
100
AcDbEntity
  8
ADP1DETAIL
100
AcDbLine
 10
9.279754876700962
 20
16.28608902879713
 30
0.0
 11
9.399754876700967
 21
16.28608902879713
 31
0.0
  0
LINE
  5
8B
330
17
100
AcDbEntity
  8
ADP2DETAIL
100
AcDbLine
 10
9.279754876700962
 20
16.70608902879713
 30
0.0
 11
9.779754876700962
 21
16.65942236213046
 31
0.0
  0
LINE
  5
8C
330
17
100
AcDbEntity
  8
ADP1DETAIL
100
AcDbLine
 10
9.779754876700962
 20
17.45942236213046
 30
0.0
 11
9.779754876700962
 21
17.45942236213046
 31
0.0
  0
LINE
  5
8D
330
17
100
AcDbEntity
  8
ADP1DETAIL
100
AcDbLine
 10
9.773088210034298
 20
17.49942236213046
 30
0.0
 11
9.779754876700962
 21
17.49275569546379
 31
0.0
  0
LINE
  5
8E
330
17
100
AcDbEntity
  8
ADP1DETAIL
100
AcDbLine
 10
9.779754876700962
 20
17.49275569546379
 30
0.0
 11
9.78642154336763
 21
17.49942236213046
 31
0.0
  0
LINE
  5
8F
330
17
100
AcDbEntity
  8
ADP1DETAIL
100
AcDbLine
 10
10.27975487670096
 20
16.28608902879713
 30
0.0
 11
10.27975487670096
 21
17.40608902879713
 31
0.0
  0
LINE
  5
90
330
17
100
AcDbEntity
  8
ADP2DETAIL
100
AcDbLine
 10
10.27308821003429
 20
16.70608902879713
 30
0.0
 11
10.21975487670096
 21
17.40608902879713
 31
0.0
  0
LINE
  5
91
330
17
100
AcDbEntity
  8
ADP1DETAIL
100
AcDbLine
 10
10.1530882100343
 20
16.28608902879713
 30
0.0
 11
10.27975487670096
 21
16.28608902879713
 31
0.0
  0
LINE
  5
92
330
17
100
AcDbEntity
  8
0
100
AcDbLine
 10
10.27975487670096
 20
17.40608902879713
 30
0.0
 11
10.27975487670096
 21
17.40608902879713
 31
0.0
  0
LINE
  5
93
330
17
100
AcDbEntity
  8
ADP1DETAIL
100
AcDbLine
 10
9.859754876700964
 20
17.58608902879712
 30
0.0
 11
9.78642154336763
 21
17.58608902879712
 31
0.0
  0
LINE
  5
94
330
17
100
AcDbEntity
  8
ADP1DETAIL
100
AcDbLine
 10
9.78642154336763
 20
17.57275569546379
 30
0.0
 11
9.859754876700964
 21
17.57275569546379
 31
0.0
  0
LINE
  5
95
330
17
100
AcDbEntity
  8
ADP1DETAIL
100
AcDbLine
 10
10.1530882100343
 20
18.27275569546379
 30
0.0
 11
9.406421543367631
 21
18.27275569546379
 31
0.0
  0
LINE
  5
96
330
17
100
AcDbEntity
  8
ADP2DETAIL
100
AcDbLine
 10
10.17975487670096
 20
17.77942236213046
 30
0.0
 11
9.379754876700964
 21
17.77942236213046
 31
0.0
  0
LINE
  5
97
330
17
100
AcDbEntity
  8
ADP2DETAIL
100
AcDbLine
 10
10.1530882100343
 20
18.15942236213046
 30
0.0
 11
9.406421543367631
 21
18.15942236213046
 31
0.0
  0
LINE
  5
98
330
17
100
AcDbEntity
  8
ADP1DETAIL
100
AcDbLine
 10
9.693088210034296
 20
17.58608902879712
 30
0.0
 11
9.686421543367632
 21
17.57942236213046
 31
0.0
  0
LINE
  5
99
330
17
100
AcDbEntity
  8
ADP1DETAIL
100
AcDbLine
 10
9.686421543367632
 20
17.57942236213046
 30
0.0
 11
9.693088210034296
 21
17.57275569546379
 31
0.0
  0
LINE
  5
9A
330
17
100
AcDbEntity
  8
ADP1DETAIL
100
AcDbLine
 10
9.78642154336763
 20
17.58608902879712
 30
0.0
 11
9.78642154336763
 21
17.66608902879713
 31
0.0
  0
LINE
  5
9B
330
17
100
AcDbEntity
  8
ADP1DETAIL
100
AcDbLine
 10
9.78642154336763
 20
17.66608902879713
 30
0.0
 11
9.779754876700962
 21
17.67275569546379
 31
0.0
  0
LINE
  5
9C
330
17
100
AcDbEntity
  8
ADP1DETAIL
100
AcDbLine
 10
9.779754876700962
 20
17.67275569546379
 30
0.0
 11
9.773088210034298
 21
17.66608902879713
 31
0.0
  0
LINE
  5
9D
330
17
100
AcDbEntity
  8
ADP1DETAIL
100
AcDbLine
 10
9.773088210034298
 20
17.66608902879713
 30
0.0
 11
9.773088210034298
 21
17.58608902879712
 31
0.0
  0
LINE
  5
9E
330
17
100
AcDbEntity
  8
ADP1DETAIL
100
AcDbLine
 10
9.773088210034298
 20
17.58608902879712
 30
0.0
 11
9.693088210034296
 21
17.58608902879712
 31
0.0
  0
LINE
  5
9F
330
17
100
AcDbEntity
  8
ADP1DETAIL
100
AcDbLine
 10
9.693088210034296
 20
17.57275569546379
 30
0.0
 11
9.773088210034298
 21
17.57275569546379
 31
0.0
  0
LINE
  5
A0
330
17
100
AcDbEntity
  8
ADP1DETAIL
100
AcDbLine
 10
9.859754876700964
 20
17.57275569546379
 30
0.0
 11
9.866421543367632
 21
17.57942236213046
 31
0.0
  0
LINE
  5
A1
330
17
100
AcDbEntity
  8
ADP1DETAIL
100
AcDbLine
 10
9.866421543367632
 20
17.57942236213046
 30
0.0
 11
9.859754876700964
 21
17.58608902879712
 31
0.0
  0
LINE
  5
A2
330
17
100
AcDbEntity
  8
ADP1DETAIL
100
AcDbLine
 10
9.859754876700964
 20
17.58608902879712
 30
0.0
 11
9.859754876700964
 21
17.58608902879712
 31
0.0
  0
LINE
  5
A3
330
17
100
AcDbEntity
  8
ADP1DETAIL
100
AcDbLine
 10
12.06642154336762
 20
15.34826451295849
 30
0.0
 11
12.06642154336762
 21
16.28608902879713
 31
0.0
  0
LINE
  5
A4
330
17
100
AcDbEntity
  8
ADP1DETAIL
100
AcDbLine
 10
11.33308821003429
 20
16.28608902879713
 30
0.0
 11
11.33308821003429
 21
15.34826451295849
 31
0.0
  0
DIMENSION
  5
A5
330
17
100
AcDbEntity
  8
ADPDIM
100
AcDbDimension
  2
*D0
 10
12.83851972058783
 20
15.28608902879713
 30
0.0
 11
12.83851972058783
 21
16.7827556954638
 31
0.0
 71
     5
 42
-1.0
100
AcDbAlignedDimension
 13
12.07308821003429
 23
18.27942236213046
 33
0.0
 14
12.00424605920626
 24
15.28608902879713
 34
0.0
 50
90.0
100
AcDbRotatedDimension
  0
LINE
  5
A6
330
17
100
AcDbEntity
  8
ADP1DETAIL
100
AcDbLine
 10
11.39526369419564
 20
15.28608902879713
 30
0.0
 11
12.00424605920626
 21
15.28608902879713
 31
0.0
  0
ARC
  5
A7
330
17
100
AcDbEntity
  8
ADP1DETAIL
100
AcDbCircle
 10
11.39526369419564
 20
15.34826451295849
 30
0.0
 40
0.0621754841613556
100
AcDbArc
 50
180.0
 51
270.0
  0
ARC
  5
A8
330
17
100
AcDbEntity
  8
ADP1DETAIL
100
AcDbCircle
 10
12.00424605920626
 20
15.34826451295849
 30
0.0
 40
0.0621754841613556
100
AcDbArc
 50
270.0
 51
0.0
  0
LINE
  5
A9
330
17
100
AcDbEntity
  8
ADP1DETAIL
100
AcDbLine
 10
11.69308821003429
 20
17.33275569546379
 30
0.0
 11
11.69308821003429
 21
17.77275569546379
 31
0.0
  0
LINE
  5
AA
330
17
100
AcDbEntity
  8
ADP1DETAIL
100
AcDbLine
 10
11.31975487670096
 20
16.6527556954638
 30
0.0
 11
11.31975487670096
 21
18.27942236213046
 31
0.0
  0
LINE
  5
AB
330
17
100
AcDbEntity
  8
ADP1DETAIL
100
AcDbLine
 10
12.07308821003429
 20
18.27942236213046
 30
0.0
 11
12.07308821003429
 21
16.6527556954638
 31
0.0
  0
LINE
  5
AC
330
17
100
AcDbEntity
  8
ADP1DETAIL
100
AcDbLine
 10
11.33308821003429
 20
16.28608902879713
 30
0.0
 11
12.06642154336762
 21
16.28608902879713
 31
0.0
  0
LINE
  5
AD
330
17
100
AcDbEntity
  8
ADP1DETAIL
100
AcDbLine
 10
11.69308821003429
 20
16.96608902879713
 30
0.0
 11
12.07308821003429
 21
16.96608902879713
 31
0.0
  0
LINE
  5
AE
330
17
100
AcDbEntity
  8
ADP1DETAIL
100
AcDbLine
 10
12.07308821003429
 20
16.6527556954638
 30
0.0
 11
11.31975487670096
 21
16.6527556954638
 31
0.0
  0
LINE
  5
AF
330
17
100
AcDbEntity
  8
ADP1DETAIL
100
AcDbLine
 10
11.31975487670096
 20
16.6927556954638
 30
0.0
 11
12.07308821003429
 21
16.6927556954638
 31
0.0
  0
LINE
  5
B0
330
17
100
AcDbEntity
  8
ADP1DETAIL
100
AcDbLine
 10
12.07975487670095
 20
16.46608902879713
 30
0.0
 11
11.31308821003429
 21
16.46608902879713
 31
0.0
  0
LINE
  5
B1
330
17
100
AcDbEntity
  8
ADP2DETAIL
100
AcDbLine
 10
10.89308821003429
 20
17.32608902879713
 30
0.0
 11
12.51975487670095
 21
17.32608902879713
 31
0.0
  0
LINE
  5
B2
330
17
100
AcDbEntity
  8
ADP2DETAIL
100
AcDbLine
 10
10.89308821003429
 20
16.95275569546379
 30
0.0
 11
12.51308821003429
 21
16.95275569546379
 31
0.0
  0
LINE
  5
B3
330
17
100
AcDbEntity
  8
ADP1DETAIL
100
AcDbLine
 10
10.89308821003429
 20
17.40608902879713
 30
0.0
 11
10.89308821003429
 21
16.28608902879713
 31
0.0
  0
LINE
  5
B4
330
17
100
AcDbEntity
  8
ADP1DETAIL
100
AcDbLine
 10
11.69308821003429
 20
16.96608902879713
 30
0.0
 11
11.69308821003429
 21
16.6527556954638
 31
0.0
  0
LINE
  5
B5
330
17
100
AcDbEntity
  8
ADP1DETAIL
100
AcDbLine
 10
11.31308821003429
 20
16.46608902879713
 30
0.0
 11
11.31308821003429
 21
17.40608902879713
 31
0.0
  0
LINE
  5
B6
330
17
100
AcDbEntity
  8
ADP1DETAIL
100
AcDbLine
 10
10.89308821003429
 20
16.28608902879713
 30
0.0
 11
11.33308821003429
 21
16.28608902879713
 31
0.0
  0
LINE
  5
B7
330
17
100
AcDbEntity
  8
ADP1DETAIL
100
AcDbLine
 10
11.31308821003429
 20
17.40608902879713
 30
0.0
 11
10.89308821003429
 21
17.40608902879713
 31
0.0
  0
LINE
  5
B8
330
17
100
AcDbEntity
  8
ADP1DETAIL
100
AcDbLine
 10
11.69308821003429
 20
17.33275569546379
 30
0.0
 11
11.32642154336762
 21
17.33275569546379
 31
0.0
  0
LINE
  5
B9
330
17
100
AcDbEntity
  8
ADP1DETAIL
100
AcDbLine
 10
12.51975487670095
 20
16.28608902879713
 30
0.0
 11
12.51975487670095
 21
17.40608902879713
 31
0.0
  0
LINE
  5
BA
330
17
100
AcDbEntity
  8
ADP1DETAIL
100
AcDbLine
 10
12.07975487670095
 20
17.40608902879713
 30
0.0
 11
12.07975487670095
 21
16.46608902879713
 31
0.0
  0
LINE
  5
BB
330
17
100
AcDbEntity
  8
ADP1DETAIL
100
AcDbLine
 10
12.06642154336762
 20
16.28608902879713
 30
0.0
 11
12.51975487670095
 21
16.28608902879713
 31
0.0
  0
LINE
  5
BC
330
17
100
AcDbEntity
  8
ADP1DETAIL
100
AcDbLine
 10
12.51975487670095
 20
17.40608902879713
 30
0.0
 11
12.07975487670095
 21
17.40608902879713
 31
0.0
  0
LINE
  5
BD
330
17
100
AcDbEntity
  8
ADP1DETAIL
100
AcDbLine
 10
12.07975487670095
 20
17.40608902879713
 30
0.0
 11
12.07975487670095
 21
17.40608902879713
 31
0.0
  0
LINE
  5
BE
330
17
100
AcDbEntity
  8
ADP1DETAIL
100
AcDbLine
 10
11.76642154336763
 20
18.27942236213046
 30
0.0
 11
12.07308821003429
 21
18.27942236213046
 31
0.0
  0
DIMENSION
  5
BF
330
17
100
AcDbEntity
  8
ADPDIM
100
AcDbDimension
  2
*D7
 10
12.07308821003429
 20
18.48408669555945
 30
0.0
 11
11.68917002720336
 21
18.48408669555945
 31
0.0
 70
   160
 71
     5
 42
0.7533333333333303
  3
STANDARD
100
AcDbAlignedDimension
 13
11.31975487670096
 23
18.27942236213046
 33
0.0
 14
12.07308821003429
 24
18.27942236213046
 34
0.0
100
AcDbRotatedDimension
1001
ACAD
1000
DSTYLE
1002
{
1070
    41
1040
0.125
1070
    73
1070
     0
1070
    74
1070
     0
1070
    78
1070
     3
1070
   140
1040
0.125
1070
   141
1040
0.1875
1070
   142
1040
0.125
1070
   147
1040
0.125
1070
   171
1070
     1
1070
   273
1070
     5
1070
   274
1070
     1
1070
   277
1070
     5
1070
   279
1070
     2
1070
   284
1070
     3
1070
   285
1070
     3
1070
   286
1070
     3
1002
}
  0
LINE
  5
C0
330
17
100
AcDbEntity
  8
ADP1DETAIL
100
AcDbLine
 10
11.79308821003429
 20
18.15942236213046
 30
0.0
 11
11.76642154336763
 21
18.15942236213046
 31
0.0
  0
LINE
  5
C1
330
17
100
AcDbEntity
  8
ADP1DETAIL
100
AcDbLine
 10
11.76642154336763
 20
18.15942236213046
 30
0.0
 11
11.76642154336763
 21
18.27942236213046
 31
0.0
  0
LINE
  5
C2
330
17
100
AcDbEntity
  8
ADP1DETAIL
100
AcDbLine
 10
11.76642154336763
 20
18.27942236213046
 30
0.0
 11
11.76642154336763
 21
18.27942236213046
 31
0.0
  0
LINE
  5
C3
330
17
100
AcDbEntity
  8
ADP1DETAIL
100
AcDbLine
 10
11.31975487670096
 20
18.27942236213046
 30
0.0
 11
11.62642154336762
 21
18.27942236213046
 31
0.0
  0
LINE
  5
C4
330
17
100
AcDbEntity
  8
ADP1DETAIL
100
AcDbLine
 10
11.62642154336762
 20
18.27942236213046
 30
0.0
 11
11.62642154336762
 21
18.27942236213046
 31
0.0
  0
LINE
  5
C5
330
17
100
AcDbEntity
  8
ADP1DETAIL
100
AcDbLine
 10
11.62642154336762
 20
18.27942236213046
 30
0.0
 11
11.62642154336762
 21
18.15942236213046
 31
0.0
  0
LINE
  5
C6
330
17
100
AcDbEntity
  8
ADP1DETAIL
100
AcDbLine
 10
11.62642154336762
 20
18.15942236213046
 30
0.0
 11
11.59975487670096
 21
18.15942236213046
 31
0.0
  0
LINE
  5
C7
330
17
100
AcDbEntity
  8
ADP1DETAIL
100
AcDbLine
 10
11.59975487670096
 20
17.77942236213046
 30
0.0
 11
11.79308821003429
 21
17.77942236213046
 31
0.0
  0
LINE
  5
C8
330
17
100
AcDbEntity
  8
ADP1DETAIL
100
AcDbLine
 10
11.79308821003429
 20
17.77942236213046
 30
0.0
 11
11.79308821003429
 21
18.15942236213046
 31
0.0
  0
LINE
  5
C9
330
17
100
AcDbEntity
  8
ADP1DETAIL
100
AcDbLine
 10
11.59975487670096
 20
18.15942236213046
 30
0.0
 11
11.59975487670096
 21
17.77942236213046
 31
0.0
  0
TEXT
  5
D3
330
17
100
AcDbEntity
  8
ADPDIM
100
AcDbText
 10
4.481094964237088
 20
13.95517860424068
 30
0.0
 40
0.125
  1
J U L I U S  B L U M  &  C O . ,  I N C .      ( 8 0 0 )  5 2 6 - 6 2 9 3        W W W . J U L I U S B L U M . C O M        P A R T  N O .  1 5 2
 41
1.25
  7
ARIAL_WIDE
 72
     1
 11
10.93999673777051
 21
14.08017860424069
 31
0.0
100
AcDbText
 73
     3
  0
DIMENSION
  5
297
330
17
100
AcDbEntity
  8
ADPDIM
100
AcDbDimension
  2
*D11
 10
9.404745251335494
 20
15.04816697118723
 30
0.0
 11
9.757723916732867
 21
15.04816697118723
 31
0.0
 70
   160
 71
     5
 42
0.7466666666666662
  3
STANDARD
100
AcDbAlignedDimension
 13
10.15141191800216
 23
14.82114178448165
 33
0.0
 14
9.404745251335494
 24
14.82114178448165
 34
0.0
100
AcDbRotatedDimension
1001
ACAD
1000
DSTYLE
1002
{
1070
    41
1040
0.125
1070
    73
1070
     0
1070
    74
1070
     0
1070
    78
1070
     3
1070
   140
1040
0.125
1070
   141
1040
0.1875
1070
   142
1040
0.125
1070
   147
1040
0.125
1070
   171
1070
     1
1070
   273
1070
     5
1070
   274
1070
     1
1070
   277
1070
     5
1070
   279
1070
     2
1070
   284
1070
     3
1070
   285
1070
     3
1070
   286
1070
     3
1002
}
  0
ENDSEC
  0
SECTION
  2
OBJECTS
  0
DICTIONARY
  5
C
330
0
100
AcDbDictionary
281
     1
  3
ACAD_COLOR
350
204
  3
ACAD_GROUP
350
D
  3
ACAD_LAYOUT
350
D8
  3
ACAD_MATERIAL
350
1EF
  3
ACAD_MLINESTYLE
350
1A
  3
ACAD_PLOTSETTINGS
350
D9
  3
ACAD_PLOTSTYLENAME
350
D6
  3
ACAD_TABLESTYLE
350
205
  3
ACAD_VISUALSTYLE
350
1F3
  3
ACDBVARIABLEDICTIONARY
350
2B
  3
ASE_INDEX_DICTIONARY
350
2BA
  3
DWGPROPS
350
2DB
  0
DICTIONARY
  5
105
330
17
100
AcDbDictionary
280
     1
281
     1
  3
ACAD_LAYOUTSELFREF
360
1E9
  0
DICTIONARY
  5
103
330
14
100
AcDbDictionary
280
     1
281
     1
  3
ACAD_LAYOUTSELFREF
360
1E8
  0
DICTIONARY
  5
204
102
{ACAD_REACTORS
330
C
102
}
330
C
100
AcDbDictionary
281
     1
  0
DICTIONARY
  5
D
102
{ACAD_REACTORS
330
C
102
}
330
C
100
AcDbDictionary
281
     1
  0
DICTIONARY
  5
D8
102
{ACAD_REACTORS
330
C
102
}
330
C
100
AcDbDictionary
281
     1
  3
Layout1
350
DB
  3
Model
350
DA
  0
DICTIONARY
  5
1EF
102
{ACAD_REACTORS
330
C
102
}
330
C
100
AcDbDictionary
281
     1
  3
ByBlock
350
1F1
  3
ByLayer
350
1F0
  3
Global
350
1F2
  0
DICTIONARY
  5
1A
102
{ACAD_REACTORS
330
C
102
}
330
C
100
AcDbDictionary
281
     1
  3
STANDARD
350
1B
  0
DICTIONARY
  5
D9
102
{ACAD_REACTORS
330
C
102
}
330
C
100
AcDbDictionary
281
     1
  0
ACDBDICTIONARYWDFLT
  5
D6
102
{ACAD_REACTORS
330
C
102
}
330
C
100
AcDbDictionary
281
     1
  3
Normal
350
D7
100
AcDbDictionaryWithDefault
340
D7
  0
DICTIONARY
  5
205
102
{ACAD_REACTORS
330
C
102
}
330
C
100
AcDbDictionary
281
     1
  3
Standard
350
206
  0
DICTIONARY
  5
1F3
102
{ACAD_REACTORS
330
C
102
}
330
C
100
AcDbDictionary
281
     1
  3
2dWireframe
350
1F9
  3
3D Hidden
350
1FB
  3
3dWireframe
350
1FA
  3
Basic
350
1F8
  3
Brighten
350
1FF
  3
ColorChange
350
203
  3
Conceptual
350
1FC
  3
Dim
350
1FE
  3
Facepattern
350
202
  3
Flat
350
1F4
  3
FlatWithEdges
350
1F5
  3
Gouraud
350
1F6
  3
GouraudWithEdges
350
1F7
  3
Linepattern
350
201
  3
Realistic
350
1FD
  3
Thicken
350
200
  0
DICTIONARY
  5
2B
102
{ACAD_REACTORS
330
C
102
}
330
C
100
AcDbDictionary
281
     1
  3
CTABLESTYLE
350
2D8
  3
DIMADEC
350
2C
  3
DIMASSOC
350
10B
  3
INDEXCTL
350
2DA
  3
SORTENTS
350
2D9
  0
DICTIONARY
  5
2BA
102
{ACAD_REACTORS
330
C
102
}
330
C
100
AcDbDictionary
281
     1
  3
ASEBlockHierarchyIndexRecord
350
2BB
1001
DCO15
1040
1567448045.902
  0
XRECORD
  5
2DB
102
{ACAD_REACTORS
330
C
102
}
330
C
100
AcDbXrecord
280
     1
  1
DWGPROPS COOKIE
  2

  3

  4

  6

  7

  8
Yu Hu
  9

300
=
301
=
302
=
303
=
304
=
305
=
306
=
307
=
308
=
309
=
 40
0.0109181481481482
 41
2450375.453444248
 42
2453944.971642384
  1

 90
        0
  0
XRECORD
  5
1E9
102
{ACAD_REACTORS
330
105
102
}
330
105
100
AcDbXrecord
280
     1
340
17
  0
XRECORD
  5
1E8
102
{ACAD_REACTORS
330
103
102
}
330
103
100
AcDbXrecord
280
     1
340
14
  0
LAYOUT
  5
DB
102
{ACAD_XDICTIONARY
360
2DE
102
}
102
{ACAD_REACTORS
330
D8
102
}
330
D8
100
AcDbPlotSettings
  1

  2
Fax
  4

  6

 40
0.0
 41
0.0
 42
0.0
 43
0.0
 44
0.0
 45
0.0
 46
0.0
 47
0.0
 48
0.0
 49
0.0
140
0.0
141
0.0
142
1.0
143
1.0
 70
   688
 72
     0
 73
     0
 74
     5
  7
Default R14 pen assignments.ctb
 75
    16
147
1.0
148
0.0
149
0.0
100
AcDbLayout
  1
Layout1
 70
     1
 71
     1
 10
0.0
 20
0.0
 11
12.0
 21
9.0
 12
6.111119585016845E+90
 22
8.346071047958366E+93
 32
0.0
 14
1.000000000000000E+20
 24
1.000000000000000E+20
 34
1.000000000000000E+20
 15
-1.000000000000000E+20
 25
-1.000000000000000E+20
 35
-1.000000000000000E+20
146
0.0
 13
0.0
 23
0.0
 33
0.0
 16
1.0
 26
0.0
 36
0.0
 17
0.0
 27
1.0
 37
0.0
 76
     0
330
14
  0
LAYOUT
  5
DA
102
{ACAD_XDICTIONARY
360
2DC
102
}
102
{ACAD_REACTORS
330
D8
102
}
330
D8
100
AcDbPlotSettings
  1

  2
Fax
  4

  6

 40
0.0
 41
0.0
 42
0.0
 43
0.0
 44
0.0
 45
0.0
 46
0.0
 47
0.0
 48
0.0
 49
0.0
140
0.0
141
0.0
142
1.0
143
1.0
 70
  1712
 72
     0
 73
     0
 74
     0
  7
Default R14 pen assignments.ctb
 75
     0
147
1.0
148
0.0
149
0.0
100
AcDbLayout
  1
Model
 70
     1
 71
     0
 10
0.0
 20
0.0
 11
12.0
 21
9.0
 12
0.0
 22
0.0
 32
0.0
 14
0.0
 24
0.0
 34
0.0
 15
0.0
 25
0.0
 35
0.0
146
0.0
 13
0.0
 23
0.0
 33
0.0
 16
1.0
 26
0.0
 36
0.0
 17
0.0
 27
1.0
 37
0.0
 76
     0
330
17
331
1C4
  0
MATERIAL
  5
1F1
102
{ACAD_XDICTIONARY
360
2E2
102
}
102
{ACAD_REACTORS
330
1EF
102
}
330
1EF
100
AcDbMaterial
  1
ByBlock
  0
MATERIAL
  5
1F0
102
{ACAD_XDICTIONARY
360
2E0
102
}
102
{ACAD_REACTORS
330
1EF
102
}
330
1EF
100
AcDbMaterial
  1
ByLayer
  0
MATERIAL
  5
1F2
102
{ACAD_XDICTIONARY
360
2E4
102
}
102
{ACAD_REACTORS
330
1EF
102
}
330
1EF
100
AcDbMaterial
  1
Global
  0
MLINESTYLE
  5
1B
102
{ACAD_REACTORS
330
1A
102
}
330
1A
100
AcDbMlineStyle
  2
STANDARD
 70
     0
  3

 62
   256
 51
90.0
 52
90.0
 71
     2
 49
0.5
 62
   256
  6
BYLAYER
 49
-0.5
 62
   256
  6
BYLAYER
  0
ACDBPLACEHOLDER
  5
D7
102
{ACAD_REACTORS
330
D6
102
}
330
D6
  0
TABLESTYLE
  5
206
102
{ACAD_XDICTIONARY
360
2E6
102
}
102
{ACAD_REACTORS
330
205
102
}
330
205
100
AcDbTableStyle
  3
Standard
 70
     0
 71
     0
 40
0.06
 41
0.06
280
     0
281
     0
  7
STANDARD
140
0.18
170
     2
 62
     0
 63
     7
283
     0
274
    -2
284
     1
 64
     0
275
    -2
285
     1
 65
     0
276
    -2
286
     1
 66
     0
277
    -2
287
     1
 67
     0
278
    -2
288
     1
 68
     0
279
    -2
289
     1
 69
     0
  7
STANDARD
140
0.25
170
     5
 62
     0
 63
     7
283
     0
274
    -2
284
     1
 64
     0
275
    -2
285
     1
 65
     0
276
    -2
286
     1
 66
     0
277
    -2
287
     1
 67
     0
278
    -2
288
     1
 68
     0
279
    -2
289
     1
 69
     0
  7
STANDARD
140
0.18
170
     5
 62
     0
 63
     7
283
     0
274
    -2
284
     1
 64
     0
275
    -2
285
     1
 65
     0
276
    -2
286
     1
 66
     0
277
    -2
287
     1
 67
     0
278
    -2
288
     1
 68
     0
279
    -2
289
     1
 69
     0
  0
VISUALSTYLE
  5
1F9
102
{ACAD_REACTORS
330
1F3
102
}
330
1F3
100
AcDbVisualStyle
  2
2dWireframe
 70
     4
 71
     0
 72
     2
 73
     0
 90
        0
 40
-0.6
 41
-30.0
 62
     5
 63
     7
 74
     1
 91
        4
 64
     7
 65
   257
 75
     1
175
     1
 42
1.0
 92
        0
 66
   257
 43
1.0
 76
     1
 77
     6
 78
     2
 67
     7
 79
     5
170
     0
171
     0
290
     0
174
     0
 93
        1
 44
0.0
173
     0
291
     0
 45
0.0
1001
ACAD
1000
AcDbSavedByObjectVersion
1070
     0
  0
VISUALSTYLE
  5
1FB
102
{ACAD_REACTORS
330
1F3
102
}
330
1F3
100
AcDbVisualStyle
  2
3D Hidden
 70
     6
 71
     1
 72
     2
 73
     2
 90
        0
 40
-0.6
 41
-30.0
 62
     5
 63
     7
 74
     2
 91
        2
 64
     7
 65
   257
 75
     2
175
     1
 42
40.0
 92
        0
 66
   257
 43
1.0
 76
     1
 77
     6
 78
     2
 67
     7
 79
     3
170
     0
171
     0
290
     0
174
     0
 93
        1
 44
0.0
173
     0
291
     0
 45
0.0
1001
ACAD
1000
AcDbSavedByObjectVersion
1070
     0
  0
VISUALSTYLE
  5
1FA
102
{ACAD_REACTORS
330
1F3
102
}
330
1F3
100
AcDbVisualStyle
  2
3dWireframe
 70
     5
 71
     0
 72
     2
 73
     0
 90
        0
 40
-0.6
 41
-30.0
 62
     5
 63
     7
 74
     1
 91
        4
 64
     7
 65
   257
 75
     1
175
     1
 42
1.0
 92
        0
 66
   257
 43
1.0
 76
     1
 77
     6
 78
     2
 67
     7
 79
     5
170
     0
171
     0
290
     0
174
     0
 93
        1
 44
0.0
173
     0
291
     0
 45
0.0
1001
ACAD
1000
AcDbSavedByObjectVersion
1070
     0
  0
VISUALSTYLE
  5
1F8
102
{ACAD_REACTORS
330
1F3
102
}
330
1F3
100
AcDbVisualStyle
  2
Basic
 70
     7
 71
     1
 72
     0
 73
     1
 90
        0
 40
-0.6
 41
-30.0
 62
     5
 63
     7
 74
     0
 91
        4
 64
     7
 65
   257
 75
     1
175
     1
 42
1.0
 92
        8
 66
     7
 43
1.0
 76
     1
 77
     6
 78
     2
 67
     7
 79
     5
170
     0
171
     0
290
     0
174
     0
 93
        1
 44
0.0
173
     0
291
     1
 45
0.0
1001
ACAD
1000
AcDbSavedByObjectVersion
1070
     0
  0
VISUALSTYLE
  5
1FF
102
{ACAD_REACTORS
330
1F3
102
}
330
1F3
100
AcDbVisualStyle
  2
Brighten
 70
    12
 71
     2
 72
     2
 73
     0
 90
        0
 40
-0.6
 41
-30.0
 62
     5
 63
     7
 74
     1
 91
        4
 64
     7
 65
   257
 75
     1
175
     1
 42
1.0
 92
        8
 66
     7
 43
1.0
 76
     1
 77
     6
 78
     2
 67
     7
 79
     5
170
     0
171
     0
290
     0
174
     0
 93
        1
 44
50.0
173
     0
291
     1
 45
0.0
1001
ACAD
1000
AcDbSavedByObjectVersion
1070
     0
  0
VISUALSTYLE
  5
203
102
{ACAD_REACTORS
330
1F3
102
}
330
1F3
100
AcDbVisualStyle
  2
ColorChange
 70
    16
 71
     2
 72
     2
 73
     3
 90
        0
 40
-0.6
 41
-30.0
 62
     5
 63
     8
 74
     1
 91
        4
 64
     7
 65
   257
 75
     1
175
     1
 42
1.0
 92
        8
 66
     8
 43
1.0
 76
     1
 77
     6
 78
     2
 67
     7
 79
     5
170
     0
171
     0
290
     0
174
     0
 93
        1
 44
0.0
173
     0
291
     1
 45
0.0
1001
ACAD
1000
AcDbSavedByObjectVersion
1070
     0
  0
VISUALSTYLE
  5
1FC
102
{ACAD_REACTORS
330
1F3
102
}
330
1F3
100
AcDbVisualStyle
  2
Conceptual
 70
     9
 71
     3
 72
     2
 73
     0
 90
        0
 40
-0.6
 41
-30.0
 62
     5
 63
     7
 74
     2
 91
        2
 64
     7
 65
   257
 75
     1
175
     1
 42
40.0
 92
        8
 66
     7
 43
1.0
 76
     1
 77
     6
 78
     2
 67
     7
 79
     3
170
     0
171
     0
290
     0
174
     0
 93
        1
 44
0.0
173
     0
291
     0
 45
0.0
1001
ACAD
1000
AcDbSavedByObjectVersion
1070
     0
  0
VISUALSTYLE
  5
1FE
102
{ACAD_REACTORS
330
1F3
102
}
330
1F3
100
AcDbVisualStyle
  2
Dim
 70
    11
 71
     2
 72
     2
 73
     0
 90
        0
 40
-0.6
 41
-30.0
 62
     5
 63
     7
 74
     1
 91
        4
 64
     7
 65
   257
 75
     1
175
     1
 42
1.0
 92
        8
 66
     7
 43
1.0
 76
     1
 77
     6
 78
     2
 67
     7
 79
     5
170
     0
171
     0
290
     0
174
     0
 93
        1
 44
-50.0
173
     0
291
     1
 45
0.0
1001
ACAD
1000
AcDbSavedByObjectVersion
1070
     0
  0
VISUALSTYLE
  5
202
102
{ACAD_REACTORS
330
1F3
102
}
330
1F3
100
AcDbVisualStyle
  2
Facepattern
 70
    15
 71
     2
 72
     2
 73
     0
 90
        0
 40
-0.6
 41
-30.0
 62
     5
 63
     7
 74
     1
 91
        4
 64
     7
 65
   257
 75
     1
175
     1
 42
1.0
 92
        8
 66
     7
 43
1.0
 76
     1
 77
     6
 78
     2
 67
     7
 79
     5
170
     0
171
     0
290
     0
174
     0
 93
        1
 44
0.0
173
     0
291
     1
 45
0.0
1001
ACAD
1000
AcDbSavedByObjectVersion
1070
     0
  0
VISUALSTYLE
  5
1F4
102
{ACAD_REACTORS
330
1F3
102
}
330
1F3
100
AcDbVisualStyle
  2
Flat
 70
     0
 71
     2
 72
     1
 73
     1
 90
        2
 40
-0.6
 41
30.0
 62
     5
 63
     7
 74
     0
 91
        4
 64
     7
 65
   257
 75
     1
175
     1
 42
1.0
 92
        8
 66
     7
 43
1.0
 76
     1
 77
     6
 78
     2
 67
     7
 79
     5
170
     0
171
     0
290
     0
174
     0
 93
       13
 44
0.0
173
     0
291
     1
 45
0.0
1001
ACAD
1000
AcDbSavedByObjectVersion
1070
     0
  0
VISUALSTYLE
  5
1F5
102
{ACAD_REACTORS
330
1F3
102
}
330
1F3
100
AcDbVisualStyle
  2
FlatWithEdges
 70
     1
 71
     2
 72
     1
 73
     1
 90
        2
 40
-0.6
 41
30.0
 62
     5
 63
     7
 74
     1
 91
        4
 64
     7
 65
   257
 75
     1
175
     1
 42
1.0
 92
        0
 66
   257
 43
1.0
 76
     1
 77
     6
 78
     2
 67
     7
 79
     5
170
     0
171
     0
290
     0
174
     0
 93
       13
 44
0.0
173
     0
291
     1
 45
0.0
1001
ACAD
1000
AcDbSavedByObjectVersion
1070
     0
  0
VISUALSTYLE
  5
1F6
102
{ACAD_REACTORS
330
1F3
102
}
330
1F3
100
AcDbVisualStyle
  2
Gouraud
 70
     2
 71
     2
 72
     2
 73
     1
 90
        2
 40
-0.6
 41
30.0
 62
     5
 63
     7
 74
     0
 91
        4
 64
     7
 65
   257
 75
     1
175
     1
 42
1.0
 92
        0
 66
     7
 43
1.0
 76
     1
 77
     6
 78
     2
 67
     7
 79
     5
170
     0
171
     0
290
     0
174
     0
 93
       13
 44
0.0
173
     0
291
     1
 45
0.0
1001
ACAD
1000
AcDbSavedByObjectVersion
1070
     0
  0
VISUALSTYLE
  5
1F7
102
{ACAD_REACTORS
330
1F3
102
}
330
1F3
100
AcDbVisualStyle
  2
GouraudWithEdges
 70
     3
 71
     2
 72
     2
 73
     1
 90
        2
 40
-0.6
 41
30.0
 62
     5
 63
     7
 74
     1
 91
        4
 64
     7
 65
   257
 75
     1
175
     1
 42
1.0
 92
        0
 66
   257
 43
1.0
 76
     1
 77
     6
 78
     2
 67
     7
 79
     5
170
     0
171
     0
290
     0
174
     0
 93
       13
 44
0.0
173
     0
291
     1
 45
0.0
1001
ACAD
1000
AcDbSavedByObjectVersion
1070
     0
  0
VISUALSTYLE
  5
201
102
{ACAD_REACTORS
330
1F3
102
}
330
1F3
100
AcDbVisualStyle
  2
Linepattern
 70
    14
 71
     2
 72
     2
 73
     0
 90
        0
 40
-0.6
 41
-30.0
 62
     5
 63
     7
 74
     1
 91
        4
 64
     7
 65
   257
 75
     7
175
     7
 42
1.0
 92
        8
 66
     7
 43
1.0
 76
     1
 77
     6
 78
     2
 67
     7
 79
     5
170
     0
171
     0
290
     0
174
     0
 93
        1
 44
0.0
173
     0
291
     1
 45
0.0
1001
ACAD
1000
AcDbSavedByObjectVersion
1070
     0
  0
VISUALSTYLE
  5
1FD
102
{ACAD_REACTORS
330
1F3
102
}
330
1F3
100
AcDbVisualStyle
  2
Realistic
 70
     8
 71
     2
 72
     2
 73
     0
 90
        0
 40
-0.6
 41
-30.0
 62
     5
 63
     7
 74
     1
 91
        0
 64
     7
 65
   257
 75
     1
175
     1
 42
1.0
 92
        8
 66
     8
 43
1.0
 76
     1
 77
     6
 78
     2
 67
     7
 79
     5
170
     0
171
     0
290
     0
174
     0
 93
       13
 44
0.0
173
     0
291
     0
 45
0.0
1001
ACAD
1000
AcDbSavedByObjectVersion
1070
     0
  0
VISUALSTYLE
  5
200
102
{ACAD_REACTORS
330
1F3
102
}
330
1F3
100
AcDbVisualStyle
  2
Thicken
 70
    13
 71
     2
 72
     2
 73
     0
 90
        0
 40
-0.6
 41
-30.0
 62
     5
 63
     7
 74
     1
 91
        4
 64
     7
 65
   257
 75
     1
175
     1
 42
1.0
 92
       12
 66
     7
 43
1.0
 76
     1
 77
     6
 78
     2
 67
     7
 79
     5
170
     0
171
     0
290
     0
174
     0
 93
        1
 44
0.0
173
     0
291
     1
 45
0.0
1001
ACAD
1000
AcDbSavedByObjectVersion
1070
     0
  0
DICTIONARYVAR
  5
2D8
102
{ACAD_REACTORS
330
2B
102
}
330
2B
100
DictionaryVariables
280
     0
  1
STANDARD
  0
DICTIONARYVAR
  5
2C
102
{ACAD_REACTORS
330
2B
102
}
330
2B
100
DictionaryVariables
280
     0
  1
0
  0
DICTIONARYVAR
  5
10B
102
{ACAD_REACTORS
330
2B
102
}
330
2B
100
DictionaryVariables
280
     0
  1
1
  0
DICTIONARYVAR
  5
2DA
102
{ACAD_REACTORS
330
2B
102
}
330
2B
100
DictionaryVariables
280
     0
  1
0
  0
DICTIONARYVAR
  5
2D9
102
{ACAD_REACTORS
330
2B
102
}
330
2B
100
DictionaryVariables
280
     0
  1
127
  0
XRECORD
  5
2BB
102
{ACAD_REACTORS
330
2BA
102
}
330
2BA
100
AcDbXrecord
280
     1
  0
DICTIONARY
  5
2DE
330
DB
100
AcDbDictionary
280
     1
281
     1
  3
ACAD_XREC_ROUNDTRIP
360
2DF
  0
DICTIONARY
  5
2DC
330
DA
100
AcDbDictionary
280
     1
281
     1
  3
ACAD_XREC_ROUNDTRIP
360
2DD
  0
DICTIONARY
  5
2E2
330
1F1
100
AcDbDictionary
280
     1
281
     1
  3
ACAD_XREC_ROUNDTRIP
360
2E3
  0
DICTIONARY
  5
2E0
330
1F0
100
AcDbDictionary
280
     1
281
     1
  3
ACAD_XREC_ROUNDTRIP
360
2E1
  0
DICTIONARY
  5
2E4
330
1F2
100
AcDbDictionary
280
     1
281
     1
  3
ACAD_XREC_ROUNDTRIP
360
2E5
  0
DICTIONARY
  5
2E6
330
206
100
AcDbDictionary
280
     1
281
     1
  3
ACAD_XREC_ROUNDTRIP
360
2E7
  0
XRECORD
  5
2DF
102
{ACAD_REACTORS
330
2DE
102
}
330
2DE
100
AcDbXrecord
280
     1
102
SHADEPLOT
 70
     0
102
SHADEPLOTRESLEVEL
 70
     2
102
SHADEPLOTCUSTOMDPI
 70
   300
  0
XRECORD
  5
2DD
102
{ACAD_REACTORS
330
2DC
102
}
330
2DC
100
AcDbXrecord
280
     1
102
SHADEPLOT
 70
     0
102
SHADEPLOTRESLEVEL
 70
     2
102
SHADEPLOTCUSTOMDPI
 70
   300
  0
XRECORD
  5
2E3
102
{ACAD_REACTORS
330
2E2
102
}
330
2E2
100
AcDbXrecord
280
     1
102
MATERIAL
148
0.0
149
0.0
149
0.0
 93
        0
 94
       63
282
     0
 72
     1
 77
     1
171
     1
175
     1
179
     1
273
     0
  0
XRECORD
  5
2E1
102
{ACAD_REACTORS
330
2E0
102
}
330
2E0
100
AcDbXrecord
280
     1
102
MATERIAL
148
0.0
149
0.0
149
0.0
 93
        0
 94
       63
282
     0
 72
     1
 77
     1
171
     1
175
     1
179
     1
273
     0
  0
XRECORD
  5
2E5
102
{ACAD_REACTORS
330
2E4
102
}
330
2E4
100
AcDbXrecord
280
     1
102
MATERIAL
148
0.0
149
0.0
149
0.0
 93
        0
 94
       63
282
     0
 72
     1
 77
     1
171
     1
175
     1
179
     1
273
     0
  0
XRECORD
  5
2E7
102
{ACAD_REACTORS
330
2E6
102
}
330
2E6
100
AcDbXrecord
280
     1
102
ACAD_ROUNDTRIP_PRE2007_TABLESTYLE
 90
      512
 91
        0
  1

 92
      512
 93
        0
  2

 94
      512
 95
        0
  3

  0
ENDSEC
  0
EOF
