  0
SECTION
  2
HEADER
  9
$ACADVER
  1
AC1014
  9
$ACADMAINTVER
 70
     9
  9
$DWGCODEPAGE
  3
ANSI_1252
  9
$INSBASE
 10
16.39881243503102
 20
0.2366197183098585
 30
0.0
  9
$EXTMIN
 10
11.16509990962308
 20
-12.42547403493551
 30
0.0
  9
$EXTMAX
 10
31.39665047237889
 20
-0.2689270711662093
 30
0.0
  9
$LIMMIN
 10
0.0
 20
0.0
  9
$LIMMAX
 10
36.0
 20
36.0
  9
$ORTHOMODE
 70
     1
  9
$REGENMODE
 70
     1
  9
$FILLMODE
 70
     1
  9
$QTEXTMODE
 70
     0
  9
$MIRRTEXT
 70
     1
  9
$DRAGMODE
 70
     0
  9
$LTSCALE
 40
1.0
  9
$OSMODE
 70
    37
  9
$ATTMODE
 70
     1
  9
$TEXTSIZE
 40
0.2
  9
$TRACEWID
 40
0.05
  9
$TEXTSTYLE
  7
STANDARD
  9
$CLAYER
  8
ADPDIM
  9
$CELTYPE
  6
BYLAYER
  9
$CECOLOR
 62
   256
  9
$CELTSCALE
 40
1.0
  9
$DELOBJ
 70
     1
  9
$DISPSILH
 70
     0
  9
$DIMSCALE
 40
1.0
  9
$DIMASZ
 40
0.125
  9
$DIMEXO
 40
0.0625
  9
$DIMDLI
 40
0.38
  9
$DIMRND
 40
0.0
  9
$DIMDLE
 40
0.0
  9
$DIMEXE
 40
0.18
  9
$DIMTP
 40
0.0
  9
$DIMTM
 40
0.0
  9
$DIMTXT
 40
0.125
  9
$DIMCEN
 40
0.1875
  9
$DIMTSZ
 40
0.125
  9
$DIMTOL
 70
     0
  9
$DIMLIM
 70
     0
  9
$DIMTIH
 70
     0
  9
$DIMTOH
 70
     0
  9
$DIMSE1
 70
     0
  9
$DIMSE2
 70
     0
  9
$DIMTAD
 70
     0
  9
$DIMZIN
 70
     3
  9
$DIMBLK
  1

  9
$DIMASO
 70
     1
  9
$DIMSHO
 70
     1
  9
$DIMPOST
  1

  9
$DIMAPOST
  1

  9
$DIMALT
 70
     0
  9
$DIMALTD
 70
     1
  9
$DIMALTF
 40
25.4
  9
$DIMLFAC
 40
1.0
  9
$DIMTOFL
 70
     0
  9
$DIMTVP
 40
0.0
  9
$DIMTIX
 70
     0
  9
$DIMSOXD
 70
     0
  9
$DIMSAH
 70
     0
  9
$DIMBLK1
  1

  9
$DIMBLK2
  1

  9
$DIMSTYLE
  2
STANDARD
  9
$DIMCLRD
 70
     0
  9
$DIMCLRE
 70
     0
  9
$DIMCLRT
 70
     0
  9
$DIMTFAC
 40
1.0
  9
$DIMGAP
 40
0.125
  9
$DIMJUST
 70
     0
  9
$DIMSD1
 70
     0
  9
$DIMSD2
 70
     0
  9
$DIMTOLJ
 70
     1
  9
$DIMTZIN
 70
     3
  9
$DIMALTZ
 70
     3
  9
$DIMALTTZ
 70
     3
  9
$DIMFIT
 70
     5
  9
$DIMUPT
 70
     0
  9
$DIMUNIT
 70
     5
  9
$DIMDEC
 70
     4
  9
$DIMTDEC
 70
     4
  9
$DIMALTU
 70
     5
  9
$DIMALTTD
 70
     1
  9
$DIMTXSTY
  7
STANDARD
  9
$DIMAUNIT
 70
     0
  9
$LUNITS
 70
     5
  9
$LUPREC
 70
     4
  9
$SKETCHINC
 40
0.1
  9
$FILLETRAD
 40
0.0
  9
$AUNITS
 70
     0
  9
$AUPREC
 70
     0
  9
$MENU
  1
acad
  9
$ELEVATION
 40
0.0
  9
$PELEVATION
 40
0.0
  9
$THICKNESS
 40
0.0
  9
$LIMCHECK
 70
     0
  9
$BLIPMODE
 70
     0
  9
$CHAMFERA
 40
0.0
  9
$CHAMFERB
 40
0.0
  9
$CHAMFERC
 40
0.0
  9
$CHAMFERD
 40
0.0
  9
$SKPOLY
 70
     0
  9
$TDCREATE
 40
2450406.452273912
  9
$TDUPDATE
 40
2452297.064043692
  9
$TDINDWG
 40
0.0095121412
  9
$TDUSRTIMER
 40
0.0095121412
  9
$USRTIMER
 70
     1
  9
$ANGBASE
 50
0.0
  9
$ANGDIR
 70
     0
  9
$PDMODE
 70
     0
  9
$PDSIZE
 40
0.0
  9
$PLINEWID
 40
0.0
  9
$COORDS
 70
     2
  9
$SPLFRAME
 70
     0
  9
$SPLINETYPE
 70
     6
  9
$SPLINESEGS
 70
     8
  9
$ATTDIA
 70
     0
  9
$ATTREQ
 70
     1
  9
$HANDLING
 70
 22529
  9
$HANDSEED
  5
18D
  9
$SURFTAB1
 70
     6
  9
$SURFTAB2
 70
     6
  9
$SURFTYPE
 70
     6
  9
$SURFU
 70
     6
  9
$SURFV
 70
     6
  9
$UCSNAME
  2

  9
$UCSORG
 10
0.0
 20
0.0
 30
0.0
  9
$UCSXDIR
 10
1.0
 20
0.0
 30
0.0
  9
$UCSYDIR
 10
0.0
 20
1.0
 30
0.0
  9
$PUCSNAME
  2

  9
$PUCSORG
 10
0.0
 20
0.0
 30
0.0
  9
$PUCSXDIR
 10
1.0
 20
0.0
 30
0.0
  9
$PUCSYDIR
 10
0.0
 20
1.0
 30
0.0
  9
$USERI1
 70
     0
  9
$USERI2
 70
     0
  9
$USERI3
 70
     0
  9
$USERI4
 70
     0
  9
$USERI5
 70
     0
  9
$USERR1
 40
0.0
  9
$USERR2
 40
0.0
  9
$USERR3
 40
0.0
  9
$USERR4
 40
0.0
  9
$USERR5
 40
0.0
  9
$WORLDVIEW
 70
     1
  9
$SHADEDGE
 70
     3
  9
$SHADEDIF
 70
    70
  9
$TILEMODE
 70
     1
  9
$MAXACTVP
 70
    15
  9
$PINSBASE
 10
0.1250045299530032
 20
0.0
 30
0.0
  9
$PLIMCHECK
 70
     0
  9
$PEXTMIN
 10
1.000000000000000E+20
 20
1.000000000000000E+20
 30
1.000000000000000E+20
  9
$PEXTMAX
 10
-1.000000000000000E+20
 20
-1.000000000000000E+20
 30
-1.000000000000000E+20
  9
$PLIMMIN
 10
0.0
 20
0.0
  9
$PLIMMAX
 10
12.0
 20
9.0
  9
$UNITMODE
 70
     0
  9
$VISRETAIN
 70
     0
  9
$PLINEGEN
 70
     0
  9
$PSLTSCALE
 70
     1
  9
$TREEDEPTH
 70
  3020
  9
$PICKSTYLE
 70
     1
  9
$CMLSTYLE
  2
STANDARD
  9
$CMLJUST
 70
     0
  9
$CMLSCALE
 40
1.0
  9
$PROXYGRAPHICS
 70
     1
  9
$MEASUREMENT
 70
     0
  0
ENDSEC
  0
SECTION
  2
CLASSES
  0
CLASS
  1
DICTIONARYVAR
  2
AcDbDictionaryVar
  3
AutoCAD 2000
 90
        0
280
     0
281
     0
  0
CLASS
  1
LWPOLYLINE
  2
AcDbPolyline
  3
AutoCAD 2000
 90
        0
280
     0
281
     1
  0
CLASS
  1
ACDBDICTIONARYWDFLT
  2
AcDbDictionaryWithDefault
  3
AutoCAD 2000
 90
        0
280
     0
281
     0
  0
CLASS
  1
ACDBPLACEHOLDER
  2
AcDbPlaceHolder
  3
AutoCAD 2000
 90
        0
280
     0
281
     0
  0
CLASS
  1
LAYOUT
  2
AcDbLayout
  3
AutoCAD 2000
 90
        0
280
     0
281
     0
  0
CLASS
  1
LONG_TRANSACTION
  2
AcDbLongTransaction
  3
AutoCAD 2000
 90
        0
280
     0
281
     0
  0
CLASS
  1
LWPOLYLINE
  2
AcDbPolyline
  3
AutoCAD 2000
 90
        0
280
     0
281
     1
  0
CLASS
  1
HATCH
  2
AcDbHatch
  3
AutoCAD 2000
 90
        0
280
     0
281
     1
  0
CLASS
  1
XRECORD
  2
AcDbXrecord
  3
AutoCAD 2000
 90
        0
280
     0
281
     0
  0
CLASS
  1
LONG_TRANSACTION
  2
AcDbLongTransaction
  3
AutoCAD 2000
 90
        0
280
     0
281
     0
  0
CLASS
  1
LWPOLYLINE
  2
AcDbPolyline
  3
AutoCAD 2000
 90
        0
280
     0
281
     1
  0
CLASS
  1
HATCH
  2
AcDbHatch
  3
AutoCAD 2000
 90
        0
280
     0
281
     1
  0
CLASS
  1
XRECORD
  2
AcDbXrecord
  3
AutoCAD 2000
 90
        0
280
     0
281
     0
  0
CLASS
  1
LONG_TRANSACTION
  2
AcDbLongTransaction
  3
AutoCAD 2000
 90
        0
280
     0
281
     0
  0
CLASS
  1
LWPOLYLINE
  2
AcDbPolyline
  3
AutoCAD 2000
 90
        0
280
     0
281
     1
  0
CLASS
  1
HATCH
  2
AcDbHatch
  3
AutoCAD 2000
 90
        0
280
     0
281
     1
  0
CLASS
  1
XRECORD
  2
AcDbXrecord
  3
AutoCAD 2000
 90
        0
280
     0
281
     0
  0
CLASS
  1
LONG_TRANSACTION
  2
AcDbLongTransaction
  3
AutoCAD 2000
 90
        0
280
     0
281
     0
  0
CLASS
  1
LWPOLYLINE
  2
AcDbPolyline
  3
AutoCAD 2000
 90
        0
280
     0
281
     1
  0
CLASS
  1
HATCH
  2
AcDbHatch
  3
AutoCAD 2000
 90
        0
280
     0
281
     1
  0
CLASS
  1
XRECORD
  2
AcDbXrecord
  3
AutoCAD 2000
 90
        0
280
     0
281
     0
  0
CLASS
  1
LONG_TRANSACTION
  2
AcDbLongTransaction
  3
AutoCAD 2000
 90
        0
280
     0
281
     0
  0
CLASS
  1
LWPOLYLINE
  2
AcDbPolyline
  3
AutoCAD 2000
 90
        0
280
     0
281
     1
  0
CLASS
  1
HATCH
  2
AcDbHatch
  3
AutoCAD 2000
 90
        0
280
     0
281
     1
  0
CLASS
  1
XRECORD
  2
AcDbXrecord
  3
AutoCAD 2000
 90
        0
280
     0
281
     0
  0
ENDSEC
  0
SECTION
  2
TABLES
  0
TABLE
  2
VPORT
  5
8
330
0
100
AcDbSymbolTable
 70
     2
  0
VPORT
  5
169
330
8
100
AcDbSymbolTableRecord
100
AcDbViewportTableRecord
  2
*ACTIVE
 70
     0
 10
0.0
 20
0.0
 11
1.0
 21
1.0
 12
21.2807923239665
 22
-6.346627286756874
 13
0.0
 23
0.0
 14
0.5740882589684922
 24
0.5740882589684922
 15
0.5
 25
0.5
 16
0.0
 26
0.0
 36
1.0
 17
0.0
 27
0.0
 37
0.0
 40
12.94551387476825
 41
1.570528967254408
 42
50.0
 43
0.0
 44
0.0
 50
0.0
 51
0.0
 71
     0
 72
   100
 73
     1
 74
     1
 75
     0
 76
     0
 77
     0
 78
     0
  0
ENDTAB
  0
TABLE
  2
LTYPE
  5
5
330
0
100
AcDbSymbolTable
 70
     1
  0
LTYPE
  5
11
330
5
100
AcDbSymbolTableRecord
100
AcDbLinetypeTableRecord
  2
BYBLOCK
 70
     0
  3

 72
    65
 73
     0
 40
0.0
  0
LTYPE
  5
12
330
5
100
AcDbSymbolTableRecord
100
AcDbLinetypeTableRecord
  2
BYLAYER
 70
     0
  3

 72
    65
 73
     0
 40
0.0
  0
LTYPE
  5
13
330
5
100
AcDbSymbolTableRecord
100
AcDbLinetypeTableRecord
  2
CONTINUOUS
 70
     0
  3
Solid line
 72
    65
 73
     0
 40
0.0
  0
ENDTAB
  0
TABLE
  2
LAYER
  5
2
330
0
100
AcDbSymbolTable
 70
     4
  0
LAYER
  5
E
330
2
100
AcDbSymbolTableRecord
100
AcDbLayerTableRecord
  2
0
 70
     0
 62
     7
  6
CONTINUOUS
  0
LAYER
  5
20
330
2
100
AcDbSymbolTableRecord
100
AcDbLayerTableRecord
  2
ADPDIM
 70
     0
 62
     3
  6
CONTINUOUS
  0
LAYER
  5
21
330
2
100
AcDbSymbolTableRecord
100
AcDbLayerTableRecord
  2
ADP1DETAIL
 70
     0
 62
     7
  6
CONTINUOUS
  0
LAYER
  5
22
330
2
100
AcDbSymbolTableRecord
100
AcDbLayerTableRecord
  2
DEFPOINTS
 70
     0
 62
     7
  6
CONTINUOUS
  0
ENDTAB
  0
TABLE
  2
STYLE
  5
3
330
0
100
AcDbSymbolTable
 70
     2
  0
STYLE
  5
F
330
3
100
AcDbSymbolTableRecord
100
AcDbTextStyleTableRecord
  2
STANDARD
 70
     0
 40
0.0
 41
1.0
 50
0.0
 71
     0
 42
0.2
  3
txt
  4

  0
STYLE
  5
71
330
3
100
AcDbSymbolTableRecord
100
AcDbTextStyleTableRecord
  2
ARIAL_WIDE
 70
     0
 40
0.0
 41
1.25
 50
0.0
 71
     0
 42
0.2
  3
ARIAL.TTF
  4

1001
ACAD
1000
Arial
1071
       34
  0
ENDTAB
  0
TABLE
  2
VIEW
  5
6
330
0
100
AcDbSymbolTable
 70
     0
  0
ENDTAB
  0
TABLE
  2
UCS
  5
7
330
0
100
AcDbSymbolTable
 70
     0
  0
ENDTAB
  0
TABLE
  2
APPID
  5
9
330
0
100
AcDbSymbolTable
 70
     1
  0
APPID
  5
10
330
9
100
AcDbSymbolTableRecord
100
AcDbRegAppTableRecord
  2
ACAD
 70
     0
  0
ENDTAB
  0
TABLE
  2
DIMSTYLE
  5
A
330
0
100
AcDbSymbolTable
 70
     1
  0
DIMSTYLE
105
6F
330
A
100
AcDbSymbolTableRecord
100
AcDbDimStyleTableRecord
  2
STANDARD
 70
     0
  3

  4

  5

  6

  7

 40
1.0
 41
0.18
 42
0.0625
 43
0.38
 44
0.18
 45
0.0
 46
0.0
 47
0.0
 48
0.0
140
0.18
141
0.09
142
0.0
143
25.4
144
1.0
145
0.0
146
1.0
147
0.09
 71
     0
 72
     0
 73
     1
 74
     1
 75
     0
 76
     0
 77
     0
 78
     0
170
     0
171
     2
172
     0
173
     0
174
     0
175
     0
176
     0
177
     0
178
     0
270
     2
271
     4
272
     4
273
     2
274
     2
340
F
275
     0
280
     0
281
     0
282
     0
283
     1
284
     0
285
     0
286
     0
287
     3
288
     0
  0
ENDTAB
  0
TABLE
  2
BLOCK_RECORD
  5
1
330
0
100
AcDbSymbolTable
 70
     2
  0
BLOCK_RECORD
  5
17
102
{ACAD_XDICTIONARY
360
AA
102
}
330
1
100
AcDbSymbolTableRecord
100
AcDbBlockTableRecord
  2
*MODEL_SPACE
  0
BLOCK_RECORD
  5
14
102
{ACAD_XDICTIONARY
360
A8
102
}
330
1
100
AcDbSymbolTableRecord
100
AcDbBlockTableRecord
  2
*PAPER_SPACE
  0
BLOCK_RECORD
  5
1C
330
1
100
AcDbSymbolTableRecord
100
AcDbBlockTableRecord
  2
*D0
  0
BLOCK_RECORD
  5
1D
330
1
100
AcDbSymbolTableRecord
100
AcDbBlockTableRecord
  2
*D1
  0
ENDTAB
  0
ENDSEC
  0
SECTION
  2
BLOCKS
  0
BLOCK
  5
25
330
17
100
AcDbEntity
  8
0
100
AcDbBlockBegin
  2
*MODEL_SPACE
 70
     0
 10
0.0
 20
0.0
 30
0.0
  3
*MODEL_SPACE
  1

  0
ENDBLK
  5
26
330
17
100
AcDbEntity
  8
0
100
AcDbBlockEnd
  0
BLOCK
  5
23
330
14
100
AcDbEntity
 67
     1
  8
0
100
AcDbBlockBegin
  2
*PAPER_SPACE
 70
     0
 10
0.0
 20
0.0
 30
0.0
  3
*PAPER_SPACE
  1

  0
ENDBLK
  5
24
330
14
100
AcDbEntity
 67
     1
  8
0
100
AcDbBlockEnd
  0
BLOCK
  5
29
330
1C
100
AcDbEntity
  8
0
100
AcDbBlockBegin
  2
*D0
 70
     1
 10
0.0
 20
0.0
 30
0.0
  3
*D0
  1
*U
  0
LINE
  5
2A
330
1C
100
AcDbEntity
  8
0
  6
BYBLOCK
 62
     0
100
AcDbLine
 10
14.89052170468196
 20
-1.081427071166209
 30
0.0
 11
14.89052170468196
 21
-1.486558438550841
 31
0.0
  0
LINE
  5
2B
330
1C
100
AcDbEntity
  8
0
  6
BYBLOCK
 62
     0
100
AcDbLine
 10
16.39052170468196
 20
-1.081427071166209
 30
0.0
 11
16.39052170468196
 21
-1.486558438550841
 31
0.0
  0
LINE
  5
2C
330
1C
100
AcDbEntity
  8
0
  6
BYBLOCK
 62
     0
100
AcDbLine
 10
14.89052170468196
 20
-1.306558438550841
 30
0.0
 11
15.26552170468196
 21
-1.306558438550841
 31
0.0
  0
LINE
  5
2D
330
1C
100
AcDbEntity
  8
0
  6
BYBLOCK
 62
     0
100
AcDbLine
 10
16.39052170468196
 20
-1.306558438550841
 30
0.0
 11
16.01552170468196
 21
-1.306558438550841
 31
0.0
  0
LINE
  5
2E
330
1C
100
AcDbEntity
  8
0
  6
BYBLOCK
 62
     0
100
AcDbLine
 10
14.76552170468196
 20
-1.431558438550841
 30
0.0
 11
15.01552170468196
 21
-1.181558438550841
 31
0.0
  0
LINE
  5
2F
330
1C
100
AcDbEntity
  8
0
  6
BYBLOCK
 62
     0
100
AcDbLine
 10
16.26552170468196
 20
-1.431558438550841
 30
0.0
 11
16.51552170468196
 21
-1.181558438550841
 31
0.0
  0
TEXT
  5
30
330
1C
100
AcDbEntity
  8
0
  6
BYBLOCK
 62
     0
100
AcDbText
 10
15.39052170468196
 20
-1.369058438550841
 30
0.0
 40
0.125
  1
1 1/2
 72
     1
 11
15.64052170468196
 21
-1.306558438550841
 31
0.0
100
AcDbText
 73
     2
  0
POINT
  5
32
330
1C
100
AcDbEntity
  8
DEFPOINTS
  6
BYBLOCK
 62
     0
100
AcDbPoint
 10
14.89052170468196
 20
-1.018927071166209
 30
0.0
  0
POINT
  5
33
330
1C
100
AcDbEntity
  8
DEFPOINTS
  6
BYBLOCK
 62
     0
100
AcDbPoint
 10
16.39052170468196
 20
-1.018927071166209
 30
0.0
  0
POINT
  5
34
330
1C
100
AcDbEntity
  8
DEFPOINTS
  6
BYBLOCK
 62
     0
100
AcDbPoint
 10
16.39052170468196
 20
-1.306558438550841
 30
0.0
  0
ENDBLK
  5
35
330
1C
100
AcDbEntity
  8
0
100
AcDbBlockEnd
  0
BLOCK
  5
36
330
1D
100
AcDbEntity
  8
0
100
AcDbBlockBegin
  2
*D1
 70
     1
 10
0.0
 20
0.0
 30
0.0
  3
*D1
  1
*U
  0
LINE
  5
37
330
1D
100
AcDbEntity
  8
0
  6
BYBLOCK
 62
     0
100
AcDbLine
 10
14.82802170468196
 20
-0.5189270711662094
 30
0.0
 11
14.37061021726612
 21
-0.5189270711662094
 31
0.0
  0
LINE
  5
38
330
1D
100
AcDbEntity
  8
0
  6
BYBLOCK
 62
     0
100
AcDbLine
 10
14.82802170468196
 20
-1.018927071166209
 30
0.0
 11
14.37061021726612
 21
-1.018927071166209
 31
0.0
  0
LINE
  5
39
330
1D
100
AcDbEntity
  8
0
  6
BYBLOCK
 62
     0
100
AcDbLine
 10
14.55061021726612
 20
-0.5189270711662094
 30
0.0
 11
14.55061021726612
 21
-0.2689270711662093
 31
0.0
  0
LINE
  5
3A
330
1D
100
AcDbEntity
  8
0
  6
BYBLOCK
 62
     0
100
AcDbLine
 10
14.55061021726612
 20
-1.018927071166209
 30
0.0
 11
14.55061021726612
 21
-1.268927071166209
 31
0.0
  0
LINE
  5
3B
330
1D
100
AcDbEntity
  8
0
  6
BYBLOCK
 62
     0
100
AcDbLine
 10
14.67561021726612
 20
-0.6439270711662094
 30
0.0
 11
14.42561021726612
 21
-0.3939270711662093
 31
0.0
  0
LINE
  5
3C
330
1D
100
AcDbEntity
  8
0
  6
BYBLOCK
 62
     0
100
AcDbLine
 10
14.67561021726612
 20
-1.143927071166209
 30
0.0
 11
14.42561021726612
 21
-0.8939270711662093
 31
0.0
  0
TEXT
  5
3D
330
1D
100
AcDbEntity
  8
0
  6
BYBLOCK
 62
     0
100
AcDbText
 10
14.61311021726612
 20
-1.685593737832875
 30
0.0
 40
0.125
  1
1/2
 50
90.0
 72
     1
 11
14.55061021726612
 21
-1.539760404499542
 31
0.0
100
AcDbText
 73
     2
  0
POINT
  5
3E
330
1D
100
AcDbEntity
  8
DEFPOINTS
  6
BYBLOCK
 62
     0
100
AcDbPoint
 10
14.89052170468196
 20
-0.5189270711662094
 30
0.0
  0
POINT
  5
3F
330
1D
100
AcDbEntity
  8
DEFPOINTS
  6
BYBLOCK
 62
     0
100
AcDbPoint
 10
14.89052170468196
 20
-1.018927071166209
 30
0.0
  0
POINT
  5
40
330
1D
100
AcDbEntity
  8
DEFPOINTS
  6
BYBLOCK
 62
     0
100
AcDbPoint
 10
14.55061021726612
 20
-1.018927071166209
 30
0.0
  0
ENDBLK
  5
41
330
1D
100
AcDbEntity
  8
0
100
AcDbBlockEnd
  0
ENDSEC
  0
SECTION
  2
ENTITIES
  0
ARC
  5
42
330
17
100
AcDbEntity
  8
ADP1DETAIL
100
AcDbCircle
 10
21.4027873678778
 20
-5.2751103075589
 30
0.0
 40
4.642769434830545
100
AcDbArc
 50
219.2063338132256
 51
313.899553842193
  0
ARC
  5
43
330
17
100
AcDbEntity
  8
ADP1DETAIL
100
AcDbCircle
 10
21.4027873678778
 20
-5.2751103075589
 30
0.0
 40
4.767769434830545
100
AcDbArc
 50
219.2279435344201
 51
313.9445885452195
  0
LWPOLYLINE
  5
44
330
17
100
AcDbEntity
  8
ADP1DETAIL
100
AcDbPolyline
 90
        8
 70
     0
 43
0.0
 10
15.02381243503102
 20
-2.024473860642277
 10
15.02381243503102
 20
-4.302074010926693
 42
0.1840929123990567
 10
16.75242678284046
 20
-9.094494472566649
 42
0.4394432659669844
 10
25.60476002058738
 20
-9.58289103511009
 42
0.2958903844258283
 10
26.59564257490876
 20
-4.053032949124744
 42
0.2348993049006642
 10
23.20074590390464
 20
-1.605543981511512
 42
0.3955798041057841
 10
19.32473736842263
 20
-4.620873668805984
 42
0.4958406604155519
 10
21.63841696688965
 20
-7.421139868493101
  0
LWPOLYLINE
  5
4E
330
17
100
AcDbEntity
  8
ADP1DETAIL
100
AcDbPolyline
 90
        8
 70
     0
 43
0.0
 10
14.89881243503102
 20
-2.024473860642277
 10
14.89881243503102
 20
-4.300957827707566
 42
0.184002621823388
 10
16.65673098706722
 20
-9.174926349330043
 42
0.4395113355377769
 10
25.69406130380928
 20
-9.670401462452215
 42
0.2963142817537945
 10
26.70876718616222
 20
-3.999586982814217
 42
0.2354379969981021
 10
23.21668573819842
 20
-1.481487435302911
 42
0.3955675251811316
 10
19.20197985584549
 20
-4.59687205068752
 42
0.4938638628346411
 10
21.6316536523596
 20
-7.545956764691363
 42
-0.0676034942950248
  0
ARC
  5
58
330
17
100
AcDbEntity
  8
ADP1DETAIL
100
AcDbCircle
 10
22.17571144432747
 20
-4.430365233632699
 30
0.0
 40
5.778049564835878
100
AcDbArc
 50
178.8565741680092
 51
220.852581536588
  0
ARC
  5
59
330
17
100
AcDbEntity
  8
ADP1DETAIL
100
AcDbCircle
 10
22.17571144432747
 20
-4.4303652336327
 30
0.0
 40
5.903049564835877
100
AcDbArc
 50
178.8687456467937
 51
220.835172830332
  0
DIMENSION
  5
5A
330
17
100
AcDbEntity
  8
ADPDIM
100
AcDbDimension
  2
*D0
 10
16.39052170468196
 20
-1.306558438550841
 30
0.0
 11
15.64052170468196
 21
-1.306558438550841
 31
0.0
100
AcDbAlignedDimension
 13
14.89052170468196
 23
-1.018927071166209
 33
0.0
 14
16.39052170468196
 24
-1.018927071166209
 34
0.0
100
AcDbRotatedDimension
  0
LINE
  5
5B
330
17
100
AcDbEntity
  8
ADP1DETAIL
100
AcDbLine
 10
16.26552170468196
 20
-0.8939270711662093
 30
0.0
 11
15.01552170468196
 21
-0.8939270711662093
 31
0.0
  0
LINE
  5
5C
330
17
100
AcDbEntity
  8
ADP1DETAIL
100
AcDbLine
 10
16.39052170468196
 20
-1.018927071166209
 30
0.0
 11
14.89052170468196
 21
-1.018927071166209
 31
0.0
  0
DIMENSION
  5
5D
330
17
100
AcDbEntity
  8
ADPDIM
100
AcDbDimension
  2
*D1
 10
14.55061021726612
 20
-1.018927071166209
 30
0.0
 11
14.55061021726612
 21
-1.539760404499542
 31
0.0
100
AcDbAlignedDimension
 13
14.89052170468196
 23
-0.5189270711662094
 33
0.0
 14
14.89052170468196
 24
-1.018927071166209
 34
0.0
 50
90.0
100
AcDbRotatedDimension
  0
LINE
  5
5E
330
17
100
AcDbEntity
  8
ADP1DETAIL
100
AcDbLine
 10
14.89052170468196
 20
-1.018927071166209
 30
0.0
 11
14.89052170468196
 21
-0.5189270711662094
 31
0.0
  0
LINE
  5
5F
330
17
100
AcDbEntity
  8
ADP1DETAIL
100
AcDbLine
 10
15.01552170468196
 20
-0.8939270711662093
 30
0.0
 11
15.01552170468196
 21
-0.5189270711662094
 31
0.0
  0
LINE
  5
60
330
17
100
AcDbEntity
  8
ADP1DETAIL
100
AcDbLine
 10
14.89052170468196
 20
-0.5189270711662094
 30
0.0
 11
15.01552170468196
 21
-0.5189270711662094
 31
0.0
  0
LINE
  5
61
330
17
100
AcDbEntity
  8
ADP1DETAIL
100
AcDbLine
 10
16.39052170468196
 20
-0.5189270711662094
 30
0.0
 11
16.39052170468196
 21
-1.018927071166209
 31
0.0
  0
LINE
  5
62
330
17
100
AcDbEntity
  8
ADP1DETAIL
100
AcDbLine
 10
16.26552170468196
 20
-0.5189270711662094
 30
0.0
 11
16.26552170468196
 21
-0.8939270711662093
 31
0.0
  0
LINE
  5
63
330
17
100
AcDbEntity
  8
ADP1DETAIL
100
AcDbLine
 10
16.26552170468196
 20
-0.5189270711662094
 30
0.0
 11
16.39052170468196
 21
-0.5189270711662094
 31
0.0
  0
LINE
  5
64
330
17
100
AcDbEntity
  8
ADP1DETAIL
100
AcDbLine
 10
14.89881243503102
 20
-2.024473860642277
 30
0.0
 11
16.39881243503102
 21
-2.024473860642276
 31
0.0
  0
LINE
  5
65
330
17
100
AcDbEntity
  8
ADP1DETAIL
100
AcDbLine
 10
16.39881243503102
 20
-2.024473860642276
 30
0.0
 11
16.39881243503102
 21
-4.315062978278078
 31
0.0
  0
LINE
  5
66
330
17
100
AcDbEntity
  8
ADP1DETAIL
100
AcDbLine
 10
16.27381243503102
 20
-2.024473860642276
 30
0.0
 11
16.27381243503102
 21
-4.31382232747915
 31
0.0
  0
ARC
  5
67
330
17
100
AcDbEntity
  8
ADP1DETAIL
100
AcDbCircle
 10
21.83704077874089
 20
-6.054056062006521
 30
0.0
 40
3.78720733337776
100
AcDbArc
 50
317.339085873794
 51
21.89649403205643
  0
ARC
  5
68
330
17
100
AcDbEntity
  8
ADP1DETAIL
100
AcDbCircle
 10
21.83704077874089
 20
-6.054056062006521
 30
0.0
 40
3.912207333377761
100
AcDbArc
 50
317.2840402221394
 51
22.00664684118739
  0
ARC
  5
69
330
17
100
AcDbEntity
  8
ADP1DETAIL
100
AcDbCircle
 10
22.43709479393751
 20
-6.243064145206602
 30
0.0
 40
3.324974072953232
100
AcDbArc
 50
28.7912822335044
 51
79.77886704043264
  0
ARC
  5
6A
330
17
100
AcDbEntity
  8
ADP1DETAIL
100
AcDbCircle
 10
22.43709479393752
 20
-6.243064145206602
 30
0.0
 40
3.44997407295323
100
AcDbArc
 50
28.66609385291959
 51
79.8900060108116
  0
ARC
  5
6B
330
17
100
AcDbEntity
  8
ADP1DETAIL
100
AcDbCircle
 10
21.71769981886445
 20
-5.957975696358889
 30
0.0
 40
1.46531060367229
100
AcDbArc
 50
266.8984103930632
 51
143.9839224581134
  0
ARC
  5
6C
330
17
100
AcDbEntity
  8
ADP1DETAIL
100
AcDbCircle
 10
22.87018005651668
 20
-5.179465481537976
 30
0.0
 40
2.339176600253982
100
AcDbArc
 50
85.77050893008658
 51
177.9638666883051
  0
ARC
  5
6D
330
17
100
AcDbEntity
  8
ADP1DETAIL
100
AcDbCircle
 10
22.87018005651668
 20
-5.179465481537976
 30
0.0
 40
2.214176600253982
100
AcDbArc
 50
85.93590716294677
 51
168.4214585475842
  0
ARC
  5
6E
330
17
100
AcDbEntity
  8
ADP1DETAIL
100
AcDbCircle
 10
21.71769981886445
 20
-5.957975696358889
 30
0.0
 40
1.59031060367229
100
AcDbArc
 50
266.8984103930632
 51
129.7374579169956
  0
TEXT
  5
78
330
17
100
AcDbEntity
  8
ADPDIM
100
AcDbText
 10
11.16509990962308
 20
-12.36996584939663
 30
0.0
 40
0.1875
  1
J U L I U S  B L U M  &  C O . ,  I N C .      ( 8 0 0 )  5 2 6 - 6 2 9 3        W W W . J U L I U S B L U M . C O M        P A R T  N O .  1 5 0 - C R
 41
1.25
  7
ARIAL_WIDE
 72
     1
 11
21.28087519100098
 21
-12.18246584939663
 31
0.0
100
AcDbText
 73
     3
  0
ENDSEC
  0
SECTION
  2
OBJECTS
  0
DICTIONARY
  5
C
330
0
100
AcDbDictionary
  3
ACAD_GROUP
350
D
  3
ACAD_LAYOUT
350
7D
  3
ACAD_MLINESTYLE
350
1A
  3
ACAD_PLOTSETTINGS
350
7E
  3
ACAD_PLOTSTYLENAME
350
7B
  3
ACDBHEADERROUNDTRIPXREC
350
16A
  3
ACDBVARIABLEDICTIONARY
350
27
  0
DICTIONARY
  5
AA
330
17
100
AcDbDictionary
280
     1
  3
ACAD_LAYOUTSELFREF
360
18C
  0
DICTIONARY
  5
A8
330
14
100
AcDbDictionary
280
     1
  3
ACAD_LAYOUTSELFREF
360
18B
  0
DICTIONARY
  5
D
102
{ACAD_REACTORS
330
C
102
}
330
C
100
AcDbDictionary
  0
DICTIONARY
  5
7D
102
{ACAD_REACTORS
330
C
102
}
330
C
100
AcDbDictionary
  0
DICTIONARY
  5
1A
102
{ACAD_REACTORS
330
C
102
}
330
C
100
AcDbDictionary
  3
STANDARD
350
1B
  0
DICTIONARY
  5
7E
102
{ACAD_REACTORS
330
C
102
}
330
C
100
AcDbDictionary
  0
ACDBDICTIONARYWDFLT
  5
7B
102
{ACAD_REACTORS
330
C
102
}
330
C
100
AcDbDictionary
281
     1
  3
Normal
350
7C
100
AcDbDictionaryWithDefault
340
7C
  0
DICTIONARY
  5
16A
102
{ACAD_REACTORS
330
C
102
}
330
C
100
AcDbDictionary
  3
CEPSNTYPE
350
174
  3
DIMSTYLEDATA
350
178
  3
FINGERPRINTGUID
350
175
  3
HYPERLINKBASE
350
16D
  3
INSUNITS
350
173
  3
LAYOUTDICT
350
16F
  3
LWETCUNION
350
172
  3
PLOTSETDICT
350
170
  3
PLOTSTYLNAMDICT
350
171
  3
PSVPSCALE
350
177
  3
PUCSBASE
350
17B
  3
PUCSORGBACK
350
181
  3
PUCSORGBOTTOM
350
17D
  3
PUCSORGFRONT
350
180
  3
PUCSORGLEFT
350
17E
  3
PUCSORGRIGHT
350
17F
  3
PUCSORGTOP
350
17C
  3
PUCSORTHOREF
350
179
  3
PUCSORTHOVIEW
350
17A
  3
STYLESHEET
350
16E
  3
TSTACKALIGN
350
16B
  3
TSTACKSIZE
350
16C
  3
UCSBASE
350
184
  3
UCSORGBACK
350
18A
  3
UCSORGBOTTOM
350
186
  3
UCSORGFRONT
350
189
  3
UCSORGLEFT
350
187
  3
UCSORGRIGHT
350
188
  3
UCSORGTOP
350
185
  3
UCSORTHOREF
350
182
  3
UCSORTHOVIEW
350
183
  3
VERSIONGUID
350
176
  0
DICTIONARY
  5
27
102
{ACAD_REACTORS
330
C
102
}
330
C
100
AcDbDictionary
  3
DIMADEC
350
28
  3
DIMASSOC
350
B0
  0
XRECORD
  5
18C
102
{ACAD_REACTORS
330
AA
102
}
330
AA
100
AcDbXrecord
340
17
  0
XRECORD
  5
18B
102
{ACAD_REACTORS
330
A8
102
}
330
A8
100
AcDbXrecord
340
14
  0
MLINESTYLE
  5
1B
102
{ACAD_REACTORS
330
1A
102
}
330
1A
100
AcDbMlineStyle
  2
STANDARD
 70
     0
  3

 62
   256
 51
90.0
 52
90.0
 71
     2
 49
0.5
 62
   256
  6
BYLAYER
 49
-0.5
 62
   256
  6
BYLAYER
  0
ACDBPLACEHOLDER
  5
7C
102
{ACAD_REACTORS
330
7B
102
}
330
7B
100
AcDbPlaceHolder
280
     0
  0
XRECORD
  5
174
102
{ACAD_REACTORS
330
16A
102
}
330
16A
100
AcDbXrecord
 90
        0
  0
XRECORD
  5
178
102
{ACAD_REACTORS
330
16A
102
}
330
16A
100
AcDbXrecord
1000
DSTYLE
1002
{
1070
   277
 70
     5
1070
   279
 70
     2
1002
}
  0
XRECORD
  5
175
102
{ACAD_REACTORS
330
16A
102
}
330
16A
100
AcDbXrecord
  1
{2F455B49-70BD-435D-BC81-586E5E70FAA6}
  0
XRECORD
  5
16D
102
{ACAD_REACTORS
330
16A
102
}
330
16A
100
AcDbXrecord
  1

  0
XRECORD
  5
173
102
{ACAD_REACTORS
330
16A
102
}
330
16A
100
AcDbXrecord
 90
        0
  0
XRECORD
  5
16F
102
{ACAD_REACTORS
330
16A
102
}
330
16A
100
AcDbXrecord
340
7D
  0
XRECORD
  5
172
102
{ACAD_REACTORS
330
16A
102
}
330
16A
100
AcDbXrecord
 90
    14877
  0
XRECORD
  5
170
102
{ACAD_REACTORS
330
16A
102
}
330
16A
100
AcDbXrecord
340
7E
  0
XRECORD
  5
171
102
{ACAD_REACTORS
330
16A
102
}
330
16A
100
AcDbXrecord
340
7B
  0
XRECORD
  5
177
102
{ACAD_REACTORS
330
16A
102
}
330
16A
100
AcDbXrecord
 40
0.0
  0
XRECORD
  5
17B
102
{ACAD_REACTORS
330
16A
102
}
330
16A
100
AcDbXrecord
340
0
  0
XRECORD
  5
181
102
{ACAD_REACTORS
330
16A
102
}
330
16A
100
AcDbXrecord
 10
0.0
 20
0.0
 30
0.0
  0
XRECORD
  5
17D
102
{ACAD_REACTORS
330
16A
102
}
330
16A
100
AcDbXrecord
 10
0.0
 20
0.0
 30
0.0
  0
XRECORD
  5
180
102
{ACAD_REACTORS
330
16A
102
}
330
16A
100
AcDbXrecord
 10
0.0
 20
0.0
 30
0.0
  0
XRECORD
  5
17E
102
{ACAD_REACTORS
330
16A
102
}
330
16A
100
AcDbXrecord
 10
0.0
 20
0.0
 30
0.0
  0
XRECORD
  5
17F
102
{ACAD_REACTORS
330
16A
102
}
330
16A
100
AcDbXrecord
 10
0.0
 20
0.0
 30
0.0
  0
XRECORD
  5
17C
102
{ACAD_REACTORS
330
16A
102
}
330
16A
100
AcDbXrecord
 10
0.0
 20
0.0
 30
0.0
  0
XRECORD
  5
179
102
{ACAD_REACTORS
330
16A
102
}
330
16A
100
AcDbXrecord
340
0
  0
XRECORD
  5
17A
102
{ACAD_REACTORS
330
16A
102
}
330
16A
100
AcDbXrecord
 70
     0
  0
XRECORD
  5
16E
102
{ACAD_REACTORS
330
16A
102
}
330
16A
100
AcDbXrecord
  1

  0
XRECORD
  5
16B
102
{ACAD_REACTORS
330
16A
102
}
330
16A
100
AcDbXrecord
 90
        1
  0
XRECORD
  5
16C
102
{ACAD_REACTORS
330
16A
102
}
330
16A
100
AcDbXrecord
 90
       70
  0
XRECORD
  5
184
102
{ACAD_REACTORS
330
16A
102
}
330
16A
100
AcDbXrecord
340
0
  0
XRECORD
  5
18A
102
{ACAD_REACTORS
330
16A
102
}
330
16A
100
AcDbXrecord
 10
0.0
 20
0.0
 30
0.0
  0
XRECORD
  5
186
102
{ACAD_REACTORS
330
16A
102
}
330
16A
100
AcDbXrecord
 10
0.0
 20
0.0
 30
0.0
  0
XRECORD
  5
189
102
{ACAD_REACTORS
330
16A
102
}
330
16A
100
AcDbXrecord
 10
0.0
 20
0.0
 30
0.0
  0
XRECORD
  5
187
102
{ACAD_REACTORS
330
16A
102
}
330
16A
100
AcDbXrecord
 10
0.0
 20
0.0
 30
0.0
  0
XRECORD
  5
188
102
{ACAD_REACTORS
330
16A
102
}
330
16A
100
AcDbXrecord
 10
0.0
 20
0.0
 30
0.0
  0
XRECORD
  5
185
102
{ACAD_REACTORS
330
16A
102
}
330
16A
100
AcDbXrecord
 10
0.0
 20
0.0
 30
0.0
  0
XRECORD
  5
182
102
{ACAD_REACTORS
330
16A
102
}
330
16A
100
AcDbXrecord
340
0
  0
XRECORD
  5
183
102
{ACAD_REACTORS
330
16A
102
}
330
16A
100
AcDbXrecord
 70
     0
  0
XRECORD
  5
176
102
{ACAD_REACTORS
330
16A
102
}
330
16A
100
AcDbXrecord
  1
{2C60F69F-EE5C-4403-B911-C019C371A64B}
  0
DICTIONARYVAR
  5
28
102
{ACAD_REACTORS
330
27
102
}
330
27
100
DictionaryVariables
280
     0
  1
0
  0
DICTIONARYVAR
  5
B0
102
{ACAD_REACTORS
330
27
102
}
330
27
100
DictionaryVariables
280
     0
  1
1
  0
ENDSEC
  0
EOF
