  0
SECTION
  2
HEADER
  9
$ACADVER
  1
AC1014
  9
$ACADMAINTVER
 70
     9
  9
$DWGCODEPAGE
  3
ANSI_1252
  9
$INSBASE
 10
53.4105619331782
 20
-1.253371661878
 30
0.0
  9
$EXTMIN
 10
20.56548222597974
 20
-2.977676371289275
 30
0.0
  9
$EXTMAX
 10
72.77131442243268
 20
26.3334804429297
 30
0.0
  9
$LIMMIN
 10
0.0
 20
0.0
  9
$LIMMAX
 10
36.0
 20
36.0
  9
$ORTHOMODE
 70
     1
  9
$REGENMODE
 70
     1
  9
$FILLMODE
 70
     1
  9
$QTEXTMODE
 70
     0
  9
$MIRRTEXT
 70
     1
  9
$DRAGMODE
 70
     0
  9
$LTSCALE
 40
1.0
  9
$OSMODE
 70
    37
  9
$ATTMODE
 70
     1
  9
$TEXTSIZE
 40
0.2
  9
$TRACEWID
 40
0.05
  9
$TEXTSTYLE
  7
STANDARD
  9
$CLAYER
  8
ADPDIM
  9
$CELTYPE
  6
BYLAYER
  9
$CECOLOR
 62
   256
  9
$CELTSCALE
 40
1.0
  9
$DELOBJ
 70
     1
  9
$DISPSILH
 70
     0
  9
$DIMSCALE
 40
1.0
  9
$DIMASZ
 40
0.125
  9
$DIMEXO
 40
0.0625
  9
$DIMDLI
 40
0.38
  9
$DIMRND
 40
0.0
  9
$DIMDLE
 40
0.0
  9
$DIMEXE
 40
0.18
  9
$DIMTP
 40
0.0
  9
$DIMTM
 40
0.0
  9
$DIMTXT
 40
0.125
  9
$DIMCEN
 40
0.1875
  9
$DIMTSZ
 40
0.125
  9
$DIMTOL
 70
     0
  9
$DIMLIM
 70
     0
  9
$DIMTIH
 70
     0
  9
$DIMTOH
 70
     0
  9
$DIMSE1
 70
     0
  9
$DIMSE2
 70
     0
  9
$DIMTAD
 70
     0
  9
$DIMZIN
 70
     3
  9
$DIMBLK
  1

  9
$DIMASO
 70
     1
  9
$DIMSHO
 70
     1
  9
$DIMPOST
  1

  9
$DIMAPOST
  1

  9
$DIMALT
 70
     0
  9
$DIMALTD
 70
     1
  9
$DIMALTF
 40
25.4
  9
$DIMLFAC
 40
1.0
  9
$DIMTOFL
 70
     0
  9
$DIMTVP
 40
0.0
  9
$DIMTIX
 70
     0
  9
$DIMSOXD
 70
     0
  9
$DIMSAH
 70
     0
  9
$DIMBLK1
  1

  9
$DIMBLK2
  1

  9
$DIMSTYLE
  2
STANDARD
  9
$DIMCLRD
 70
     0
  9
$DIMCLRE
 70
     0
  9
$DIMCLRT
 70
     0
  9
$DIMTFAC
 40
1.0
  9
$DIMGAP
 40
0.125
  9
$DIMJUST
 70
     0
  9
$DIMSD1
 70
     0
  9
$DIMSD2
 70
     0
  9
$DIMTOLJ
 70
     1
  9
$DIMTZIN
 70
     3
  9
$DIMALTZ
 70
     3
  9
$DIMALTTZ
 70
     3
  9
$DIMFIT
 70
     5
  9
$DIMUPT
 70
     0
  9
$DIMUNIT
 70
     5
  9
$DIMDEC
 70
     4
  9
$DIMTDEC
 70
     4
  9
$DIMALTU
 70
     5
  9
$DIMALTTD
 70
     1
  9
$DIMTXSTY
  7
STANDARD
  9
$DIMAUNIT
 70
     0
  9
$LUNITS
 70
     5
  9
$LUPREC
 70
     4
  9
$SKETCHINC
 40
0.1
  9
$FILLETRAD
 40
0.01
  9
$AUNITS
 70
     0
  9
$AUPREC
 70
     0
  9
$MENU
  1
acad
  9
$ELEVATION
 40
0.0
  9
$PELEVATION
 40
0.0
  9
$THICKNESS
 40
0.0
  9
$LIMCHECK
 70
     0
  9
$BLIPMODE
 70
     0
  9
$CHAMFERA
 40
0.0
  9
$CHAMFERB
 40
0.0
  9
$CHAMFERC
 40
0.0
  9
$CHAMFERD
 40
0.0
  9
$SKPOLY
 70
     0
  9
$TDCREATE
 40
2450386.547967593
  9
$TDUPDATE
 40
2452297.082138669
  9
$TDINDWG
 40
0.0060277431
  9
$TDUSRTIMER
 40
0.0060277431
  9
$USRTIMER
 70
     1
  9
$ANGBASE
 50
0.0
  9
$ANGDIR
 70
     0
  9
$PDMODE
 70
     0
  9
$PDSIZE
 40
0.0
  9
$PLINEWID
 40
0.0
  9
$COORDS
 70
     2
  9
$SPLFRAME
 70
     0
  9
$SPLINETYPE
 70
     6
  9
$SPLINESEGS
 70
     8
  9
$ATTDIA
 70
     0
  9
$ATTREQ
 70
     1
  9
$HANDLING
 70
 22529
  9
$HANDSEED
  5
436
  9
$SURFTAB1
 70
     6
  9
$SURFTAB2
 70
     6
  9
$SURFTYPE
 70
     6
  9
$SURFU
 70
     6
  9
$SURFV
 70
     6
  9
$UCSNAME
  2

  9
$UCSORG
 10
0.0
 20
0.0
 30
0.0
  9
$UCSXDIR
 10
1.0
 20
0.0
 30
0.0
  9
$UCSYDIR
 10
0.0
 20
1.0
 30
0.0
  9
$PUCSNAME
  2

  9
$PUCSORG
 10
0.0
 20
0.0
 30
0.0
  9
$PUCSXDIR
 10
1.0
 20
0.0
 30
0.0
  9
$PUCSYDIR
 10
0.0
 20
1.0
 30
0.0
  9
$USERI1
 70
     0
  9
$USERI2
 70
     0
  9
$USERI3
 70
     0
  9
$USERI4
 70
     0
  9
$USERI5
 70
     0
  9
$USERR1
 40
0.0
  9
$USERR2
 40
0.0
  9
$USERR3
 40
0.0
  9
$USERR4
 40
0.0
  9
$USERR5
 40
0.0
  9
$WORLDVIEW
 70
     1
  9
$SHADEDGE
 70
     3
  9
$SHADEDIF
 70
    70
  9
$TILEMODE
 70
     1
  9
$MAXACTVP
 70
    15
  9
$PINSBASE
 10
4.403525741743744E+99
 20
7.061986388769092E+99
 30
0.0
  9
$PLIMCHECK
 70
     0
  9
$PEXTMIN
 10
1.000000000000000E+20
 20
1.000000000000000E+20
 30
1.000000000000000E+20
  9
$PEXTMAX
 10
-1.000000000000000E+20
 20
-1.000000000000000E+20
 30
-1.000000000000000E+20
  9
$PLIMMIN
 10
0.0
 20
0.0
  9
$PLIMMAX
 10
12.0
 20
9.0
  9
$UNITMODE
 70
     0
  9
$VISRETAIN
 70
     0
  9
$PLINEGEN
 70
     0
  9
$PSLTSCALE
 70
     1
  9
$TREEDEPTH
 70
  3020
  9
$PICKSTYLE
 70
     1
  9
$CMLSTYLE
  2
STANDARD
  9
$CMLJUST
 70
     0
  9
$CMLSCALE
 40
1.0
  9
$PROXYGRAPHICS
 70
     1
  9
$MEASUREMENT
 70
     0
  0
ENDSEC
  0
SECTION
  2
CLASSES
  0
CLASS
  1
ACDBDICTIONARYWDFLT
  2
AcDbDictionaryWithDefault
  3
AutoCAD 2000
 90
        0
280
     0
281
     0
  0
CLASS
  1
ACDBPLACEHOLDER
  2
AcDbPlaceHolder
  3
AutoCAD 2000
 90
        0
280
     0
281
     0
  0
CLASS
  1
LAYOUT
  2
AcDbLayout
  3
AutoCAD 2000
 90
        0
280
     0
281
     0
  0
CLASS
  1
DICTIONARYVAR
  2
AcDbDictionaryVar
  3
AutoCAD 2000
 90
        0
280
     0
281
     0
  0
CLASS
  1
LONG_TRANSACTION
  2
AcDbLongTransaction
  3
AutoCAD 2000
 90
        0
280
     0
281
     0
  0
CLASS
  1
LWPOLYLINE
  2
AcDbPolyline
  3
AutoCAD 2000
 90
        0
280
     0
281
     1
  0
CLASS
  1
HATCH
  2
AcDbHatch
  3
AutoCAD 2000
 90
        0
280
     0
281
     1
  0
CLASS
  1
XRECORD
  2
AcDbXrecord
  3
AutoCAD 2000
 90
        0
280
     0
281
     0
  0
CLASS
  1
LONG_TRANSACTION
  2
AcDbLongTransaction
  3
AutoCAD 2000
 90
        0
280
     0
281
     0
  0
CLASS
  1
LWPOLYLINE
  2
AcDbPolyline
  3
AutoCAD 2000
 90
        0
280
     0
281
     1
  0
CLASS
  1
HATCH
  2
AcDbHatch
  3
AutoCAD 2000
 90
        0
280
     0
281
     1
  0
CLASS
  1
XRECORD
  2
AcDbXrecord
  3
AutoCAD 2000
 90
        0
280
     0
281
     0
  0
CLASS
  1
LONG_TRANSACTION
  2
AcDbLongTransaction
  3
AutoCAD 2000
 90
        0
280
     0
281
     0
  0
CLASS
  1
LWPOLYLINE
  2
AcDbPolyline
  3
AutoCAD 2000
 90
        0
280
     0
281
     1
  0
CLASS
  1
HATCH
  2
AcDbHatch
  3
AutoCAD 2000
 90
        0
280
     0
281
     1
  0
CLASS
  1
XRECORD
  2
AcDbXrecord
  3
AutoCAD 2000
 90
        0
280
     0
281
     0
  0
CLASS
  1
LONG_TRANSACTION
  2
AcDbLongTransaction
  3
AutoCAD 2000
 90
        0
280
     0
281
     0
  0
CLASS
  1
LWPOLYLINE
  2
AcDbPolyline
  3
AutoCAD 2000
 90
        0
280
     0
281
     1
  0
CLASS
  1
HATCH
  2
AcDbHatch
  3
AutoCAD 2000
 90
        0
280
     0
281
     1
  0
CLASS
  1
XRECORD
  2
AcDbXrecord
  3
AutoCAD 2000
 90
        0
280
     0
281
     0
  0
CLASS
  1
LONG_TRANSACTION
  2
AcDbLongTransaction
  3
AutoCAD 2000
 90
        0
280
     0
281
     0
  0
CLASS
  1
LWPOLYLINE
  2
AcDbPolyline
  3
AutoCAD 2000
 90
        0
280
     0
281
     1
  0
CLASS
  1
HATCH
  2
AcDbHatch
  3
AutoCAD 2000
 90
        0
280
     0
281
     1
  0
CLASS
  1
XRECORD
  2
AcDbXrecord
  3
AutoCAD 2000
 90
        0
280
     0
281
     0
  0
CLASS
  1
LONG_TRANSACTION
  2
AcDbLongTransaction
  3
AutoCAD 2000
 90
        0
280
     0
281
     0
  0
CLASS
  1
LWPOLYLINE
  2
AcDbPolyline
  3
AutoCAD 2000
 90
        0
280
     0
281
     1
  0
CLASS
  1
HATCH
  2
AcDbHatch
  3
AutoCAD 2000
 90
        0
280
     0
281
     1
  0
CLASS
  1
XRECORD
  2
AcDbXrecord
  3
AutoCAD 2000
 90
        0
280
     0
281
     0
  0
ENDSEC
  0
SECTION
  2
TABLES
  0
TABLE
  2
VPORT
  5
8
330
0
100
AcDbSymbolTable
 70
     2
  0
VPORT
  5
412
330
8
100
AcDbSymbolTableRecord
100
AcDbViewportTableRecord
  2
*ACTIVE
 70
     0
 10
0.0
 20
0.0
 11
1.0
 21
1.0
 12
46.7117447664839
 22
11.67852214873766
 13
0.0
 23
0.0
 14
0.5740882589684922
 24
0.5740882589684922
 15
0.5
 25
0.5
 16
0.0
 26
0.0
 36
1.0
 17
0.0
 27
0.0
 37
0.0
 40
33.45911980263881
 41
1.570528967254408
 42
50.0
 43
0.0
 44
0.0
 50
0.0
 51
0.0
 71
     0
 72
   100
 73
     1
 74
     1
 75
     0
 76
     0
 77
     0
 78
     0
  0
ENDTAB
  0
TABLE
  2
LTYPE
  5
5
330
0
100
AcDbSymbolTable
 70
     1
  0
LTYPE
  5
13
330
5
100
AcDbSymbolTableRecord
100
AcDbLinetypeTableRecord
  2
BYBLOCK
 70
     0
  3

 72
    65
 73
     0
 40
0.0
  0
LTYPE
  5
14
330
5
100
AcDbSymbolTableRecord
100
AcDbLinetypeTableRecord
  2
BYLAYER
 70
     0
  3

 72
    65
 73
     0
 40
0.0
  0
LTYPE
  5
15
330
5
100
AcDbSymbolTableRecord
100
AcDbLinetypeTableRecord
  2
CONTINUOUS
 70
     0
  3
Solid line
 72
    65
 73
     0
 40
0.0
  0
ENDTAB
  0
TABLE
  2
LAYER
  5
2
330
0
100
AcDbSymbolTable
 70
     3
  0
LAYER
  5
10
330
2
100
AcDbSymbolTableRecord
100
AcDbLayerTableRecord
  2
0
 70
     0
 62
     7
  6
CONTINUOUS
  0
LAYER
  5
57
330
2
100
AcDbSymbolTableRecord
100
AcDbLayerTableRecord
  2
DEFPOINTS
 70
     0
 62
     7
  6
CONTINUOUS
  0
LAYER
  5
58
330
2
100
AcDbSymbolTableRecord
100
AcDbLayerTableRecord
  2
ADPDIM
 70
     0
 62
     3
  6
CONTINUOUS
  0
ENDTAB
  0
TABLE
  2
STYLE
  5
3
330
0
100
AcDbSymbolTable
 70
     2
  0
STYLE
  5
11
330
3
100
AcDbSymbolTableRecord
100
AcDbTextStyleTableRecord
  2
STANDARD
 70
     0
 40
0.0
 41
1.0
 50
0.0
 71
     0
 42
0.2
  3
txt
  4

  0
STYLE
  5
20F
330
3
100
AcDbSymbolTableRecord
100
AcDbTextStyleTableRecord
  2
ARIAL_WIDE
 70
     0
 40
0.0
 41
1.25
 50
0.0
 71
     0
 42
0.2
  3
ARIAL.TTF
  4

1001
ACAD
1000
Arial
1071
       34
  0
ENDTAB
  0
TABLE
  2
VIEW
  5
6
330
0
100
AcDbSymbolTable
 70
     0
  0
ENDTAB
  0
TABLE
  2
UCS
  5
7
330
0
100
AcDbSymbolTable
 70
     0
  0
ENDTAB
  0
TABLE
  2
APPID
  5
9
330
0
100
AcDbSymbolTable
 70
     1
  0
APPID
  5
12
330
9
100
AcDbSymbolTableRecord
100
AcDbRegAppTableRecord
  2
ACAD
 70
     0
  0
ENDTAB
  0
TABLE
  2
DIMSTYLE
  5
A
330
0
100
AcDbSymbolTable
 70
     1
  0
DIMSTYLE
105
20D
330
A
100
AcDbSymbolTableRecord
100
AcDbDimStyleTableRecord
  2
STANDARD
 70
     0
  3

  4

  5

  6

  7

 40
1.0
 41
0.18
 42
0.0625
 43
0.38
 44
0.18
 45
0.0
 46
0.0
 47
0.0
 48
0.0
140
0.18
141
0.09
142
0.0
143
25.4
144
1.0
145
0.0
146
1.0
147
0.09
 71
     0
 72
     0
 73
     1
 74
     1
 75
     0
 76
     0
 77
     0
 78
     0
170
     0
171
     2
172
     0
173
     0
174
     0
175
     0
176
     0
177
     0
178
     0
270
     2
271
     4
272
     4
273
     2
274
     2
340
11
275
     0
280
     0
281
     0
282
     0
283
     1
284
     0
285
     0
286
     0
287
     3
288
     0
  0
ENDTAB
  0
TABLE
  2
BLOCK_RECORD
  5
1
330
0
100
AcDbSymbolTable
 70
     3
  0
BLOCK_RECORD
  5
1E
102
{ACAD_XDICTIONARY
360
24C
102
}
330
1
100
AcDbSymbolTableRecord
100
AcDbBlockTableRecord
  2
*MODEL_SPACE
  0
BLOCK_RECORD
  5
1A
102
{ACAD_XDICTIONARY
360
24E
102
}
330
1
100
AcDbSymbolTableRecord
100
AcDbBlockTableRecord
  2
*PAPER_SPACE
  0
BLOCK_RECORD
  5
39
330
1
100
AcDbSymbolTableRecord
100
AcDbBlockTableRecord
  2
508
  0
BLOCK_RECORD
  5
50
330
1
100
AcDbSymbolTableRecord
100
AcDbBlockTableRecord
  2
*D1
  0
BLOCK_RECORD
  5
51
330
1
100
AcDbSymbolTableRecord
100
AcDbBlockTableRecord
  2
*D2
  0
ENDTAB
  0
ENDSEC
  0
SECTION
  2
BLOCKS
  0
BLOCK
  5
5B
330
1E
100
AcDbEntity
  8
0
100
AcDbBlockBegin
  2
*MODEL_SPACE
 70
     0
 10
0.0
 20
0.0
 30
0.0
  3
*MODEL_SPACE
  1

  0
ENDBLK
  5
5C
330
1E
100
AcDbEntity
  8
0
100
AcDbBlockEnd
  0
BLOCK
  5
59
330
1A
100
AcDbEntity
 67
     1
  8
0
100
AcDbBlockBegin
  2
*PAPER_SPACE
 70
     0
 10
0.0
 20
0.0
 30
0.0
  3
*PAPER_SPACE
  1

  0
ENDBLK
  5
5A
330
1A
100
AcDbEntity
 67
     1
  8
0
100
AcDbBlockEnd
  0
BLOCK
  5
5E
330
39
100
AcDbEntity
  8
0
100
AcDbBlockBegin
  2
508
 70
     0
 10
0.0
 20
0.0
 30
0.0
  3
508
  1

  0
LINE
  5
5F
330
39
100
AcDbEntity
  8
0
100
AcDbLine
 10
2.829427872759234
 20
6.122014526832687
 30
0.0
 11
2.669443272160874
 21
4.120343436086725
 31
0.0
  0
LINE
  5
60
330
39
100
AcDbEntity
  8
0
100
AcDbLine
 10
2.289976642405909
 20
4.232064396576635
 30
0.0
 11
2.558081804485994
 21
6.125
 31
0.0
  0
LWPOLYLINE
  5
61
330
39
100
AcDbEntity
  8
0
100
AcDbPolyline
 90
        4
 70
     0
 43
0.0
 10
3.183569903454914
 20
6.7525818868543
 42
0.2675741982864437
 10
2.718664354884904
 20
6.251696374551556
 10
2.475880333349485
 20
4.1655340605375
 42
-0.2958346038572658
 10
2.031637264655022
 20
3.62850217412372
 42
0.3779705503427391
  0
LINE
  5
67
330
39
100
AcDbEntity
  8
0
100
AcDbLine
 10
1.081105162080085
 20
4.232064396576635
 30
0.0
 11
0.8130000000000002
 21
6.125
 31
0.0
  0
LINE
  5
68
330
39
100
AcDbEntity
  8
0
100
AcDbLine
 10
0.5416539317267599
 20
6.122014526832687
 30
0.0
 11
0.7016385323251195
 21
4.120343436086725
 31
0.0
  0
LWPOLYLINE
  5
69
330
39
100
AcDbEntity
  8
0
100
AcDbPolyline
 90
        4
 70
     0
 43
0.0
 10
0.18751190103108
 20
6.7525818868543
 42
-0.2675741982864437
 10
0.65241744960109
 20
6.251696374551556
 10
0.8952014711365084
 20
4.1655340605375
 42
0.2958346038572658
 10
1.339444539830972
 20
3.62850217412372
 42
-0.3779705503427391
  0
LWPOLYLINE
  5
6F
330
39
100
AcDbEntity
  8
0
100
AcDbPolyline
 90
        3
 70
     0
 43
0.0
 10
1.685540902242997
 20
3.499407974576926
 42
-0.3410651748740453
 10
1.907662443902869
 20
3.716286230256057
 42
0.2081632372578966
 10
2.47071472800588
 20
4.160370291234078
 42
0.1314205290410889
  0
ARC
  5
74
330
39
100
AcDbEntity
  8
0
100
AcDbCircle
 10
2.106974200823644
 20
4.114444810057456
 30
0.0
 40
0.5625
100
AcDbArc
 50
280.314932312448
 51
0.6008401259017129
  0
ARC
  5
75
330
39
100
AcDbEntity
  8
0
100
AcDbCircle
 10
1.947901826364823
 20
4.273460235453251
 30
0.0
 40
0.34375
100
AcDbArc
 50
299.546623710508
 51
353.0834116307458
  0
ARC
  5
76
330
39
100
AcDbEntity
  8
0
100
AcDbCircle
 10
1.947901826364823
 20
2.476539764546748
 30
0.0
 40
0.34375
100
AcDbArc
 50
6.916588369254184
 51
60.45337628949192
  0
ARC
  5
77
330
39
100
AcDbEntity
  8
0
100
AcDbCircle
 10
2.106974200823644
 20
2.635555189942544
 30
0.0
 40
0.5625
100
AcDbArc
 50
359.3991598740982
 51
79.68506768755187
  0
LWPOLYLINE
  5
78
330
39
100
AcDbEntity
  8
0
100
AcDbPolyline
 90
        3
 70
     0
 43
0.0
 10
1.685540902242997
 20
3.250592025423073
 42
0.3410651748740453
 10
1.907662443902869
 20
3.033713769743942
 42
-0.2081632372578966
 10
2.47071472800588
 20
2.589629708765921
 42
-0.1314205290410889
  0
LWPOLYLINE
  5
7D
330
39
100
AcDbEntity
  8
0
100
AcDbPolyline
 90
        4
 70
     0
 43
0.0
 10
3.183569903454914
 20
-0.0025818868543007
 42
-0.2675741982864437
 10
2.718664354884904
 20
0.4983036254484431
 10
2.475880333349485
 20
2.5844659394625
 42
0.2958346038572658
 10
2.031637264655022
 20
3.121497825876279
 42
-0.3779705503427391
  0
LWPOLYLINE
  5
83
330
39
100
AcDbEntity
  8
0
100
AcDbPolyline
 90
        4
 70
     0
 43
0.0
 10
0.18751190103108
 20
-0.0025818868543007
 42
0.2675741982864437
 10
0.65241744960109
 20
0.4983036254484431
 10
0.8952014711365084
 20
2.5844659394625
 42
-0.2958346038572658
 10
1.339444539830972
 20
3.121497825876279
 42
0.3779705503427391
  0
LINE
  5
89
330
39
100
AcDbEntity
  8
0
100
AcDbLine
 10
0.5416539317267599
 20
0.6279854731673126
 30
0.0
 11
0.7016385323251195
 21
2.629656563913275
 31
0.0
  0
LINE
  5
8A
330
39
100
AcDbEntity
  8
0
100
AcDbLine
 10
1.081105162080085
 20
2.517935603423364
 30
0.0
 11
0.8130000000000002
 21
0.625
 31
0.0
  0
ARC
  5
8B
330
39
100
AcDbEntity
  8
0
100
AcDbCircle
 10
0.1880000000000002
 20
0.625
 30
0.0
 40
0.625
100
AcDbArc
 50
270.0
 51
0.0
  0
ARC
  5
8C
330
39
100
AcDbEntity
  8
0
100
AcDbCircle
 10
0.0180407470190667
 20
0.6213598208269239
 30
0.0
 40
0.5259560284188954
100
AcDbArc
 50
289.1260744269094
 51
0.7249658095161334
  0
LINE
  5
8D
330
39
100
AcDbEntity
  8
0
100
AcDbLine
 10
0.0
 20
0.125
 30
0.0
 11
0.188
 21
0.125
 31
0.0
  0
LINE
  5
8E
330
39
100
AcDbEntity
  8
0
100
AcDbLine
 10
0.188
 20
0.0
 30
0.0
 11
0.0
 21
0.0
 31
0.0
  0
LWPOLYLINE
  5
8F
330
39
100
AcDbEntity
  8
0
100
AcDbPolyline
 90
       16
 70
     1
 43
0.0
 10
1.721700227399921
 20
2.935602175004762
 42
-0.2597377899696624
 10
1.717065371737239
 20
2.93818405238986
 42
-0.0759699470477245
 10
1.710368072406846
 20
2.953908001180603
 42
-0.0363145827849831
 10
1.70703600622692
 20
2.972385651049503
 42
-0.0264598869221035
 10
1.705674140117801
 20
2.998102175004762
 42
-0.0264598869221067
 10
1.707036006226921
 20
3.023818698960023
 42
-0.0363145827849838
 10
1.710368072406846
 20
3.042296348828922
 42
-0.0759699470477278
 10
1.717065371737239
 20
3.058020297619665
 42
-0.2597377899696537
 10
1.721700227399921
 20
3.060602175004762
 42
-0.2597377899696601
 10
1.726335083062604
 20
3.058020297619664
 42
-0.0759699470477147
 10
1.733032382392996
 20
3.042296348828922
 42
-0.036314582784986
 10
1.736364448572922
 20
3.023818698960023
 42
-0.0264598869221071
 10
1.737726314682042
 20
2.998102175004762
 42
-0.0264598869221046
 10
1.736364448572922
 20
2.972385651049504
 42
-0.0363145827849884
 10
1.733032382392996
 20
2.953908001180603
 42
-0.0759699470477218
 10
1.726335083062604
 20
2.93818405238986
 42
-0.2597377899696428
  0
LWPOLYLINE
  5
A1
330
39
100
AcDbEntity
  8
0
100
AcDbPolyline
 90
       16
 70
     1
 43
0.0
 10
1.824686554719529
 20
2.909167520343019
 42
-0.2597377899696624
 10
1.820051699056847
 20
2.911749397728117
 42
-0.0759699470477245
 10
1.813354399726454
 20
2.92747334651886
 42
-0.0363145827849831
 10
1.810022333546529
 20
2.94595099638776
 42
-0.0264598869221035
 10
1.808660467437409
 20
2.971667520343019
 42
-0.1392414637641898
 10
1.810022333546529
 20
2.976367934202439
 42
-0.0363145827849838
 10
1.813354399726454
 20
2.994845584071337
 42
-0.0759699470477278
 10
1.820051699056847
 20
3.010569532862081
 42
-0.2597377899696537
 10
1.824686554719529
 20
3.013151410247178
 42
-0.2597377899696601
 10
1.829321410382212
 20
3.01056953286208
 42
-0.0759699470477147
 10
1.836018709712605
 20
2.994845584071337
 42
-0.036314582784986
 10
1.83935077589253
 20
2.976367934202438
 42
-0.139241463764202
 10
1.84071264200165
 20
2.971667520343019
 42
-0.0264598869221046
 10
1.83935077589253
 20
2.945950996387761
 42
-0.0363145827849884
 10
1.836018709712605
 20
2.92747334651886
 42
-0.0759699470477218
 10
1.829321410382212
 20
2.911749397728117
 42
-0.2597377899696428
  0
LWPOLYLINE
  5
B3
330
39
100
AcDbEntity
  8
0
100
AcDbPolyline
 90
       16
 70
     1
 43
0.0
 10
1.546395249766464
 20
2.909167520343019
 42
0.2597377899696624
 10
1.551030105429147
 20
2.911749397728117
 42
0.0759699470477245
 10
1.557727404759539
 20
2.92747334651886
 42
0.0363145827849831
 10
1.561059470939465
 20
2.94595099638776
 42
0.0264598869221035
 10
1.562421337048585
 20
2.971667520343019
 42
0.1392414637641898
 10
1.561059470939465
 20
2.976367934202439
 42
0.0363145827849838
 10
1.557727404759539
 20
2.994845584071337
 42
0.0759699470477278
 10
1.551030105429146
 20
3.010569532862081
 42
0.2597377899696537
 10
1.546395249766464
 20
3.013151410247178
 42
0.2597377899696601
 10
1.541760394103781
 20
3.01056953286208
 42
0.0759699470477147
 10
1.535063094773389
 20
2.994845584071337
 42
0.036314582784986
 10
1.531731028593464
 20
2.976367934202438
 42
0.139241463764202
 10
1.530369162484343
 20
2.971667520343019
 42
0.0264598869221046
 10
1.531731028593463
 20
2.945950996387761
 42
0.0363145827849884
 10
1.535063094773389
 20
2.92747334651886
 42
0.0759699470477218
 10
1.541760394103782
 20
2.911749397728117
 42
0.2597377899696428
  0
LWPOLYLINE
  5
C5
330
39
100
AcDbEntity
  8
0
100
AcDbPolyline
 90
       16
 70
     1
 43
0.0
 10
1.649381577086072
 20
2.935602175004762
 42
0.2597377899696624
 10
1.654016432748755
 20
2.93818405238986
 42
0.0759699470477245
 10
1.660713732079147
 20
2.953908001180603
 42
0.0363145827849831
 10
1.664045798259073
 20
2.972385651049503
 42
0.0264598869221035
 10
1.665407664368193
 20
2.998102175004762
 42
0.0264598869221067
 10
1.664045798259073
 20
3.023818698960023
 42
0.0363145827849838
 10
1.660713732079147
 20
3.042296348828922
 42
0.0759699470477278
 10
1.654016432748754
 20
3.058020297619665
 42
0.2597377899696537
 10
1.649381577086072
 20
3.060602175004762
 42
0.2597377899696601
 10
1.644746721423389
 20
3.058020297619664
 42
0.0759699470477147
 10
1.638049422092997
 20
3.042296348828922
 42
0.036314582784986
 10
1.634717355913072
 20
3.023818698960023
 42
0.0264598869221071
 10
1.633355489803951
 20
2.998102175004762
 42
0.0264598869221046
 10
1.634717355913071
 20
2.972385651049504
 42
0.0363145827849884
 10
1.638049422092997
 20
2.953908001180603
 42
0.0759699470477218
 10
1.64474672142339
 20
2.93818405238986
 42
0.2597377899696428
  0
LWPOLYLINE
  5
D7
330
39
100
AcDbEntity
  8
0
100
AcDbPolyline
 90
        3
 70
     0
 43
0.0
 10
1.685540902242997
 20
3.250592025423073
 42
-0.3410651748740453
 10
1.463419360583124
 20
3.033713769743942
 42
0.2081632372578966
 10
0.9003670764801141
 20
2.589629708765921
 42
0.1314205290410889
  0
ARC
  5
DC
330
39
100
AcDbEntity
  8
0
100
AcDbCircle
 10
1.26410760366235
 20
2.635555189942544
 30
0.0
 40
0.5625
100
AcDbArc
 50
100.3149323124481
 51
180.6008401259017
  0
ARC
  5
DD
330
39
100
AcDbEntity
  8
0
100
AcDbCircle
 10
1.6875
 20
1.875
 30
0.0
 40
1.0
100
AcDbArc
 50
90.0
 51
115.7647069510322
  0
ARC
  5
DE
330
39
100
AcDbEntity
  8
0
100
AcDbCircle
 10
1.423179978121171
 20
2.476539764546748
 30
0.0
 40
0.34375
100
AcDbArc
 50
119.546623710508
 51
173.0834116307458
  0
ARC
  5
DF
330
39
100
AcDbEntity
  8
0
100
AcDbCircle
 10
1.683581804485994
 20
1.875
 30
0.0
 40
1.0
100
AcDbArc
 50
64.23529304896772
 51
90.0
  0
LWPOLYLINE
  5
E0
330
39
100
AcDbEntity
  8
0
100
AcDbPolyline
 90
       16
 70
     1
 43
0.0
 10
1.32980156710776
 20
2.839302477761762
 42
0.2597377899696624
 10
1.333277708854772
 20
2.841238885800585
 42
0.0759699470477245
 10
1.338300683352566
 20
2.853031847393643
 42
0.0363145827849831
 10
1.34079973298751
 20
2.866890084795317
 42
0.0264598869221035
 10
1.34182113256935
 20
2.886177477761762
 42
0.0264598869221067
 10
1.34079973298751
 20
2.905464870728208
 42
0.0363145827849838
 10
1.338300683352566
 20
2.919323108129881
 42
0.0759699470477278
 10
1.333277708854772
 20
2.931116069722939
 42
0.2597377899696537
 10
1.32980156710776
 20
2.933052477761762
 42
0.2597377899696601
 10
1.326325425360748
 20
2.931116069722939
 42
0.0759699470477147
 10
1.321302450862954
 20
2.919323108129881
 42
0.036314582784986
 10
1.31880340122801
 20
2.905464870728207
 42
0.0264598869221071
 10
1.317782001646169
 20
2.886177477761762
 42
0.0264598869221046
 10
1.318803401228009
 20
2.866890084795318
 42
0.0363145827849884
 10
1.321302450862954
 20
2.853031847393643
 42
0.0759699470477218
 10
1.326325425360748
 20
2.841238885800585
 42
0.2597377899696428
  0
LWPOLYLINE
  5
F2
330
39
100
AcDbEntity
  8
0
100
AcDbPolyline
 90
       16
 70
     1
 43
0.0
 10
1.454441651149419
 20
2.879833541185536
 42
0.2597377899696624
 10
1.459076506812102
 20
2.882415418570633
 42
0.0759699470477245
 10
1.465773806142495
 20
2.898139367361376
 42
0.0363145827849831
 10
1.46910587232242
 20
2.916617017230276
 42
0.0264598869221035
 10
1.47046773843154
 20
2.942333541185536
 42
0.1392414637641898
 10
1.46910587232242
 20
2.947033955044955
 42
0.0363145827849838
 10
1.465773806142495
 20
2.965511604913853
 42
0.0759699470477278
 10
1.459076506812102
 20
2.981235553704597
 42
0.2597377899696537
 10
1.454441651149419
 20
2.983817431089694
 42
0.2597377899696601
 10
1.449806795486737
 20
2.981235553704596
 42
0.0759699470477147
 10
1.443109496156344
 20
2.965511604913853
 42
0.036314582784986
 10
1.439777429976419
 20
2.947033955044954
 42
0.139241463764202
 10
1.438415563867299
 20
2.942333541185536
 42
0.0264598869221046
 10
1.439777429976419
 20
2.916617017230277
 42
0.0363145827849884
 10
1.443109496156344
 20
2.898139367361376
 42
0.0759699470477218
 10
1.449806795486737
 20
2.882415418570633
 42
0.2597377899696428
  0
LWPOLYLINE
  5
104
330
39
100
AcDbEntity
  8
0
100
AcDbPolyline
 90
       16
 70
     1
 43
0.0
 10
1.916640153336574
 20
2.879833541185536
 42
-0.2597377899696624
 10
1.912005297673891
 20
2.882415418570633
 42
-0.0759699470477245
 10
1.905307998343499
 20
2.898139367361376
 42
-0.0363145827849831
 10
1.901975932163573
 20
2.916617017230276
 42
-0.0264598869221035
 10
1.900614066054453
 20
2.942333541185536
 42
-0.1392414637641898
 10
1.901975932163573
 20
2.947033955044955
 42
-0.0363145827849838
 10
1.905307998343499
 20
2.965511604913853
 42
-0.0759699470477278
 10
1.912005297673892
 20
2.981235553704597
 42
-0.2597377899696537
 10
1.916640153336574
 20
2.983817431089694
 42
-0.2597377899696601
 10
1.921275008999257
 20
2.981235553704596
 42
-0.0759699470477147
 10
1.927972308329649
 20
2.965511604913853
 42
-0.036314582784986
 10
1.931304374509575
 20
2.947033955044954
 42
-0.139241463764202
 10
1.932666240618695
 20
2.942333541185536
 42
-0.0264598869221046
 10
1.931304374509575
 20
2.916617017230277
 42
-0.0363145827849884
 10
1.927972308329649
 20
2.898139367361376
 42
-0.0759699470477218
 10
1.921275008999256
 20
2.882415418570633
 42
-0.2597377899696428
  0
LWPOLYLINE
  5
116
330
39
100
AcDbEntity
  8
0
100
AcDbPolyline
 90
       16
 70
     1
 43
0.0
 10
2.041280237378233
 20
2.839302477761762
 42
-0.2597377899696624
 10
2.037804095631222
 20
2.841238885800585
 42
-0.0759699470477245
 10
2.032781121133427
 20
2.853031847393643
 42
-0.0363145827849831
 10
2.030282071498483
 20
2.866890084795317
 42
-0.0264598869221035
 10
2.029260671916643
 20
2.886177477761762
 42
-0.0264598869221067
 10
2.030282071498483
 20
2.905464870728208
 42
-0.0363145827849838
 10
2.032781121133427
 20
2.919323108129881
 42
-0.0759699470477278
 10
2.037804095631222
 20
2.931116069722939
 42
-0.2597377899696537
 10
2.041280237378233
 20
2.933052477761762
 42
-0.2597377899696601
 10
2.044756379125246
 20
2.931116069722939
 42
-0.0759699470477147
 10
2.04977935362304
 20
2.919323108129881
 42
-0.036314582784986
 10
2.052278403257984
 20
2.905464870728207
 42
-0.0264598869221071
 10
2.053299802839824
 20
2.886177477761762
 42
-0.0264598869221046
 10
2.052278403257984
 20
2.866890084795318
 42
-0.0363145827849884
 10
2.04977935362304
 20
2.853031847393643
 42
-0.0759699470477218
 10
2.044756379125245
 20
2.841238885800585
 42
-0.2597377899696428
  0
ARC
  5
128
330
39
100
AcDbEntity
  8
0
100
AcDbCircle
 10
1.1245
 20
3.375
 30
0.0
 40
0.188
100
AcDbArc
 50
0.0
 51
78.07790547466057
  0
ARC
  5
129
330
39
100
AcDbEntity
  8
0
100
AcDbCircle
 10
1.6875
 20
4.875
 30
0.0
 40
1.0
100
AcDbArc
 50
244.2352930489676
 51
270.0
  0
LWPOLYLINE
  5
12A
330
39
100
AcDbEntity
  8
0
100
AcDbPolyline
 90
        3
 70
     0
 43
0.0
 10
1.685540902242997
 20
3.499407974576926
 42
0.3410651748740453
 10
1.463419360583124
 20
3.716286230256057
 42
-0.2081632372578966
 10
0.9003670764801141
 20
4.160370291234078
 42
-0.1314205290410889
  0
ARC
  5
12F
330
39
100
AcDbEntity
  8
0
100
AcDbCircle
 10
1.1245
 20
3.375
 30
0.0
 40
0.188
100
AcDbArc
 50
281.9220945253394
 51
0.0
  0
ARC
  5
130
330
39
100
AcDbEntity
  8
0
100
AcDbCircle
 10
1.26410760366235
 20
4.114444810057456
 30
0.0
 40
0.5625
100
AcDbArc
 50
179.3991598740983
 51
259.6850676875518
  0
ARC
  5
131
330
39
100
AcDbEntity
  8
0
100
AcDbCircle
 10
1.423179978121171
 20
4.273460235453251
 30
0.0
 40
0.34375
100
AcDbArc
 50
186.9165883692541
 51
240.4533762894919
  0
LWPOLYLINE
  5
132
330
39
100
AcDbEntity
  8
0
100
AcDbPolyline
 90
       16
 70
     1
 43
0.0
 10
1.721700227399921
 20
3.814397824995237
 42
0.2597377899696624
 10
1.717065371737239
 20
3.811815947610139
 42
0.0759699470477245
 10
1.710368072406846
 20
3.796091998819396
 42
0.0363145827849831
 10
1.70703600622692
 20
3.777614348950497
 42
0.0264598869221035
 10
1.705674140117801
 20
3.751897824995237
 42
0.0264598869221067
 10
1.707036006226921
 20
3.726181301039976
 42
0.0363145827849838
 10
1.710368072406846
 20
3.707703651171078
 42
0.0759699470477278
 10
1.717065371737239
 20
3.691979702380334
 42
0.2597377899696537
 10
1.721700227399921
 20
3.689397824995237
 42
0.2597377899696601
 10
1.726335083062604
 20
3.691979702380335
 42
0.0759699470477147
 10
1.733032382392996
 20
3.707703651171078
 42
0.036314582784986
 10
1.736364448572922
 20
3.726181301039977
 42
0.0264598869221071
 10
1.737726314682042
 20
3.751897824995237
 42
0.0264598869221046
 10
1.736364448572922
 20
3.777614348950495
 42
0.0363145827849884
 10
1.733032382392996
 20
3.796091998819396
 42
0.0759699470477218
 10
1.726335083062604
 20
3.81181594761014
 42
0.2597377899696428
  0
LWPOLYLINE
  5
144
330
39
100
AcDbEntity
  8
0
100
AcDbPolyline
 90
       16
 70
     1
 43
0.0
 10
1.649381577086072
 20
3.814397824995237
 42
-0.2597377899696624
 10
1.654016432748755
 20
3.811815947610139
 42
-0.0759699470477245
 10
1.660713732079147
 20
3.796091998819396
 42
-0.0363145827849831
 10
1.664045798259073
 20
3.777614348950497
 42
-0.0264598869221035
 10
1.665407664368193
 20
3.751897824995237
 42
-0.0264598869221067
 10
1.664045798259073
 20
3.726181301039976
 42
-0.0363145827849838
 10
1.660713732079147
 20
3.707703651171078
 42
-0.0759699470477278
 10
1.654016432748754
 20
3.691979702380334
 42
-0.2597377899696537
 10
1.649381577086072
 20
3.689397824995237
 42
-0.2597377899696601
 10
1.644746721423389
 20
3.691979702380335
 42
-0.0759699470477147
 10
1.638049422092997
 20
3.707703651171078
 42
-0.036314582784986
 10
1.634717355913072
 20
3.726181301039977
 42
-0.0264598869221071
 10
1.633355489803951
 20
3.751897824995237
 42
-0.0264598869221046
 10
1.634717355913071
 20
3.777614348950495
 42
-0.0363145827849884
 10
1.638049422092997
 20
3.796091998819396
 42
-0.0759699470477218
 10
1.64474672142339
 20
3.81181594761014
 42
-0.2597377899696428
  0
ARC
  5
156
330
39
100
AcDbEntity
  8
0
100
AcDbCircle
 10
1.217897059506289
 20
3.375121693377135
 30
0.0
 40
0.2816029667883181
100
AcDbArc
 50
295.767000481912
 51
359.9752399017627
  0
ARC
  5
157
330
39
100
AcDbEntity
  8
0
100
AcDbCircle
 10
1.217897059506289
 20
3.374878306622864
 30
0.0
 40
0.2816029667883181
100
AcDbArc
 50
0.024760098237314
 51
64.23299951808795
  0
ARC
  5
158
330
39
100
AcDbEntity
  8
0
100
AcDbCircle
 10
2.153184744979705
 20
3.375121693377135
 30
0.0
 40
0.2816029667883181
100
AcDbArc
 50
180.0247600982372
 51
244.2329995180879
  0
ARC
  5
159
330
39
100
AcDbEntity
  8
0
100
AcDbCircle
 10
2.246581804485994
 20
3.375
 30
0.0
 40
0.188
100
AcDbArc
 50
180.0
 51
258.0779054746605
  0
ARC
  5
15A
330
39
100
AcDbEntity
  8
0
100
AcDbCircle
 10
2.153184744979705
 20
3.374878306622864
 30
0.0
 40
0.2816029667883181
100
AcDbArc
 50
115.767000481912
 51
179.9752399017626
  0
ARC
  5
15B
330
39
100
AcDbEntity
  8
0
100
AcDbCircle
 10
2.246581804485994
 20
3.375
 30
0.0
 40
0.188
100
AcDbArc
 50
101.9220945253394
 51
180.0
  0
ARC
  5
15C
330
39
100
AcDbEntity
  8
0
100
AcDbCircle
 10
1.683581804485994
 20
4.875
 30
0.0
 40
1.0
100
AcDbArc
 50
270.0
 51
295.7647069510322
  0
LWPOLYLINE
  5
15D
330
39
100
AcDbEntity
  8
0
100
AcDbPolyline
 90
       16
 70
     1
 43
0.0
 10
1.546395249766464
 20
3.84083247965698
 42
-0.2597377899696624
 10
1.551030105429147
 20
3.838250602271882
 42
-0.0759699470477245
 10
1.557727404759539
 20
3.822526653481139
 42
-0.0363145827849831
 10
1.561059470939465
 20
3.80404900361224
 42
-0.0264598869221035
 10
1.562421337048585
 20
3.77833247965698
 42
-0.1392414637641898
 10
1.561059470939465
 20
3.773632065797561
 42
-0.0363145827849838
 10
1.557727404759539
 20
3.755154415928662
 42
-0.0759699470477278
 10
1.551030105429146
 20
3.739430467137919
 42
-0.2597377899696537
 10
1.546395249766464
 20
3.736848589752821
 42
-0.2597377899696601
 10
1.541760394103781
 20
3.739430467137919
 42
-0.0759699470477147
 10
1.535063094773389
 20
3.755154415928662
 42
-0.036314582784986
 10
1.531731028593464
 20
3.773632065797561
 42
-0.139241463764202
 10
1.530369162484343
 20
3.77833247965698
 42
-0.0264598869221046
 10
1.531731028593463
 20
3.804049003612238
 42
-0.0363145827849884
 10
1.535063094773389
 20
3.822526653481139
 42
-0.0759699470477218
 10
1.541760394103782
 20
3.838250602271883
 42
-0.2597377899696428
  0
LWPOLYLINE
  5
16F
330
39
100
AcDbEntity
  8
0
100
AcDbPolyline
 90
       16
 70
     1
 43
0.0
 10
1.32980156710776
 20
3.910697522238237
 42
-0.2597377899696624
 10
1.333277708854772
 20
3.908761114199414
 42
-0.0759699470477245
 10
1.338300683352566
 20
3.896968152606357
 42
-0.0363145827849831
 10
1.34079973298751
 20
3.883109915204682
 42
-0.0264598869221035
 10
1.34182113256935
 20
3.863822522238237
 42
-0.0264598869221067
 10
1.34079973298751
 20
3.844535129271792
 42
-0.0363145827849838
 10
1.338300683352566
 20
3.830676891870118
 42
-0.0759699470477278
 10
1.333277708854772
 20
3.81888393027706
 42
-0.2597377899696537
 10
1.32980156710776
 20
3.816947522238237
 42
-0.2597377899696601
 10
1.326325425360748
 20
3.818883930277061
 42
-0.0759699470477147
 10
1.321302450862954
 20
3.830676891870118
 42
-0.036314582784986
 10
1.31880340122801
 20
3.844535129271792
 42
-0.0264598869221071
 10
1.317782001646169
 20
3.863822522238237
 42
-0.0264598869221046
 10
1.318803401228009
 20
3.883109915204681
 42
-0.0363145827849884
 10
1.321302450862954
 20
3.896968152606357
 42
-0.0759699470477218
 10
1.326325425360748
 20
3.908761114199414
 42
-0.2597377899696428
  0
LWPOLYLINE
  5
181
330
39
100
AcDbEntity
  8
0
100
AcDbPolyline
 90
       16
 70
     1
 43
0.0
 10
1.454441651149419
 20
3.870166458814464
 42
-0.2597377899696624
 10
1.459076506812102
 20
3.867584581429366
 42
-0.0759699470477245
 10
1.465773806142495
 20
3.851860632638623
 42
-0.0363145827849831
 10
1.46910587232242
 20
3.833382982769724
 42
-0.0264598869221035
 10
1.47046773843154
 20
3.807666458814464
 42
-0.1392414637641898
 10
1.46910587232242
 20
3.802966044955045
 42
-0.0363145827849838
 10
1.465773806142495
 20
3.784488395086146
 42
-0.0759699470477278
 10
1.459076506812102
 20
3.768764446295402
 42
-0.2597377899696537
 10
1.454441651149419
 20
3.766182568910305
 42
-0.2597377899696601
 10
1.449806795486737
 20
3.768764446295403
 42
-0.0759699470477147
 10
1.443109496156344
 20
3.784488395086146
 42
-0.036314582784986
 10
1.439777429976419
 20
3.802966044955045
 42
-0.139241463764202
 10
1.438415563867299
 20
3.807666458814464
 42
-0.0264598869221046
 10
1.439777429976419
 20
3.833382982769722
 42
-0.0363145827849884
 10
1.443109496156344
 20
3.851860632638623
 42
-0.0759699470477218
 10
1.449806795486737
 20
3.867584581429367
 42
-0.2597377899696428
  0
LWPOLYLINE
  5
193
330
39
100
AcDbEntity
  8
0
100
AcDbPolyline
 90
       16
 70
     1
 43
0.0
 10
1.824686554719529
 20
3.84083247965698
 42
0.2597377899696624
 10
1.820051699056847
 20
3.838250602271882
 42
0.0759699470477245
 10
1.813354399726454
 20
3.822526653481139
 42
0.0363145827849831
 10
1.810022333546529
 20
3.80404900361224
 42
0.0264598869221035
 10
1.808660467437409
 20
3.77833247965698
 42
0.1392414637641898
 10
1.810022333546529
 20
3.773632065797561
 42
0.0363145827849838
 10
1.813354399726454
 20
3.755154415928662
 42
0.0759699470477278
 10
1.820051699056847
 20
3.739430467137919
 42
0.2597377899696537
 10
1.824686554719529
 20
3.736848589752821
 42
0.2597377899696601
 10
1.829321410382212
 20
3.739430467137919
 42
0.0759699470477147
 10
1.836018709712605
 20
3.755154415928662
 42
0.036314582784986
 10
1.83935077589253
 20
3.773632065797561
 42
0.139241463764202
 10
1.84071264200165
 20
3.77833247965698
 42
0.0264598869221046
 10
1.83935077589253
 20
3.804049003612238
 42
0.0363145827849884
 10
1.836018709712605
 20
3.822526653481139
 42
0.0759699470477218
 10
1.829321410382212
 20
3.838250602271883
 42
0.2597377899696428
  0
LWPOLYLINE
  5
1A5
330
39
100
AcDbEntity
  8
0
100
AcDbPolyline
 90
       16
 70
     1
 43
0.0
 10
1.916640153336574
 20
3.870166458814464
 42
0.2597377899696624
 10
1.912005297673891
 20
3.867584581429366
 42
0.0759699470477245
 10
1.905307998343499
 20
3.851860632638623
 42
0.0363145827849831
 10
1.901975932163573
 20
3.833382982769724
 42
0.0264598869221035
 10
1.900614066054453
 20
3.807666458814464
 42
0.1392414637641898
 10
1.901975932163573
 20
3.802966044955045
 42
0.0363145827849838
 10
1.905307998343499
 20
3.784488395086146
 42
0.0759699470477278
 10
1.912005297673892
 20
3.768764446295402
 42
0.2597377899696537
 10
1.916640153336574
 20
3.766182568910305
 42
0.2597377899696601
 10
1.921275008999257
 20
3.768764446295403
 42
0.0759699470477147
 10
1.927972308329649
 20
3.784488395086146
 42
0.036314582784986
 10
1.931304374509575
 20
3.802966044955045
 42
0.139241463764202
 10
1.932666240618695
 20
3.807666458814464
 42
0.0264598869221046
 10
1.931304374509575
 20
3.833382982769722
 42
0.0363145827849884
 10
1.927972308329649
 20
3.851860632638623
 42
0.0759699470477218
 10
1.921275008999256
 20
3.867584581429367
 42
0.2597377899696428
  0
LWPOLYLINE
  5
1B7
330
39
100
AcDbEntity
  8
0
100
AcDbPolyline
 90
       16
 70
     1
 43
0.0
 10
2.041280237378233
 20
3.910697522238237
 42
0.2597377899696624
 10
2.037804095631222
 20
3.908761114199414
 42
0.0759699470477245
 10
2.032781121133427
 20
3.896968152606357
 42
0.0363145827849831
 10
2.030282071498483
 20
3.883109915204682
 42
0.0264598869221035
 10
2.029260671916643
 20
3.863822522238237
 42
0.0264598869221067
 10
2.030282071498483
 20
3.844535129271792
 42
0.0363145827849838
 10
2.032781121133427
 20
3.830676891870118
 42
0.0759699470477278
 10
2.037804095631222
 20
3.81888393027706
 42
0.2597377899696537
 10
2.041280237378233
 20
3.816947522238237
 42
0.2597377899696601
 10
2.044756379125246
 20
3.818883930277061
 42
0.0759699470477147
 10
2.04977935362304
 20
3.830676891870118
 42
0.036314582784986
 10
2.052278403257984
 20
3.844535129271792
 42
0.0264598869221071
 10
2.053299802839824
 20
3.863822522238237
 42
0.0264598869221046
 10
2.052278403257984
 20
3.883109915204681
 42
0.0363145827849884
 10
2.04977935362304
 20
3.896968152606357
 42
0.0759699470477218
 10
2.044756379125245
 20
3.908761114199414
 42
0.2597377899696428
  0
LINE
  5
1C9
330
39
100
AcDbEntity
  8
0
100
AcDbLine
 10
2.289976642405909
 20
2.517935603423364
 30
0.0
 11
2.558081804485994
 21
0.625
 31
0.0
  0
LINE
  5
1CA
330
39
100
AcDbEntity
  8
0
100
AcDbLine
 10
2.829427872759234
 20
0.6279854731673126
 30
0.0
 11
2.669443272160874
 21
2.629656563913275
 31
0.0
  0
ARC
  5
1CB
330
39
100
AcDbEntity
  8
0
100
AcDbCircle
 10
3.353041057466927
 20
0.6213598208269239
 30
0.0
 40
0.5259560284188954
100
AcDbArc
 50
179.2750341904838
 51
250.8739255730905
  0
ARC
  5
1CC
330
39
100
AcDbEntity
  8
0
100
AcDbCircle
 10
3.183081804485994
 20
0.625
 30
0.0
 40
0.625
100
AcDbArc
 50
180.0
 51
270.0
  0
LINE
  5
1CD
330
39
100
AcDbEntity
  8
0
100
AcDbLine
 10
3.371081804485994
 20
0.125
 30
0.0
 11
3.183081804485994
 21
0.125
 31
0.0
  0
LINE
  5
1CE
330
39
100
AcDbEntity
  8
0
100
AcDbLine
 10
3.183081804485994
 20
0.0
 30
0.0
 11
3.371081804485994
 21
0.0
 31
0.0
  0
ARC
  5
1CF
330
39
100
AcDbEntity
  8
0
100
AcDbCircle
 10
0.0180407470190667
 20
6.128640179173076
 30
0.0
 40
0.5259560284188954
100
AcDbArc
 50
359.2750341904839
 51
70.87392557309056
  0
ARC
  5
1D0
330
39
100
AcDbEntity
  8
0
100
AcDbCircle
 10
0.1880000000000002
 20
6.125
 30
0.0
 40
0.625
100
AcDbArc
 50
0.0
 51
90.00000000000003
  0
LINE
  5
1D1
330
39
100
AcDbEntity
  8
0
100
AcDbLine
 10
0.0
 20
6.625
 30
0.0
 11
0.188
 21
6.625
 31
0.0
  0
LINE
  5
1D2
330
39
100
AcDbEntity
  8
0
100
AcDbLine
 10
0.188
 20
6.75
 30
0.0
 11
0.0
 21
6.75
 31
0.0
  0
LINE
  5
1D3
330
39
100
AcDbEntity
  8
0
100
AcDbLine
 10
3.183081804485994
 20
6.75
 30
0.0
 11
3.371081804485994
 21
6.75
 31
0.0
  0
LINE
  5
1D4
330
39
100
AcDbEntity
  8
0
100
AcDbLine
 10
3.371081804485994
 20
6.625
 30
0.0
 11
3.183081804485994
 21
6.625
 31
0.0
  0
ARC
  5
1D5
330
39
100
AcDbEntity
  8
0
100
AcDbCircle
 10
3.183081804485994
 20
6.125
 30
0.0
 40
0.625
100
AcDbArc
 50
90.00000000000003
 51
180.0
  0
ARC
  5
1D6
330
39
100
AcDbEntity
  8
0
100
AcDbCircle
 10
3.353041057466927
 20
6.128640179173076
 30
0.0
 40
0.5259560284188954
100
AcDbArc
 50
109.1260744269094
 51
180.7249658095161
  0
ENDBLK
  5
1D7
330
39
100
AcDbEntity
  8
0
100
AcDbBlockEnd
  0
BLOCK
  5
1D8
330
50
100
AcDbEntity
  8
0
100
AcDbBlockBegin
  2
*D1
 70
     1
 10
0.0
 20
0.0
 30
0.0
  3
*D1
  1

  0
LINE
  5
1D9
330
50
100
AcDbEntity
  8
0
  6
BYBLOCK
 62
     0
100
AcDbLine
 10
55.95274801486741
 20
-1.658309404660311
 30
0.0
 11
56.97424956384487
 21
-1.658309404660311
 31
0.0
  0
LINE
  5
1DA
330
50
100
AcDbEntity
  8
0
  6
BYBLOCK
 62
     0
100
AcDbLine
 10
55.95274801486741
 20
25.34169059533969
 30
0.0
 11
56.97424956384487
 21
25.34169059533969
 31
0.0
  0
LINE
  5
1DB
330
50
100
AcDbEntity
  8
0
  6
BYBLOCK
 62
     0
100
AcDbLine
 10
56.79424956384488
 20
-1.658309404660311
 30
0.0
 11
56.79424956384488
 21
11.61252392867302
 31
0.0
  0
LINE
  5
1DC
330
50
100
AcDbEntity
  8
0
  6
BYBLOCK
 62
     0
100
AcDbLine
 10
56.79424956384488
 20
25.34169059533969
 30
0.0
 11
56.79424956384488
 21
12.07085726200635
 31
0.0
  0
LINE
  5
1DD
330
50
100
AcDbEntity
  8
0
  6
BYBLOCK
 62
     0
100
AcDbLine
 10
56.91924956384488
 20
-1.783309404660311
 30
0.0
 11
56.66924956384487
 21
-1.533309404660311
 31
0.0
  0
LINE
  5
1DE
330
50
100
AcDbEntity
  8
0
  6
BYBLOCK
 62
     0
100
AcDbLine
 10
56.91924956384488
 20
25.21669059533969
 30
0.0
 11
56.66924956384487
 21
25.46669059533968
 31
0.0
  0
TEXT
  5
1DF
330
50
100
AcDbEntity
  8
0
  6
BYBLOCK
 62
     0
100
AcDbText
 10
56.85674956384488
 20
11.73752392867302
 30
0.0
 40
0.125
  1
27
 50
90.0
 72
     1
 11
56.79424956384488
 21
11.84169059533968
 31
0.0
100
AcDbText
 73
     2
  0
POINT
  5
1E1
330
50
100
AcDbEntity
  8
DEFPOINTS
  6
BYBLOCK
 62
     0
100
AcDbPoint
 10
55.89024801486742
 20
-1.658309404660311
 30
0.0
  0
POINT
  5
1E2
330
50
100
AcDbEntity
  8
DEFPOINTS
  6
BYBLOCK
 62
     0
100
AcDbPoint
 10
55.89024801486742
 20
25.34169059533969
 30
0.0
  0
POINT
  5
1E3
330
50
100
AcDbEntity
  8
DEFPOINTS
  6
BYBLOCK
 62
     0
100
AcDbPoint
 10
56.79424956384488
 20
25.34169059533969
 30
0.0
  0
ENDBLK
  5
1E4
330
50
100
AcDbEntity
  8
0
100
AcDbBlockEnd
  0
BLOCK
  5
1E5
330
51
100
AcDbEntity
  8
0
100
AcDbBlockBegin
  2
*D2
 70
     1
 10
0.0
 20
0.0
 30
0.0
  3
*D2
  1

  0
LINE
  5
1E6
330
51
100
AcDbEntity
  8
0
  6
BYBLOCK
 62
     0
100
AcDbLine
 10
40.12044660301869
 20
27.07469226670726
 30
0.0
 11
40.12044660301869
 21
27.59388059780636
 31
0.0
  0
LINE
  5
1E7
330
51
100
AcDbEntity
  8
0
  6
BYBLOCK
 62
     0
100
AcDbLine
 10
53.62044660301869
 20
27.07469226670726
 30
0.0
 11
53.62044660301869
 21
27.59388059780636
 31
0.0
  0
LINE
  5
1E8
330
51
100
AcDbEntity
  8
0
  6
BYBLOCK
 62
     0
100
AcDbLine
 10
40.12044660301869
 20
27.41388059780637
 30
0.0
 11
46.43294660301869
 21
27.41388059780637
 31
0.0
  0
LINE
  5
1E9
330
51
100
AcDbEntity
  8
0
  6
BYBLOCK
 62
     0
100
AcDbLine
 10
53.62044660301869
 20
27.41388059780637
 30
0.0
 11
47.30794660301869
 21
27.41388059780637
 31
0.0
  0
LINE
  5
1EA
330
51
100
AcDbEntity
  8
0
  6
BYBLOCK
 62
     0
100
AcDbLine
 10
39.99544660301869
 20
27.28888059780636
 30
0.0
 11
40.24544660301869
 21
27.53888059780637
 31
0.0
  0
LINE
  5
1EB
330
51
100
AcDbEntity
  8
0
  6
BYBLOCK
 62
     0
100
AcDbLine
 10
53.49544660301869
 20
27.28888059780636
 30
0.0
 11
53.74544660301869
 21
27.53888059780637
 31
0.0
  0
TEXT
  5
1EC
330
51
100
AcDbEntity
  8
0
  6
BYBLOCK
 62
     0
100
AcDbText
 10
46.55794660301869
 20
27.35138059780636
 30
0.0
 40
0.125
  1
13 1/2
 72
     1
 11
46.87044660301869
 21
27.41388059780637
 31
0.0
100
AcDbText
 73
     2
  0
POINT
  5
1ED
330
51
100
AcDbEntity
  8
DEFPOINTS
  6
BYBLOCK
 62
     0
100
AcDbPoint
 10
40.12044660301869
 20
27.01219226670726
 30
0.0
  0
POINT
  5
1EE
330
51
100
AcDbEntity
  8
DEFPOINTS
  6
BYBLOCK
 62
     0
100
AcDbPoint
 10
53.62044660301869
 20
27.01219226670726
 30
0.0
  0
POINT
  5
1EF
330
51
100
AcDbEntity
  8
DEFPOINTS
  6
BYBLOCK
 62
     0
100
AcDbPoint
 10
53.62044660301869
 20
27.41388059780637
 30
0.0
  0
ENDBLK
  5
1F0
330
51
100
AcDbEntity
  8
0
100
AcDbBlockEnd
  0
ENDSEC
  0
SECTION
  2
ENTITIES
  0
INSERT
  5
1F1
330
1E
100
AcDbEntity
  8
0
100
AcDbBlockReference
  2
508
 10
53.4105619331782
 20
19.00179211183059
 30
0.0
 50
180.0
  0
INSERT
  5
1F2
330
1E
100
AcDbEntity
  8
0
100
AcDbBlockReference
  2
508
 10
39.92623471523422
 20
19.00179211183059
 30
0.0
 41
-1.0
 50
180.0
  0
INSERT
  5
1F3
330
1E
100
AcDbEntity
  8
0
100
AcDbBlockReference
  2
508
 10
46.66839832420621
 20
19.00179211183059
 30
0.0
 50
180.0
  0
INSERT
  5
1F4
330
1E
100
AcDbEntity
  8
0
100
AcDbBlockReference
  2
508
 10
46.66839832420621
 20
19.00179211183059
 30
0.0
 41
-1.0
 50
180.0
  0
DIMENSION
  5
1F5
330
1E
100
AcDbEntity
  8
ADPDIM
100
AcDbDimension
  2
*D1
 10
54.31456348215566
 20
25.746628338122
 30
0.0
 11
54.31456348215566
 21
12.246628338122
 31
0.0
 12
-2.479686081689216
 22
0.4049377427823116
 32
0.0
100
AcDbAlignedDimension
 13
53.4105619331782
 23
-1.253371661878
 33
0.0
 14
53.4105619331782
 24
25.746628338122
 34
0.0
 50
90.0
100
AcDbRotatedDimension
  0
INSERT
  5
1F6
330
1E
100
AcDbEntity
  8
0
100
AcDbBlockReference
  2
508
 10
53.4105619331782
 20
5.496628338122
 30
0.0
 50
180.0
  0
INSERT
  5
1F7
330
1E
100
AcDbEntity
  8
0
100
AcDbBlockReference
  2
508
 10
46.66839832420621
 20
5.496628338122
 30
0.0
 41
-1.0
 50
180.0
  0
INSERT
  5
1F8
330
1E
100
AcDbEntity
  8
0
100
AcDbBlockReference
  2
508
 10
39.92623471523422
 20
5.496628338122
 30
0.0
 41
-1.0
 50
180.0
  0
INSERT
  5
1F9
330
1E
100
AcDbEntity
  8
0
100
AcDbBlockReference
  2
508
 10
46.66839832420621
 20
5.496628338122
 30
0.0
 50
180.0
  0
LINE
  5
1FA
330
1E
100
AcDbEntity
  8
0
100
AcDbLine
 10
39.92623471523422
 20
-1.128371661877999
 30
0.0
 11
39.92623471523422
 21
-1.253371661877999
 31
0.0
  0
LINE
  5
1FB
330
1E
100
AcDbEntity
  8
0
100
AcDbLine
 10
53.4105619331782
 20
-1.128371661878
 30
0.0
 11
53.4105619331782
 21
-1.253371661878
 31
0.0
  0
INSERT
  5
1FC
330
1E
100
AcDbEntity
  8
0
100
AcDbBlockReference
  2
508
 10
53.4105619331782
 20
5.496628338121998
 30
0.0
 41
-1.0
  0
INSERT
  5
1FD
330
1E
100
AcDbEntity
  8
0
100
AcDbBlockReference
  2
508
 10
46.66839832420621
 20
5.496628338121998
 30
0.0
  0
INSERT
  5
1FE
330
1E
100
AcDbEntity
  8
0
100
AcDbBlockReference
  2
508
 10
39.92623471523422
 20
5.496628338121998
 30
0.0
  0
INSERT
  5
1FF
330
1E
100
AcDbEntity
  8
0
100
AcDbBlockReference
  2
508
 10
46.66839832420621
 20
5.496628338121998
 30
0.0
 41
-1.0
  0
LINE
  5
200
330
1E
100
AcDbEntity
  8
0
100
AcDbLine
 10
39.92623471523422
 20
5.621628338121998
 30
0.0
 11
39.92623471523422
 21
5.371628338122
 31
0.0
  0
LINE
  5
201
330
1E
100
AcDbEntity
  8
0
100
AcDbLine
 10
53.4105619331782
 20
5.621628338121998
 30
0.0
 11
53.4105619331782
 21
5.371628338122
 31
0.0
  0
LINE
  5
202
330
1E
100
AcDbEntity
  8
0
100
AcDbLine
 10
39.92623471523422
 20
12.3767921118306
 30
0.0
 11
39.92623471523422
 21
12.12162833812199
 31
0.0
  0
LINE
  5
203
330
1E
100
AcDbEntity
  8
0
100
AcDbLine
 10
53.4105619331782
 20
12.37679211183059
 30
0.0
 11
53.4105619331782
 21
12.12162833812199
 31
0.0
  0
INSERT
  5
204
330
1E
100
AcDbEntity
  8
0
100
AcDbBlockReference
  2
508
 10
53.4105619331782
 20
19.00179211183059
 30
0.0
 41
-1.0
  0
INSERT
  5
205
330
1E
100
AcDbEntity
  8
0
100
AcDbBlockReference
  2
508
 10
46.66839832420621
 20
19.00179211183059
 30
0.0
  0
INSERT
  5
206
330
1E
100
AcDbEntity
  8
0
100
AcDbBlockReference
  2
508
 10
39.92623471523422
 20
19.00179211183059
 30
0.0
  0
INSERT
  5
207
330
1E
100
AcDbEntity
  8
0
100
AcDbBlockReference
  2
508
 10
46.66839832420621
 20
19.00179211183059
 30
0.0
 41
-1.0
  0
LINE
  5
208
330
1E
100
AcDbEntity
  8
0
100
AcDbLine
 10
39.92623471523422
 20
19.1267921118306
 30
0.0
 11
39.92623471523422
 21
18.87679211183059
 31
0.0
  0
LINE
  5
209
330
1E
100
AcDbEntity
  8
0
100
AcDbLine
 10
53.4105619331782
 20
19.1267921118306
 30
0.0
 11
53.4105619331782
 21
18.87679211183059
 31
0.0
  0
DIMENSION
  5
20A
330
1E
100
AcDbEntity
  8
ADPDIM
100
AcDbDimension
  2
*D2
 10
53.4105619331782
 20
26.1534804429297
 30
0.0
 11
46.6605619331782
 21
26.1534804429297
 31
0.0
 12
-0.2098846698404913
 22
-1.260400154876663
 32
0.0
100
AcDbAlignedDimension
 13
39.9105619331782
 23
25.7517921118306
 33
0.0
 14
53.4105619331782
 24
25.7517921118306
 34
0.0
100
AcDbRotatedDimension
  0
LINE
  5
20B
330
1E
100
AcDbEntity
  8
0
100
AcDbLine
 10
39.92623471523422
 20
25.6267921118306
 30
0.0
 11
39.92623471523422
 21
25.7517921118306
 31
0.0
  0
LINE
  5
20C
330
1E
100
AcDbEntity
  8
0
100
AcDbLine
 10
53.4105619331782
 20
25.6267921118306
 30
0.0
 11
53.4105619331782
 21
25.7517921118306
 31
0.0
  0
TEXT
  5
210
330
1E
100
AcDbEntity
  8
ADPDIM
100
AcDbText
 10
20.56548222597974
 20
-2.829654543185592
 30
0.0
 40
0.5
  1
J U L I U S  B L U M  &  C O . ,  I N C .      ( 8 0 0 )  5 2 6 - 6 2 9 3        W W W . J U L I U S B L U M . C O M        P A R T  N o .  1 5 0 8
 41
1.25
  7
ARIAL_WIDE
 72
     1
 11
46.66839832420621
 21
-2.329654543185592
 31
0.0
100
AcDbText
 73
     3
  0
ENDSEC
  0
SECTION
  2
OBJECTS
  0
DICTIONARY
  5
C
330
0
100
AcDbDictionary
  3
ACAD_GROUP
350
D
  3
ACAD_LAYOUT
350
19
  3
ACAD_MLINESTYLE
350
16
  3
ACAD_PLOTSETTINGS
350
18
  3
ACAD_PLOTSTYLENAME
350
E
  3
ACDBHEADERROUNDTRIPXREC
350
413
  3
ACDBVARIABLEDICTIONARY
350
281
  0
DICTIONARY
  5
24C
330
1E
100
AcDbDictionary
280
     1
  3
ACAD_LAYOUTSELFREF
360
435
  0
DICTIONARY
  5
24E
330
1A
100
AcDbDictionary
280
     1
  3
ACAD_LAYOUTSELFREF
360
434
  0
DICTIONARY
  5
D
102
{ACAD_REACTORS
330
C
102
}
330
C
100
AcDbDictionary
  0
DICTIONARY
  5
19
102
{ACAD_REACTORS
330
C
102
}
330
C
100
AcDbDictionary
  0
DICTIONARY
  5
16
102
{ACAD_REACTORS
330
C
102
}
330
C
100
AcDbDictionary
  3
STANDARD
350
17
  0
DICTIONARY
  5
18
102
{ACAD_REACTORS
330
C
102
}
330
C
100
AcDbDictionary
  0
ACDBDICTIONARYWDFLT
  5
E
102
{ACAD_REACTORS
330
C
102
}
330
C
100
AcDbDictionary
281
     1
  3
Normal
350
F
100
AcDbDictionaryWithDefault
340
F
  0
DICTIONARY
  5
413
102
{ACAD_REACTORS
330
C
102
}
330
C
100
AcDbDictionary
  3
CEPSNTYPE
350
41D
  3
DIMSTYLEDATA
350
421
  3
FINGERPRINTGUID
350
41E
  3
HYPERLINKBASE
350
416
  3
INSUNITS
350
41C
  3
LAYOUTDICT
350
418
  3
LWETCUNION
350
41B
  3
PLOTSETDICT
350
419
  3
PLOTSTYLNAMDICT
350
41A
  3
PSVPSCALE
350
420
  3
PUCSBASE
350
424
  3
PUCSORGBACK
350
42A
  3
PUCSORGBOTTOM
350
426
  3
PUCSORGFRONT
350
429
  3
PUCSORGLEFT
350
427
  3
PUCSORGRIGHT
350
428
  3
PUCSORGTOP
350
425
  3
PUCSORTHOREF
350
422
  3
PUCSORTHOVIEW
350
423
  3
STYLESHEET
350
417
  3
TSTACKALIGN
350
414
  3
TSTACKSIZE
350
415
  3
UCSBASE
350
42D
  3
UCSORGBACK
350
433
  3
UCSORGBOTTOM
350
42F
  3
UCSORGFRONT
350
432
  3
UCSORGLEFT
350
430
  3
UCSORGRIGHT
350
431
  3
UCSORGTOP
350
42E
  3
UCSORTHOREF
350
42B
  3
UCSORTHOVIEW
350
42C
  3
VERSIONGUID
350
41F
  0
DICTIONARY
  5
281
102
{ACAD_REACTORS
330
C
102
}
330
C
100
AcDbDictionary
  3
DIMASSOC
350
283
  3
HIDETEXT
350
282
  0
XRECORD
  5
435
102
{ACAD_REACTORS
330
24C
102
}
330
24C
100
AcDbXrecord
340
1E
  0
XRECORD
  5
434
102
{ACAD_REACTORS
330
24E
102
}
330
24E
100
AcDbXrecord
340
1A
  0
MLINESTYLE
  5
17
102
{ACAD_REACTORS
330
16
102
}
330
16
100
AcDbMlineStyle
  2
STANDARD
 70
     0
  3

 62
   256
 51
90.0
 52
90.0
 71
     2
 49
0.5
 62
   256
  6
BYLAYER
 49
-0.5
 62
   256
  6
BYLAYER
  0
ACDBPLACEHOLDER
  5
F
102
{ACAD_REACTORS
330
E
102
}
330
E
100
AcDbPlaceHolder
280
     0
  0
XRECORD
  5
41D
102
{ACAD_REACTORS
330
413
102
}
330
413
100
AcDbXrecord
 90
        0
  0
XRECORD
  5
421
102
{ACAD_REACTORS
330
413
102
}
330
413
100
AcDbXrecord
1000
DSTYLE
1002
{
1070
   277
 70
     5
1070
   279
 70
     2
1002
}
  0
XRECORD
  5
41E
102
{ACAD_REACTORS
330
413
102
}
330
413
100
AcDbXrecord
  1
{A3AE73A6-C5F1-4A40-A403-0B84F6A9D3F2}
  0
XRECORD
  5
416
102
{ACAD_REACTORS
330
413
102
}
330
413
100
AcDbXrecord
  1

  0
XRECORD
  5
41C
102
{ACAD_REACTORS
330
413
102
}
330
413
100
AcDbXrecord
 90
        0
  0
XRECORD
  5
418
102
{ACAD_REACTORS
330
413
102
}
330
413
100
AcDbXrecord
340
19
  0
XRECORD
  5
41B
102
{ACAD_REACTORS
330
413
102
}
330
413
100
AcDbXrecord
 90
    14877
  0
XRECORD
  5
419
102
{ACAD_REACTORS
330
413
102
}
330
413
100
AcDbXrecord
340
18
  0
XRECORD
  5
41A
102
{ACAD_REACTORS
330
413
102
}
330
413
100
AcDbXrecord
340
E
  0
XRECORD
  5
420
102
{ACAD_REACTORS
330
413
102
}
330
413
100
AcDbXrecord
 40
0.0
  0
XRECORD
  5
424
102
{ACAD_REACTORS
330
413
102
}
330
413
100
AcDbXrecord
340
0
  0
XRECORD
  5
42A
102
{ACAD_REACTORS
330
413
102
}
330
413
100
AcDbXrecord
 10
0.0
 20
0.0
 30
0.0
  0
XRECORD
  5
426
102
{ACAD_REACTORS
330
413
102
}
330
413
100
AcDbXrecord
 10
0.0
 20
0.0
 30
0.0
  0
XRECORD
  5
429
102
{ACAD_REACTORS
330
413
102
}
330
413
100
AcDbXrecord
 10
0.0
 20
0.0
 30
0.0
  0
XRECORD
  5
427
102
{ACAD_REACTORS
330
413
102
}
330
413
100
AcDbXrecord
 10
0.0
 20
0.0
 30
0.0
  0
XRECORD
  5
428
102
{ACAD_REACTORS
330
413
102
}
330
413
100
AcDbXrecord
 10
0.0
 20
0.0
 30
0.0
  0
XRECORD
  5
425
102
{ACAD_REACTORS
330
413
102
}
330
413
100
AcDbXrecord
 10
0.0
 20
0.0
 30
0.0
  0
XRECORD
  5
422
102
{ACAD_REACTORS
330
413
102
}
330
413
100
AcDbXrecord
340
0
  0
XRECORD
  5
423
102
{ACAD_REACTORS
330
413
102
}
330
413
100
AcDbXrecord
 70
     0
  0
XRECORD
  5
417
102
{ACAD_REACTORS
330
413
102
}
330
413
100
AcDbXrecord
  1

  0
XRECORD
  5
414
102
{ACAD_REACTORS
330
413
102
}
330
413
100
AcDbXrecord
 90
        1
  0
XRECORD
  5
415
102
{ACAD_REACTORS
330
413
102
}
330
413
100
AcDbXrecord
 90
       70
  0
XRECORD
  5
42D
102
{ACAD_REACTORS
330
413
102
}
330
413
100
AcDbXrecord
340
0
  0
XRECORD
  5
433
102
{ACAD_REACTORS
330
413
102
}
330
413
100
AcDbXrecord
 10
0.0
 20
0.0
 30
0.0
  0
XRECORD
  5
42F
102
{ACAD_REACTORS
330
413
102
}
330
413
100
AcDbXrecord
 10
0.0
 20
0.0
 30
0.0
  0
XRECORD
  5
432
102
{ACAD_REACTORS
330
413
102
}
330
413
100
AcDbXrecord
 10
0.0
 20
0.0
 30
0.0
  0
XRECORD
  5
430
102
{ACAD_REACTORS
330
413
102
}
330
413
100
AcDbXrecord
 10
0.0
 20
0.0
 30
0.0
  0
XRECORD
  5
431
102
{ACAD_REACTORS
330
413
102
}
330
413
100
AcDbXrecord
 10
0.0
 20
0.0
 30
0.0
  0
XRECORD
  5
42E
102
{ACAD_REACTORS
330
413
102
}
330
413
100
AcDbXrecord
 10
0.0
 20
0.0
 30
0.0
  0
XRECORD
  5
42B
102
{ACAD_REACTORS
330
413
102
}
330
413
100
AcDbXrecord
340
0
  0
XRECORD
  5
42C
102
{ACAD_REACTORS
330
413
102
}
330
413
100
AcDbXrecord
 70
     0
  0
XRECORD
  5
41F
102
{ACAD_REACTORS
330
413
102
}
330
413
100
AcDbXrecord
  1
{7B8DC31F-0B2B-47AC-8E73-57A58E7943CA}
  0
DICTIONARYVAR
  5
283
102
{ACAD_REACTORS
330
281
102
}
330
281
100
DictionaryVariables
280
     0
  1
2
  0
DICTIONARYVAR
  5
282
102
{ACAD_REACTORS
330
281
102
}
330
281
100
DictionaryVariables
280
     0
  1
1
  0
ENDSEC
  0
EOF
