  0
SECTION
  2
HEADER
  9
$ACADVER
  1
AC1015
  9
$ACADMAINTVER
 70
    20
  9
$DWGCODEPAGE
  3
ANSI_1252
  9
$INSBASE
 10
10.82187017651893
 20
3.099833205666046
 30
0.0
  9
$EXTMIN
 10
5.176259449176251
 20
1.976951681080203
 30
0.0
  9
$EXTMAX
 10
18.22771749828948
 20
6.318294011418917
 30
0.0
  9
$LIMMIN
 10
0.0
 20
0.0
  9
$LIMMAX
 10
36.0
 20
36.0
  9
$ORTHOMODE
 70
     1
  9
$REGENMODE
 70
     1
  9
$FILLMODE
 70
     1
  9
$QTEXTMODE
 70
     0
  9
$MIRRTEXT
 70
     1
  9
$LTSCALE
 40
1.0
  9
$ATTMODE
 70
     1
  9
$TEXTSIZE
 40
0.2
  9
$TRACEWID
 40
0.05
  9
$TEXTSTYLE
  7
STANDARD
  9
$CLAYER
  8
ADPDIM
  9
$CELTYPE
  6
BYLAYER
  9
$CECOLOR
 62
   256
  9
$CELTSCALE
 40
1.0
  9
$DISPSILH
 70
     0
  9
$DIMSCALE
 40
1.0
  9
$DIMASZ
 40
0.125
  9
$DIMEXO
 40
0.0625
  9
$DIMDLI
 40
0.38
  9
$DIMRND
 40
0.0
  9
$DIMDLE
 40
0.0
  9
$DIMEXE
 40
0.18
  9
$DIMTP
 40
0.0
  9
$DIMTM
 40
0.0
  9
$DIMTXT
 40
0.125
  9
$DIMCEN
 40
0.1875
  9
$DIMTSZ
 40
0.125
  9
$DIMTOL
 70
     0
  9
$DIMLIM
 70
     0
  9
$DIMTIH
 70
     0
  9
$DIMTOH
 70
     0
  9
$DIMSE1
 70
     0
  9
$DIMSE2
 70
     0
  9
$DIMTAD
 70
     0
  9
$DIMZIN
 70
     3
  9
$DIMBLK
  1

  9
$DIMASO
 70
     1
  9
$DIMSHO
 70
     1
  9
$DIMPOST
  1

  9
$DIMAPOST
  1

  9
$DIMALT
 70
     0
  9
$DIMALTD
 70
     1
  9
$DIMALTF
 40
25.4
  9
$DIMLFAC
 40
1.0
  9
$DIMTOFL
 70
     0
  9
$DIMTVP
 40
0.0
  9
$DIMTIX
 70
     0
  9
$DIMSOXD
 70
     0
  9
$DIMSAH
 70
     0
  9
$DIMBLK1
  1

  9
$DIMBLK2
  1

  9
$DIMSTYLE
  2
STANDARD
  9
$DIMCLRD
 70
     0
  9
$DIMCLRE
 70
     0
  9
$DIMCLRT
 70
     0
  9
$DIMTFAC
 40
1.0
  9
$DIMGAP
 40
0.125
  9
$DIMJUST
 70
     0
  9
$DIMSD1
 70
     0
  9
$DIMSD2
 70
     0
  9
$DIMTOLJ
 70
     1
  9
$DIMTZIN
 70
     0
  9
$DIMALTZ
 70
     0
  9
$DIMALTTZ
 70
     0
  9
$DIMUPT
 70
     0
  9
$DIMDEC
 70
     4
  9
$DIMTDEC
 70
     4
  9
$DIMALTU
 70
     2
  9
$DIMALTTD
 70
     2
  9
$DIMTXSTY
  7
STANDARD
  9
$DIMAUNIT
 70
     0
  9
$DIMADEC
 70
     0
  9
$DIMALTRND
 40
0.0
  9
$DIMAZIN
 70
     0
  9
$DIMDSEP
 70
    46
  9
$DIMATFIT
 70
     3
  9
$DIMFRAC
 70
     0
  9
$DIMLDRBLK
  1

  9
$DIMLUNIT
 70
     2
  9
$DIMLWD
 70
    -2
  9
$DIMLWE
 70
    -2
  9
$DIMTMOVE
 70
     0
  9
$LUNITS
 70
     5
  9
$LUPREC
 70
     4
  9
$SKETCHINC
 40
0.1
  9
$FILLETRAD
 40
0.05
  9
$AUNITS
 70
     0
  9
$AUPREC
 70
     0
  9
$MENU
  1
acad
  9
$ELEVATION
 40
0.0
  9
$PELEVATION
 40
0.0
  9
$THICKNESS
 40
0.0
  9
$LIMCHECK
 70
     0
  9
$CHAMFERA
 40
0.0
  9
$CHAMFERB
 40
0.0
  9
$CHAMFERC
 40
0.0
  9
$CHAMFERD
 40
0.0
  9
$SKPOLY
 70
     0
  9
$TDCREATE
 40
2450247.567791088
  9
$TDUCREATE
 40
2450247.734457755
  9
$TDUPDATE
 40
2453962.027286482
  9
$TDUUPDATE
 40
2453962.193953148
  9
$TDINDWG
 40
0.0134484838
  9
$TDUSRTIMER
 40
0.0134484838
  9
$USRTIMER
 70
     1
  9
$ANGBASE
 50
0.0
  9
$ANGDIR
 70
     0
  9
$PDMODE
 70
     0
  9
$PDSIZE
 40
0.0
  9
$PLINEWID
 40
0.0
  9
$SPLFRAME
 70
     0
  9
$SPLINETYPE
 70
     6
  9
$SPLINESEGS
 70
     8
  9
$HANDSEED
  5
3CF
  9
$SURFTAB1
 70
     6
  9
$SURFTAB2
 70
     6
  9
$SURFTYPE
 70
     6
  9
$SURFU
 70
     6
  9
$SURFV
 70
     6
  9
$UCSBASE
  2

  9
$UCSNAME
  2

  9
$UCSORG
 10
0.0
 20
0.0
 30
0.0
  9
$UCSXDIR
 10
1.0
 20
0.0
 30
0.0
  9
$UCSYDIR
 10
0.0
 20
1.0
 30
0.0
  9
$UCSORTHOREF
  2

  9
$UCSORTHOVIEW
 70
     0
  9
$UCSORGTOP
 10
0.0
 20
0.0
 30
0.0
  9
$UCSORGBOTTOM
 10
0.0
 20
0.0
 30
0.0
  9
$UCSORGLEFT
 10
0.0
 20
0.0
 30
0.0
  9
$UCSORGRIGHT
 10
0.0
 20
0.0
 30
0.0
  9
$UCSORGFRONT
 10
0.0
 20
0.0
 30
0.0
  9
$UCSORGBACK
 10
0.0
 20
0.0
 30
0.0
  9
$PUCSBASE
  2

  9
$PUCSNAME
  2

  9
$PUCSORG
 10
0.0
 20
0.0
 30
0.0
  9
$PUCSXDIR
 10
1.0
 20
0.0
 30
0.0
  9
$PUCSYDIR
 10
0.0
 20
1.0
 30
0.0
  9
$PUCSORTHOREF
  2

  9
$PUCSORTHOVIEW
 70
     0
  9
$PUCSORGTOP
 10
0.0
 20
0.0
 30
0.0
  9
$PUCSORGBOTTOM
 10
0.0
 20
0.0
 30
0.0
  9
$PUCSORGLEFT
 10
0.0
 20
0.0
 30
0.0
  9
$PUCSORGRIGHT
 10
0.0
 20
0.0
 30
0.0
  9
$PUCSORGFRONT
 10
0.0
 20
0.0
 30
0.0
  9
$PUCSORGBACK
 10
0.0
 20
0.0
 30
0.0
  9
$USERI1
 70
     0
  9
$USERI2
 70
     0
  9
$USERI3
 70
     0
  9
$USERI4
 70
     0
  9
$USERI5
 70
     0
  9
$USERR1
 40
0.0
  9
$USERR2
 40
0.0
  9
$USERR3
 40
0.0
  9
$USERR4
 40
0.0
  9
$USERR5
 40
0.0
  9
$WORLDVIEW
 70
     1
  9
$SHADEDGE
 70
     3
  9
$SHADEDIF
 70
    70
  9
$TILEMODE
 70
     1
  9
$MAXACTVP
 70
    15
  9
$PINSBASE
 10
0.0
 20
0.0
 30
0.0
  9
$PLIMCHECK
 70
     0
  9
$PEXTMIN
 10
1.000000000000000E+20
 20
1.000000000000000E+20
 30
1.000000000000000E+20
  9
$PEXTMAX
 10
-1.000000000000000E+20
 20
-1.000000000000000E+20
 30
-1.000000000000000E+20
  9
$PLIMMIN
 10
0.0
 20
0.0
  9
$PLIMMAX
 10
12.0
 20
9.0
  9
$UNITMODE
 70
     0
  9
$VISRETAIN
 70
     0
  9
$PLINEGEN
 70
     0
  9
$PSLTSCALE
 70
     1
  9
$TREEDEPTH
 70
  3020
  9
$CMLSTYLE
  2
STANDARD
  9
$CMLJUST
 70
     0
  9
$CMLSCALE
 40
1.0
  9
$PROXYGRAPHICS
 70
     1
  9
$MEASUREMENT
 70
     0
  9
$CELWEIGHT
370
    -1
  9
$ENDCAPS
280
     0
  9
$JOINSTYLE
280
     0
  9
$LWDISPLAY
290
     0
  9
$INSUNITS
 70
     0
  9
$HYPERLINKBASE
  1

  9
$STYLESHEET
  1

  9
$XEDIT
290
     1
  9
$CEPSNTYPE
380
     0
  9
$PSTYLEMODE
290
     1
  9
$FINGERPRINTGUID
  2
{EDA32395-364F-4981-8033-FF00E96F7628}
  9
$VERSIONGUID
  2
{849C4D36-1BD1-4DDE-A887-6DA4A6CB81A7}
  9
$EXTNAMES
290
     1
  9
$PSVPSCALE
 40
0.0
  9
$OLESTARTUP
290
     0
  0
ENDSEC
  0
SECTION
  2
CLASSES
  0
CLASS
  1
ACDBDICTIONARYWDFLT
  2
AcDbDictionaryWithDefault
  3
ObjectDBX Classes
 90
        0
280
     0
281
     0
  0
CLASS
  1
ACDBPLACEHOLDER
  2
AcDbPlaceHolder
  3
ObjectDBX Classes
 90
        0
280
     0
281
     0
  0
CLASS
  1
LAYOUT
  2
AcDbLayout
  3
ObjectDBX Classes
 90
        0
280
     0
281
     0
  0
CLASS
  1
DICTIONARYVAR
  2
AcDbDictionaryVar
  3
ObjectDBX Classes
 90
        0
280
     0
281
     0
  0
CLASS
  1
MATERIAL
  2
AcDbMaterial
  3
ObjectDBX Classes
 90
     1024
280
     0
281
     0
  0
CLASS
  1
VISUALSTYLE
  2
AcDbVisualStyle
  3
ObjectDBX Classes
 90
     4095
280
     0
281
     0
  0
CLASS
  1
TABLESTYLE
  2
AcDbTableStyle
  3
ObjectDBX Classes
 90
     4095
280
     0
281
     0
  0
ENDSEC
  0
SECTION
  2
TABLES
  0
TABLE
  2
VPORT
  5
8
330
0
100
AcDbSymbolTable
 70
     1
  0
VPORT
  5
34A
330
8
100
AcDbSymbolTableRecord
100
AcDbViewportTableRecord
  2
*Active
 70
     0
 10
0.0
 20
0.0
 11
1.0
 21
1.0
 12
12.18492679441139
 22
5.358498505909899
 13
0.0
 23
0.0
 14
0.5740882589684922
 24
0.5740882589684922
 15
0.5
 25
0.5
 16
0.0
 26
0.0
 36
1.0
 17
0.0
 27
0.0
 37
0.0
 40
7.419420428917084
 41
1.726930320150659
 42
50.0
 43
0.0
 44
0.0
 50
0.0
 51
0.0
 71
     0
 72
   100
 73
     1
 74
     0
 75
     0
 76
     0
 77
     0
 78
     0
281
     0
 65
     1
110
0.0
120
0.0
130
0.0
111
1.0
121
0.0
131
0.0
112
0.0
122
1.0
132
0.0
 79
     0
146
0.0
  0
ENDTAB
  0
TABLE
  2
LTYPE
  5
5
330
0
100
AcDbSymbolTable
 70
     2
  0
LTYPE
  5
12
330
5
100
AcDbSymbolTableRecord
100
AcDbLinetypeTableRecord
  2
BYBLOCK
 70
     0
  3

 72
    65
 73
     0
 40
0.0
  0
LTYPE
  5
13
330
5
100
AcDbSymbolTableRecord
100
AcDbLinetypeTableRecord
  2
BYLAYER
 70
     0
  3

 72
    65
 73
     0
 40
0.0
  0
LTYPE
  5
14
330
5
100
AcDbSymbolTableRecord
100
AcDbLinetypeTableRecord
  2
CONTINUOUS
 70
     0
  3
Solid line
 72
    65
 73
     0
 40
0.0
  0
LTYPE
  5
26
330
5
100
AcDbSymbolTableRecord
100
AcDbLinetypeTableRecord
  2
HIDDEN2
 70
     0
  3
_ _ _ _ _ _ _ _ _ _ _ _ _ _ _ _ _ _ _ _ _ _ _ _
 72
    65
 73
     2
 40
0.1875
 49
0.125
 74
     0
 49
-0.0625
 74
     0
  0
ENDTAB
  0
TABLE
  2
LAYER
  5
2
330
0
100
AcDbSymbolTable
 70
     5
  0
LAYER
  5
F
330
2
100
AcDbSymbolTableRecord
100
AcDbLayerTableRecord
  2
0
 70
     0
 62
     7
  6
CONTINUOUS
370
    -3
390
1FF
  0
LAYER
  5
27
330
2
100
AcDbSymbolTableRecord
100
AcDbLayerTableRecord
  2
ADP2DETAIL
 70
     0
 62
     5
  6
CONTINUOUS
370
    -3
390
1FF
  0
LAYER
  5
28
330
2
100
AcDbSymbolTableRecord
100
AcDbLayerTableRecord
  2
ADPDIM
 70
     0
 62
     3
  6
CONTINUOUS
370
    -3
390
1FF
  0
LAYER
  5
2A
330
2
100
AcDbSymbolTableRecord
100
AcDbLayerTableRecord
  2
ADP1DETAIL
 70
     0
 62
     7
  6
CONTINUOUS
370
    -3
390
1FF
  0
LAYER
  5
2C
330
2
100
AcDbSymbolTableRecord
100
AcDbLayerTableRecord
  2
DEFPOINTS
 70
     0
 62
     7
  6
CONTINUOUS
290
     0
370
    -3
390
1FF
  0
ENDTAB
  0
TABLE
  2
STYLE
  5
3
330
0
100
AcDbSymbolTable
 70
     2
  0
STYLE
  5
10
330
3
100
AcDbSymbolTableRecord
100
AcDbTextStyleTableRecord
  2
STANDARD
 70
     0
 40
0.0
 41
1.0
 50
0.0
 71
     0
 42
0.2
  3
txt
  4

  0
STYLE
  5
206
330
3
100
AcDbSymbolTableRecord
100
AcDbTextStyleTableRecord
  2
ARIAL_WIDE
 70
     0
 40
0.0
 41
1.25
 50
0.0
 71
     0
 42
0.2
  3
ARIAL.TTF
  4

1001
ACAD
1000
Arial
1071
       34
  0
ENDTAB
  0
TABLE
  2
VIEW
  5
6
330
0
100
AcDbSymbolTable
 70
     0
  0
ENDTAB
  0
TABLE
  2
UCS
  5
7
330
0
100
AcDbSymbolTable
 70
     0
  0
ENDTAB
  0
TABLE
  2
APPID
  5
9
330
0
100
AcDbSymbolTable
 70
     2
  0
APPID
  5
11
330
9
100
AcDbSymbolTableRecord
100
AcDbRegAppTableRecord
  2
ACAD
 70
     0
  0
APPID
  5
3A1
330
9
100
AcDbSymbolTableRecord
100
AcDbRegAppTableRecord
  2
DCO15
 70
     0
  0
ENDTAB
  0
TABLE
  2
DIMSTYLE
  5
A
330
0
100
AcDbSymbolTable
 70
     1
100
AcDbDimStyleTable
 71
     1
340
1FA
  0
DIMSTYLE
105
1FA
102
{ACAD_REACTORS
330
391
102
}
330
A
100
AcDbSymbolTableRecord
100
AcDbDimStyleTableRecord
  2
STANDARD
 70
     0
340
10
  0
ENDTAB
  0
TABLE
  2
BLOCK_RECORD
  5
1
330
0
100
AcDbSymbolTable
 70
     3
  0
BLOCK_RECORD
  5
18
102
{ACAD_XDICTIONARY
360
25B
102
}
330
1
100
AcDbSymbolTableRecord
100
AcDbBlockTableRecord
  2
*MODEL_SPACE
340
202
  0
BLOCK_RECORD
  5
15
102
{ACAD_XDICTIONARY
360
259
102
}
330
1
100
AcDbSymbolTableRecord
100
AcDbBlockTableRecord
  2
*PAPER_SPACE
340
203
  0
BLOCK_RECORD
  5
22
330
1
100
AcDbSymbolTableRecord
100
AcDbBlockTableRecord
  2
*D0
340
0
  0
BLOCK_RECORD
  5
24
330
1
100
AcDbSymbolTableRecord
100
AcDbBlockTableRecord
  2
*D1
340
0
  0
BLOCK_RECORD
  5
392
330
1
100
AcDbSymbolTableRecord
100
AcDbBlockTableRecord
  2
*D2
340
0
  0
ENDTAB
  0
ENDSEC
  0
SECTION
  2
BLOCKS
  0
BLOCK
  5
2F
330
18
100
AcDbEntity
  8
0
100
AcDbBlockBegin
  2
*MODEL_SPACE
 70
     0
 10
0.0
 20
0.0
 30
0.0
  3
*MODEL_SPACE
  1

  0
ENDBLK
  5
30
330
18
100
AcDbEntity
  8
0
100
AcDbBlockEnd
  0
BLOCK
  5
2D
330
15
100
AcDbEntity
 67
     1
  8
0
100
AcDbBlockBegin
  2
*PAPER_SPACE
 70
     0
 10
0.0
 20
0.0
 30
0.0
  3
*PAPER_SPACE
  1

  0
ENDBLK
  5
2E
330
15
100
AcDbEntity
 67
     1
  8
0
100
AcDbBlockEnd
  0
BLOCK
  5
32
330
22
100
AcDbEntity
  8
0
100
AcDbBlockBegin
  2
*D0
 70
     1
 10
0.0
 20
0.0
 30
0.0
  3
*D0
  1

  0
LINE
  5
33
330
22
100
AcDbEntity
  8
0
  6
ByBlock
 62
     0
100
AcDbLine
 10
10.75937017651893
 20
5.188960674571047
 30
0.0
 11
10.75937017651893
 21
5.643826212590053
 31
0.0
  0
LINE
  5
34
330
22
100
AcDbEntity
  8
0
  6
ByBlock
 62
     0
100
AcDbLine
 10
15.75937017651893
 20
5.188960674571047
 30
0.0
 11
15.75937017651893
 21
5.643826212590053
 31
0.0
  0
LINE
  5
35
330
22
100
AcDbEntity
  8
0
  6
ByBlock
 62
     0
100
AcDbLine
 10
10.75937017651893
 20
5.463826212590054
 30
0.0
 11
13.09270350985226
 21
5.463826212590054
 31
0.0
  0
LINE
  5
36
330
22
100
AcDbEntity
  8
0
  6
ByBlock
 62
     0
100
AcDbLine
 10
15.75937017651893
 20
5.463826212590054
 30
0.0
 11
13.42603684318559
 21
5.463826212590054
 31
0.0
  0
LINE
  5
37
330
22
100
AcDbEntity
  8
0
  6
ByBlock
 62
     0
100
AcDbLine
 10
10.63437017651893
 20
5.338826212590054
 30
0.0
 11
10.88437017651893
 21
5.588826212590054
 31
0.0
  0
LINE
  5
38
330
22
100
AcDbEntity
  8
0
  6
ByBlock
 62
     0
100
AcDbLine
 10
15.63437017651892
 20
5.338826212590054
 30
0.0
 11
15.88437017651893
 21
5.588826212590054
 31
0.0
  0
TEXT
  5
39
330
22
100
AcDbEntity
  8
0
  6
ByBlock
 62
     0
100
AcDbText
 10
13.21770350985226
 20
5.401326212590054
 30
0.0
 40
0.125
  1
5
 72
     1
 11
13.25937017651893
 21
5.463826212590054
 31
0.0
100
AcDbText
 73
     2
  0
POINT
  5
3A
330
22
100
AcDbEntity
  8
DEFPOINTS
  6
ByBlock
 62
     0
100
AcDbPoint
 10
10.75937017651893
 20
5.126460674571047
 30
0.0
  0
POINT
  5
3B
330
22
100
AcDbEntity
  8
DEFPOINTS
  6
ByBlock
 62
     0
100
AcDbPoint
 10
15.75937017651893
 20
5.126460674571047
 30
0.0
  0
POINT
  5
3C
330
22
100
AcDbEntity
  8
DEFPOINTS
  6
ByBlock
 62
     0
100
AcDbPoint
 10
15.75937017651893
 20
5.463826212590054
 30
0.0
  0
ENDBLK
  5
3D
330
22
100
AcDbEntity
  8
0
100
AcDbBlockEnd
  0
BLOCK
  5
3E
330
24
100
AcDbEntity
  8
0
100
AcDbBlockBegin
  2
*D1
 70
     1
 10
0.0
 20
0.0
 30
0.0
  3
*D1
  1

  0
LINE
  5
3F
330
24
100
AcDbEntity
  8
0
  6
ByBlock
 62
     0
100
AcDbLine
 10
7.618182724699376
 20
4.545039099471371
 30
0.0
 11
7.618182724699376
 21
6.316323685502886
 31
0.0
  0
LINE
  5
40
330
24
100
AcDbEntity
  8
0
  6
ByBlock
 62
     0
100
AcDbLine
 10
10.49342659583563
 20
4.503877834069248
 30
0.0
 11
10.49342659583563
 21
6.316323685502886
 31
0.0
  0
LINE
  5
41
330
24
100
AcDbEntity
  8
0
  6
ByBlock
 62
     0
100
AcDbLine
 10
7.618182724699376
 20
6.136323685502886
 30
0.0
 11
8.639137993600838
 21
6.136323685502886
 31
0.0
  0
LINE
  5
42
330
24
100
AcDbEntity
  8
0
  6
ByBlock
 62
     0
100
AcDbLine
 10
10.49342659583563
 20
6.136323685502886
 30
0.0
 11
9.47247132693417
 21
6.136323685502886
 31
0.0
  0
LINE
  5
43
330
24
100
AcDbEntity
  8
0
  6
ByBlock
 62
     0
100
AcDbLine
 10
7.493182724699376
 20
6.011323685502886
 30
0.0
 11
7.743182724699376
 21
6.261323685502886
 31
0.0
  0
LINE
  5
44
330
24
100
AcDbEntity
  8
0
  6
ByBlock
 62
     0
100
AcDbLine
 10
10.36842659583563
 20
6.011323685502886
 30
0.0
 11
10.61842659583563
 21
6.261323685502886
 31
0.0
  0
TEXT
  5
45
330
24
100
AcDbEntity
  8
0
  6
ByBlock
 62
     0
100
AcDbText
 10
8.764137993600838
 20
6.073823685502886
 30
0.0
 40
0.125
  1
2 7/8
 72
     1
 11
9.055804660267504
 21
6.136323685502886
 31
0.0
100
AcDbText
 73
     2
  0
POINT
  5
46
330
24
100
AcDbEntity
  8
DEFPOINTS
  6
ByBlock
 62
     0
100
AcDbPoint
 10
7.618182724699376
 20
4.482539099471371
 30
0.0
  0
POINT
  5
47
330
24
100
AcDbEntity
  8
DEFPOINTS
  6
ByBlock
 62
     0
100
AcDbPoint
 10
10.49342659583563
 20
4.441377834069248
 30
0.0
  0
POINT
  5
48
330
24
100
AcDbEntity
  8
DEFPOINTS
  6
ByBlock
 62
     0
100
AcDbPoint
 10
10.49342659583563
 20
6.136323685502886
 30
0.0
  0
ENDBLK
  5
49
330
24
100
AcDbEntity
  8
0
100
AcDbBlockEnd
  0
BLOCK
  5
39D
330
392
100
AcDbEntity
  8
0
 62
     3
100
AcDbBlockBegin
  2
*D2
 70
     1
 10
0.0
 20
0.0
 30
0.0
  3
*D2
  1

  0
LINE
  5
393
330
392
100
AcDbEntity
  8
ADPDIM
 62
     0
370
    -2
100
AcDbLine
 10
10.48541111653061
 20
4.506077009628459
 30
0.0
 11
10.48541111653061
 21
6.318294011418917
 31
0.0
  0
LINE
  5
394
330
392
100
AcDbEntity
  8
ADPDIM
 62
     0
370
    -2
100
AcDbLine
 10
7.610411116530613
 20
4.506077009628459
 30
0.0
 11
7.610411116530613
 21
6.318294011418917
 31
0.0
  0
LINE
  5
395
330
392
100
AcDbEntity
  8
ADPDIM
 62
     0
370
    -2
100
AcDbLine
 10
10.48541111653061
 20
6.138294011418917
 30
0.0
 11
9.474994449863947
 21
6.138294011418917
 31
0.0
  0
LINE
  5
396
330
392
100
AcDbEntity
  8
ADPDIM
 62
     0
370
    -2
100
AcDbLine
 10
7.610411116530613
 20
6.138294011418917
 30
0.0
 11
8.620827783197279
 21
6.138294011418917
 31
0.0
  0
LINE
  5
397
330
392
100
AcDbEntity
  8
ADPDIM
 62
     0
370
    -2
100
AcDbLine
 10
7.485411116530613
 20
6.013294011418917
 30
0.0
 11
7.735411116530613
 21
6.263294011418917
 31
0.0
  0
LINE
  5
398
330
392
100
AcDbEntity
  8
ADPDIM
 62
     0
370
    -2
100
AcDbLine
 10
10.36041111653061
 20
6.013294011418917
 30
0.0
 11
10.61041111653061
 21
6.263294011418917
 31
0.0
  0
MTEXT
  5
399
330
392
100
AcDbEntity
  8
ADPDIM
 62
     0
100
AcDbMText
 10
9.047911116530613
 20
6.138294011418917
 30
0.0
 40
0.125
 41
0.0
 71
     5
 72
     1
  1
\A1;2.8750
 73
     1
 44
1.0
1001
ACAD
1000
MTEXTBEGIN
1070
    73
1070
     1
1070
    44
1040
1.0
1070
    74
1070
     0
1000
MTEXTEND
  0
POINT
  5
39A
330
392
100
AcDbEntity
  8
DEFPOINTS
 62
     0
100
AcDbPoint
 10
10.48541111653061
 20
4.443577009628459
 30
0.0
  0
POINT
  5
39B
330
392
100
AcDbEntity
  8
DEFPOINTS
 62
     0
100
AcDbPoint
 10
7.610411116530613
 20
4.443577009628459
 30
0.0
  0
POINT
  5
39C
330
392
100
AcDbEntity
  8
DEFPOINTS
 62
     0
100
AcDbPoint
 10
7.610411116530613
 20
6.138294011418917
 30
0.0
  0
ENDBLK
  5
39E
330
392
100
AcDbEntity
  8
0
 62
     3
100
AcDbBlockEnd
  0
ENDSEC
  0
SECTION
  2
ENTITIES
  0
LINE
  5
4A
330
18
100
AcDbEntity
  8
ADP1DETAIL
100
AcDbLine
 10
15.69687017651893
 20
5.857611986222168
 30
0.0
 11
10.82187017651893
 21
5.857611986222168
 31
0.0
  0
DIMENSION
  5
4B
330
18
100
AcDbEntity
  8
ADPDIM
100
AcDbDimension
  2
*D0
 10
15.75937017651893
 20
6.132477524241174
 30
0.0
 11
13.25937017651893
 21
4.873712185704103
 31
0.0
 12
0.0
 22
0.6686513116511206
 32
0.0
 71
     5
 42
-1.0
100
AcDbAlignedDimension
 13
10.75937017651893
 23
5.795111986222168
 33
0.0
 14
15.75937017651893
 24
5.795111986222168
 34
0.0
100
AcDbRotatedDimension
  0
LINE
  5
4C
330
18
100
AcDbEntity
  8
ADP2DETAIL
  6
HIDDEN2
100
AcDbLine
 10
10.75937017651893
 20
3.187847412928677
 30
0.0
 11
15.75937017651893
 21
3.187847412928677
 31
0.0
  0
LINE
  5
4D
330
18
100
AcDbEntity
  8
ADP1DETAIL
100
AcDbLine
 10
10.82187017651893
 20
3.099833205666046
 30
0.0
 11
15.69687017651893
 21
3.099833205666046
 31
0.0
  0
ARC
  5
4F
330
18
100
AcDbEntity
  8
ADP1DETAIL
100
AcDbCircle
 10
9.05550530598977
 20
4.416047628778699
 30
0.0
 40
1.3125
100
AcDbArc
 50
291.3168165881441
 51
248.6831834118559
  0
ARC
  5
50
330
18
100
AcDbEntity
  8
ADP1DETAIL
100
AcDbCircle
 10
9.551351656525037
 20
3.145172385300049
 30
0.0
 40
0.05
100
AcDbArc
 50
198.873406349625
 51
290.9385662574634
  0
LINE
  5
51
330
18
100
AcDbEntity
  8
ADP1DETAIL
100
AcDbLine
 10
9.5601167366526
 20
5.766295305814853
 30
0.0
 11
9.586087810083391
 21
5.777498133353135
 31
0.0
  0
LINE
  5
52
330
18
100
AcDbEntity
  8
ADP1DETAIL
100
AcDbLine
 10
7.730048472793689
 20
3.936985842110509
 30
0.0
 11
7.704414217511458
 21
3.948939291659712
 31
0.0
  0
LINE
  5
53
330
18
100
AcDbEntity
  8
ADP1DETAIL
100
AcDbLine
 10
8.159656910156385
 20
3.341788899849033
 30
0.0
 11
8.131480269100276
 21
3.339323763180384
 31
0.0
  0
LINE
  5
54
330
18
100
AcDbEntity
  8
ADP1DETAIL
100
AcDbLine
 10
8.159656910156387
 20
3.341788899849033
 30
0.0
 11
8.131480269100277
 21
3.339323763180384
 31
0.0
  0
LINE
  5
55
330
18
100
AcDbEntity
  8
ADP1DETAIL
100
AcDbLine
 10
7.817097737031485
 20
3.750206985365083
 30
0.0
 11
7.79000170181293
 21
3.758319005793732
 31
0.0
  0
LINE
  5
56
330
18
100
AcDbEntity
  8
ADP1DETAIL
100
AcDbLine
 10
7.745269702492413
 20
3.89864854620828
 30
0.0
 11
7.719298629061626
 21
3.909851373746564
 31
0.0
  0
LINE
  5
57
330
18
100
AcDbEntity
  8
ADP1DETAIL
100
AcDbLine
 10
7.719298629061626
 20
3.909851373746564
 30
0.0
 11
7.730501456599907
 21
3.935822447177354
 31
0.0
  0
LINE
  5
58
330
18
100
AcDbEntity
  8
ADP1DETAIL
100
AcDbLine
 10
7.761599522319855
 20
3.860770174080645
 30
0.0
 11
7.735313604861466
 21
3.871212900897468
 31
0.0
  0
LINE
  5
59
330
18
100
AcDbEntity
  8
ADP1DETAIL
100
AcDbLine
 10
7.735313604861466
 20
3.871212900897468
 30
0.0
 11
7.745756331678289
 21
3.897498818355856
 31
0.0
  0
LINE
  5
5A
330
18
100
AcDbEntity
  8
ADP1DETAIL
100
AcDbLine
 10
7.779024115618137
 20
3.823382774612031
 30
0.0
 11
7.75244559464259
 21
3.83305656511795
 31
0.0
  0
LINE
  5
5B
330
18
100
AcDbEntity
  8
ADP1DETAIL
100
AcDbLine
 10
7.75244559464259
 20
3.83305656511795
 30
0.0
 11
7.762119385148509
 21
3.859635086093498
 31
0.0
  0
LINE
  5
5C
330
18
100
AcDbEntity
  8
ADP1DETAIL
100
AcDbLine
 10
7.797528739441738
 20
3.786517981274983
 30
0.0
 11
7.770680103031261
 21
3.795414650477442
 31
0.0
  0
LINE
  5
5D
330
18
100
AcDbEntity
  8
ADP1DETAIL
100
AcDbLine
 10
7.770680103031261
 20
3.795414650477442
 30
0.0
 11
7.779576772233721
 21
3.82226328688792
 31
0.0
  0
LINE
  5
5E
330
18
100
AcDbEntity
  8
ADP1DETAIL
100
AcDbLine
 10
7.79000170181293
 20
3.758319005793732
 30
0.0
 11
7.798113722241578
 21
3.785415041012286
 31
0.0
  0
LINE
  5
5F
330
18
100
AcDbEntity
  8
ADP1DETAIL
100
AcDbLine
 10
8.131480269100276
 20
3.339323763180384
 30
0.0
 11
8.129015132431627
 21
3.367500404236494
 31
0.0
  0
LINE
  5
60
330
18
100
AcDbEntity
  8
ADP1DETAIL
100
AcDbLine
 10
7.810394042986041
 20
3.721801017685688
 30
0.0
 11
7.81771455106173
 21
3.749121525761377
 31
0.0
  0
LINE
  5
61
330
18
100
AcDbEntity
  8
ADP1DETAIL
100
AcDbLine
 10
7.837714551061729
 20
3.71448050961
 30
0.0
 11
7.810394042986041
 21
3.721801017685688
 31
0.0
  0
LINE
  5
62
330
18
100
AcDbEntity
  8
ADP1DETAIL
100
AcDbLine
 10
7.859361737649512
 20
3.679368782174996
 30
0.0
 11
7.831839872594082
 21
3.685891584017046
 31
0.0
  0
LINE
  5
63
330
18
100
AcDbEntity
  8
ADP1DETAIL
100
AcDbLine
 10
7.831839872594082
 20
3.685891584017046
 30
0.0
 11
7.838362674436131
 21
3.713413449072476
 31
0.0
  0
LINE
  5
64
330
18
100
AcDbEntity
  8
ADP1DETAIL
100
AcDbLine
 10
7.882020981113821
 20
3.644901511086883
 30
0.0
 11
7.854321045324148
 21
3.650621087753727
 31
0.0
  0
LINE
  5
65
330
18
100
AcDbEntity
  8
ADP1DETAIL
100
AcDbLine
 10
7.854321045324148
 20
3.650621087753727
 30
0.0
 11
7.860040621990989
 21
3.678321023543401
 31
0.0
  0
LINE
  5
66
330
18
100
AcDbEntity
  8
ADP1DETAIL
100
AcDbLine
 10
7.905673109472488
 20
3.611107859098062
 30
0.0
 11
7.877818539859687
 21
3.61601937125682
 31
0.0
  0
LINE
  5
67
330
18
100
AcDbEntity
  8
ADP1DETAIL
100
AcDbLine
 10
7.877818539859687
 20
3.61601937125682
 30
0.0
 11
7.882730052018445
 21
3.643873940869621
 31
0.0
  0
LINE
  5
68
330
18
100
AcDbEntity
  8
ADP1DETAIL
100
AcDbLine
 10
7.93029811066359
 20
3.578016419011925
 30
0.0
 11
7.902312474974435
 21
3.582115711032969
 31
0.0
  0
LINE
  5
69
330
18
100
AcDbEntity
  8
ADP1DETAIL
100
AcDbLine
 10
7.902312474974435
 20
3.582115711032969
 30
0.0
 11
7.906411766995478
 21
3.610101346722126
 31
0.0
  0
LINE
  5
6A
330
18
100
AcDbEntity
  8
ADP1DETAIL
100
AcDbLine
 10
7.955875149477675
 20
3.545655189490487
 30
0.0
 11
7.927782126353918
 21
3.548938792963514
 31
0.0
  0
LINE
  5
6B
330
18
100
AcDbEntity
  8
ADP1DETAIL
100
AcDbLine
 10
7.982382585186401
 20
3.514051551364729
 30
0.0
 11
7.954205944130293
 21
3.516516688033378
 31
0.0
  0
LINE
  5
6C
330
18
100
AcDbEntity
  8
ADP1DETAIL
100
AcDbLine
 10
7.954205944130293
 20
3.516516688033378
 30
0.0
 11
7.956671080798942
 21
3.544693329089487
 31
0.0
  0
LINE
  5
6D
330
18
100
AcDbEntity
  8
ADP1DETAIL
100
AcDbLine
 10
8.00979798985278
 20
3.483232244467671
 30
0.0
 11
7.981561571115681
 21
3.484876828580214
 31
0.0
  0
LINE
  5
6E
330
18
100
AcDbEntity
  8
ADP1DETAIL
100
AcDbLine
 10
7.981561571115681
 20
3.484876828580214
 30
0.0
 11
7.983206155228222
 21
3.513113247317311
 31
0.0
  0
LINE
  5
6F
330
18
100
AcDbEntity
  8
ADP1DETAIL
100
AcDbLine
 10
8.038098167307426
 20
3.453223345009813
 30
0.0
 11
8.00982586171859
 21
3.454045985083899
 31
0.0
  0
LINE
  5
70
330
18
100
AcDbEntity
  8
ADP1DETAIL
100
AcDbLine
 10
8.00982586171859
 20
3.454045985083899
 30
0.0
 11
8.010648501792678
 21
3.482318290672735
 31
0.0
  0
LINE
  5
71
330
18
100
AcDbEntity
  8
ADP1DETAIL
100
AcDbLine
 10
8.067259172774846
 20
3.424050243516052
 30
0.0
 11
8.038974901527385
 21
3.424050243516052
 31
0.0
  0
LINE
  5
72
330
18
100
AcDbEntity
  8
ADP1DETAIL
100
AcDbLine
 10
8.038974901527385
 20
3.424050243516052
 30
0.0
 11
8.038974901527385
 21
3.452334514763514
 31
0.0
  0
LINE
  5
73
330
18
100
AcDbEntity
  8
ADP1DETAIL
100
AcDbLine
 10
8.097256333133111
 20
3.395737623342765
 30
0.0
 11
8.068984027544276
 21
3.394914983268678
 31
0.0
  0
LINE
  5
74
330
18
100
AcDbEntity
  8
ADP1DETAIL
100
AcDbLine
 10
8.068984027544276
 20
3.394914983268678
 30
0.0
 11
8.06816138747019
 21
3.423187288857515
 31
0.0
  0
LINE
  5
75
330
18
100
AcDbEntity
  8
ADP1DETAIL
100
AcDbLine
 10
8.128064267789776
 20
3.368309439793229
 30
0.0
 11
8.099827849052678
 21
3.366664855680689
 31
0.0
  0
LINE
  5
76
330
18
100
AcDbEntity
  8
ADP1DETAIL
100
AcDbLine
 10
8.099827849052678
 20
3.366664855680689
 30
0.0
 11
8.098183264940136
 21
3.394901274417786
 31
0.0
  0
LINE
  5
77
330
18
100
AcDbEntity
  8
ADP1DETAIL
100
AcDbLine
 10
8.131480269100277
 20
3.339323763180384
 30
0.0
 11
8.129015132431629
 21
3.367500404236493
 31
0.0
  0
LINE
  5
78
330
18
100
AcDbEntity
  8
ADP1DETAIL
100
AcDbLine
 10
7.927782126353918
 20
3.548938792963514
 30
0.0
 11
7.931065729826945
 21
3.57703181608727
 31
0.0
  0
LINE
  5
79
330
18
100
AcDbEntity
  8
ADP1DETAIL
100
AcDbLine
 10
7.837714551061729
 20
3.714480509609999
 30
0.0
 11
7.810394042986041
 21
3.721801017685687
 31
0.0
  0
LINE
  5
7A
330
18
100
AcDbEntity
  8
ADP1DETAIL
100
AcDbLine
 10
7.810394042986041
 20
3.721801017685687
 30
0.0
 11
7.81771455106173
 21
3.749121525761375
 31
0.0
  0
LINE
  5
7B
330
18
100
AcDbEntity
  8
ADP1DETAIL
100
AcDbLine
 10
8.300911347684341
 20
3.217035495294529
 30
0.0
 11
8.294388545842293
 21
3.24455736034996
 31
0.0
  0
LINE
  5
7C
330
18
100
AcDbEntity
  8
ADP1DETAIL
100
AcDbLine
 10
8.512562895199645
 20
3.131037079198764
 30
0.0
 11
8.486276977741256
 21
3.120594352381942
 31
0.0
  0
LINE
  5
7D
330
18
100
AcDbEntity
  8
ADP1DETAIL
100
AcDbLine
 10
8.328433212739772
 20
3.223558297136577
 30
0.0
 11
8.300911347684341
 21
3.217035495294529
 31
0.0
  0
LINE
  5
7E
330
18
100
AcDbEntity
  8
ADP1DETAIL
100
AcDbLine
 10
8.364151135312605
 20
3.202926668560109
 30
0.0
 11
8.336830627236917
 21
3.19560616048442
 31
0.0
  0
LINE
  5
7F
330
18
100
AcDbEntity
  8
ADP1DETAIL
100
AcDbLine
 10
8.336830627236917
 20
3.19560616048442
 30
0.0
 11
8.329510119161229
 21
3.222926668560108
 31
0.0
  0
LINE
  5
80
330
18
100
AcDbEntity
  8
ADP1DETAIL
100
AcDbLine
 10
8.40045401253559
 20
3.183342613924532
 30
0.0
 11
8.373357977317034
 21
3.175230593495884
 31
0.0
  0
LINE
  5
81
330
18
100
AcDbEntity
  8
ADP1DETAIL
100
AcDbLine
 10
8.373357977317034
 20
3.175230593495884
 30
0.0
 11
8.365245956888385
 21
3.202326628714438
 31
0.0
  0
LINE
  5
82
330
18
100
AcDbEntity
  8
ADP1DETAIL
100
AcDbLine
 10
8.437311128550275
 20
3.164822703295257
 30
0.0
 11
8.410462492139796
 21
3.155926034092798
 31
0.0
  0
LINE
  5
83
330
18
100
AcDbEntity
  8
ADP1DETAIL
100
AcDbLine
 10
8.410462492139796
 20
3.155926034092798
 30
0.0
 11
8.401565822937339
 21
3.182774670503275
 31
0.0
  0
LINE
  5
84
330
18
100
AcDbEntity
  8
ADP1DETAIL
100
AcDbLine
 10
8.474691298556857
 20
3.147382606365618
 30
0.0
 11
8.448112777581311
 21
3.1377088158597
 31
0.0
  0
LINE
  5
85
330
18
100
AcDbEntity
  8
ADP1DETAIL
100
AcDbLine
 10
8.448112777581311
 20
3.1377088158597
 30
0.0
 11
8.438438987075391
 21
3.164287336835247
 31
0.0
  0
LINE
  5
86
330
18
100
AcDbEntity
  8
ADP1DETAIL
100
AcDbLine
 10
8.486276977741256
 20
3.120594352381942
 30
0.0
 11
8.475834250924433
 21
3.146880269840331
 31
0.0
  0
ARC
  5
87
330
18
100
AcDbEntity
  8
ADP1DETAIL
100
AcDbCircle
 10
9.05550530598977
 20
4.441047628778699
 30
0.0
 40
1.4375
100
AcDbArc
 50
248.3297027761501
 51
249.0614337425363
  0
ARC
  5
88
330
18
100
AcDbEntity
  8
ADP1DETAIL
100
AcDbCircle
 10
8.560202942160763
 20
3.146763650157128
 30
0.0
 40
0.05
100
AcDbArc
 50
341.1265936503764
 51
68.68318341185581
  0
LINE
  5
89
330
18
100
AcDbEntity
  8
ADP1DETAIL
100
AcDbLine
 10
8.607514722267435
 20
3.130589737113649
 30
0.0
 11
8.606970735561175
 21
3.128998472256569
 31
0.0
  0
ARC
  5
8A
330
18
100
AcDbEntity
  8
ADP1DETAIL
100
AcDbCircle
 10
8.559658955454503
 20
3.145172385300048
 30
0.0
 40
0.05
100
AcDbArc
 50
249.0614337425361
 51
341.1265936503764
  0
LINE
  5
8B
330
18
100
AcDbEntity
  8
ADP1DETAIL
100
AcDbLine
 10
8.524922801896151
 20
3.104597124204262
 30
0.0
 11
8.513719974357869
 21
3.13056819763505
 31
0.0
  0
LINE
  5
8C
330
18
100
AcDbEntity
  8
ADP1DETAIL
100
AcDbLine
 10
8.192007529703433
 20
3.316198442534666
 30
0.0
 11
8.163914506579676
 21
3.312914839061641
 31
0.0
  0
LINE
  5
8D
330
18
100
AcDbEntity
  8
ADP1DETAIL
100
AcDbLine
 10
8.163914506579676
 20
3.312914839061641
 30
0.0
 11
8.16063090310665
 21
3.341007862185396
 31
0.0
  0
LINE
  5
8E
330
18
100
AcDbEntity
  8
ADP1DETAIL
100
AcDbLine
 10
8.225088754577036
 20
3.291559719931853
 30
0.0
 11
8.197103118887879
 21
3.287460427910808
 31
0.0
  0
LINE
  5
8F
330
18
100
AcDbEntity
  8
ADP1DETAIL
100
AcDbLine
 10
8.197103118887879
 20
3.287460427910808
 30
0.0
 11
8.193003826866835
 21
3.315446063599964
 31
0.0
  0
LINE
  5
90
330
18
100
AcDbEntity
  8
ADP1DETAIL
100
AcDbLine
 10
8.258872594758269
 20
3.267893578859737
 30
0.0
 11
8.231018025145468
 21
3.262982066700979
 31
0.0
  0
LINE
  5
91
330
18
100
AcDbEntity
  8
ADP1DETAIL
100
AcDbLine
 10
8.231018025145468
 20
3.262982066700979
 30
0.0
 11
8.226106512986708
 21
3.290836636313779
 31
0.0
  0
LINE
  5
92
330
18
100
AcDbEntity
  8
ADP1DETAIL
100
AcDbLine
 10
8.293330465745505
 20
3.245220043236392
 30
0.0
 11
8.265630529955831
 21
3.239500466569548
 31
0.0
  0
LINE
  5
93
330
18
100
AcDbEntity
  8
ADP1DETAIL
100
AcDbLine
 10
8.265630529955831
 20
3.239500466569548
 30
0.0
 11
8.259910953288988
 21
3.267200402359224
 31
0.0
  0
LINE
  5
94
330
18
100
AcDbEntity
  8
ADP1DETAIL
100
AcDbLine
 10
9.504039876418366
 20
3.128998472256569
 30
0.0
 11
9.503495889712104
 21
3.130589737113649
 31
0.0
  0
ARC
  5
95
330
18
100
AcDbEntity
  8
ADP1DETAIL
100
AcDbCircle
 10
9.550807669818777
 20
3.146763650157128
 30
0.0
 40
0.05
100
AcDbArc
 50
111.3168165881444
 51
198.8734063496229
  0
LINE
  5
96
330
18
100
AcDbEntity
  8
ADP1DETAIL
100
AcDbLine
 10
8.130974365244448
 20
5.542346990638177
 30
0.0
 11
8.159151006300557
 21
5.539881853969529
 31
0.0
  0
LINE
  5
97
330
18
100
AcDbEntity
  8
ADP1DETAIL
100
AcDbLine
 10
8.130974365244448
 20
5.542346990638177
 30
0.0
 11
8.159151006300557
 21
5.539881853969529
 31
0.0
  0
LINE
  5
98
330
18
100
AcDbEntity
  8
ADP1DETAIL
100
AcDbLine
 10
7.956246577060104
 20
5.336896024612084
 30
0.0
 11
7.953781440391455
 21
5.365072665668193
 31
0.0
  0
LINE
  5
99
330
18
100
AcDbEntity
  8
ADP1DETAIL
100
AcDbLine
 10
7.649608447133016
 20
4.626434046032023
 30
0.0
 11
7.632718251547543
 21
4.649121515989787
 31
0.0
  0
LINE
  5
9A
330
18
100
AcDbEntity
  8
ADP1DETAIL
100
AcDbLine
 10
7.63948661107521
 20
4.191030028438264
 30
0.0
 11
7.655709802582116
 21
4.214199147051846
 31
0.0
  0
LINE
  5
9B
330
18
100
AcDbEntity
  8
ADP1DETAIL
100
AcDbLine
 10
7.662655729688792
 20
4.17480683693136
 30
0.0
 11
7.63948661107521
 21
4.191030028438264
 31
0.0
  0
LINE
  5
9C
330
18
100
AcDbEntity
  8
ADP1DETAIL
100
AcDbLine
 10
7.670988513136377
 20
4.13440883189829
 30
0.0
 11
7.647357349254426
 21
4.149951292886961
 31
0.0
  0
LINE
  5
9D
330
18
100
AcDbEntity
  8
ADP1DETAIL
100
AcDbLine
 10
7.647357349254426
 20
4.149951292886961
 30
0.0
 11
7.662899810243096
 21
4.173582456768911
 31
0.0
  0
LINE
  5
9E
330
18
100
AcDbEntity
  8
ADP1DETAIL
100
AcDbLine
 10
7.680492736014778
 20
4.094270273900848
 30
0.0
 11
7.656419521188333
 21
4.109118853897596
 31
0.0
  0
LINE
  5
9F
330
18
100
AcDbEntity
  8
ADP1DETAIL
100
AcDbLine
 10
7.656419521188333
 20
4.109118853897596
 30
0.0
 11
7.671268101185081
 21
4.133192068724041
 31
0.0
  0
LINE
  5
A0
330
18
100
AcDbEntity
  8
ADP1DETAIL
100
AcDbLine
 10
7.691160356802582
 20
4.054425124166358
 30
0.0
 11
7.66666545937475
 21
4.068567259790088
 31
0.0
  0
LINE
  5
A1
330
18
100
AcDbEntity
  8
ADP1DETAIL
100
AcDbLine
 10
7.66666545937475
 20
4.068567259790088
 30
0.0
 11
7.680807594998481
 21
4.09306215721792
 31
0.0
  0
LINE
  5
A2
330
18
100
AcDbEntity
  8
ADP1DETAIL
100
AcDbLine
 10
7.702982349627592
 20
4.01490709566946
 30
0.0
 11
7.678086494727061
 21
4.028330821261547
 31
0.0
  0
LINE
  5
A3
330
18
100
AcDbEntity
  8
ADP1DETAIL
100
AcDbLine
 10
7.678086494727061
 20
4.028330821261547
 30
0.0
 11
7.691510220319149
 21
4.053226676162079
 31
0.0
  0
LINE
  5
A4
330
18
100
AcDbEntity
  8
ADP1DETAIL
100
AcDbLine
 10
7.715948711903626
 20
3.975749624607566
 30
0.0
 11
7.690672963909133
 21
3.988443582355996
 31
0.0
  0
LINE
  5
A5
330
18
100
AcDbEntity
  8
ADP1DETAIL
100
AcDbLine
 10
7.704414217511458
 20
3.948939291659712
 30
0.0
 11
7.716367667060663
 21
3.974573546941943
 31
0.0
  0
LINE
  5
A6
330
18
100
AcDbEntity
  8
ADP1DETAIL
100
AcDbLine
 10
7.690672963909133
 20
3.988443582355996
 30
0.0
 11
7.703366921657561
 21
4.013719330350488
 31
0.0
  0
LINE
  5
A7
330
18
100
AcDbEntity
  8
ADP1DETAIL
100
AcDbLine
 10
7.644811299878983
 20
4.58546550360177
 30
0.0
 11
7.62726839100665
 21
4.607652129039114
 31
0.0
  0
LINE
  5
A8
330
18
100
AcDbEntity
  8
ADP1DETAIL
100
AcDbLine
 10
7.62726839100665
 20
4.607652129039114
 30
0.0
 11
7.649455016443993
 21
4.625195037911447
 31
0.0
  0
LINE
  5
A9
330
18
100
AcDbEntity
  8
ADP1DETAIL
100
AcDbLine
 10
7.641207740591601
 20
4.54437476923137
 30
0.0
 11
7.62302696148472
 21
4.566041778048158
 31
0.0
  0
LINE
  5
AA
330
18
100
AcDbEntity
  8
ADP1DETAIL
100
AcDbLine
 10
7.62302696148472
 20
4.566041778048158
 30
0.0
 11
7.644693970301507
 21
4.584222557155039
 31
0.0
  0
LINE
  5
AB
330
18
100
AcDbEntity
  8
ADP1DETAIL
100
AcDbLine
 10
7.638800818241791
 20
4.503196609784425
 30
0.0
 11
7.619997551654575
 21
4.524325669528058
 31
0.0
  0
LINE
  5
AC
330
18
100
AcDbEntity
  8
ADP1DETAIL
100
AcDbLine
 10
7.619997551654575
 20
4.524325669528058
 30
0.0
 11
7.641126611398211
 21
4.543128936115274
 31
0.0
  0
LINE
  5
AD
330
18
100
AcDbEntity
  8
ADP1DETAIL
100
AcDbLine
 10
7.637592569326157
 20
4.461965866094863
 30
0.0
 11
7.618182724699376
 21
4.482539099471371
 31
0.0
  0
LINE
  5
AE
330
18
100
AcDbEntity
  8
ADP1DETAIL
100
AcDbLine
 10
7.637584016143907
 20
4.420717423488151
 30
0.0
 11
7.617584016143907
 21
4.440717423488149
 31
0.0
  0
LINE
  5
AF
330
18
100
AcDbEntity
  8
ADP1DETAIL
100
AcDbLine
 10
7.617584016143907
 20
4.440717423488149
 30
0.0
 11
7.637584016143907
 21
4.460717423488149
 31
0.0
  0
LINE
  5
B0
330
18
100
AcDbEntity
  8
ADP1DETAIL
100
AcDbLine
 10
7.638775165931886
 20
4.37948618226479
 30
0.0
 11
7.618201932555383
 21
4.398896026891573
 31
0.0
  0
LINE
  5
B1
330
18
100
AcDbEntity
  8
ADP1DETAIL
100
AcDbLine
 10
7.618201932555383
 20
4.398896026891573
 30
0.0
 11
7.637611777182163
 21
4.419469260268079
 31
0.0
  0
LINE
  5
B2
330
18
100
AcDbEntity
  8
ADP1DETAIL
100
AcDbLine
 10
7.641165010858459
 20
4.338307028171207
 30
0.0
 11
7.620035951114825
 21
4.357110294758421
 31
0.0
  0
LINE
  5
B3
330
18
100
AcDbEntity
  8
ADP1DETAIL
100
AcDbLine
 10
7.620035951114825
 20
4.357110294758421
 30
0.0
 11
7.638839217702041
 21
4.378239354502055
 31
0.0
  0
LINE
  5
B4
330
18
100
AcDbEntity
  8
ADP1DETAIL
100
AcDbLine
 10
7.644751528876221
 20
4.297214802882904
 30
0.0
 11
7.623084520059435
 21
4.315395581989785
 31
0.0
  0
LINE
  5
B5
330
18
100
AcDbEntity
  8
ADP1DETAIL
100
AcDbLine
 10
7.623084520059435
 20
4.315395581989785
 30
0.0
 11
7.641265299166316
 21
4.337062590806575
 31
0.0
  0
LINE
  5
B6
330
18
100
AcDbEntity
  8
ADP1DETAIL
100
AcDbLine
 10
7.64953168543287
 20
4.256244274524948
 30
0.0
 11
7.627345059995527
 21
4.27378718339728
 31
0.0
  0
LINE
  5
B7
330
18
100
AcDbEntity
  8
ADP1DETAIL
100
AcDbLine
 10
7.627345059995527
 20
4.27378718339728
 30
0.0
 11
7.644887968867863
 21
4.295973808834625
 31
0.0
  0
LINE
  5
B8
330
18
100
AcDbEntity
  8
ADP1DETAIL
100
AcDbLine
 10
7.65550143603873
 20
4.215430108254641
 30
0.0
 11
7.632813966080967
 21
4.232320303840116
 31
0.0
  0
LINE
  5
B9
330
18
100
AcDbEntity
  8
ADP1DETAIL
100
AcDbLine
 10
7.632813966080967
 20
4.232320303840116
 30
0.0
 11
7.64970416166644
 21
4.255007773797879
 31
0.0
  0
LINE
  5
BA
330
18
100
AcDbEntity
  8
ADP1DETAIL
100
AcDbLine
 10
7.662655729688792
 20
4.17480683693136
 30
0.0
 11
7.639486611075209
 21
4.191030028438263
 31
0.0
  0
LINE
  5
BB
330
18
100
AcDbEntity
  8
ADP1DETAIL
100
AcDbLine
 10
7.639486611075209
 20
4.191030028438263
 30
0.0
 11
7.655709802582115
 21
4.214199147051846
 31
0.0
  0
LINE
  5
BC
330
18
100
AcDbEntity
  8
ADP1DETAIL
100
AcDbLine
 10
7.618182724699376
 20
4.482539099471371
 30
0.0
 11
7.638755958075882
 21
4.501948944098152
 31
0.0
  0
LINE
  5
BD
330
18
100
AcDbEntity
  8
ADP1DETAIL
100
AcDbLine
 10
7.789688270706955
 20
5.123194957451436
 30
0.0
 11
7.816784305925509
 21
5.131306977880083
 31
0.0
  0
LINE
  5
BE
330
18
100
AcDbEntity
  8
ADP1DETAIL
100
AcDbLine
 10
7.63937193198129
 20
4.690414851658696
 30
0.0
 11
7.662541050594873
 21
4.706638043165603
 31
0.0
  0
LINE
  5
BF
330
18
100
AcDbEntity
  8
ADP1DETAIL
100
AcDbLine
 10
7.655595123488195
 20
4.667245733045114
 30
0.0
 11
7.63937193198129
 21
4.690414851658696
 31
0.0
  0
LINE
  5
C0
330
18
100
AcDbEntity
  8
ADP1DETAIL
100
AcDbLine
 10
7.632718251547543
 20
4.649121515989787
 30
0.0
 11
7.655405721505306
 21
4.666011711575259
 31
0.0
  0
LINE
  5
C1
330
18
100
AcDbEntity
  8
ADP1DETAIL
100
AcDbLine
 10
7.797800291135603
 20
5.09609892223288
 30
0.0
 11
7.789688270706955
 21
5.123194957451436
 31
0.0
  0
LINE
  5
C2
330
18
100
AcDbEntity
  8
ADP1DETAIL
100
AcDbLine
 10
7.779280380506326
 20
5.059241806218195
 30
0.0
 11
7.770383711303868
 21
5.086090442628672
 31
0.0
  0
LINE
  5
C3
330
18
100
AcDbEntity
  8
ADP1DETAIL
100
AcDbLine
 10
7.770383711303868
 20
5.086090442628672
 30
0.0
 11
7.797232347714345
 21
5.094987111831131
 31
0.0
  0
LINE
  5
C4
330
18
100
AcDbEntity
  8
ADP1DETAIL
100
AcDbLine
 10
7.761840283576689
 20
5.021861636211609
 30
0.0
 11
7.752166493070769
 21
5.048440157187157
 31
0.0
  0
LINE
  5
C5
330
18
100
AcDbEntity
  8
ADP1DETAIL
100
AcDbLine
 10
7.752166493070769
 20
5.048440157187157
 30
0.0
 11
7.778745014046316
 21
5.058113947693075
 31
0.0
  0
LINE
  5
C6
330
18
100
AcDbEntity
  8
ADP1DETAIL
100
AcDbLine
 10
7.745494756409835
 20
4.983990039568825
 30
0.0
 11
7.735052029593012
 21
5.010275957027212
 31
0.0
  0
LINE
  5
C7
330
18
100
AcDbEntity
  8
ADP1DETAIL
100
AcDbLine
 10
7.735052029593012
 20
5.010275957027212
 30
0.0
 11
7.761337947051401
 21
5.020718683844035
 31
0.0
  0
LINE
  5
C8
330
18
100
AcDbEntity
  8
ADP1DETAIL
100
AcDbLine
 10
7.730257628953614
 20
4.945659059441527
 30
0.0
 11
7.719054801415332
 21
4.971630132872319
 31
0.0
  0
LINE
  5
C9
330
18
100
AcDbEntity
  8
ADP1DETAIL
100
AcDbLine
 10
7.71614179333906
 20
4.906901127665707
 30
0.0
 11
7.704188343789856
 21
4.932535382947938
 31
0.0
  0
LINE
  5
CA
330
18
100
AcDbEntity
  8
ADP1DETAIL
100
AcDbLine
 10
7.704188343789856
 20
4.932535382947938
 30
0.0
 11
7.729822599072087
 21
4.944488832497143
 31
0.0
  0
LINE
  5
CB
330
18
100
AcDbEntity
  8
ADP1DETAIL
100
AcDbLine
 10
7.703159192972367
 20
4.867749037321066
 30
0.0
 11
7.690465235223941
 21
4.893024785315557
 31
0.0
  0
LINE
  5
CC
330
18
100
AcDbEntity
  8
ADP1DETAIL
100
AcDbLine
 10
7.690465235223941
 20
4.893024785315557
 30
0.0
 11
7.715740983218433
 21
4.905718743063986
 31
0.0
  0
LINE
  5
CD
330
18
100
AcDbEntity
  8
ADP1DETAIL
100
AcDbLine
 10
7.691320812429572
 20
4.828235914984806
 30
0.0
 11
7.677897086837485
 21
4.853131769885338
 31
0.0
  0
LINE
  5
CE
330
18
100
AcDbEntity
  8
ADP1DETAIL
100
AcDbLine
 10
7.677897086837485
 20
4.853131769885338
 30
0.0
 11
7.702792941738016
 21
4.866555495477423
 31
0.0
  0
LINE
  5
CF
330
18
100
AcDbEntity
  8
ADP1DETAIL
100
AcDbLine
 10
7.680636668162503
 20
4.788395192703242
 30
0.0
 11
7.666494532538774
 21
4.812890090131072
 31
0.0
  0
LINE
  5
D0
330
18
100
AcDbEntity
  8
ADP1DETAIL
100
AcDbLine
 10
7.666494532538774
 20
4.812890090131072
 30
0.0
 11
7.690989429966605
 21
4.827032225754805
 31
0.0
  0
LINE
  5
D1
330
18
100
AcDbEntity
  8
ADP1DETAIL
100
AcDbLine
 10
7.671115800023871
 20
4.748260579704944
 30
0.0
 11
7.656267220027123
 21
4.77233379453139
 31
0.0
  0
LINE
  5
D2
330
18
100
AcDbEntity
  8
ADP1DETAIL
100
AcDbLine
 10
7.656267220027123
 20
4.77233379453139
 30
0.0
 11
7.680340434853569
 21
4.787182374528136
 31
0.0
  0
LINE
  5
D3
330
18
100
AcDbEntity
  8
ADP1DETAIL
100
AcDbLine
 10
7.662766263618642
 20
4.707866033879375
 30
0.0
 11
7.647223802629973
 21
4.731497197761325
 31
0.0
  0
LINE
  5
D4
330
18
100
AcDbEntity
  8
ADP1DETAIL
100
AcDbLine
 10
7.647223802629973
 20
4.731497197761325
 30
0.0
 11
7.670854966511923
 21
4.747039658749996
 31
0.0
  0
LINE
  5
D5
330
18
100
AcDbEntity
  8
ADP1DETAIL
100
AcDbLine
 10
7.655595123488194
 20
4.667245733045116
 30
0.0
 11
7.639371931981289
 21
4.690414851658696
 31
0.0
  0
LINE
  5
D6
330
18
100
AcDbEntity
  8
ADP1DETAIL
100
AcDbLine
 10
7.639371931981289
 20
4.690414851658696
 30
0.0
 11
7.662541050594871
 21
4.706638043165601
 31
0.0
  0
LINE
  5
D7
330
18
100
AcDbEntity
  8
ADP1DETAIL
100
AcDbLine
 10
7.719054801415332
 20
4.971630132872319
 30
0.0
 11
7.745025874846121
 21
4.9828329604106
 31
0.0
  0
LINE
  5
D8
330
18
100
AcDbEntity
  8
ADP1DETAIL
100
AcDbLine
 10
7.810063837695491
 20
5.159722307531551
 30
0.0
 11
7.837384345771178
 21
5.167042815607239
 31
0.0
  0
LINE
  5
D9
330
18
100
AcDbEntity
  8
ADP1DETAIL
100
AcDbLine
 10
7.817384345771179
 20
5.132401799455863
 30
0.0
 11
7.810063837695491
 21
5.159722307531551
 31
0.0
  0
LINE
  5
DA
330
18
100
AcDbEntity
  8
ADP1DETAIL
100
AcDbLine
 10
7.930656119745735
 20
5.304545405065036
 30
0.0
 11
7.927372516272711
 21
5.332638428188792
 31
0.0
  0
LINE
  5
DB
330
18
100
AcDbEntity
  8
ADP1DETAIL
100
AcDbLine
 10
7.927372516272711
 20
5.332638428188792
 30
0.0
 11
7.955465539396467
 21
5.335922031661819
 31
0.0
  0
LINE
  5
DC
330
18
100
AcDbEntity
  8
ADP1DETAIL
100
AcDbLine
 10
7.906017397142924
 20
5.271464180191433
 30
0.0
 11
7.901918105121879
 21
5.299449815880588
 31
0.0
  0
LINE
  5
DD
330
18
100
AcDbEntity
  8
ADP1DETAIL
100
AcDbLine
 10
7.901918105121879
 20
5.299449815880588
 30
0.0
 11
7.929903740811035
 21
5.303549107901632
 31
0.0
  0
LINE
  5
DE
330
18
100
AcDbEntity
  8
ADP1DETAIL
100
AcDbLine
 10
7.882351256070808
 20
5.2376803400102
 30
0.0
 11
7.87743974391205
 21
5.265534909623001
 31
0.0
  0
LINE
  5
DF
330
18
100
AcDbEntity
  8
ADP1DETAIL
100
AcDbLine
 10
7.87743974391205
 20
5.265534909623001
 30
0.0
 11
7.905294313524851
 21
5.270446421781761
 31
0.0
  0
LINE
  5
E0
330
18
100
AcDbEntity
  8
ADP1DETAIL
100
AcDbLine
 10
7.859677720447463
 20
5.203222469022962
 30
0.0
 11
7.853958143780619
 21
5.230922404812638
 31
0.0
  0
LINE
  5
E1
330
18
100
AcDbEntity
  8
ADP1DETAIL
100
AcDbLine
 10
7.853958143780619
 20
5.230922404812638
 30
0.0
 11
7.881658079570295
 21
5.236641981479479
 31
0.0
  0
LINE
  5
E2
330
18
100
AcDbEntity
  8
ADP1DETAIL
100
AcDbLine
 10
7.838015974347648
 20
5.168119722028697
 30
0.0
 11
7.8314931725056
 21
5.195641587084127
 31
0.0
  0
LINE
  5
E3
330
18
100
AcDbEntity
  8
ADP1DETAIL
100
AcDbLine
 10
7.8314931725056
 20
5.195641587084127
 30
0.0
 11
7.85901503756103
 21
5.202164388926176
 31
0.0
  0
LINE
  5
E4
330
18
100
AcDbEntity
  8
ADP1DETAIL
100
AcDbLine
 10
7.817384345771179
 20
5.132401799455863
 30
0.0
 11
7.81006383769549
 21
5.15972230753155
 31
0.0
  0
LINE
  5
E5
330
18
100
AcDbEntity
  8
ADP1DETAIL
100
AcDbLine
 10
7.81006383769549
 20
5.15972230753155
 30
0.0
 11
7.837384345771178
 21
5.167042815607238
 31
0.0
  0
LINE
  5
E6
330
18
100
AcDbEntity
  8
ADP1DETAIL
100
AcDbLine
 10
8.128509228575801
 20
5.514170349582068
 30
0.0
 11
8.130974365244448
 21
5.542346990638177
 31
0.0
  0
LINE
  5
E7
330
18
100
AcDbEntity
  8
ADP1DETAIL
100
AcDbLine
 10
8.097689921678743
 20
5.486754944915691
 30
0.0
 11
8.099334505791285
 21
5.514991363652789
 31
0.0
  0
LINE
  5
E8
330
18
100
AcDbEntity
  8
ADP1DETAIL
100
AcDbLine
 10
8.099334505791285
 20
5.514991363652789
 30
0.0
 11
8.127570924528381
 21
5.513346779540247
 31
0.0
  0
LINE
  5
E9
330
18
100
AcDbEntity
  8
ADP1DETAIL
100
AcDbLine
 10
8.067681022220883
 20
5.458454767461045
 30
0.0
 11
8.06850366229497
 21
5.48672707304988
 31
0.0
  0
LINE
  5
EA
330
18
100
AcDbEntity
  8
ADP1DETAIL
100
AcDbLine
 10
8.06850366229497
 20
5.48672707304988
 30
0.0
 11
8.096775967883806
 21
5.485904432975795
 31
0.0
  0
LINE
  5
EB
330
18
100
AcDbEntity
  8
ADP1DETAIL
100
AcDbLine
 10
8.038507920727122
 20
5.429293761993623
 30
0.0
 11
8.038507920727122
 21
5.457578033241084
 31
0.0
  0
LINE
  5
EC
330
18
100
AcDbEntity
  8
ADP1DETAIL
100
AcDbLine
 10
8.038507920727122
 20
5.457578033241084
 30
0.0
 11
8.066792191974583
 21
5.457578033241084
 31
0.0
  0
LINE
  5
ED
330
18
100
AcDbEntity
  8
ADP1DETAIL
100
AcDbLine
 10
8.010195300553837
 20
5.399296601635358
 30
0.0
 11
8.009372660479749
 21
5.427568907224193
 31
0.0
  0
LINE
  5
EE
330
18
100
AcDbEntity
  8
ADP1DETAIL
100
AcDbLine
 10
8.009372660479749
 20
5.427568907224193
 30
0.0
 11
8.037644966068585
 21
5.428391547298279
 31
0.0
  0
LINE
  5
EF
330
18
100
AcDbEntity
  8
ADP1DETAIL
100
AcDbLine
 10
7.982767117004298
 20
5.368488666978693
 30
0.0
 11
7.981122532891758
 21
5.396725085715793
 31
0.0
  0
LINE
  5
F0
330
18
100
AcDbEntity
  8
ADP1DETAIL
100
AcDbLine
 10
7.953781440391455
 20
5.365072665668193
 30
0.0
 11
7.981958081447565
 21
5.36753780233684
 31
0.0
  0
LINE
  5
F1
330
18
100
AcDbEntity
  8
ADP1DETAIL
100
AcDbLine
 10
7.981122532891758
 20
5.396725085715793
 30
0.0
 11
8.009358951628856
 21
5.398369669828333
 31
0.0
  0
LINE
  5
F2
330
18
100
AcDbEntity
  8
ADP1DETAIL
100
AcDbLine
 10
8.128509228575801
 20
5.514170349582069
 30
0.0
 11
8.130974365244448
 21
5.542346990638177
 31
0.0
  0
LINE
  5
F3
330
18
100
AcDbEntity
  8
ADP1DETAIL
100
AcDbLine
 10
8.846777981051186
 20
5.863738968687503
 30
0.0
 11
8.869465451008949
 21
5.846848773102029
 31
0.0
  0
LINE
  5
F4
330
18
100
AcDbEntity
  8
ADP1DETAIL
100
AcDbLine
 10
8.485670578108539
 20
5.761239329907004
 30
0.0
 11
8.511956495566927
 21
5.750796603090181
 31
0.0
  0
LINE
  5
F5
330
18
100
AcDbEntity
  8
ADP1DETAIL
100
AcDbLine
 10
8.475227851291716
 20
5.734953412448616
 30
0.0
 11
8.485670578108539
 21
5.761239329907004
 31
0.0
  0
LINE
  5
F6
330
18
100
AcDbEntity
  8
ADP1DETAIL
100
AcDbLine
 10
8.437840451823102
 20
5.717528819150333
 30
0.0
 11
8.44751424232902
 21
5.744107340125879
 31
0.0
  0
LINE
  5
F7
330
18
100
AcDbEntity
  8
ADP1DETAIL
100
AcDbLine
 10
8.44751424232902
 20
5.744107340125879
 30
0.0
 11
8.474092763304568
 21
5.734433549619961
 31
0.0
  0
LINE
  5
F8
330
18
100
AcDbEntity
  8
ADP1DETAIL
100
AcDbLine
 10
8.400975658486055
 20
5.699024195326732
 30
0.0
 11
8.409872327688512
 21
5.725872831737209
 31
0.0
  0
LINE
  5
F9
330
18
100
AcDbEntity
  8
ADP1DETAIL
100
AcDbLine
 10
8.409872327688512
 20
5.725872831737209
 30
0.0
 11
8.436720964098991
 21
5.716976162534749
 31
0.0
  0
LINE
  5
FA
330
18
100
AcDbEntity
  8
ADP1DETAIL
100
AcDbLine
 10
8.364664662576153
 20
5.679455197736984
 30
0.0
 11
8.372776683004804
 21
5.70655123295554
 31
0.0
  0
LINE
  5
FB
330
18
100
AcDbEntity
  8
ADP1DETAIL
100
AcDbLine
 10
8.328938186821071
 20
5.658838383706742
 30
0.0
 11
8.336258694896759
 21
5.686158891782429
 31
0.0
  0
LINE
  5
FC
330
18
100
AcDbEntity
  8
ADP1DETAIL
100
AcDbLine
 10
8.336258694896759
 20
5.686158891782429
 30
0.0
 11
8.363579202972447
 21
5.678838383706739
 31
0.0
  0
LINE
  5
FD
330
18
100
AcDbEntity
  8
ADP1DETAIL
100
AcDbLine
 10
8.293826459386067
 20
5.637191197118958
 30
0.0
 11
8.300349261228117
 21
5.664713062174387
 31
0.0
  0
LINE
  5
FE
330
18
100
AcDbEntity
  8
ADP1DETAIL
100
AcDbLine
 10
8.300349261228117
 20
5.664713062174387
 30
0.0
 11
8.327871126283547
 21
5.658190260332339
 31
0.0
  0
LINE
  5
FF
330
18
100
AcDbEntity
  8
ADP1DETAIL
100
AcDbLine
 10
8.259359188297954
 20
5.614531953654648
 30
0.0
 11
8.265078764964798
 21
5.642231889444323
 31
0.0
  0
LINE
  5
100
330
18
100
AcDbEntity
  8
ADP1DETAIL
100
AcDbLine
 10
8.265078764964798
 20
5.642231889444323
 30
0.0
 11
8.292778700754471
 21
5.63651231277748
 31
0.0
  0
LINE
  5
101
330
18
100
AcDbEntity
  8
ADP1DETAIL
100
AcDbLine
 10
8.225565536309133
 20
5.590879825295985
 30
0.0
 11
8.230477048467893
 21
5.618734394908784
 31
0.0
  0
LINE
  5
102
330
18
100
AcDbEntity
  8
ADP1DETAIL
100
AcDbLine
 10
8.230477048467893
 20
5.618734394908784
 30
0.0
 11
8.258331618080692
 21
5.613822882750026
 31
0.0
  0
LINE
  5
103
330
18
100
AcDbEntity
  8
ADP1DETAIL
100
AcDbLine
 10
8.192474096222996
 20
5.566254824104881
 30
0.0
 11
8.19657338824404
 21
5.594240459794038
 31
0.0
  0
LINE
  5
104
330
18
100
AcDbEntity
  8
ADP1DETAIL
100
AcDbLine
 10
8.19657338824404
 20
5.594240459794038
 30
0.0
 11
8.224559023933197
 21
5.590141167772991
 31
0.0
  0
LINE
  5
105
330
18
100
AcDbEntity
  8
ADP1DETAIL
100
AcDbLine
 10
8.16011286670156
 20
5.540677785290796
 30
0.0
 11
8.163396470174586
 21
5.568770808414551
 31
0.0
  0
LINE
  5
106
330
18
100
AcDbEntity
  8
ADP1DETAIL
100
AcDbLine
 10
8.163396470174586
 20
5.568770808414551
 30
0.0
 11
8.191489493298341
 21
5.565487204941527
 31
0.0
  0
LINE
  5
107
330
18
100
AcDbEntity
  8
ADP1DETAIL
100
AcDbLine
 10
8.372776683004804
 20
5.70655123295554
 30
0.0
 11
8.399872718223358
 21
5.69843921252689
 31
0.0
  0
LINE
  5
108
330
18
100
AcDbEntity
  8
ADP1DETAIL
100
AcDbLine
 10
8.563396968870783
 20
5.792138717257012
 30
0.0
 11
8.589031224153014
 21
5.780185267707807
 31
0.0
  0
LINE
  5
109
330
18
100
AcDbEntity
  8
ADP1DETAIL
100
AcDbLine
 10
8.55144351932158
 20
5.766504461974781
 30
0.0
 11
8.563396968870783
 21
5.792138717257012
 31
0.0
  0
LINE
  5
10A
330
18
100
AcDbEntity
  8
ADP1DETAIL
100
AcDbLine
 10
8.513106223419352
 20
5.751283232276056
 30
0.0
 11
8.524309050957636
 21
5.777254305706845
 31
0.0
  0
LINE
  5
10B
330
18
100
AcDbEntity
  8
ADP1DETAIL
100
AcDbLine
 10
8.524309050957636
 20
5.777254305706845
 30
0.0
 11
8.550280124388425
 21
5.766051478168563
 31
0.0
  0
LINE
  5
10C
330
18
100
AcDbEntity
  8
ADP1DETAIL
100
AcDbLine
 10
8.563396968870783
 20
5.792138717257012
 30
0.0
 11
8.589031224153014
 21
5.780185267707807
 31
0.0
  0
LINE
  5
10D
330
18
100
AcDbEntity
  8
ADP1DETAIL
100
AcDbLine
 10
8.55144351932158
 20
5.766504461974781
 30
0.0
 11
8.563396968870783
 21
5.792138717257012
 31
0.0
  0
LINE
  5
10E
330
18
100
AcDbEntity
  8
ADP1DETAIL
100
AcDbLine
 10
8.602901259567067
 20
5.805879970859336
 30
0.0
 11
8.628177007561559
 21
5.79318601311091
 31
0.0
  0
LINE
  5
10F
330
18
100
AcDbEntity
  8
ADP1DETAIL
100
AcDbLine
 10
8.590207301818638
 20
5.780604222864845
 30
0.0
 11
8.602901259567067
 21
5.805879970859336
 31
0.0
  0
LINE
  5
110
330
18
100
AcDbEntity
  8
ADP1DETAIL
100
AcDbLine
 10
8.642788498472619
 20
5.81846644004141
 30
0.0
 11
8.66768435337315
 21
5.805042714449321
 31
0.0
  0
LINE
  5
111
330
18
100
AcDbEntity
  8
ADP1DETAIL
100
AcDbLine
 10
8.629364772880531
 20
5.793570585140878
 30
0.0
 11
8.642788498472619
 21
5.81846644004141
 31
0.0
  0
LINE
  5
112
330
18
100
AcDbEntity
  8
ADP1DETAIL
100
AcDbLine
 10
8.68302493700116
 20
5.82988747539372
 30
0.0
 11
8.707519834428993
 21
5.815745339769989
 31
0.0
  0
LINE
  5
113
330
18
100
AcDbEntity
  8
ADP1DETAIL
100
AcDbLine
 10
8.66888280137743
 20
5.805392577965889
 30
0.0
 11
8.68302493700116
 21
5.82988747539372
 31
0.0
  0
LINE
  5
114
330
18
100
AcDbEntity
  8
ADP1DETAIL
100
AcDbLine
 10
8.723576531108667
 20
5.840133413580137
 30
0.0
 11
8.747649745935111
 21
5.825284833583388
 31
0.0
  0
LINE
  5
115
330
18
100
AcDbEntity
  8
ADP1DETAIL
100
AcDbLine
 10
8.708727951111919
 20
5.816060198753691
 30
0.0
 11
8.723576531108667
 21
5.840133413580137
 31
0.0
  0
LINE
  5
116
330
18
100
AcDbEntity
  8
ADP1DETAIL
100
AcDbLine
 10
8.764408970098031
 20
5.849195585514044
 30
0.0
 11
8.788040133979983
 21
5.833653124525374
 31
0.0
  0
LINE
  5
117
330
18
100
AcDbEntity
  8
ADP1DETAIL
100
AcDbLine
 10
8.74886650910936
 20
5.825564421632094
 30
0.0
 11
8.764408970098031
 21
5.849195585514044
 31
0.0
  0
LINE
  5
118
330
18
100
AcDbEntity
  8
ADP1DETAIL
100
AcDbLine
 10
8.805487705649335
 20
5.85706632369326
 30
0.0
 11
8.828656824262917
 21
5.840843132186354
 31
0.0
  0
LINE
  5
119
330
18
100
AcDbEntity
  8
ADP1DETAIL
100
AcDbLine
 10
8.789264514142431
 20
5.833897205079678
 30
0.0
 11
8.805487705649335
 21
5.85706632369326
 31
0.0
  0
LINE
  5
11A
330
18
100
AcDbEntity
  8
ADP1DETAIL
100
AcDbLine
 10
8.829887785465711
 20
5.841051498729739
 30
0.0
 11
8.846777981051186
 21
5.863738968687503
 31
0.0
  0
LINE
  5
11B
330
18
100
AcDbEntity
  8
ADP1DETAIL
100
AcDbLine
 10
9.199923180812843
 20
5.851741634889485
 30
0.0
 11
9.222109806250188
 21
5.869284543761819
 31
0.0
  0
LINE
  5
11C
330
18
100
AcDbEntity
  8
ADP1DETAIL
100
AcDbLine
 10
9.158832446442447
 20
5.855345194176869
 30
0.0
 11
9.180499455259234
 21
5.873525973283749
 31
0.0
  0
LINE
  5
11D
330
18
100
AcDbEntity
  8
ADP1DETAIL
100
AcDbLine
 10
9.180499455259234
 20
5.873525973283749
 30
0.0
 11
9.198680234366117
 21
5.851858964466961
 31
0.0
  0
LINE
  5
11E
330
18
100
AcDbEntity
  8
ADP1DETAIL
100
AcDbLine
 10
9.117654286995499
 20
5.857752116526679
 30
0.0
 11
9.138783346739133
 21
5.876555383113895
 31
0.0
  0
LINE
  5
11F
330
18
100
AcDbEntity
  8
ADP1DETAIL
100
AcDbLine
 10
9.138783346739133
 20
5.876555383113895
 30
0.0
 11
9.157586613326349
 21
5.855426323370259
 31
0.0
  0
LINE
  5
120
330
18
100
AcDbEntity
  8
ADP1DETAIL
100
AcDbLine
 10
9.076423543305939
 20
5.858960365442312
 30
0.0
 11
9.096996776682445
 21
5.878370210069093
 31
0.0
  0
LINE
  5
121
330
18
100
AcDbEntity
  8
ADP1DETAIL
100
AcDbLine
 10
9.096996776682445
 20
5.878370210069093
 30
0.0
 11
9.116406621309227
 21
5.857796976692589
 31
0.0
  0
LINE
  5
122
330
18
100
AcDbEntity
  8
ADP1DETAIL
100
AcDbLine
 10
9.035175100699225
 20
5.858968918624563
 30
0.0
 11
9.055175100699225
 21
5.878968918624563
 31
0.0
  0
LINE
  5
123
330
18
100
AcDbEntity
  8
ADP1DETAIL
100
AcDbLine
 10
9.055175100699225
 20
5.878968918624563
 30
0.0
 11
9.075175100699224
 21
5.858968918624563
 31
0.0
  0
LINE
  5
124
330
18
100
AcDbEntity
  8
ADP1DETAIL
100
AcDbLine
 10
8.888244860608351
 20
5.869207874772942
 30
0.0
 11
8.910431486045695
 21
5.851664965900607
 31
0.0
  0
LINE
  5
125
330
18
100
AcDbEntity
  8
ADP1DETAIL
100
AcDbLine
 10
8.870701951736018
 20
5.847021249335599
 30
0.0
 11
8.888244860608351
 21
5.869207874772942
 31
0.0
  0
LINE
  5
126
330
18
100
AcDbEntity
  8
ADP1DETAIL
100
AcDbLine
 10
8.929853259200855
 20
5.873468414709035
 30
0.0
 11
8.951520268017643
 21
5.855287635602154
 31
0.0
  0
LINE
  5
127
330
18
100
AcDbEntity
  8
ADP1DETAIL
100
AcDbLine
 10
8.911672480093974
 20
5.851801405892247
 30
0.0
 11
8.929853259200855
 21
5.873468414709035
 31
0.0
  0
LINE
  5
128
330
18
100
AcDbEntity
  8
ADP1DETAIL
100
AcDbLine
 10
8.971567971969493
 20
5.876516983653645
 30
0.0
 11
8.992697031713127
 21
5.857713717066429
 31
0.0
  0
LINE
  5
129
330
18
100
AcDbEntity
  8
ADP1DETAIL
100
AcDbLine
 10
8.952764705382277
 20
5.855387923910011
 30
0.0
 11
8.971567971969493
 21
5.876516983653645
 31
0.0
  0
LINE
  5
12A
330
18
100
AcDbEntity
  8
ADP1DETAIL
100
AcDbLine
 10
9.013353704102645
 20
5.878351002213087
 30
0.0
 11
9.033926937479149
 21
5.858941157586306
 31
0.0
  0
LINE
  5
12B
330
18
100
AcDbEntity
  8
ADP1DETAIL
100
AcDbLine
 10
8.993943859475862
 20
5.857777768836582
 30
0.0
 11
9.013353704102645
 21
5.878351002213087
 31
0.0
  0
LINE
  5
12C
330
18
100
AcDbEntity
  8
ADP1DETAIL
100
AcDbLine
 10
9.035175100699222
 20
5.858968918624563
 30
0.0
 11
9.055175100699221
 21
5.878968918624562
 31
0.0
  0
LINE
  5
12D
330
18
100
AcDbEntity
  8
ADP1DETAIL
100
AcDbLine
 10
9.055175100699221
 20
5.878968918624562
 30
0.0
 11
9.075175100699221
 21
5.858968918624563
 31
0.0
  0
LINE
  5
12E
330
18
100
AcDbEntity
  8
ADP1DETAIL
100
AcDbLine
 10
9.546993060159014
 20
5.792364590978611
 30
0.0
 11
9.558946509708217
 21
5.76673033569638
 31
0.0
  0
LINE
  5
12F
330
18
100
AcDbEntity
  8
ADP1DETAIL
100
AcDbLine
 10
9.521358804876783
 20
5.780411141429407
 30
0.0
 11
9.546993060159014
 21
5.792364590978611
 31
0.0
  0
LINE
  5
130
330
18
100
AcDbEntity
  8
ADP1DETAIL
100
AcDbLine
 10
9.482206714532139
 20
5.7933937417961
 30
0.0
 11
9.507482462526633
 21
5.806087699544526
 31
0.0
  0
LINE
  5
131
330
18
100
AcDbEntity
  8
ADP1DETAIL
100
AcDbLine
 10
9.507482462526633
 20
5.806087699544526
 30
0.0
 11
9.52017642027506
 21
5.780811951550035
 31
0.0
  0
LINE
  5
132
330
18
100
AcDbEntity
  8
ADP1DETAIL
100
AcDbLine
 10
9.44269359219588
 20
5.805232122338896
 30
0.0
 11
9.467589447096411
 21
5.818655847930983
 31
0.0
  0
LINE
  5
133
330
18
100
AcDbEntity
  8
ADP1DETAIL
100
AcDbLine
 10
9.467589447096411
 20
5.818655847930983
 30
0.0
 11
9.481013172688498
 21
5.793759993030452
 31
0.0
  0
LINE
  5
134
330
18
100
AcDbEntity
  8
ADP1DETAIL
100
AcDbLine
 10
9.402852869914314
 20
5.815916266605964
 30
0.0
 11
9.427347767342146
 21
5.830058402229695
 31
0.0
  0
LINE
  5
135
330
18
100
AcDbEntity
  8
ADP1DETAIL
100
AcDbLine
 10
9.427347767342146
 20
5.830058402229695
 30
0.0
 11
9.441489902965876
 21
5.805563504801863
 31
0.0
  0
LINE
  5
136
330
18
100
AcDbEntity
  8
ADP1DETAIL
100
AcDbLine
 10
9.36271825691602
 20
5.825437134744596
 30
0.0
 11
9.386791471742462
 21
5.840285714741344
 31
0.0
  0
LINE
  5
137
330
18
100
AcDbEntity
  8
ADP1DETAIL
100
AcDbLine
 10
9.386791471742462
 20
5.840285714741344
 30
0.0
 11
9.40164005173921
 21
5.816212499914898
 31
0.0
  0
LINE
  5
138
330
18
100
AcDbEntity
  8
ADP1DETAIL
100
AcDbLine
 10
9.322323711090447
 20
5.833786671149827
 30
0.0
 11
9.345954874972401
 21
5.849329132138496
 31
0.0
  0
LINE
  5
139
330
18
100
AcDbEntity
  8
ADP1DETAIL
100
AcDbLine
 10
9.28170341025619
 20
5.840957811280274
 30
0.0
 11
9.304872528869772
 21
5.857181002787179
 31
0.0
  0
LINE
  5
13A
330
18
100
AcDbEntity
  8
ADP1DETAIL
100
AcDbLine
 10
9.304872528869772
 20
5.857181002787179
 30
0.0
 11
9.321095720376677
 21
5.834011884173596
 31
0.0
  0
LINE
  5
13B
330
18
100
AcDbEntity
  8
ADP1DETAIL
100
AcDbLine
 10
9.240891723243096
 20
5.846944487635455
 30
0.0
 11
9.263579193200861
 21
5.863834683220926
 31
0.0
  0
LINE
  5
13C
330
18
100
AcDbEntity
  8
ADP1DETAIL
100
AcDbLine
 10
9.263579193200861
 20
5.863834683220926
 30
0.0
 11
9.280469388786334
 21
5.841147213263163
 31
0.0
  0
LINE
  5
13D
330
18
100
AcDbEntity
  8
ADP1DETAIL
100
AcDbLine
 10
9.222109806250188
 20
5.869284543761819
 30
0.0
 11
9.23965271512252
 21
5.847097918324475
 31
0.0
  0
LINE
  5
13E
330
18
100
AcDbEntity
  8
ADP1DETAIL
100
AcDbLine
 10
9.345954874972401
 20
5.849329132138496
 30
0.0
 11
9.36149733596107
 21
5.825697968256545
 31
0.0
  0
LINE
  5
13F
330
18
100
AcDbEntity
  8
ADP1DETAIL
100
AcDbLine
 10
9.521358804876781
 20
5.780411141429407
 30
0.0
 11
9.54699306015901
 21
5.792364590978612
 31
0.0
  0
LINE
  5
140
330
18
100
AcDbEntity
  8
ADP1DETAIL
100
AcDbLine
 10
9.54699306015901
 20
5.792364590978612
 30
0.0
 11
9.558946509708215
 21
5.76673033569638
 31
0.0
  0
LINE
  5
141
330
18
100
AcDbEntity
  8
ADP1DETAIL
100
AcDbLine
 10
10.82187017651893
 20
5.857611986222168
 30
0.0
 11
10.82187017651893
 21
3.099833205666046
 31
0.0
  0
LINE
  5
142
330
18
100
AcDbEntity
  8
ADP1DETAIL
100
AcDbLine
 10
10.75937017651893
 20
5.795111986222168
 30
0.0
 11
10.75937017651893
 21
3.162333205666046
 31
0.0
  0
LINE
  5
143
330
18
100
AcDbEntity
  8
ADP1DETAIL
100
AcDbLine
 10
10.27951743947394
 20
3.686453670473271
 30
0.0
 11
10.25199557441851
 21
3.679930868631222
 31
0.0
  0
LINE
  5
144
330
18
100
AcDbEntity
  8
ADP1DETAIL
100
AcDbLine
 10
9.817184152593474
 20
3.244904060438441
 30
0.0
 11
9.810661350751423
 21
3.217382195383011
 31
0.0
  0
ARC
  5
145
330
18
100
AcDbEntity
  8
ADP1DETAIL
100
AcDbCircle
 10
9.05550530598977
 20
4.441047628778699
 30
0.0
 40
1.4375
100
AcDbArc
 50
290.9385662574637
 51
291.6966275447712
  0
LINE
  5
146
330
18
100
AcDbEntity
  8
ADP1DETAIL
100
AcDbLine
 10
9.597904388560188
 20
3.130812025281343
 30
0.0
 11
9.586701561021904
 21
3.104840951850553
 31
0.0
  0
LINE
  5
147
330
18
100
AcDbEntity
  8
ADP1DETAIL
100
AcDbLine
 10
9.635782760687824
 20
3.147141845108782
 30
0.0
 11
9.625340033871001
 21
3.120855927650394
 31
0.0
  0
LINE
  5
148
330
18
100
AcDbEntity
  8
ADP1DETAIL
100
AcDbLine
 10
9.625340033871001
 20
3.120855927650394
 30
0.0
 11
9.599054116412613
 21
3.131298654467217
 31
0.0
  0
LINE
  5
149
330
18
100
AcDbEntity
  8
ADP1DETAIL
100
AcDbLine
 10
9.673170160156438
 20
3.164566438407065
 30
0.0
 11
9.66349636965052
 21
3.137987917431519
 31
0.0
  0
LINE
  5
14A
330
18
100
AcDbEntity
  8
ADP1DETAIL
100
AcDbLine
 10
9.66349636965052
 20
3.137987917431519
 30
0.0
 11
9.636917848674972
 21
3.147661707937437
 31
0.0
  0
LINE
  5
14B
330
18
100
AcDbEntity
  8
ADP1DETAIL
100
AcDbLine
 10
9.710034953493487
 20
3.183071062230666
 30
0.0
 11
9.701138284291028
 21
3.156222425820191
 31
0.0
  0
LINE
  5
14C
330
18
100
AcDbEntity
  8
ADP1DETAIL
100
AcDbLine
 10
9.701138284291028
 20
3.156222425820191
 30
0.0
 11
9.674289647880549
 21
3.165119095022649
 31
0.0
  0
LINE
  5
14D
330
18
100
AcDbEntity
  8
ADP1DETAIL
100
AcDbLine
 10
9.746345949403387
 20
3.202640059820414
 30
0.0
 11
9.738233928974736
 21
3.175544024601858
 31
0.0
  0
LINE
  5
14E
330
18
100
AcDbEntity
  8
ADP1DETAIL
100
AcDbLine
 10
9.782072425158471
 20
3.223256873850658
 30
0.0
 11
9.774751917082781
 21
3.19593636577497
 31
0.0
  0
LINE
  5
14F
330
18
100
AcDbEntity
  8
ADP1DETAIL
100
AcDbLine
 10
9.774751917082781
 20
3.19593636577497
 30
0.0
 11
9.747431409007095
 21
3.203256873850659
 31
0.0
  0
LINE
  5
150
330
18
100
AcDbEntity
  8
ADP1DETAIL
100
AcDbLine
 10
9.810661350751423
 20
3.217382195383011
 30
0.0
 11
9.783139485695993
 21
3.223904997225059
 31
0.0
  0
LINE
  5
151
330
18
100
AcDbEntity
  8
ADP1DETAIL
100
AcDbLine
 10
9.738233928974736
 20
3.175544024601858
 30
0.0
 11
9.711137893756184
 21
3.183656045030508
 31
0.0
  0
LINE
  5
152
330
18
100
AcDbEntity
  8
ADP1DETAIL
100
AcDbLine
 10
9.9144372237355
 20
3.287854797763362
 30
0.0
 11
9.886451588046345
 21
3.291954089784407
 31
0.0
  0
LINE
  5
153
330
18
100
AcDbEntity
  8
ADP1DETAIL
100
AcDbLine
 10
9.851651423681587
 20
3.26756330390275
 30
0.0
 11
9.845931847014742
 21
3.239863368113075
 31
0.0
  0
LINE
  5
154
330
18
100
AcDbEntity
  8
ADP1DETAIL
100
AcDbLine
 10
9.845931847014742
 20
3.239863368113075
 30
0.0
 11
9.818231911225069
 21
3.245582944779918
 31
0.0
  0
LINE
  5
155
330
18
100
AcDbEntity
  8
ADP1DETAIL
100
AcDbLine
 10
9.885445075670407
 20
3.291215432261413
 30
0.0
 11
9.880533563511647
 21
3.263360862648614
 31
0.0
  0
LINE
  5
156
330
18
100
AcDbEntity
  8
ADP1DETAIL
100
AcDbLine
 10
9.880533563511647
 20
3.263360862648614
 30
0.0
 11
9.852678993898848
 21
3.268272374807372
 31
0.0
  0
LINE
  5
157
330
18
100
AcDbEntity
  8
ADP1DETAIL
100
AcDbLine
 10
9.980036246735092
 20
3.339748266919221
 30
0.0
 11
9.951859605678983
 21
3.342213403587869
 31
0.0
  0
LINE
  5
158
330
18
100
AcDbEntity
  8
ADP1DETAIL
100
AcDbLine
 10
9.982501383403739
 20
3.36792490797533
 30
0.0
 11
9.980036246735092
 21
3.339748266919221
 31
0.0
  0
LINE
  5
159
330
18
100
AcDbEntity
  8
ADP1DETAIL
100
AcDbLine
 10
10.01332069030079
 20
3.395340312641707
 30
0.0
 11
10.01167610618825
 21
3.367103893904609
 31
0.0
  0
LINE
  5
15A
330
18
100
AcDbEntity
  8
ADP1DETAIL
100
AcDbLine
 10
10.01167610618825
 20
3.367103893904609
 30
0.0
 11
9.983439687451159
 21
3.368748478017151
 31
0.0
  0
LINE
  5
15B
330
18
100
AcDbEntity
  8
ADP1DETAIL
100
AcDbLine
 10
10.04332958975866
 20
3.423640490096353
 30
0.0
 11
10.04250694968457
 21
3.395368184507518
 31
0.0
  0
LINE
  5
15C
330
18
100
AcDbEntity
  8
ADP1DETAIL
100
AcDbLine
 10
10.04250694968457
 20
3.395368184507518
 30
0.0
 11
10.01423464409573
 21
3.396190824581603
 31
0.0
  0
LINE
  5
15D
330
18
100
AcDbEntity
  8
ADP1DETAIL
100
AcDbLine
 10
10.07250269125242
 20
3.452801495563775
 30
0.0
 11
10.07250269125242
 21
3.424517224316314
 31
0.0
  0
LINE
  5
15E
330
18
100
AcDbEntity
  8
ADP1DETAIL
100
AcDbLine
 10
10.07250269125242
 20
3.424517224316314
 30
0.0
 11
10.04421842000496
 21
3.424517224316314
 31
0.0
  0
LINE
  5
15F
330
18
100
AcDbEntity
  8
ADP1DETAIL
100
AcDbLine
 10
10.1008153114257
 20
3.48279865592204
 30
0.0
 11
10.10163795149979
 21
3.454526350333205
 31
0.0
  0
LINE
  5
160
330
18
100
AcDbEntity
  8
ADP1DETAIL
100
AcDbLine
 10
10.10163795149979
 20
3.454526350333205
 30
0.0
 11
10.07336564591095
 21
3.453703710259119
 31
0.0
  0
LINE
  5
161
330
18
100
AcDbEntity
  8
ADP1DETAIL
100
AcDbLine
 10
10.12824349497524
 20
3.513606590578705
 30
0.0
 11
10.12988807908778
 21
3.485370171841605
 31
0.0
  0
LINE
  5
162
330
18
100
AcDbEntity
  8
ADP1DETAIL
100
AcDbLine
 10
10.15476403491943
 20
3.545199232945314
 30
0.0
 11
10.15722917158808
 21
3.517022591889205
 31
0.0
  0
LINE
  5
163
330
18
100
AcDbEntity
  8
ADP1DETAIL
100
AcDbLine
 10
10.15722917158808
 20
3.517022591889205
 30
0.0
 11
10.12905253053197
 21
3.514557455220558
 31
0.0
  0
LINE
  5
164
330
18
100
AcDbEntity
  8
ADP1DETAIL
100
AcDbLine
 10
10.1803544922338
 20
3.577549852492362
 30
0.0
 11
10.18363809570683
 21
3.549456829368606
 31
0.0
  0
LINE
  5
165
330
18
100
AcDbEntity
  8
ADP1DETAIL
100
AcDbLine
 10
10.18363809570683
 20
3.549456829368606
 30
0.0
 11
10.15554507258307
 21
3.546173225895579
 31
0.0
  0
LINE
  5
166
330
18
100
AcDbEntity
  8
ADP1DETAIL
100
AcDbLine
 10
10.20499321483661
 20
3.610631077365965
 30
0.0
 11
10.20909250685766
 21
3.58264544167681
 31
0.0
  0
LINE
  5
167
330
18
100
AcDbEntity
  8
ADP1DETAIL
100
AcDbLine
 10
10.20909250685766
 20
3.58264544167681
 30
0.0
 11
10.1811068711685
 21
3.578546149655766
 31
0.0
  0
LINE
  5
168
330
18
100
AcDbEntity
  8
ADP1DETAIL
100
AcDbLine
 10
10.22865935590873
 20
3.644414917547198
 30
0.0
 11
10.23357086806749
 21
3.616560347934397
 31
0.0
  0
LINE
  5
169
330
18
100
AcDbEntity
  8
ADP1DETAIL
100
AcDbLine
 10
10.23357086806749
 20
3.616560347934397
 30
0.0
 11
10.20571629845469
 21
3.611648835775637
 31
0.0
  0
LINE
  5
16A
330
18
100
AcDbEntity
  8
ADP1DETAIL
100
AcDbLine
 10
10.25133289153208
 20
3.678872788534436
 30
0.0
 11
10.25705246819892
 21
3.65117285274476
 31
0.0
  0
LINE
  5
16B
330
18
100
AcDbEntity
  8
ADP1DETAIL
100
AcDbLine
 10
10.25705246819892
 20
3.65117285274476
 30
0.0
 11
10.22935253240924
 21
3.645453276077919
 31
0.0
  0
LINE
  5
16C
330
18
100
AcDbEntity
  8
ADP1DETAIL
100
AcDbLine
 10
10.12988807908778
 20
3.485370171841605
 30
0.0
 11
10.10165166035068
 21
3.483725587729065
 31
0.0
  0
LINE
  5
16D
330
18
100
AcDbEntity
  8
ADP1DETAIL
100
AcDbLine
 10
9.918536515756546
 20
3.315840433452517
 30
0.0
 11
9.9144372237355
 21
3.287854797763362
 31
0.0
  0
LINE
  5
16E
330
18
100
AcDbEntity
  8
ADP1DETAIL
100
AcDbLine
 10
9.950897745277982
 20
3.341417472266602
 30
0.0
 11
9.947614141804955
 21
3.313324449142847
 31
0.0
  0
LINE
  5
16F
330
18
100
AcDbEntity
  8
ADP1DETAIL
100
AcDbLine
 10
9.947614141804955
 20
3.313324449142847
 30
0.0
 11
9.919521118681199
 21
3.316608052615872
 31
0.0
  0
LINE
  5
170
330
18
100
AcDbEntity
  8
ADP1DETAIL
100
AcDbLine
 10
9.982501383403739
 20
3.36792490797533
 30
0.0
 11
9.980036246735092
 21
3.339748266919221
 31
0.0
  0
LINE
  5
171
330
18
100
AcDbEntity
  8
ADP1DETAIL
100
AcDbLine
 10
9.980036246735092
 20
3.339748266919221
 30
0.0
 11
9.951859605678983
 21
3.342213403587869
 31
0.0
  0
LINE
  5
172
330
18
100
AcDbEntity
  8
ADP1DETAIL
100
AcDbLine
 10
10.75937017651893
 20
3.162333205666046
 30
0.0
 11
10.82187017651893
 21
3.099833205666046
 31
0.0
  0
LINE
  5
173
330
18
100
AcDbEntity
  8
ADP1DETAIL
100
AcDbLine
 10
10.30094677428405
 20
3.722372950025846
 30
0.0
 11
10.27362626620836
 21
3.715052441950158
 31
0.0
  0
LINE
  5
174
330
18
100
AcDbEntity
  8
ADP1DETAIL
100
AcDbLine
 10
10.29362626620836
 20
3.749693458101534
 30
0.0
 11
10.30094677428405
 21
3.722372950025846
 31
0.0
  0
LINE
  5
175
330
18
100
AcDbEntity
  8
ADP1DETAIL
100
AcDbLine
 10
10.31321032084393
 20
3.785996335324517
 30
0.0
 11
10.32132234127258
 21
3.758900300105963
 31
0.0
  0
LINE
  5
176
330
18
100
AcDbEntity
  8
ADP1DETAIL
100
AcDbLine
 10
10.32132234127258
 20
3.758900300105963
 30
0.0
 11
10.29422630605403
 21
3.750788279677314
 31
0.0
  0
LINE
  5
177
330
18
100
AcDbEntity
  8
ADP1DETAIL
100
AcDbLine
 10
10.33173023147321
 20
3.822853451339202
 30
0.0
 11
10.34062690067567
 21
3.796004814928725
 31
0.0
  0
LINE
  5
178
330
18
100
AcDbEntity
  8
ADP1DETAIL
100
AcDbLine
 10
10.34062690067567
 20
3.796004814928725
 30
0.0
 11
10.31377826426519
 21
3.787108145726266
 31
0.0
  0
LINE
  5
179
330
18
100
AcDbEntity
  8
ADP1DETAIL
100
AcDbLine
 10
10.34917032840285
 20
3.860233621345788
 30
0.0
 11
10.35884411890877
 21
3.83365510037024
 31
0.0
  0
LINE
  5
17A
330
18
100
AcDbEntity
  8
ADP1DETAIL
100
AcDbLine
 10
10.35884411890877
 20
3.83365510037024
 30
0.0
 11
10.33226559793322
 21
3.823981309864322
 31
0.0
  0
LINE
  5
17B
330
18
100
AcDbEntity
  8
ADP1DETAIL
100
AcDbLine
 10
10.3655158555697
 20
3.898105217988572
 30
0.0
 11
10.37595858238653
 21
3.871819300530185
 31
0.0
  0
LINE
  5
17C
330
18
100
AcDbEntity
  8
ADP1DETAIL
100
AcDbLine
 10
10.37595858238653
 20
3.871819300530185
 30
0.0
 11
10.34967266492814
 21
3.861376573713362
 31
0.0
  0
LINE
  5
17D
330
18
100
AcDbEntity
  8
ADP1DETAIL
100
AcDbLine
 10
10.38075298302592
 20
3.93643619811587
 30
0.0
 11
10.39195581056421
 21
3.910465124685078
 31
0.0
  0
LINE
  5
17E
330
18
100
AcDbEntity
  8
ADP1DETAIL
100
AcDbLine
 10
10.39195581056421
 20
3.910465124685078
 30
0.0
 11
10.36598473713342
 21
3.899262297146798
 31
0.0
  0
LINE
  5
17F
330
18
100
AcDbEntity
  8
ADP1DETAIL
100
AcDbLine
 10
10.27299463763189
 20
3.713975535528701
 30
0.0
 11
10.27951743947394
 21
3.686453670473271
 31
0.0
  0
LINE
  5
180
330
18
100
AcDbEntity
  8
ADP1DETAIL
100
AcDbLine
 10
10.29362626620836
 20
3.749693458101535
 30
0.0
 11
10.30094677428405
 21
3.722372950025848
 31
0.0
  0
LINE
  5
181
330
18
100
AcDbEntity
  8
ADP1DETAIL
100
AcDbLine
 10
10.30094677428405
 20
3.722372950025848
 30
0.0
 11
10.27362626620836
 21
3.71505244195016
 31
0.0
  0
LINE
  5
182
330
18
100
AcDbEntity
  8
ADP1DETAIL
100
AcDbLine
 10
10.15680466784925
 20
5.36557856952402
 30
0.0
 11
10.1543395311806
 21
5.33740192846791
 31
0.0
  0
LINE
  5
183
330
18
100
AcDbEntity
  8
ADP1DETAIL
100
AcDbLine
 10
10.25164887433003
 20
5.202726475382401
 30
0.0
 11
10.27917073938546
 21
5.196203673540351
 31
0.0
  0
LINE
  5
184
330
18
100
AcDbEntity
  8
ADP1DETAIL
100
AcDbLine
 10
10.22898963086572
 20
5.237193746470514
 30
0.0
 11
10.25668956665539
 21
5.231474169803671
 31
0.0
  0
LINE
  5
185
330
18
100
AcDbEntity
  8
ADP1DETAIL
100
AcDbLine
 10
10.25668956665539
 20
5.231474169803671
 30
0.0
 11
10.25096998998855
 21
5.203774234013996
 31
0.0
  0
LINE
  5
186
330
18
100
AcDbEntity
  8
ADP1DETAIL
100
AcDbLine
 10
10.20533750250705
 20
5.270987398459336
 30
0.0
 11
10.23319207211986
 21
5.266075886300577
 31
0.0
  0
LINE
  5
187
330
18
100
AcDbEntity
  8
ADP1DETAIL
100
AcDbLine
 10
10.23319207211986
 20
5.266075886300577
 30
0.0
 11
10.2282805599611
 21
5.238221316687776
 31
0.0
  0
LINE
  5
188
330
18
100
AcDbEntity
  8
ADP1DETAIL
100
AcDbLine
 10
10.18071250131595
 20
5.304078838545472
 30
0.0
 11
10.20869813700511
 21
5.299979546524428
 31
0.0
  0
LINE
  5
189
330
18
100
AcDbEntity
  8
ADP1DETAIL
100
AcDbLine
 10
10.20869813700511
 20
5.299979546524428
 30
0.0
 11
10.20459884498406
 21
5.271993910835271
 31
0.0
  0
LINE
  5
18A
330
18
100
AcDbEntity
  8
ADP1DETAIL
100
AcDbLine
 10
10.15513546250186
 20
5.33644006806691
 30
0.0
 11
10.18322848562562
 21
5.333156464593883
 31
0.0
  0
LINE
  5
18B
330
18
100
AcDbEntity
  8
ADP1DETAIL
100
AcDbLine
 10
10.18322848562562
 20
5.333156464593883
 30
0.0
 11
10.1799448821526
 21
5.305063441470127
 31
0.0
  0
LINE
  5
18C
330
18
100
AcDbEntity
  8
ADP1DETAIL
100
AcDbLine
 10
10.47819664589857
 20
4.649774953717281
 30
0.0
 11
10.4613064503131
 21
4.627087483759519
 31
0.0
  0
LINE
  5
18D
330
18
100
AcDbEntity
  8
ADP1DETAIL
100
AcDbLine
 10
10.47163867999825
 20
4.191680405898701
 30
0.0
 11
10.44846956138467
 21
4.175457214391794
 31
0.0
  0
LINE
  5
18E
330
18
100
AcDbEntity
  8
ADP1DETAIL
100
AcDbLine
 10
10.45541548849134
 20
4.214849524512283
 30
0.0
 11
10.47163867999825
 21
4.191680405898701
 31
0.0
  0
LINE
  5
18F
330
18
100
AcDbEntity
  8
ADP1DETAIL
100
AcDbLine
 10
10.46140216484652
 20
4.255661211525374
 30
0.0
 11
10.478292360432
 21
4.23297374156761
 31
0.0
  0
LINE
  5
190
330
18
100
AcDbEntity
  8
ADP1DETAIL
100
AcDbLine
 10
10.478292360432
 20
4.23297374156761
 30
0.0
 11
10.45560489047423
 21
4.216083545982138
 31
0.0
  0
LINE
  5
191
330
18
100
AcDbEntity
  8
ADP1DETAIL
100
AcDbLine
 10
10.46619931210055
 20
4.296629753955627
 30
0.0
 11
10.48374222097289
 21
4.274443128518283
 31
0.0
  0
LINE
  5
192
330
18
100
AcDbEntity
  8
ADP1DETAIL
100
AcDbLine
 10
10.48374222097289
 20
4.274443128518283
 30
0.0
 11
10.46155559553555
 21
4.256900219645951
 31
0.0
  0
LINE
  5
193
330
18
100
AcDbEntity
  8
ADP1DETAIL
100
AcDbLine
 10
10.46980287138794
 20
4.337720488326027
 30
0.0
 11
10.48798365049482
 21
4.316053479509239
 31
0.0
  0
LINE
  5
194
330
18
100
AcDbEntity
  8
ADP1DETAIL
100
AcDbLine
 10
10.48798365049482
 20
4.316053479509239
 30
0.0
 11
10.46631664167803
 21
4.297872700402358
 31
0.0
  0
LINE
  5
195
330
18
100
AcDbEntity
  8
ADP1DETAIL
100
AcDbLine
 10
10.47220979373775
 20
4.378898647772972
 30
0.0
 11
10.49101306032496
 21
4.35776958802934
 31
0.0
  0
LINE
  5
196
330
18
100
AcDbEntity
  8
ADP1DETAIL
100
AcDbLine
 10
10.49101306032496
 20
4.35776958802934
 30
0.0
 11
10.46988400058133
 21
4.338966321442123
 31
0.0
  0
LINE
  5
197
330
18
100
AcDbEntity
  8
ADP1DETAIL
100
AcDbLine
 10
10.47341804265338
 20
4.420129391462534
 30
0.0
 11
10.49282788728016
 21
4.399556158086026
 31
0.0
  0
LINE
  5
198
330
18
100
AcDbEntity
  8
ADP1DETAIL
100
AcDbLine
 10
10.47342659583563
 20
4.461377834069246
 30
0.0
 11
10.49342659583563
 21
4.441377834069248
 31
0.0
  0
LINE
  5
199
330
18
100
AcDbEntity
  8
ADP1DETAIL
100
AcDbLine
 10
10.49342659583563
 20
4.441377834069248
 30
0.0
 11
10.47342659583563
 21
4.421377834069248
 31
0.0
  0
LINE
  5
19A
330
18
100
AcDbEntity
  8
ADP1DETAIL
100
AcDbLine
 10
10.47223544604765
 20
4.502609075292607
 30
0.0
 11
10.49280867942416
 21
4.483199230665825
 31
0.0
  0
LINE
  5
19B
330
18
100
AcDbEntity
  8
ADP1DETAIL
100
AcDbLine
 10
10.49280867942416
 20
4.483199230665825
 30
0.0
 11
10.47339883479738
 21
4.462625997289318
 31
0.0
  0
LINE
  5
19C
330
18
100
AcDbEntity
  8
ADP1DETAIL
100
AcDbLine
 10
10.46984560112108
 20
4.543788229386191
 30
0.0
 11
10.49097466086471
 21
4.524984962798976
 31
0.0
  0
LINE
  5
19D
330
18
100
AcDbEntity
  8
ADP1DETAIL
100
AcDbLine
 10
10.49097466086471
 20
4.524984962798976
 30
0.0
 11
10.4721713942775
 21
4.503855903055342
 31
0.0
  0
LINE
  5
19E
330
18
100
AcDbEntity
  8
ADP1DETAIL
100
AcDbLine
 10
10.46625908310332
 20
4.584880454674493
 30
0.0
 11
10.48792609192011
 21
4.566699675567612
 31
0.0
  0
LINE
  5
19F
330
18
100
AcDbEntity
  8
ADP1DETAIL
100
AcDbLine
 10
10.48792609192011
 20
4.566699675567612
 30
0.0
 11
10.46974531281322
 21
4.545032666750822
 31
0.0
  0
LINE
  5
1A0
330
18
100
AcDbEntity
  8
ADP1DETAIL
100
AcDbLine
 10
10.46147892654667
 20
4.625850983032449
 30
0.0
 11
10.48366555198401
 21
4.608308074160117
 31
0.0
  0
LINE
  5
1A1
330
18
100
AcDbEntity
  8
ADP1DETAIL
100
AcDbLine
 10
10.48366555198401
 20
4.608308074160117
 30
0.0
 11
10.46612264311168
 21
4.586121448722773
 31
0.0
  0
LINE
  5
1A2
330
18
100
AcDbEntity
  8
ADP1DETAIL
100
AcDbLine
 10
10.49282788728016
 20
4.399556158086026
 30
0.0
 11
10.47225465390366
 21
4.380146313459245
 31
0.0
  0
LINE
  5
1A3
330
18
100
AcDbEntity
  8
ADP1DETAIL
100
AcDbLine
 10
10.39486881864048
 20
3.97519412989169
 30
0.0
 11
10.40682226818968
 21
3.949559874609459
 31
0.0
  0
LINE
  5
1A4
330
18
100
AcDbEntity
  8
ADP1DETAIL
100
AcDbLine
 10
10.40682226818968
 20
3.949559874609459
 30
0.0
 11
10.38118801290745
 21
3.937606425060254
 31
0.0
  0
LINE
  5
1A5
330
18
100
AcDbEntity
  8
ADP1DETAIL
100
AcDbLine
 10
10.40785141900717
 20
4.014346220236332
 30
0.0
 11
10.4205453767556
 21
3.98907047224184
 31
0.0
  0
LINE
  5
1A6
330
18
100
AcDbEntity
  8
ADP1DETAIL
100
AcDbLine
 10
10.4205453767556
 20
3.98907047224184
 30
0.0
 11
10.3952696287611
 21
3.976376514493411
 31
0.0
  0
LINE
  5
1A7
330
18
100
AcDbEntity
  8
ADP1DETAIL
100
AcDbLine
 10
10.41968979954996
 20
4.053859342572591
 30
0.0
 11
10.43311352514205
 21
4.02896348767206
 31
0.0
  0
LINE
  5
1A8
330
18
100
AcDbEntity
  8
ADP1DETAIL
100
AcDbLine
 10
10.43311352514205
 20
4.02896348767206
 30
0.0
 11
10.40821767024152
 21
4.015539762079974
 31
0.0
  0
LINE
  5
1A9
330
18
100
AcDbEntity
  8
ADP1DETAIL
100
AcDbLine
 10
10.43037394381703
 20
4.093700064854155
 30
0.0
 11
10.44451607944076
 21
4.069205167426325
 31
0.0
  0
LINE
  5
1AA
330
18
100
AcDbEntity
  8
ADP1DETAIL
100
AcDbLine
 10
10.44451607944076
 20
4.069205167426325
 30
0.0
 11
10.42002118201293
 21
4.055063031802593
 31
0.0
  0
LINE
  5
1AB
330
18
100
AcDbEntity
  8
ADP1DETAIL
100
AcDbLine
 10
10.43989481195567
 20
4.133834677852453
 30
0.0
 11
10.45474339195241
 21
4.109761463026007
 31
0.0
  0
LINE
  5
1AC
330
18
100
AcDbEntity
  8
ADP1DETAIL
100
AcDbLine
 10
10.45474339195241
 20
4.109761463026007
 30
0.0
 11
10.43067017712597
 21
4.094912883029261
 31
0.0
  0
LINE
  5
1AD
330
18
100
AcDbEntity
  8
ADP1DETAIL
100
AcDbLine
 10
10.44824434836089
 20
4.174229223678022
 30
0.0
 11
10.46378680934957
 21
4.150598059796072
 31
0.0
  0
LINE
  5
1AE
330
18
100
AcDbEntity
  8
ADP1DETAIL
100
AcDbLine
 10
10.46378680934957
 20
4.150598059796072
 30
0.0
 11
10.44015564546762
 21
4.135055598807401
 31
0.0
  0
LINE
  5
1AF
330
18
100
AcDbEntity
  8
ADP1DETAIL
100
AcDbLine
 10
10.45541548849134
 20
4.214849524512281
 30
0.0
 11
10.47163867999825
 21
4.191680405898701
 31
0.0
  0
LINE
  5
1B0
330
18
100
AcDbEntity
  8
ADP1DETAIL
100
AcDbLine
 10
10.47163867999825
 20
4.191680405898701
 30
0.0
 11
10.44846956138467
 21
4.175457214391796
 31
0.0
  0
LINE
  5
1B1
330
18
100
AcDbEntity
  8
ADP1DETAIL
100
AcDbLine
 10
10.3006165689935
 20
5.160294239871709
 30
0.0
 11
10.29329606091781
 21
5.13297373179602
 31
0.0
  0
LINE
  5
1B2
330
18
100
AcDbEntity
  8
ADP1DETAIL
100
AcDbLine
 10
10.27329606091781
 20
5.167614747947397
 30
0.0
 11
10.3006165689935
 21
5.160294239871709
 31
0.0
  0
LINE
  5
1B3
330
18
100
AcDbEntity
  8
ADP1DETAIL
100
AcDbLine
 10
10.27917073938546
 20
5.196203673540351
 30
0.0
 11
10.27264793754341
 21
5.168681808484921
 31
0.0
  0
LINE
  5
1B4
330
18
100
AcDbEntity
  8
ADP1DETAIL
100
AcDbLine
 10
10.47152400090433
 20
4.691065229119131
 30
0.0
 11
10.45530080939742
 21
4.667896110505549
 31
0.0
  0
LINE
  5
1B5
330
18
100
AcDbEntity
  8
ADP1DETAIL
100
AcDbLine
 10
10.44835488229075
 20
4.707288420626037
 30
0.0
 11
10.47152400090433
 21
4.691065229119131
 31
0.0
  0
LINE
  5
1B6
330
18
100
AcDbEntity
  8
ADP1DETAIL
100
AcDbLine
 10
10.44002209884316
 20
4.747686425659106
 30
0.0
 11
10.46365326272511
 21
4.732143964670435
 31
0.0
  0
LINE
  5
1B7
330
18
100
AcDbEntity
  8
ADP1DETAIL
100
AcDbLine
 10
10.46365326272511
 20
4.732143964670435
 30
0.0
 11
10.44811080173644
 21
4.708512800788485
 31
0.0
  0
LINE
  5
1B8
330
18
100
AcDbEntity
  8
ADP1DETAIL
100
AcDbLine
 10
10.43051787596476
 20
4.787824983656548
 30
0.0
 11
10.4545910907912
 21
4.7729764036598
 31
0.0
  0
LINE
  5
1B9
330
18
100
AcDbEntity
  8
ADP1DETAIL
100
AcDbLine
 10
10.4545910907912
 20
4.7729764036598
 30
0.0
 11
10.43974251079446
 21
4.748903188833355
 31
0.0
  0
LINE
  5
1BA
330
18
100
AcDbEntity
  8
ADP1DETAIL
100
AcDbLine
 10
10.41985025517696
 20
4.827670133391039
 30
0.0
 11
10.44434515260479
 21
4.813527997767308
 31
0.0
  0
LINE
  5
1BB
330
18
100
AcDbEntity
  8
ADP1DETAIL
100
AcDbLine
 10
10.44434515260479
 20
4.813527997767308
 30
0.0
 11
10.43020301698106
 21
4.789033100339477
 31
0.0
  0
LINE
  5
1BC
330
18
100
AcDbEntity
  8
ADP1DETAIL
100
AcDbLine
 10
10.40802826235195
 20
4.867188161887936
 30
0.0
 11
10.43292411725248
 21
4.85376443629585
 31
0.0
  0
LINE
  5
1BD
330
18
100
AcDbEntity
  8
ADP1DETAIL
100
AcDbLine
 10
10.43292411725248
 20
4.85376443629585
 30
0.0
 11
10.41950039166039
 21
4.828868581395317
 31
0.0
  0
LINE
  5
1BE
330
18
100
AcDbEntity
  8
ADP1DETAIL
100
AcDbLine
 10
10.39506190007591
 20
4.90634563294983
 30
0.0
 11
10.42033764807041
 21
4.8936516752014
 31
0.0
  0
LINE
  5
1BF
330
18
100
AcDbEntity
  8
ADP1DETAIL
100
AcDbLine
 10
10.38096213918585
 20
4.945109415446887
 30
0.0
 11
10.40659639446808
 21
4.933155965897683
 31
0.0
  0
LINE
  5
1C0
330
18
100
AcDbEntity
  8
ADP1DETAIL
100
AcDbLine
 10
10.40659639446808
 20
4.933155965897683
 30
0.0
 11
10.39464294491888
 21
4.907521710615452
 31
0.0
  0
LINE
  5
1C1
330
18
100
AcDbEntity
  8
ADP1DETAIL
100
AcDbLine
 10
10.36574090948713
 20
4.983446711349116
 30
0.0
 11
10.39171198291791
 21
4.972243883810832
 31
0.0
  0
LINE
  5
1C2
330
18
100
AcDbEntity
  8
ADP1DETAIL
100
AcDbLine
 10
10.39171198291791
 20
4.972243883810832
 30
0.0
 11
10.38050915537963
 21
4.946272810380042
 31
0.0
  0
LINE
  5
1C3
330
18
100
AcDbEntity
  8
ADP1DETAIL
100
AcDbLine
 10
10.34941108965969
 20
5.02132508347675
 30
0.0
 11
10.37569700711807
 21
5.010882356659928
 31
0.0
  0
LINE
  5
1C4
330
18
100
AcDbEntity
  8
ADP1DETAIL
100
AcDbLine
 10
10.37569700711807
 20
5.010882356659928
 30
0.0
 11
10.36525428030125
 21
4.98459643920154
 31
0.0
  0
LINE
  5
1C5
330
18
100
AcDbEntity
  8
ADP1DETAIL
100
AcDbLine
 10
10.3319864963614
 20
5.058712482945365
 30
0.0
 11
10.35856501733695
 21
5.049038692439445
 31
0.0
  0
LINE
  5
1C6
330
18
100
AcDbEntity
  8
ADP1DETAIL
100
AcDbLine
 10
10.35856501733695
 20
5.049038692439445
 30
0.0
 11
10.34889122683103
 21
5.022460171463898
 31
0.0
  0
LINE
  5
1C7
330
18
100
AcDbEntity
  8
ADP1DETAIL
100
AcDbLine
 10
10.3134818725378
 20
5.095577276282413
 30
0.0
 11
10.34033050894828
 21
5.086680607079954
 31
0.0
  0
LINE
  5
1C8
330
18
100
AcDbEntity
  8
ADP1DETAIL
100
AcDbLine
 10
10.34033050894828
 20
5.086680607079954
 30
0.0
 11
10.33143383974582
 21
5.059831970669477
 31
0.0
  0
LINE
  5
1C9
330
18
100
AcDbEntity
  8
ADP1DETAIL
100
AcDbLine
 10
10.29391287494806
 20
5.131888272192314
 30
0.0
 11
10.32100891016661
 21
5.123776251763664
 31
0.0
  0
LINE
  5
1CA
330
18
100
AcDbEntity
  8
ADP1DETAIL
100
AcDbLine
 10
10.32100891016661
 20
5.123776251763664
 30
0.0
 11
10.31289688973796
 21
5.09668021654511
 31
0.0
  0
LINE
  5
1CB
330
18
100
AcDbEntity
  8
ADP1DETAIL
100
AcDbLine
 10
10.27329606091781
 20
5.167614747947397
 30
0.0
 11
10.3006165689935
 21
5.160294239871709
 31
0.0
  0
LINE
  5
1CC
330
18
100
AcDbEntity
  8
ADP1DETAIL
100
AcDbLine
 10
10.3006165689935
 20
5.160294239871709
 30
0.0
 11
10.29329606091781
 21
5.132973731796021
 31
0.0
  0
LINE
  5
1CD
330
18
100
AcDbEntity
  8
ADP1DETAIL
100
AcDbLine
 10
10.42033764807041
 20
4.8936516752014
 30
0.0
 11
10.40764369032198
 21
4.868375927206908
 31
0.0
  0
LINE
  5
1CE
330
18
100
AcDbEntity
  8
ADP1DETAIL
100
AcDbLine
 10
10.45550917594081
 20
4.666665149302756
 30
0.0
 11
10.47819664589857
 21
4.649774953717281
 31
0.0
  0
LINE
  5
1CF
330
18
100
AcDbEntity
  8
ADP1DETAIL
100
AcDbLine
 10
10.44835488229075
 20
4.707288420626037
 30
0.0
 11
10.47152400090433
 21
4.691065229119134
 31
0.0
  0
LINE
  5
1D0
330
18
100
AcDbEntity
  8
ADP1DETAIL
100
AcDbLine
 10
10.47152400090433
 20
4.691065229119134
 30
0.0
 11
10.45530080939742
 21
4.667896110505552
 31
0.0
  0
LINE
  5
1D1
330
18
100
AcDbEntity
  8
ADP1DETAIL
100
AcDbLine
 10
9.913907493091661
 20
5.594634829646587
 30
0.0
 11
9.918006785112707
 21
5.566649193957432
 31
0.0
  0
LINE
  5
1D2
330
18
100
AcDbEntity
  8
ADP1DETAIL
100
AcDbLine
 10
9.885921857402506
 20
5.590535537625544
 30
0.0
 11
9.913907493091661
 21
5.594634829646587
 31
0.0
  0
LINE
  5
1D3
330
18
100
AcDbEntity
  8
ADP1DETAIL
100
AcDbLine
 10
9.852138017221273
 20
5.614201678697659
 30
0.0
 11
9.879992586834072
 21
5.619113190856418
 31
0.0
  0
LINE
  5
1D4
330
18
100
AcDbEntity
  8
ADP1DETAIL
100
AcDbLine
 10
9.879992586834072
 20
5.619113190856418
 30
0.0
 11
9.884904098992832
 21
5.591258621243618
 31
0.0
  0
LINE
  5
1D5
330
18
100
AcDbEntity
  8
ADP1DETAIL
100
AcDbLine
 10
9.817680146234035
 20
5.636875214321005
 30
0.0
 11
9.845380082023709
 21
5.642594790987848
 31
0.0
  0
LINE
  5
1D6
330
18
100
AcDbEntity
  8
ADP1DETAIL
100
AcDbLine
 10
9.845380082023709
 20
5.642594790987848
 30
0.0
 11
9.851099658690552
 21
5.614894855198173
 31
0.0
  0
LINE
  5
1D7
330
18
100
AcDbEntity
  8
ADP1DETAIL
100
AcDbLine
 10
9.782577399239768
 20
5.658536960420819
 30
0.0
 11
9.8100992642952
 21
5.665059762262867
 31
0.0
  0
LINE
  5
1D8
330
18
100
AcDbEntity
  8
ADP1DETAIL
100
AcDbLine
 10
9.746859476666935
 20
5.679168588997288
 30
0.0
 11
9.774179984742623
 21
5.686489097072977
 31
0.0
  0
LINE
  5
1D9
330
18
100
AcDbEntity
  8
ADP1DETAIL
100
AcDbLine
 10
9.774179984742623
 20
5.686489097072977
 30
0.0
 11
9.781500492818311
 21
5.659168588997288
 31
0.0
  0
LINE
  5
1DA
330
18
100
AcDbEntity
  8
ADP1DETAIL
100
AcDbLine
 10
9.710556599443952
 20
5.698752643632865
 30
0.0
 11
9.737652634662506
 21
5.706864664061512
 31
0.0
  0
LINE
  5
1DB
330
18
100
AcDbEntity
  8
ADP1DETAIL
100
AcDbLine
 10
9.737652634662506
 20
5.706864664061512
 30
0.0
 11
9.745764655091157
 21
5.679768628842958
 31
0.0
  0
LINE
  5
1DC
330
18
100
AcDbEntity
  8
ADP1DETAIL
100
AcDbLine
 10
9.673699483429267
 20
5.71727255426214
 30
0.0
 11
9.700548119839744
 21
5.726169223464598
 31
0.0
  0
LINE
  5
1DD
330
18
100
AcDbEntity
  8
ADP1DETAIL
100
AcDbLine
 10
9.700548119839744
 20
5.726169223464598
 30
0.0
 11
9.709444789042203
 21
5.699320587054121
 31
0.0
  0
LINE
  5
1DE
330
18
100
AcDbEntity
  8
ADP1DETAIL
100
AcDbLine
 10
9.636319313422685
 20
5.734712651191778
 30
0.0
 11
9.662897834398229
 21
5.744386441697696
 31
0.0
  0
LINE
  5
1DF
330
18
100
AcDbEntity
  8
ADP1DETAIL
100
AcDbLine
 10
9.662897834398229
 20
5.744386441697696
 30
0.0
 11
9.672571624904149
 21
5.717807920722149
 31
0.0
  0
LINE
  5
1E0
330
18
100
AcDbEntity
  8
ADP1DETAIL
100
AcDbLine
 10
9.598447716779897
 20
5.751058178358632
 30
0.0
 11
9.624733634238285
 21
5.761500905175455
 31
0.0
  0
LINE
  5
1E1
330
18
100
AcDbEntity
  8
ADP1DETAIL
100
AcDbLine
 10
9.624733634238285
 20
5.761500905175455
 30
0.0
 11
9.635176361055107
 21
5.735214987717066
 31
0.0
  0
LINE
  5
1E2
330
18
100
AcDbEntity
  8
ADP1DETAIL
100
AcDbLine
 10
9.586087810083391
 20
5.777498133353135
 30
0.0
 11
9.597290637621673
 21
5.751527059922347
 31
0.0
  0
LINE
  5
1E3
330
18
100
AcDbEntity
  8
ADP1DETAIL
100
AcDbLine
 10
9.8100992642952
 20
5.665059762262867
 30
0.0
 11
9.816622066137249
 21
5.637537897207437
 31
0.0
  0
LINE
  5
1E4
330
18
100
AcDbEntity
  8
ADP1DETAIL
100
AcDbLine
 10
9.979530342879266
 20
5.542771494377012
 30
0.0
 11
9.981995479547915
 21
5.514594853320902
 31
0.0
  0
LINE
  5
1E5
330
18
100
AcDbEntity
  8
ADP1DETAIL
100
AcDbLine
 10
9.951353701823157
 20
5.540306357708363
 30
0.0
 11
9.979530342879266
 21
5.542771494377012
 31
0.0
  0
LINE
  5
1E6
330
18
100
AcDbEntity
  8
ADP1DETAIL
100
AcDbLine
 10
9.919003082276109
 20
5.56589681502273
 30
0.0
 11
9.947096105399866
 21
5.569180418495755
 31
0.0
  0
LINE
  5
1E7
330
18
100
AcDbEntity
  8
ADP1DETAIL
100
AcDbLine
 10
9.947096105399866
 20
5.569180418495755
 30
0.0
 11
9.95037970887289
 21
5.541087395372001
 31
0.0
  0
LINE
  5
1E8
330
18
100
AcDbEntity
  8
ADP1DETAIL
100
AcDbLine
 10
10.12862802679314
 20
5.368043706192668
 30
0.0
 11
10.15680466784925
 21
5.36557856952402
 31
0.0
  0
LINE
  5
1E9
330
18
100
AcDbEntity
  8
ADP1DETAIL
100
AcDbLine
 10
10.10121262212676
 20
5.398863013089727
 30
0.0
 11
10.12944904086386
 21
5.397218428977184
 31
0.0
  0
LINE
  5
1EA
330
18
100
AcDbEntity
  8
ADP1DETAIL
100
AcDbLine
 10
10.12944904086386
 20
5.397218428977184
 30
0.0
 11
10.12780445675132
 21
5.368982010240086
 31
0.0
  0
LINE
  5
1EB
330
18
100
AcDbEntity
  8
ADP1DETAIL
100
AcDbLine
 10
10.07291244467212
 20
5.428871912547585
 30
0.0
 11
10.10118475026095
 21
5.428049272473498
 31
0.0
  0
LINE
  5
1EC
330
18
100
AcDbEntity
  8
ADP1DETAIL
100
AcDbLine
 10
10.10118475026095
 20
5.428049272473498
 30
0.0
 11
10.10036211018686
 21
5.399776966884664
 31
0.0
  0
LINE
  5
1ED
330
18
100
AcDbEntity
  8
ADP1DETAIL
100
AcDbLine
 10
10.0437514392047
 20
5.458045014041347
 30
0.0
 11
10.07203571045216
 21
5.458045014041346
 31
0.0
  0
LINE
  5
1EE
330
18
100
AcDbEntity
  8
ADP1DETAIL
100
AcDbLine
 10
10.07203571045216
 20
5.458045014041346
 30
0.0
 11
10.07203571045216
 21
5.429760742793884
 31
0.0
  0
LINE
  5
1EF
330
18
100
AcDbEntity
  8
ADP1DETAIL
100
AcDbLine
 10
10.01375427884643
 20
5.486357634214632
 30
0.0
 11
10.04202658443526
 21
5.48718027428872
 31
0.0
  0
LINE
  5
1F0
330
18
100
AcDbEntity
  8
ADP1DETAIL
100
AcDbLine
 10
10.04202658443526
 20
5.48718027428872
 30
0.0
 11
10.04284922450935
 21
5.458907968699883
 31
0.0
  0
LINE
  5
1F1
330
18
100
AcDbEntity
  8
ADP1DETAIL
100
AcDbLine
 10
9.982946344189768
 20
5.513785817764169
 30
0.0
 11
10.01118276292686
 21
5.515430401876709
 31
0.0
  0
LINE
  5
1F2
330
18
100
AcDbEntity
  8
ADP1DETAIL
100
AcDbLine
 10
10.01118276292686
 20
5.515430401876709
 30
0.0
 11
10.01282734703941
 21
5.487193983139612
 31
0.0
  0
LINE
  5
1F3
330
18
100
AcDbEntity
  8
ADP1DETAIL
100
AcDbLine
 10
9.951353701823157
 20
5.540306357708364
 30
0.0
 11
9.979530342879266
 21
5.542771494377014
 31
0.0
  0
LINE
  5
1F4
330
18
100
AcDbEntity
  8
ADP1DETAIL
100
AcDbLine
 10
9.979530342879266
 20
5.542771494377014
 30
0.0
 11
9.981995479547913
 21
5.514594853320904
 31
0.0
  0
LINE
  5
1F5
330
18
100
AcDbEntity
  8
ADP1DETAIL
100
AcDbLine
 10
10.75937017651893
 20
5.795111986222168
 30
0.0
 11
10.82187017651893
 21
5.857611986222168
 31
0.0
  0
LINE
  5
1F6
330
18
100
AcDbEntity
  8
ADP1DETAIL
100
AcDbLine
 10
15.69687017651893
 20
3.099833205666046
 30
0.0
 11
15.69687017651893
 21
5.857611986222168
 31
0.0
  0
LINE
  5
1F7
330
18
100
AcDbEntity
  8
ADP1DETAIL
100
AcDbLine
 10
15.75937017651893
 20
3.162333205666046
 30
0.0
 11
15.75937017651893
 21
5.795111986222168
 31
0.0
  0
LINE
  5
1F8
330
18
100
AcDbEntity
  8
ADP1DETAIL
100
AcDbLine
 10
15.69687017651893
 20
3.099833205666046
 30
0.0
 11
15.75937017651893
 21
3.162333205666046
 31
0.0
  0
LINE
  5
1F9
330
18
100
AcDbEntity
  8
ADP1DETAIL
100
AcDbLine
 10
15.69687017651893
 20
5.857611986222168
 30
0.0
 11
15.75937017651893
 21
5.795111986222168
 31
0.0
  0
TEXT
  5
207
330
18
100
AcDbEntity
  8
ADPDIM
100
AcDbText
 10
5.176259449176251
 20
2.013957138106124
 30
0.0
 40
0.125
  1
J U L I U S  B L U M  &  C O . ,  I N C .      ( 8 0 0 )  5 2 6 - 6 2 9 3        W W W . J U L I U S B L U M . C O M        P A R T  N o .  1 4 6 4
 41
1.25
  7
ARIAL_WIDE
 72
     1
 11
11.70198847373287
 21
2.138957138106124
 31
0.0
100
AcDbText
 73
     3
  0
DIMENSION
  5
391
330
18
100
AcDbEntity
  8
ADPDIM
 62
     3
100
AcDbDimension
  2
*D2
 10
7.610411116530613
 20
6.138294011418917
 30
0.0
 11
9.047911116530613
 21
6.138294011418917
 31
0.0
 70
    32
 71
     5
 42
2.875
  3
STANDARD
100
AcDbAlignedDimension
 13
10.48541111653061
 23
4.443577009628459
 33
0.0
 14
7.610411116530613
 24
4.443577009628459
 34
0.0
100
AcDbRotatedDimension
1001
ACAD
1000
DSTYLE
1002
{
1070
    41
1040
0.125
1070
    73
1070
     0
1070
    74
1070
     0
1070
    78
1070
     3
1070
   140
1040
0.125
1070
   141
1040
0.1875
1070
   142
1040
0.125
1070
   147
1040
0.125
1070
   171
1070
     1
1002
}
  0
ENDSEC
  0
SECTION
  2
OBJECTS
  0
DICTIONARY
  5
C
330
0
100
AcDbDictionary
281
     1
  3
ACAD_COLOR
350
38B
  3
ACAD_GROUP
350
D
  3
ACAD_LAYOUT
350
200
  3
ACAD_MATERIAL
350
376
  3
ACAD_MLINESTYLE
350
E
  3
ACAD_PLOTSETTINGS
350
201
  3
ACAD_PLOTSTYLENAME
350
1FE
  3
ACAD_TABLESTYLE
350
38C
  3
ACAD_VISUALSTYLE
350
37A
  3
AcDbVariableDictionary
350
261
  3
ASE_INDEX_DICTIONARY
350
3A0
  3
DWGPROPS
350
3C2
  0
DICTIONARY
  5
25B
330
18
100
AcDbDictionary
280
     1
281
     1
  3
ACAD_LAYOUTSELFREF
360
370
  0
DICTIONARY
  5
259
330
15
100
AcDbDictionary
280
     1
281
     1
  3
ACAD_LAYOUTSELFREF
360
36F
  0
DICTIONARY
  5
38B
102
{ACAD_REACTORS
330
C
102
}
330
C
100
AcDbDictionary
281
     1
  0
DICTIONARY
  5
D
102
{ACAD_REACTORS
330
C
102
}
330
C
100
AcDbDictionary
281
     1
  0
DICTIONARY
  5
200
102
{ACAD_REACTORS
330
C
102
}
330
C
100
AcDbDictionary
281
     1
  3
Layout1
350
203
  3
Model
350
202
  0
DICTIONARY
  5
376
102
{ACAD_REACTORS
330
C
102
}
330
C
100
AcDbDictionary
281
     1
  3
ByBlock
350
378
  3
ByLayer
350
377
  3
Global
350
379
  0
DICTIONARY
  5
E
102
{ACAD_REACTORS
330
C
102
}
330
C
100
AcDbDictionary
281
     1
  3
STANDARD
350
1B
  0
DICTIONARY
  5
201
102
{ACAD_REACTORS
330
C
102
}
330
C
100
AcDbDictionary
281
     1
  0
ACDBDICTIONARYWDFLT
  5
1FE
102
{ACAD_REACTORS
330
C
102
}
330
C
100
AcDbDictionary
281
     1
  3
Normal
350
1FF
100
AcDbDictionaryWithDefault
340
1FF
  0
DICTIONARY
  5
38C
102
{ACAD_REACTORS
330
C
102
}
330
C
100
AcDbDictionary
281
     1
  3
Standard
350
38D
  0
DICTIONARY
  5
37A
102
{ACAD_REACTORS
330
C
102
}
330
C
100
AcDbDictionary
281
     1
  3
2dWireframe
350
380
  3
3D Hidden
350
382
  3
3dWireframe
350
381
  3
Basic
350
37F
  3
Brighten
350
386
  3
ColorChange
350
38A
  3
Conceptual
350
383
  3
Dim
350
385
  3
Facepattern
350
389
  3
Flat
350
37B
  3
FlatWithEdges
350
37C
  3
Gouraud
350
37D
  3
GouraudWithEdges
350
37E
  3
Linepattern
350
388
  3
Realistic
350
384
  3
Thicken
350
387
  0
DICTIONARY
  5
261
102
{ACAD_REACTORS
330
C
102
}
330
C
100
AcDbDictionary
281
     1
  3
CTABLESTYLE
350
3BF
  3
DIMASSOC
350
262
  3
INDEXCTL
350
3C1
  3
SORTENTS
350
3C0
  0
DICTIONARY
  5
3A0
102
{ACAD_REACTORS
330
C
102
}
330
C
100
AcDbDictionary
281
     1
  3
ASEBlockHierarchyIndexRecord
350
3A2
1001
DCO15
1040
1568921653.552
  0
XRECORD
  5
3C2
102
{ACAD_REACTORS
330
C
102
}
330
C
100
AcDbXrecord
280
     1
  1
DWGPROPS COOKIE
  2

  3

  4

  6

  7

  8
Yu Hu
  9

300
=
301
=
302
=
303
=
304
=
305
=
306
=
307
=
308
=
309
=
 40
0.0134483680555556
 41
2450247.567791088
 42
2453962.027286482
  1

 90
        0
  0
XRECORD
  5
370
102
{ACAD_REACTORS
330
25B
102
}
330
25B
100
AcDbXrecord
280
     1
340
18
  0
XRECORD
  5
36F
102
{ACAD_REACTORS
330
259
102
}
330
259
100
AcDbXrecord
280
     1
340
15
  0
LAYOUT
  5
203
102
{ACAD_XDICTIONARY
360
3C5
102
}
102
{ACAD_REACTORS
330
200
102
}
330
200
100
AcDbPlotSettings
  1

  2
Fax
  4

  6

 40
0.0
 41
0.0
 42
0.0
 43
0.0
 44
0.0
 45
0.0
 46
0.0
 47
0.0
 48
0.0
 49
0.0
140
0.0
141
0.0
142
1.0
143
1.0
 70
   688
 72
     0
 73
     0
 74
     5
  7
Default R14 pen assignments.ctb
 75
    16
147
1.0
148
0.0
149
0.0
100
AcDbLayout
  1
Layout1
 70
     1
 71
     1
 10
0.0
 20
0.0
 11
12.0
 21
9.0
 12
0.0
 22
0.0
 32
0.0
 14
1.000000000000000E+20
 24
1.000000000000000E+20
 34
1.000000000000000E+20
 15
-1.000000000000000E+20
 25
-1.000000000000000E+20
 35
-1.000000000000000E+20
146
0.0
 13
0.0
 23
0.0
 33
0.0
 16
1.0
 26
0.0
 36
0.0
 17
0.0
 27
1.0
 37
0.0
 76
     0
330
15
  0
LAYOUT
  5
202
102
{ACAD_XDICTIONARY
360
3C3
102
}
102
{ACAD_REACTORS
330
200
102
}
330
200
100
AcDbPlotSettings
  1

  2
Fax
  4

  6

 40
0.0
 41
0.0
 42
0.0
 43
0.0
 44
0.0
 45
0.0
 46
0.0
 47
0.0
 48
0.0
 49
0.0
140
0.0
141
0.0
142
1.0
143
1.0
 70
  1712
 72
     0
 73
     0
 74
     0
  7
Default R14 pen assignments.ctb
 75
     0
147
1.0
148
0.0
149
0.0
100
AcDbLayout
  1
Model
 70
     1
 71
     0
 10
0.0
 20
0.0
 11
12.0
 21
9.0
 12
0.0
 22
0.0
 32
0.0
 14
0.0
 24
0.0
 34
0.0
 15
0.0
 25
0.0
 35
0.0
146
0.0
 13
0.0
 23
0.0
 33
0.0
 16
1.0
 26
0.0
 36
0.0
 17
0.0
 27
1.0
 37
0.0
 76
     0
330
18
331
34A
  0
MATERIAL
  5
378
102
{ACAD_XDICTIONARY
360
3C9
102
}
102
{ACAD_REACTORS
330
376
102
}
330
376
100
AcDbMaterial
  1
ByBlock
  0
MATERIAL
  5
377
102
{ACAD_XDICTIONARY
360
3C7
102
}
102
{ACAD_REACTORS
330
376
102
}
330
376
100
AcDbMaterial
  1
ByLayer
  0
MATERIAL
  5
379
102
{ACAD_XDICTIONARY
360
3CB
102
}
102
{ACAD_REACTORS
330
376
102
}
330
376
100
AcDbMaterial
  1
Global
  0
MLINESTYLE
  5
1B
102
{ACAD_REACTORS
330
E
102
}
330
E
100
AcDbMlineStyle
  2
STANDARD
 70
     0
  3

 62
     0
 51
90.0
 52
90.0
 71
     2
 49
0.5
 62
   256
  6
BYLAYER
 49
-0.5
 62
   256
  6
BYLAYER
  0
ACDBPLACEHOLDER
  5
1FF
102
{ACAD_REACTORS
330
1FE
102
}
330
1FE
  0
TABLESTYLE
  5
38D
102
{ACAD_XDICTIONARY
360
3CD
102
}
102
{ACAD_REACTORS
330
38C
102
}
330
38C
100
AcDbTableStyle
  3
Standard
 70
     0
 71
     0
 40
0.06
 41
0.06
280
     0
281
     0
  7
STANDARD
140
0.18
170
     2
 62
     0
 63
     7
283
     0
274
    -2
284
     1
 64
     0
275
    -2
285
     1
 65
     0
276
    -2
286
     1
 66
     0
277
    -2
287
     1
 67
     0
278
    -2
288
     1
 68
     0
279
    -2
289
     1
 69
     0
  7
STANDARD
140
0.25
170
     5
 62
     0
 63
     7
283
     0
274
    -2
284
     1
 64
     0
275
    -2
285
     1
 65
     0
276
    -2
286
     1
 66
     0
277
    -2
287
     1
 67
     0
278
    -2
288
     1
 68
     0
279
    -2
289
     1
 69
     0
  7
STANDARD
140
0.18
170
     5
 62
     0
 63
     7
283
     0
274
    -2
284
     1
 64
     0
275
    -2
285
     1
 65
     0
276
    -2
286
     1
 66
     0
277
    -2
287
     1
 67
     0
278
    -2
288
     1
 68
     0
279
    -2
289
     1
 69
     0
  0
VISUALSTYLE
  5
380
102
{ACAD_REACTORS
330
37A
102
}
330
37A
100
AcDbVisualStyle
  2
2dWireframe
 70
     4
 71
     0
 72
     2
 73
     0
 90
        0
 40
-0.6
 41
-30.0
 62
     5
 63
     7
 74
     1
 91
        4
 64
     7
 65
   257
 75
     1
175
     1
 42
1.0
 92
        0
 66
   257
 43
1.0
 76
     1
 77
     6
 78
     2
 67
     7
 79
     5
170
     0
171
     0
290
     0
174
     0
 93
        1
 44
0.0
173
     0
291
     0
 45
0.0
1001
ACAD
1000
AcDbSavedByObjectVersion
1070
     0
  0
VISUALSTYLE
  5
382
102
{ACAD_REACTORS
330
37A
102
}
330
37A
100
AcDbVisualStyle
  2
3D Hidden
 70
     6
 71
     1
 72
     2
 73
     2
 90
        0
 40
-0.6
 41
-30.0
 62
     5
 63
     7
 74
     2
 91
        2
 64
     7
 65
   257
 75
     2
175
     1
 42
40.0
 92
        0
 66
   257
 43
1.0
 76
     1
 77
     6
 78
     2
 67
     7
 79
     3
170
     0
171
     0
290
     0
174
     0
 93
        1
 44
0.0
173
     0
291
     0
 45
0.0
1001
ACAD
1000
AcDbSavedByObjectVersion
1070
     0
  0
VISUALSTYLE
  5
381
102
{ACAD_REACTORS
330
37A
102
}
330
37A
100
AcDbVisualStyle
  2
3dWireframe
 70
     5
 71
     0
 72
     2
 73
     0
 90
        0
 40
-0.6
 41
-30.0
 62
     5
 63
     7
 74
     1
 91
        4
 64
     7
 65
   257
 75
     1
175
     1
 42
1.0
 92
        0
 66
   257
 43
1.0
 76
     1
 77
     6
 78
     2
 67
     7
 79
     5
170
     0
171
     0
290
     0
174
     0
 93
        1
 44
0.0
173
     0
291
     0
 45
0.0
1001
ACAD
1000
AcDbSavedByObjectVersion
1070
     0
  0
VISUALSTYLE
  5
37F
102
{ACAD_REACTORS
330
37A
102
}
330
37A
100
AcDbVisualStyle
  2
Basic
 70
     7
 71
     1
 72
     0
 73
     1
 90
        0
 40
-0.6
 41
-30.0
 62
     5
 63
     7
 74
     0
 91
        4
 64
     7
 65
   257
 75
     1
175
     1
 42
1.0
 92
        8
 66
     7
 43
1.0
 76
     1
 77
     6
 78
     2
 67
     7
 79
     5
170
     0
171
     0
290
     0
174
     0
 93
        1
 44
0.0
173
     0
291
     1
 45
0.0
1001
ACAD
1000
AcDbSavedByObjectVersion
1070
     0
  0
VISUALSTYLE
  5
386
102
{ACAD_REACTORS
330
37A
102
}
330
37A
100
AcDbVisualStyle
  2
Brighten
 70
    12
 71
     2
 72
     2
 73
     0
 90
        0
 40
-0.6
 41
-30.0
 62
     5
 63
     7
 74
     1
 91
        4
 64
     7
 65
   257
 75
     1
175
     1
 42
1.0
 92
        8
 66
     7
 43
1.0
 76
     1
 77
     6
 78
     2
 67
     7
 79
     5
170
     0
171
     0
290
     0
174
     0
 93
        1
 44
50.0
173
     0
291
     1
 45
0.0
1001
ACAD
1000
AcDbSavedByObjectVersion
1070
     0
  0
VISUALSTYLE
  5
38A
102
{ACAD_REACTORS
330
37A
102
}
330
37A
100
AcDbVisualStyle
  2
ColorChange
 70
    16
 71
     2
 72
     2
 73
     3
 90
        0
 40
-0.6
 41
-30.0
 62
     5
 63
     8
 74
     1
 91
        4
 64
     7
 65
   257
 75
     1
175
     1
 42
1.0
 92
        8
 66
     8
 43
1.0
 76
     1
 77
     6
 78
     2
 67
     7
 79
     5
170
     0
171
     0
290
     0
174
     0
 93
        1
 44
0.0
173
     0
291
     1
 45
0.0
1001
ACAD
1000
AcDbSavedByObjectVersion
1070
     0
  0
VISUALSTYLE
  5
383
102
{ACAD_REACTORS
330
37A
102
}
330
37A
100
AcDbVisualStyle
  2
Conceptual
 70
     9
 71
     3
 72
     2
 73
     0
 90
        0
 40
-0.6
 41
-30.0
 62
     5
 63
     7
 74
     2
 91
        2
 64
     7
 65
   257
 75
     1
175
     1
 42
40.0
 92
        8
 66
     7
 43
1.0
 76
     1
 77
     6
 78
     2
 67
     7
 79
     3
170
     0
171
     0
290
     0
174
     0
 93
        1
 44
0.0
173
     0
291
     0
 45
0.0
1001
ACAD
1000
AcDbSavedByObjectVersion
1070
     0
  0
VISUALSTYLE
  5
385
102
{ACAD_REACTORS
330
37A
102
}
330
37A
100
AcDbVisualStyle
  2
Dim
 70
    11
 71
     2
 72
     2
 73
     0
 90
        0
 40
-0.6
 41
-30.0
 62
     5
 63
     7
 74
     1
 91
        4
 64
     7
 65
   257
 75
     1
175
     1
 42
1.0
 92
        8
 66
     7
 43
1.0
 76
     1
 77
     6
 78
     2
 67
     7
 79
     5
170
     0
171
     0
290
     0
174
     0
 93
        1
 44
-50.0
173
     0
291
     1
 45
0.0
1001
ACAD
1000
AcDbSavedByObjectVersion
1070
     0
  0
VISUALSTYLE
  5
389
102
{ACAD_REACTORS
330
37A
102
}
330
37A
100
AcDbVisualStyle
  2
Facepattern
 70
    15
 71
     2
 72
     2
 73
     0
 90
        0
 40
-0.6
 41
-30.0
 62
     5
 63
     7
 74
     1
 91
        4
 64
     7
 65
   257
 75
     1
175
     1
 42
1.0
 92
        8
 66
     7
 43
1.0
 76
     1
 77
     6
 78
     2
 67
     7
 79
     5
170
     0
171
     0
290
     0
174
     0
 93
        1
 44
0.0
173
     0
291
     1
 45
0.0
1001
ACAD
1000
AcDbSavedByObjectVersion
1070
     0
  0
VISUALSTYLE
  5
37B
102
{ACAD_REACTORS
330
37A
102
}
330
37A
100
AcDbVisualStyle
  2
Flat
 70
     0
 71
     2
 72
     1
 73
     1
 90
        2
 40
-0.6
 41
30.0
 62
     5
 63
     7
 74
     0
 91
        4
 64
     7
 65
   257
 75
     1
175
     1
 42
1.0
 92
        8
 66
     7
 43
1.0
 76
     1
 77
     6
 78
     2
 67
     7
 79
     5
170
     0
171
     0
290
     0
174
     0
 93
       13
 44
0.0
173
     0
291
     1
 45
0.0
1001
ACAD
1000
AcDbSavedByObjectVersion
1070
     0
  0
VISUALSTYLE
  5
37C
102
{ACAD_REACTORS
330
37A
102
}
330
37A
100
AcDbVisualStyle
  2
FlatWithEdges
 70
     1
 71
     2
 72
     1
 73
     1
 90
        2
 40
-0.6
 41
30.0
 62
     5
 63
     7
 74
     1
 91
        4
 64
     7
 65
   257
 75
     1
175
     1
 42
1.0
 92
        0
 66
   257
 43
1.0
 76
     1
 77
     6
 78
     2
 67
     7
 79
     5
170
     0
171
     0
290
     0
174
     0
 93
       13
 44
0.0
173
     0
291
     1
 45
0.0
1001
ACAD
1000
AcDbSavedByObjectVersion
1070
     0
  0
VISUALSTYLE
  5
37D
102
{ACAD_REACTORS
330
37A
102
}
330
37A
100
AcDbVisualStyle
  2
Gouraud
 70
     2
 71
     2
 72
     2
 73
     1
 90
        2
 40
-0.6
 41
30.0
 62
     5
 63
     7
 74
     0
 91
        4
 64
     7
 65
   257
 75
     1
175
     1
 42
1.0
 92
        0
 66
     7
 43
1.0
 76
     1
 77
     6
 78
     2
 67
     7
 79
     5
170
     0
171
     0
290
     0
174
     0
 93
       13
 44
0.0
173
     0
291
     1
 45
0.0
1001
ACAD
1000
AcDbSavedByObjectVersion
1070
     0
  0
VISUALSTYLE
  5
37E
102
{ACAD_REACTORS
330
37A
102
}
330
37A
100
AcDbVisualStyle
  2
GouraudWithEdges
 70
     3
 71
     2
 72
     2
 73
     1
 90
        2
 40
-0.6
 41
30.0
 62
     5
 63
     7
 74
     1
 91
        4
 64
     7
 65
   257
 75
     1
175
     1
 42
1.0
 92
        0
 66
   257
 43
1.0
 76
     1
 77
     6
 78
     2
 67
     7
 79
     5
170
     0
171
     0
290
     0
174
     0
 93
       13
 44
0.0
173
     0
291
     1
 45
0.0
1001
ACAD
1000
AcDbSavedByObjectVersion
1070
     0
  0
VISUALSTYLE
  5
388
102
{ACAD_REACTORS
330
37A
102
}
330
37A
100
AcDbVisualStyle
  2
Linepattern
 70
    14
 71
     2
 72
     2
 73
     0
 90
        0
 40
-0.6
 41
-30.0
 62
     5
 63
     7
 74
     1
 91
        4
 64
     7
 65
   257
 75
     7
175
     7
 42
1.0
 92
        8
 66
     7
 43
1.0
 76
     1
 77
     6
 78
     2
 67
     7
 79
     5
170
     0
171
     0
290
     0
174
     0
 93
        1
 44
0.0
173
     0
291
     1
 45
0.0
1001
ACAD
1000
AcDbSavedByObjectVersion
1070
     0
  0
VISUALSTYLE
  5
384
102
{ACAD_REACTORS
330
37A
102
}
330
37A
100
AcDbVisualStyle
  2
Realistic
 70
     8
 71
     2
 72
     2
 73
     0
 90
        0
 40
-0.6
 41
-30.0
 62
     5
 63
     7
 74
     1
 91
        0
 64
     7
 65
   257
 75
     1
175
     1
 42
1.0
 92
        8
 66
     8
 43
1.0
 76
     1
 77
     6
 78
     2
 67
     7
 79
     5
170
     0
171
     0
290
     0
174
     0
 93
       13
 44
0.0
173
     0
291
     0
 45
0.0
1001
ACAD
1000
AcDbSavedByObjectVersion
1070
     0
  0
VISUALSTYLE
  5
387
102
{ACAD_REACTORS
330
37A
102
}
330
37A
100
AcDbVisualStyle
  2
Thicken
 70
    13
 71
     2
 72
     2
 73
     0
 90
        0
 40
-0.6
 41
-30.0
 62
     5
 63
     7
 74
     1
 91
        4
 64
     7
 65
   257
 75
     1
175
     1
 42
1.0
 92
       12
 66
     7
 43
1.0
 76
     1
 77
     6
 78
     2
 67
     7
 79
     5
170
     0
171
     0
290
     0
174
     0
 93
        1
 44
0.0
173
     0
291
     1
 45
0.0
1001
ACAD
1000
AcDbSavedByObjectVersion
1070
     0
  0
DICTIONARYVAR
  5
3BF
102
{ACAD_REACTORS
330
261
102
}
330
261
100
DictionaryVariables
280
     0
  1
STANDARD
  0
DICTIONARYVAR
  5
262
102
{ACAD_REACTORS
330
261
102
}
330
261
100
DictionaryVariables
280
     0
  1
1
  0
DICTIONARYVAR
  5
3C1
102
{ACAD_REACTORS
330
261
102
}
330
261
100
DictionaryVariables
280
     0
  1
0
  0
DICTIONARYVAR
  5
3C0
102
{ACAD_REACTORS
330
261
102
}
330
261
100
DictionaryVariables
280
     0
  1
127
  0
XRECORD
  5
3A2
102
{ACAD_REACTORS
330
3A0
102
}
330
3A0
100
AcDbXrecord
280
     1
  0
DICTIONARY
  5
3C5
330
203
100
AcDbDictionary
280
     1
281
     1
  3
ACAD_XREC_ROUNDTRIP
360
3C6
  0
DICTIONARY
  5
3C3
330
202
100
AcDbDictionary
280
     1
281
     1
  3
ACAD_XREC_ROUNDTRIP
360
3C4
  0
DICTIONARY
  5
3C9
330
378
100
AcDbDictionary
280
     1
281
     1
  3
ACAD_XREC_ROUNDTRIP
360
3CA
  0
DICTIONARY
  5
3C7
330
377
100
AcDbDictionary
280
     1
281
     1
  3
ACAD_XREC_ROUNDTRIP
360
3C8
  0
DICTIONARY
  5
3CB
330
379
100
AcDbDictionary
280
     1
281
     1
  3
ACAD_XREC_ROUNDTRIP
360
3CC
  0
DICTIONARY
  5
3CD
330
38D
100
AcDbDictionary
280
     1
281
     1
  3
ACAD_XREC_ROUNDTRIP
360
3CE
  0
XRECORD
  5
3C6
102
{ACAD_REACTORS
330
3C5
102
}
330
3C5
100
AcDbXrecord
280
     1
102
SHADEPLOT
 70
     0
102
SHADEPLOTRESLEVEL
 70
     2
102
SHADEPLOTCUSTOMDPI
 70
   300
  0
XRECORD
  5
3C4
102
{ACAD_REACTORS
330
3C3
102
}
330
3C3
100
AcDbXrecord
280
     1
102
SHADEPLOT
 70
     0
102
SHADEPLOTRESLEVEL
 70
     2
102
SHADEPLOTCUSTOMDPI
 70
   300
  0
XRECORD
  5
3CA
102
{ACAD_REACTORS
330
3C9
102
}
330
3C9
100
AcDbXrecord
280
     1
102
MATERIAL
148
0.0
149
0.0
149
0.0
 93
        0
 94
       63
282
     0
 72
     1
 77
     1
171
     1
175
     1
179
     1
273
     0
  0
XRECORD
  5
3C8
102
{ACAD_REACTORS
330
3C7
102
}
330
3C7
100
AcDbXrecord
280
     1
102
MATERIAL
148
0.0
149
0.0
149
0.0
 93
        0
 94
       63
282
     0
 72
     1
 77
     1
171
     1
175
     1
179
     1
273
     0
  0
XRECORD
  5
3CC
102
{ACAD_REACTORS
330
3CB
102
}
330
3CB
100
AcDbXrecord
280
     1
102
MATERIAL
148
0.0
149
0.0
149
0.0
 93
        0
 94
       63
282
     0
 72
     1
 77
     1
171
     1
175
     1
179
     1
273
     0
  0
XRECORD
  5
3CE
102
{ACAD_REACTORS
330
3CD
102
}
330
3CD
100
AcDbXrecord
280
     1
102
ACAD_ROUNDTRIP_PRE2007_TABLESTYLE
 90
      512
 91
        0
  1

 92
      512
 93
        0
  2

 94
      512
 95
        0
  3

  0
ENDSEC
  0
EOF
