  0
SECTION
  2
HEADER
  9
$ACADVER
  1
AC1014
  9
$ACADMAINTVER
 70
     9
  9
$DWGCODEPAGE
  3
ANSI_1252
  9
$INSBASE
 10
-63.54839132973081
 20
23.39502731622759
 30
0.0
  9
$EXTMIN
 10
-70.50200524832114
 20
22.15341812032596
 30
0.0
  9
$EXTMAX
 10
-57.45054719920791
 20
26.28763771842145
 30
0.0
  9
$LIMMIN
 10
0.0
 20
0.0
  9
$LIMMAX
 10
36.0
 20
36.0
  9
$ORTHOMODE
 70
     1
  9
$REGENMODE
 70
     1
  9
$FILLMODE
 70
     1
  9
$QTEXTMODE
 70
     0
  9
$MIRRTEXT
 70
     1
  9
$DRAGMODE
 70
     0
  9
$LTSCALE
 40
1.0
  9
$OSMODE
 70
    37
  9
$ATTMODE
 70
     1
  9
$TEXTSIZE
 40
0.2
  9
$TRACEWID
 40
0.05
  9
$TEXTSTYLE
  7
STANDARD
  9
$CLAYER
  8
ADPDIM
  9
$CELTYPE
  6
BYLAYER
  9
$CECOLOR
 62
   256
  9
$CELTSCALE
 40
1.0
  9
$DELOBJ
 70
     1
  9
$DISPSILH
 70
     0
  9
$DIMSCALE
 40
1.0
  9
$DIMASZ
 40
0.125
  9
$DIMEXO
 40
0.0625
  9
$DIMDLI
 40
0.38
  9
$DIMRND
 40
0.0
  9
$DIMDLE
 40
0.0
  9
$DIMEXE
 40
0.18
  9
$DIMTP
 40
0.0
  9
$DIMTM
 40
0.0
  9
$DIMTXT
 40
0.125
  9
$DIMCEN
 40
0.1875
  9
$DIMTSZ
 40
0.125
  9
$DIMTOL
 70
     0
  9
$DIMLIM
 70
     0
  9
$DIMTIH
 70
     0
  9
$DIMTOH
 70
     0
  9
$DIMSE1
 70
     0
  9
$DIMSE2
 70
     0
  9
$DIMTAD
 70
     0
  9
$DIMZIN
 70
     3
  9
$DIMBLK
  1

  9
$DIMASO
 70
     1
  9
$DIMSHO
 70
     1
  9
$DIMPOST
  1

  9
$DIMAPOST
  1

  9
$DIMALT
 70
     0
  9
$DIMALTD
 70
     1
  9
$DIMALTF
 40
25.4
  9
$DIMLFAC
 40
1.0
  9
$DIMTOFL
 70
     0
  9
$DIMTVP
 40
0.0
  9
$DIMTIX
 70
     0
  9
$DIMSOXD
 70
     0
  9
$DIMSAH
 70
     0
  9
$DIMBLK1
  1

  9
$DIMBLK2
  1

  9
$DIMSTYLE
  2
STANDARD
  9
$DIMCLRD
 70
     0
  9
$DIMCLRE
 70
     0
  9
$DIMCLRT
 70
     0
  9
$DIMTFAC
 40
1.0
  9
$DIMGAP
 40
0.125
  9
$DIMJUST
 70
     0
  9
$DIMSD1
 70
     0
  9
$DIMSD2
 70
     0
  9
$DIMTOLJ
 70
     1
  9
$DIMTZIN
 70
     0
  9
$DIMALTZ
 70
     0
  9
$DIMALTTZ
 70
     0
  9
$DIMFIT
 70
     3
  9
$DIMUPT
 70
     0
  9
$DIMUNIT
 70
     2
  9
$DIMDEC
 70
     4
  9
$DIMTDEC
 70
     4
  9
$DIMALTU
 70
     2
  9
$DIMALTTD
 70
     2
  9
$DIMTXSTY
  7
STANDARD
  9
$DIMAUNIT
 70
     0
  9
$LUNITS
 70
     5
  9
$LUPREC
 70
     4
  9
$SKETCHINC
 40
0.1
  9
$FILLETRAD
 40
0.187
  9
$AUNITS
 70
     0
  9
$AUPREC
 70
     0
  9
$MENU
  1
acad
  9
$ELEVATION
 40
0.0
  9
$PELEVATION
 40
0.0
  9
$THICKNESS
 40
0.0
  9
$LIMCHECK
 70
     0
  9
$BLIPMODE
 70
     0
  9
$CHAMFERA
 40
0.0
  9
$CHAMFERB
 40
0.0
  9
$CHAMFERC
 40
0.0
  9
$CHAMFERD
 40
0.0
  9
$SKPOLY
 70
     0
  9
$TDCREATE
 40
2450406.515429004
  9
$TDUPDATE
 40
2452297.081834849
  9
$TDINDWG
 40
0.0137535185
  9
$TDUSRTIMER
 40
0.0137535185
  9
$USRTIMER
 70
     1
  9
$ANGBASE
 50
0.0
  9
$ANGDIR
 70
     0
  9
$PDMODE
 70
     0
  9
$PDSIZE
 40
0.0
  9
$PLINEWID
 40
0.0
  9
$COORDS
 70
     2
  9
$SPLFRAME
 70
     0
  9
$SPLINETYPE
 70
     6
  9
$SPLINESEGS
 70
     8
  9
$ATTDIA
 70
     0
  9
$ATTREQ
 70
     1
  9
$HANDLING
 70
 22529
  9
$HANDSEED
  5
33A
  9
$SURFTAB1
 70
     6
  9
$SURFTAB2
 70
     6
  9
$SURFTYPE
 70
     6
  9
$SURFU
 70
     6
  9
$SURFV
 70
     6
  9
$UCSNAME
  2

  9
$UCSORG
 10
0.0
 20
0.0
 30
0.0
  9
$UCSXDIR
 10
1.0
 20
0.0
 30
0.0
  9
$UCSYDIR
 10
0.0
 20
1.0
 30
0.0
  9
$PUCSNAME
  2

  9
$PUCSORG
 10
0.0
 20
0.0
 30
0.0
  9
$PUCSXDIR
 10
1.0
 20
0.0
 30
0.0
  9
$PUCSYDIR
 10
0.0
 20
1.0
 30
0.0
  9
$USERI1
 70
     0
  9
$USERI2
 70
     0
  9
$USERI3
 70
     0
  9
$USERI4
 70
     0
  9
$USERI5
 70
     0
  9
$USERR1
 40
0.0
  9
$USERR2
 40
0.0
  9
$USERR3
 40
0.0
  9
$USERR4
 40
0.0
  9
$USERR5
 40
0.0
  9
$WORLDVIEW
 70
     1
  9
$SHADEDGE
 70
     3
  9
$SHADEDIF
 70
    70
  9
$TILEMODE
 70
     1
  9
$MAXACTVP
 70
    15
  9
$PINSBASE
 10
0.0008545024320483
 20
1.750284242913068
 30
0.0
  9
$PLIMCHECK
 70
     0
  9
$PEXTMIN
 10
1.000000000000000E+20
 20
1.000000000000000E+20
 30
1.000000000000000E+20
  9
$PEXTMAX
 10
-1.000000000000000E+20
 20
-1.000000000000000E+20
 30
-1.000000000000000E+20
  9
$PLIMMIN
 10
0.0
 20
0.0
  9
$PLIMMAX
 10
12.0
 20
9.0
  9
$UNITMODE
 70
     0
  9
$VISRETAIN
 70
     0
  9
$PLINEGEN
 70
     0
  9
$PSLTSCALE
 70
     1
  9
$TREEDEPTH
 70
  3020
  9
$PICKSTYLE
 70
     1
  9
$CMLSTYLE
  2
STANDARD
  9
$CMLJUST
 70
     0
  9
$CMLSCALE
 40
1.0
  9
$PROXYGRAPHICS
 70
     1
  9
$MEASUREMENT
 70
     0
  0
ENDSEC
  0
SECTION
  2
CLASSES
  0
CLASS
  1
ACDBDICTIONARYWDFLT
  2
AcDbDictionaryWithDefault
  3
AutoCAD 2000
 90
        0
280
     0
281
     0
  0
CLASS
  1
ACDBPLACEHOLDER
  2
AcDbPlaceHolder
  3
AutoCAD 2000
 90
        0
280
     0
281
     0
  0
CLASS
  1
LAYOUT
  2
AcDbLayout
  3
AutoCAD 2000
 90
        0
280
     0
281
     0
  0
CLASS
  1
DICTIONARYVAR
  2
AcDbDictionaryVar
  3
AutoCAD 2000
 90
        0
280
     0
281
     0
  0
CLASS
  1
LONG_TRANSACTION
  2
AcDbLongTransaction
  3
AutoCAD 2000
 90
        0
280
     0
281
     0
  0
CLASS
  1
LWPOLYLINE
  2
AcDbPolyline
  3
AutoCAD 2000
 90
        0
280
     0
281
     1
  0
CLASS
  1
HATCH
  2
AcDbHatch
  3
AutoCAD 2000
 90
        0
280
     0
281
     1
  0
CLASS
  1
XRECORD
  2
AcDbXrecord
  3
AutoCAD 2000
 90
        0
280
     0
281
     0
  0
CLASS
  1
LONG_TRANSACTION
  2
AcDbLongTransaction
  3
AutoCAD 2000
 90
        0
280
     0
281
     0
  0
CLASS
  1
LWPOLYLINE
  2
AcDbPolyline
  3
AutoCAD 2000
 90
        0
280
     0
281
     1
  0
CLASS
  1
HATCH
  2
AcDbHatch
  3
AutoCAD 2000
 90
        0
280
     0
281
     1
  0
CLASS
  1
XRECORD
  2
AcDbXrecord
  3
AutoCAD 2000
 90
        0
280
     0
281
     0
  0
CLASS
  1
LONG_TRANSACTION
  2
AcDbLongTransaction
  3
AutoCAD 2000
 90
        0
280
     0
281
     0
  0
CLASS
  1
LWPOLYLINE
  2
AcDbPolyline
  3
AutoCAD 2000
 90
        0
280
     0
281
     1
  0
CLASS
  1
HATCH
  2
AcDbHatch
  3
AutoCAD 2000
 90
        0
280
     0
281
     1
  0
CLASS
  1
XRECORD
  2
AcDbXrecord
  3
AutoCAD 2000
 90
        0
280
     0
281
     0
  0
CLASS
  1
LONG_TRANSACTION
  2
AcDbLongTransaction
  3
AutoCAD 2000
 90
        0
280
     0
281
     0
  0
CLASS
  1
LWPOLYLINE
  2
AcDbPolyline
  3
AutoCAD 2000
 90
        0
280
     0
281
     1
  0
CLASS
  1
HATCH
  2
AcDbHatch
  3
AutoCAD 2000
 90
        0
280
     0
281
     1
  0
CLASS
  1
XRECORD
  2
AcDbXrecord
  3
AutoCAD 2000
 90
        0
280
     0
281
     0
  0
CLASS
  1
LONG_TRANSACTION
  2
AcDbLongTransaction
  3
AutoCAD 2000
 90
        0
280
     0
281
     0
  0
CLASS
  1
LWPOLYLINE
  2
AcDbPolyline
  3
AutoCAD 2000
 90
        0
280
     0
281
     1
  0
CLASS
  1
HATCH
  2
AcDbHatch
  3
AutoCAD 2000
 90
        0
280
     0
281
     1
  0
CLASS
  1
XRECORD
  2
AcDbXrecord
  3
AutoCAD 2000
 90
        0
280
     0
281
     0
  0
CLASS
  1
LONG_TRANSACTION
  2
AcDbLongTransaction
  3
AutoCAD 2000
 90
        0
280
     0
281
     0
  0
CLASS
  1
LWPOLYLINE
  2
AcDbPolyline
  3
AutoCAD 2000
 90
        0
280
     0
281
     1
  0
CLASS
  1
HATCH
  2
AcDbHatch
  3
AutoCAD 2000
 90
        0
280
     0
281
     1
  0
CLASS
  1
XRECORD
  2
AcDbXrecord
  3
AutoCAD 2000
 90
        0
280
     0
281
     0
  0
ENDSEC
  0
SECTION
  2
TABLES
  0
TABLE
  2
VPORT
  5
8
330
0
100
AcDbSymbolTable
 70
     2
  0
VPORT
  5
317
330
8
100
AcDbSymbolTableRecord
100
AcDbViewportTableRecord
  2
*ACTIVE
 70
     0
 10
0.0
 20
0.0
 11
1.0
 21
1.0
 12
-63.96443500124163
 22
24.22100839184249
 13
0.0
 23
0.0
 14
0.5740882589684922
 24
0.5740882589684922
 15
0.5
 25
0.5
 16
0.0
 26
0.0
 36
1.0
 17
0.0
 27
0.0
 37
0.0
 40
8.368075387654009
 41
1.570528967254408
 42
50.0
 43
0.0
 44
0.0
 50
0.0
 51
0.0
 71
     0
 72
   100
 73
     1
 74
     0
 75
     0
 76
     0
 77
     0
 78
     0
  0
ENDTAB
  0
TABLE
  2
LTYPE
  5
5
330
0
100
AcDbSymbolTable
 70
     1
  0
LTYPE
  5
12
330
5
100
AcDbSymbolTableRecord
100
AcDbLinetypeTableRecord
  2
BYBLOCK
 70
     0
  3

 72
    65
 73
     0
 40
0.0
  0
LTYPE
  5
13
330
5
100
AcDbSymbolTableRecord
100
AcDbLinetypeTableRecord
  2
BYLAYER
 70
     0
  3

 72
    65
 73
     0
 40
0.0
  0
LTYPE
  5
14
330
5
100
AcDbSymbolTableRecord
100
AcDbLinetypeTableRecord
  2
CONTINUOUS
 70
     0
  3
Solid line
 72
    65
 73
     0
 40
0.0
  0
ENDTAB
  0
TABLE
  2
LAYER
  5
2
330
0
100
AcDbSymbolTable
 70
     4
  0
LAYER
  5
F
330
2
100
AcDbSymbolTableRecord
100
AcDbLayerTableRecord
  2
0
 70
     0
 62
     7
  6
CONTINUOUS
  0
LAYER
  5
150
330
2
100
AcDbSymbolTableRecord
100
AcDbLayerTableRecord
  2
ADP1DETAIL
 70
     0
 62
     7
  6
CONTINUOUS
  0
LAYER
  5
152
330
2
100
AcDbSymbolTableRecord
100
AcDbLayerTableRecord
  2
DEFPOINTS
 70
     0
 62
     7
  6
CONTINUOUS
  0
LAYER
  5
156
330
2
100
AcDbSymbolTableRecord
100
AcDbLayerTableRecord
  2
ADPDIM
 70
     0
 62
     3
  6
CONTINUOUS
  0
ENDTAB
  0
TABLE
  2
STYLE
  5
3
330
0
100
AcDbSymbolTable
 70
     2
  0
STYLE
  5
10
330
3
100
AcDbSymbolTableRecord
100
AcDbTextStyleTableRecord
  2
STANDARD
 70
     0
 40
0.0
 41
1.0
 50
0.0
 71
     0
 42
0.2
  3
txt
  4

  0
STYLE
  5
1A4
330
3
100
AcDbSymbolTableRecord
100
AcDbTextStyleTableRecord
  2
ARIAL_WIDE
 70
     0
 40
0.0
 41
1.25
 50
0.0
 71
     0
 42
0.2
  3
ARIAL.TTF
  4

1001
ACAD
1000
Arial
1071
       34
  0
ENDTAB
  0
TABLE
  2
VIEW
  5
6
330
0
100
AcDbSymbolTable
 70
     0
  0
ENDTAB
  0
TABLE
  2
UCS
  5
7
330
0
100
AcDbSymbolTable
 70
     0
  0
ENDTAB
  0
TABLE
  2
APPID
  5
9
330
0
100
AcDbSymbolTable
 70
     1
  0
APPID
  5
11
330
9
100
AcDbSymbolTableRecord
100
AcDbRegAppTableRecord
  2
ACAD
 70
     0
  0
ENDTAB
  0
TABLE
  2
DIMSTYLE
  5
A
330
0
100
AcDbSymbolTable
 70
     1
  0
DIMSTYLE
105
198
330
A
100
AcDbSymbolTableRecord
100
AcDbDimStyleTableRecord
  2
STANDARD
 70
     0
  3

  4

  5

  6

  7

 40
1.0
 41
0.18
 42
0.0625
 43
0.38
 44
0.18
 45
0.0
 46
0.0
 47
0.0
 48
0.0
140
0.18
141
0.09
142
0.0
143
25.4
144
1.0
145
0.0
146
1.0
147
0.09
 71
     0
 72
     0
 73
     1
 74
     1
 75
     0
 76
     0
 77
     0
 78
     0
170
     0
171
     2
172
     0
173
     0
174
     0
175
     0
176
     0
177
     0
178
     0
270
     2
271
     4
272
     4
273
     2
274
     2
340
10
275
     0
280
     0
281
     0
282
     0
283
     1
284
     0
285
     0
286
     0
287
     3
288
     0
  0
ENDTAB
  0
TABLE
  2
BLOCK_RECORD
  5
1
330
0
100
AcDbSymbolTable
 70
     3
  0
BLOCK_RECORD
  5
18
102
{ACAD_XDICTIONARY
360
1F9
102
}
330
1
100
AcDbSymbolTableRecord
100
AcDbBlockTableRecord
  2
*MODEL_SPACE
  0
BLOCK_RECORD
  5
15
102
{ACAD_XDICTIONARY
360
1F7
102
}
330
1
100
AcDbSymbolTableRecord
100
AcDbBlockTableRecord
  2
*PAPER_SPACE
  0
BLOCK_RECORD
  5
14A
330
1
100
AcDbSymbolTableRecord
100
AcDbBlockTableRecord
  2
*D0
  0
BLOCK_RECORD
  5
14B
330
1
100
AcDbSymbolTableRecord
100
AcDbBlockTableRecord
  2
*D1
  0
BLOCK_RECORD
  5
14C
330
1
100
AcDbSymbolTableRecord
100
AcDbBlockTableRecord
  2
*D2
  0
ENDTAB
  0
ENDSEC
  0
SECTION
  2
BLOCKS
  0
BLOCK
  5
159
330
18
100
AcDbEntity
  8
0
100
AcDbBlockBegin
  2
*MODEL_SPACE
 70
     0
 10
0.0
 20
0.0
 30
0.0
  3
*MODEL_SPACE
  1

  0
ENDBLK
  5
15A
330
18
100
AcDbEntity
  8
0
100
AcDbBlockEnd
  0
BLOCK
  5
157
330
15
100
AcDbEntity
 67
     1
  8
0
100
AcDbBlockBegin
  2
*PAPER_SPACE
 70
     0
 10
0.0
 20
0.0
 30
0.0
  3
*PAPER_SPACE
  1

  0
ENDBLK
  5
158
330
15
100
AcDbEntity
 67
     1
  8
0
100
AcDbBlockEnd
  0
BLOCK
  5
15C
330
14A
100
AcDbEntity
  8
0
100
AcDbBlockBegin
  2
*D0
 70
     1
 10
0.0
 20
0.0
 30
0.0
  3
*D0
  1

  0
LINE
  5
15D
330
14A
100
AcDbEntity
  8
0
  6
BYBLOCK
 62
     0
100
AcDbLine
 10
-63.11958465062608
 20
23.55647388046189
 30
0.0
 11
-62.97677117386465
 21
23.35128053053234
 31
0.0
  0
LINE
  5
15E
330
14A
100
AcDbEntity
  8
0
  6
BYBLOCK
 62
     0
100
AcDbLine
 10
-63.29358806397157
 20
23.58766381704595
 30
0.0
 11
-62.94558123728059
 21
23.52528394387783
 31
0.0
  0
LINE
  5
15F
330
14A
100
AcDbEntity
  8
0
  6
BYBLOCK
 62
     0
100
AcDbLine
 10
-64.1639655111947
 20
24.78763398003918
 30
0.0
 11
-63.78896551119471
 21
24.78763398003918
 31
0.0
  0
LINE
  5
160
330
14A
100
AcDbEntity
  8
0
  6
BYBLOCK
 62
     0
100
AcDbLine
 10
-63.9764655111947
 20
24.60013398003918
 30
0.0
 11
-63.9764655111947
 21
24.97513398003918
 31
0.0
  0
TEXT
  5
161
330
14A
100
AcDbEntity
  8
0
  6
BYBLOCK
 62
     0
100
AcDbText
 10
-62.95666277296632
 20
23.21298048637721
 30
0.0
 40
0.125
  1
%%c3
 50
304.8377108684948
 72
     1
 11
-62.84585882016667
 21
23.16318662643025
 31
0.0
100
AcDbText
 73
     2
  0
POINT
  5
162
330
14A
100
AcDbEntity
  8
DEFPOINTS
  6
BYBLOCK
 62
     0
100
AcDbPoint
 10
-63.11958465062608
 20
23.55647388046189
 30
0.0
  0
POINT
  5
163
330
14A
100
AcDbEntity
  8
DEFPOINTS
  6
BYBLOCK
 62
     0
100
AcDbPoint
 10
-64.83334637176333
 20
26.01879407961648
 30
0.0
  0
ENDBLK
  5
164
330
14A
100
AcDbEntity
  8
0
100
AcDbBlockEnd
  0
BLOCK
  5
165
330
14B
100
AcDbEntity
  8
0
100
AcDbBlockBegin
  2
*D1
 70
     1
 10
0.0
 20
0.0
 30
0.0
  3
*D1
  1

  0
LINE
  5
166
330
14B
100
AcDbEntity
  8
0
  6
BYBLOCK
 62
     0
100
AcDbLine
 10
-64.40510530642353
 20
23.37702081358232
 30
0.0
 11
-65.84768649960723
 21
23.37702081358232
 31
0.0
  0
LINE
  5
167
330
14B
100
AcDbEntity
  8
0
  6
BYBLOCK
 62
     0
100
AcDbLine
 10
-64.40510530642353
 20
24.62702081358232
 30
0.0
 11
-65.84768649960723
 21
24.62702081358232
 31
0.0
  0
LINE
  5
168
330
14B
100
AcDbEntity
  8
0
  6
BYBLOCK
 62
     0
100
AcDbLine
 10
-65.66768649960723
 20
23.37702081358232
 30
0.0
 11
-65.66768649960723
 21
23.62702081358232
 31
0.0
  0
LINE
  5
169
330
14B
100
AcDbEntity
  8
0
  6
BYBLOCK
 62
     0
100
AcDbLine
 10
-65.66768649960723
 20
24.62702081358232
 30
0.0
 11
-65.66768649960723
 21
24.37702081358232
 31
0.0
  0
LINE
  5
16A
330
14B
100
AcDbEntity
  8
0
  6
BYBLOCK
 62
     0
100
AcDbLine
 10
-65.54268649960723
 20
23.25202081358232
 30
0.0
 11
-65.79268649960723
 21
23.50202081358232
 31
0.0
  0
LINE
  5
16B
330
14B
100
AcDbEntity
  8
0
  6
BYBLOCK
 62
     0
100
AcDbLine
 10
-65.54268649960723
 20
24.50202081358233
 30
0.0
 11
-65.79268649960723
 21
24.75202081358232
 31
0.0
  0
TEXT
  5
16C
330
14B
100
AcDbEntity
  8
0
  6
BYBLOCK
 62
     0
100
AcDbText
 10
-65.60518649960723
 20
23.75202081358232
 30
0.0
 40
0.125
  1
1 1/4
 50
90.0
 72
     1
 11
-65.66768649960723
 21
24.00202081358232
 31
0.0
100
AcDbText
 73
     2
  0
POINT
  5
16D
330
14B
100
AcDbEntity
  8
DEFPOINTS
  6
BYBLOCK
 62
     0
100
AcDbPoint
 10
-64.34260530642354
 20
23.37702081358232
 30
0.0
  0
POINT
  5
16E
330
14B
100
AcDbEntity
  8
DEFPOINTS
  6
BYBLOCK
 62
     0
100
AcDbPoint
 10
-64.34260530642354
 20
24.62702081358232
 30
0.0
  0
POINT
  5
16F
330
14B
100
AcDbEntity
  8
DEFPOINTS
  6
BYBLOCK
 62
     0
100
AcDbPoint
 10
-65.66768649960723
 20
24.62702081358232
 30
0.0
  0
ENDBLK
  5
170
330
14B
100
AcDbEntity
  8
0
100
AcDbBlockEnd
  0
BLOCK
  5
171
330
14C
100
AcDbEntity
  8
0
100
AcDbBlockBegin
  2
*D2
 70
     1
 10
0.0
 20
0.0
 30
0.0
  3
*D2
  1

  0
LINE
  5
172
330
14C
100
AcDbEntity
  8
0
  6
BYBLOCK
 62
     0
100
AcDbLine
 10
-64.34260530642354
 20
23.31452081358232
 30
0.0
 11
-64.34260530642354
 21
22.8080276437303
 31
0.0
  0
LINE
  5
173
330
14C
100
AcDbEntity
  8
0
  6
BYBLOCK
 62
     0
100
AcDbLine
 10
-63.59260530642354
 20
23.31452081358232
 30
0.0
 11
-63.59260530642354
 21
22.8080276437303
 31
0.0
  0
LINE
  5
174
330
14C
100
AcDbEntity
  8
0
  6
BYBLOCK
 62
     0
100
AcDbLine
 10
-64.34260530642354
 20
22.9880276437303
 30
0.0
 11
-64.59260530642353
 21
22.9880276437303
 31
0.0
  0
LINE
  5
175
330
14C
100
AcDbEntity
  8
0
  6
BYBLOCK
 62
     0
100
AcDbLine
 10
-63.59260530642354
 20
22.9880276437303
 30
0.0
 11
-63.34260530642354
 21
22.9880276437303
 31
0.0
  0
LINE
  5
176
330
14C
100
AcDbEntity
  8
0
  6
BYBLOCK
 62
     0
100
AcDbLine
 10
-64.46760530642354
 20
22.8630276437303
 30
0.0
 11
-64.21760530642353
 21
23.1130276437303
 31
0.0
  0
LINE
  5
177
330
14C
100
AcDbEntity
  8
0
  6
BYBLOCK
 62
     0
100
AcDbLine
 10
-63.71760530642355
 20
22.8630276437303
 30
0.0
 11
-63.46760530642354
 21
23.1130276437303
 31
0.0
  0
TEXT
  5
178
330
14C
100
AcDbEntity
  8
0
  6
BYBLOCK
 62
     0
100
AcDbText
 10
-63.21760530642354
 20
22.9255276437303
 30
0.0
 40
0.125
  1
3/4
 72
     1
 11
-63.05093863975688
 21
22.9880276437303
 31
0.0
100
AcDbText
 73
     2
  0
POINT
  5
179
330
14C
100
AcDbEntity
  8
DEFPOINTS
  6
BYBLOCK
 62
     0
100
AcDbPoint
 10
-64.34260530642354
 20
23.37702081358232
 30
0.0
  0
POINT
  5
17A
330
14C
100
AcDbEntity
  8
DEFPOINTS
  6
BYBLOCK
 62
     0
100
AcDbPoint
 10
-63.59260530642354
 20
23.37702081358232
 30
0.0
  0
POINT
  5
17B
330
14C
100
AcDbEntity
  8
DEFPOINTS
  6
BYBLOCK
 62
     0
100
AcDbPoint
 10
-63.59260530642354
 20
22.9880276437303
 30
0.0
  0
ENDBLK
  5
17C
330
14C
100
AcDbEntity
  8
0
100
AcDbBlockEnd
  0
ENDSEC
  0
SECTION
  2
ENTITIES
  0
ARC
  5
17D
330
18
100
AcDbEntity
  8
ADP1DETAIL
100
AcDbCircle
 10
-63.97311661095528
 20
24.78763771842146
 30
0.0
 40
1.4375
100
AcDbArc
 50
289.6404494412467
 51
250.6114220365009
  0
ARC
  5
17E
330
18
100
AcDbEntity
  8
ADP1DETAIL
100
AcDbCircle
 10
-63.97311661095528
 20
24.78763771842146
 30
0.0
 40
1.5
100
AcDbArc
 50
290.4839137932061
 51
249.7719235523033
  0
LINE
  5
17F
330
18
100
AcDbEntity
  8
ADP1DETAIL
100
AcDbLine
 10
-64.40770479151581
 20
23.46184523097811
 30
0.0
 11
-64.40770479151581
 21
24.63135360798959
 31
0.0
  0
LINE
  5
180
330
18
100
AcDbEntity
  8
ADP1DETAIL
100
AcDbLine
 10
-64.34520479151581
 20
23.48233270814519
 30
0.0
 11
-64.34520479151581
 21
24.59885360798959
 31
0.0
  0
LINE
  5
181
330
18
100
AcDbEntity
  8
ADP1DETAIL
100
AcDbLine
 10
-63.53270479151581
 20
24.63135360798959
 30
0.0
 11
-63.53270479151582
 21
23.46390915000046
 31
0.0
  0
LINE
  5
182
330
18
100
AcDbEntity
  8
ADP1DETAIL
100
AcDbLine
 10
-63.59520479151582
 20
24.59885360798959
 30
0.0
 11
-63.59520479151582
 21
23.48449341014314
 31
0.0
  0
DIMENSION
  5
183
330
18
100
AcDbEntity
  8
ADPDIM
100
AcDbDimension
  2
*D1
 10
-65.66768649960723
 20
24.62702081358232
 30
0.0
 11
-65.66768649960723
 21
24.00202081358232
 31
0.0
100
AcDbAlignedDimension
 13
-64.34260530642354
 23
23.37702081358232
 33
0.0
 14
-64.34260530642354
 24
24.62702081358232
 34
0.0
 50
90.0
100
AcDbRotatedDimension
  0
DIMENSION
  5
184
330
18
100
AcDbEntity
  8
ADPDIM
100
AcDbDimension
  2
*D0
 10
-64.83334637176333
 20
26.01879407961648
 30
0.0
 11
-62.84585882016667
 21
23.16318662643025
 31
0.0
 70
     3
100
AcDbDiametricDimension
 15
-63.11958465062608
 25
23.55647388046189
 35
0.0
 40
0.0
  0
DIMENSION
  5
185
330
18
100
AcDbEntity
  8
ADPDIM
100
AcDbDimension
  2
*D2
 10
-63.59260530642354
 20
22.9880276437303
 30
0.0
 11
-63.05093863975688
 21
22.9880276437303
 31
0.0
100
AcDbAlignedDimension
 13
-64.34260530642354
 23
23.37702081358232
 33
0.0
 14
-63.59260530642354
 24
23.37702081358232
 34
0.0
100
AcDbRotatedDimension
  0
ARC
  5
186
330
18
100
AcDbEntity
  8
ADP1DETAIL
100
AcDbCircle
 10
-64.43970479151582
 20
23.46184523097811
 30
0.0
 40
0.032
100
AcDbArc
 50
250.6114220365008
 51
0.0
  0
ARC
  5
187
330
18
100
AcDbEntity
  8
ADP1DETAIL
100
AcDbCircle
 10
-64.45410169612443
 20
23.48233270814519
 30
0.0
 40
0.1088969046086134
100
AcDbArc
 50
249.771923552303
 51
0.0
  0
ARC
  5
188
330
18
100
AcDbEntity
  8
ADP1DETAIL
100
AcDbCircle
 10
-63.50070479151582
 20
23.46390915000046
 30
0.0
 40
0.032
100
AcDbArc
 50
180.0
 51
289.640449441246
  0
ARC
  5
189
330
18
100
AcDbEntity
  8
ADP1DETAIL
100
AcDbCircle
 10
-63.4863078869072
 20
23.48449341014314
 30
0.0
 40
0.1088969046086134
100
AcDbArc
 50
180.0
 51
290.4839137932059
  0
LINE
  5
18A
330
18
100
AcDbEntity
  8
ADP1DETAIL
100
AcDbLine
 10
-64.31320479151581
 20
24.63085360798959
 30
0.0
 11
-64.04561661095529
 21
24.63085360798958
 31
0.0
  0
LINE
  5
18B
330
18
100
AcDbEntity
  8
ADP1DETAIL
100
AcDbLine
 10
-64.34570479151581
 20
24.69335360798959
 30
0.0
 11
-64.04561661095529
 21
24.69335360798959
 31
0.0
  0
ARC
  5
18C
330
18
100
AcDbEntity
  8
ADP1DETAIL
100
AcDbCircle
 10
-64.31320479151581
 20
24.59885360798959
 30
0.0
 40
0.032
100
AcDbArc
 50
90.0
 51
180.0
  0
ARC
  5
18D
330
18
100
AcDbEntity
  8
ADP1DETAIL
100
AcDbCircle
 10
-64.34570479151581
 20
24.63135360798959
 30
0.0
 40
0.062
100
AcDbArc
 50
90.0
 51
180.0
  0
ARC
  5
18E
330
18
100
AcDbEntity
  8
ADP1DETAIL
100
AcDbCircle
 10
-63.59470479151582
 20
24.63135360798959
 30
0.0
 40
0.062
100
AcDbArc
 50
0.0
 51
90.0
  0
ARC
  5
18F
330
18
100
AcDbEntity
  8
ADP1DETAIL
100
AcDbCircle
 10
-63.62720479151581
 20
24.59885360798959
 30
0.0
 40
0.032
100
AcDbArc
 50
0.0
 51
90.0
  0
ARC
  5
190
330
18
100
AcDbEntity
  8
ADP1DETAIL
100
AcDbCircle
 10
-63.90061661095529
 20
24.68335360798958
 30
0.0
 40
0.01
100
AcDbArc
 50
90.0
 51
180.0
  0
ARC
  5
191
330
18
100
AcDbEntity
  8
ADP1DETAIL
100
AcDbCircle
 10
-63.90061661095529
 20
24.64085360798959
 30
0.0
 40
0.01
100
AcDbArc
 50
180.0
 51
270.0
  0
LINE
  5
192
330
18
100
AcDbEntity
  8
ADP1DETAIL
100
AcDbLine
 10
-63.91061661095529
 20
24.68335360798958
 30
0.0
 11
-63.91061661095529
 21
24.64085360798959
 31
0.0
  0
ARC
  5
193
330
18
100
AcDbEntity
  8
ADP1DETAIL
100
AcDbCircle
 10
-64.04561661095529
 20
24.68335360798958
 30
0.0
 40
0.01
100
AcDbArc
 50
0.0
 51
90.0
  0
LINE
  5
194
330
18
100
AcDbEntity
  8
ADP1DETAIL
100
AcDbLine
 10
-64.03561661095529
 20
24.64085360798959
 30
0.0
 11
-64.03561661095529
 21
24.68335360798958
 31
0.0
  0
ARC
  5
195
330
18
100
AcDbEntity
  8
ADP1DETAIL
100
AcDbCircle
 10
-64.04561661095529
 20
24.64085360798959
 30
0.0
 40
0.01
100
AcDbArc
 50
270.0
 51
0.0
  0
LINE
  5
196
330
18
100
AcDbEntity
  8
ADP1DETAIL
100
AcDbLine
 10
-63.90061661095529
 20
24.63085360798959
 30
0.0
 11
-63.62720479151581
 21
24.63085360798959
 31
0.0
  0
LINE
  5
197
330
18
100
AcDbEntity
  8
ADP1DETAIL
100
AcDbLine
 10
-63.90061661095529
 20
24.69335360798959
 30
0.0
 11
-63.59470479151582
 21
24.69335360798959
 31
0.0
  0
TEXT
  5
1A5
330
18
100
AcDbEntity
  8
ADPDIM
100
AcDbText
 10
-70.50200524832114
 20
22.19042357735188
 30
0.0
 40
0.125
  1
J U L I U S  B L U M  &  C O . ,  I N C .      ( 8 0 0 )  5 2 6 - 6 2 9 3        W W W . J U L I U S B L U M . C O M        P A R T  N o .  1 4 5 3
 41
1.25
  7
ARIAL_WIDE
 72
     1
 11
-63.97627622376452
 21
22.31542357735188
 31
0.0
100
AcDbText
 73
     3
  0
ENDSEC
  0
SECTION
  2
OBJECTS
  0
DICTIONARY
  5
C
330
0
100
AcDbDictionary
  3
ACAD_GROUP
350
D
  3
ACAD_LAYOUT
350
19E
  3
ACAD_MLINESTYLE
350
E
  3
ACAD_PLOTSETTINGS
350
19F
  3
ACAD_PLOTSTYLENAME
350
19C
  3
ACDBHEADERROUNDTRIPXREC
350
318
  3
ACDBVARIABLEDICTIONARY
350
1FF
  0
DICTIONARY
  5
1F9
330
18
100
AcDbDictionary
280
     1
  3
ACAD_LAYOUTSELFREF
360
339
  0
DICTIONARY
  5
1F7
330
15
100
AcDbDictionary
280
     1
  3
ACAD_LAYOUTSELFREF
360
338
  0
DICTIONARY
  5
D
102
{ACAD_REACTORS
330
C
102
}
330
C
100
AcDbDictionary
  0
DICTIONARY
  5
19E
102
{ACAD_REACTORS
330
C
102
}
330
C
100
AcDbDictionary
  0
DICTIONARY
  5
E
102
{ACAD_REACTORS
330
C
102
}
330
C
100
AcDbDictionary
  3
STANDARD
350
1B
  0
DICTIONARY
  5
19F
102
{ACAD_REACTORS
330
C
102
}
330
C
100
AcDbDictionary
  0
ACDBDICTIONARYWDFLT
  5
19C
102
{ACAD_REACTORS
330
C
102
}
330
C
100
AcDbDictionary
281
     1
  3
Normal
350
19D
100
AcDbDictionaryWithDefault
340
19D
  0
DICTIONARY
  5
318
102
{ACAD_REACTORS
330
C
102
}
330
C
100
AcDbDictionary
  3
CEPSNTYPE
350
322
  3
FINGERPRINTGUID
350
323
  3
HYPERLINKBASE
350
31B
  3
INSUNITS
350
321
  3
LAYOUTDICT
350
31D
  3
LWETCUNION
350
320
  3
PLOTSETDICT
350
31E
  3
PLOTSTYLNAMDICT
350
31F
  3
PSVPSCALE
350
325
  3
PUCSBASE
350
328
  3
PUCSORGBACK
350
32E
  3
PUCSORGBOTTOM
350
32A
  3
PUCSORGFRONT
350
32D
  3
PUCSORGLEFT
350
32B
  3
PUCSORGRIGHT
350
32C
  3
PUCSORGTOP
350
329
  3
PUCSORTHOREF
350
326
  3
PUCSORTHOVIEW
350
327
  3
STYLESHEET
350
31C
  3
TSTACKALIGN
350
319
  3
TSTACKSIZE
350
31A
  3
UCSBASE
350
331
  3
UCSORGBACK
350
337
  3
UCSORGBOTTOM
350
333
  3
UCSORGFRONT
350
336
  3
UCSORGLEFT
350
334
  3
UCSORGRIGHT
350
335
  3
UCSORGTOP
350
332
  3
UCSORTHOREF
350
32F
  3
UCSORTHOVIEW
350
330
  3
VERSIONGUID
350
324
  0
DICTIONARY
  5
1FF
102
{ACAD_REACTORS
330
C
102
}
330
C
100
AcDbDictionary
  3
DIMASSOC
350
200
  0
XRECORD
  5
339
102
{ACAD_REACTORS
330
1F9
102
}
330
1F9
100
AcDbXrecord
340
18
  0
XRECORD
  5
338
102
{ACAD_REACTORS
330
1F7
102
}
330
1F7
100
AcDbXrecord
340
15
  0
MLINESTYLE
  5
1B
102
{ACAD_REACTORS
330
E
102
}
330
E
100
AcDbMlineStyle
  2
STANDARD
 70
     0
  3

 62
     0
 51
90.0
 52
90.0
 71
     2
 49
0.5
 62
   256
  6
BYLAYER
 49
-0.5
 62
   256
  6
BYLAYER
  0
ACDBPLACEHOLDER
  5
19D
102
{ACAD_REACTORS
330
19C
102
}
330
19C
100
AcDbPlaceHolder
280
     0
  0
XRECORD
  5
322
102
{ACAD_REACTORS
330
318
102
}
330
318
100
AcDbXrecord
 90
        0
  0
XRECORD
  5
323
102
{ACAD_REACTORS
330
318
102
}
330
318
100
AcDbXrecord
  1
{500735A3-937C-475F-8FB7-486B451F196B}
  0
XRECORD
  5
31B
102
{ACAD_REACTORS
330
318
102
}
330
318
100
AcDbXrecord
  1

  0
XRECORD
  5
321
102
{ACAD_REACTORS
330
318
102
}
330
318
100
AcDbXrecord
 90
        0
  0
XRECORD
  5
31D
102
{ACAD_REACTORS
330
318
102
}
330
318
100
AcDbXrecord
340
19E
  0
XRECORD
  5
320
102
{ACAD_REACTORS
330
318
102
}
330
318
100
AcDbXrecord
 90
    14877
  0
XRECORD
  5
31E
102
{ACAD_REACTORS
330
318
102
}
330
318
100
AcDbXrecord
340
19F
  0
XRECORD
  5
31F
102
{ACAD_REACTORS
330
318
102
}
330
318
100
AcDbXrecord
340
19C
  0
XRECORD
  5
325
102
{ACAD_REACTORS
330
318
102
}
330
318
100
AcDbXrecord
 40
0.0
  0
XRECORD
  5
328
102
{ACAD_REACTORS
330
318
102
}
330
318
100
AcDbXrecord
340
0
  0
XRECORD
  5
32E
102
{ACAD_REACTORS
330
318
102
}
330
318
100
AcDbXrecord
 10
0.0
 20
0.0
 30
0.0
  0
XRECORD
  5
32A
102
{ACAD_REACTORS
330
318
102
}
330
318
100
AcDbXrecord
 10
0.0
 20
0.0
 30
0.0
  0
XRECORD
  5
32D
102
{ACAD_REACTORS
330
318
102
}
330
318
100
AcDbXrecord
 10
0.0
 20
0.0
 30
0.0
  0
XRECORD
  5
32B
102
{ACAD_REACTORS
330
318
102
}
330
318
100
AcDbXrecord
 10
0.0
 20
0.0
 30
0.0
  0
XRECORD
  5
32C
102
{ACAD_REACTORS
330
318
102
}
330
318
100
AcDbXrecord
 10
0.0
 20
0.0
 30
0.0
  0
XRECORD
  5
329
102
{ACAD_REACTORS
330
318
102
}
330
318
100
AcDbXrecord
 10
0.0
 20
0.0
 30
0.0
  0
XRECORD
  5
326
102
{ACAD_REACTORS
330
318
102
}
330
318
100
AcDbXrecord
340
0
  0
XRECORD
  5
327
102
{ACAD_REACTORS
330
318
102
}
330
318
100
AcDbXrecord
 70
     0
  0
XRECORD
  5
31C
102
{ACAD_REACTORS
330
318
102
}
330
318
100
AcDbXrecord
  1

  0
XRECORD
  5
319
102
{ACAD_REACTORS
330
318
102
}
330
318
100
AcDbXrecord
 90
        1
  0
XRECORD
  5
31A
102
{ACAD_REACTORS
330
318
102
}
330
318
100
AcDbXrecord
 90
       70
  0
XRECORD
  5
331
102
{ACAD_REACTORS
330
318
102
}
330
318
100
AcDbXrecord
340
0
  0
XRECORD
  5
337
102
{ACAD_REACTORS
330
318
102
}
330
318
100
AcDbXrecord
 10
0.0
 20
0.0
 30
0.0
  0
XRECORD
  5
333
102
{ACAD_REACTORS
330
318
102
}
330
318
100
AcDbXrecord
 10
0.0
 20
0.0
 30
0.0
  0
XRECORD
  5
336
102
{ACAD_REACTORS
330
318
102
}
330
318
100
AcDbXrecord
 10
0.0
 20
0.0
 30
0.0
  0
XRECORD
  5
334
102
{ACAD_REACTORS
330
318
102
}
330
318
100
AcDbXrecord
 10
0.0
 20
0.0
 30
0.0
  0
XRECORD
  5
335
102
{ACAD_REACTORS
330
318
102
}
330
318
100
AcDbXrecord
 10
0.0
 20
0.0
 30
0.0
  0
XRECORD
  5
332
102
{ACAD_REACTORS
330
318
102
}
330
318
100
AcDbXrecord
 10
0.0
 20
0.0
 30
0.0
  0
XRECORD
  5
32F
102
{ACAD_REACTORS
330
318
102
}
330
318
100
AcDbXrecord
340
0
  0
XRECORD
  5
330
102
{ACAD_REACTORS
330
318
102
}
330
318
100
AcDbXrecord
 70
     0
  0
XRECORD
  5
324
102
{ACAD_REACTORS
330
318
102
}
330
318
100
AcDbXrecord
  1
{151A914D-7FE2-4598-819B-216E4F885298}
  0
DICTIONARYVAR
  5
200
102
{ACAD_REACTORS
330
1FF
102
}
330
1FF
100
DictionaryVariables
280
     0
  1
1
  0
ENDSEC
  0
EOF
