  0
SECTION
  2
HEADER
  9
$ACADVER
  1
AC1015
  9
$ACADMAINTVER
 70
    20
  9
$DWGCODEPAGE
  3
ANSI_1252
  9
$INSBASE
 10
8.260029202763998
 20
4.751429217911166
 30
0.0
  9
$EXTMIN
 10
4.344797233939085
 20
1.944766219356137
 30
0.0
  9
$EXTMAX
 10
17.26260078100593
 20
7.397262551244501
 30
0.0
  9
$LIMMIN
 10
0.0
 20
0.0
  9
$LIMMAX
 10
36.0
 20
36.0
  9
$ORTHOMODE
 70
     0
  9
$REGENMODE
 70
     1
  9
$FILLMODE
 70
     1
  9
$QTEXTMODE
 70
     0
  9
$MIRRTEXT
 70
     1
  9
$LTSCALE
 40
1.0
  9
$ATTMODE
 70
     1
  9
$TEXTSIZE
 40
0.2
  9
$TRACEWID
 40
0.05
  9
$TEXTSTYLE
  7
STANDARD
  9
$CLAYER
  8
ADPDIM
  9
$CELTYPE
  6
BYLAYER
  9
$CECOLOR
 62
   256
  9
$CELTSCALE
 40
1.0
  9
$DISPSILH
 70
     0
  9
$DIMSCALE
 40
1.0
  9
$DIMASZ
 40
0.125
  9
$DIMEXO
 40
0.0625
  9
$DIMDLI
 40
0.38
  9
$DIMRND
 40
0.0
  9
$DIMDLE
 40
0.0
  9
$DIMEXE
 40
0.18
  9
$DIMTP
 40
0.0
  9
$DIMTM
 40
0.0
  9
$DIMTXT
 40
0.125
  9
$DIMCEN
 40
0.1875
  9
$DIMTSZ
 40
0.125
  9
$DIMTOL
 70
     0
  9
$DIMLIM
 70
     0
  9
$DIMTIH
 70
     0
  9
$DIMTOH
 70
     0
  9
$DIMSE1
 70
     0
  9
$DIMSE2
 70
     0
  9
$DIMTAD
 70
     0
  9
$DIMZIN
 70
     3
  9
$DIMBLK
  1

  9
$DIMASO
 70
     1
  9
$DIMSHO
 70
     1
  9
$DIMPOST
  1

  9
$DIMAPOST
  1

  9
$DIMALT
 70
     0
  9
$DIMALTD
 70
     1
  9
$DIMALTF
 40
25.4
  9
$DIMLFAC
 40
1.0
  9
$DIMTOFL
 70
     0
  9
$DIMTVP
 40
0.0
  9
$DIMTIX
 70
     0
  9
$DIMSOXD
 70
     0
  9
$DIMSAH
 70
     0
  9
$DIMBLK1
  1

  9
$DIMBLK2
  1

  9
$DIMSTYLE
  2
STANDARD
  9
$DIMCLRD
 70
     0
  9
$DIMCLRE
 70
     0
  9
$DIMCLRT
 70
     0
  9
$DIMTFAC
 40
1.0
  9
$DIMGAP
 40
0.125
  9
$DIMJUST
 70
     0
  9
$DIMSD1
 70
     0
  9
$DIMSD2
 70
     0
  9
$DIMTOLJ
 70
     1
  9
$DIMTZIN
 70
     3
  9
$DIMALTZ
 70
     3
  9
$DIMALTTZ
 70
     3
  9
$DIMUPT
 70
     0
  9
$DIMDEC
 70
     4
  9
$DIMTDEC
 70
     4
  9
$DIMALTU
 70
     5
  9
$DIMALTTD
 70
     1
  9
$DIMTXSTY
  7
STANDARD
  9
$DIMAUNIT
 70
     0
  9
$DIMADEC
 70
     0
  9
$DIMALTRND
 40
0.0
  9
$DIMAZIN
 70
     0
  9
$DIMDSEP
 70
    46
  9
$DIMATFIT
 70
     3
  9
$DIMFRAC
 70
     0
  9
$DIMLDRBLK
  1

  9
$DIMLUNIT
 70
     5
  9
$DIMLWD
 70
    -2
  9
$DIMLWE
 70
    -2
  9
$DIMTMOVE
 70
     2
  9
$LUNITS
 70
     5
  9
$LUPREC
 70
     4
  9
$SKETCHINC
 40
0.1
  9
$FILLETRAD
 40
0.0
  9
$AUNITS
 70
     0
  9
$AUPREC
 70
     0
  9
$MENU
  1
acad
  9
$ELEVATION
 40
0.0
  9
$PELEVATION
 40
0.0
  9
$THICKNESS
 40
0.0
  9
$LIMCHECK
 70
     0
  9
$CHAMFERA
 40
0.062
  9
$CHAMFERB
 40
0.062
  9
$CHAMFERC
 40
0.0
  9
$CHAMFERD
 40
0.0
  9
$SKPOLY
 70
     0
  9
$TDCREATE
 40
2450242.516729549
  9
$TDUCREATE
 40
2450242.683396215
  9
$TDUPDATE
 40
2453944.926781701
  9
$TDUUPDATE
 40
2453945.093448368
  9
$TDINDWG
 40
0.0053655324
  9
$TDUSRTIMER
 40
0.0053655324
  9
$USRTIMER
 70
     1
  9
$ANGBASE
 50
0.0
  9
$ANGDIR
 70
     0
  9
$PDMODE
 70
     0
  9
$PDSIZE
 40
0.0
  9
$PLINEWID
 40
0.0
  9
$SPLFRAME
 70
     0
  9
$SPLINETYPE
 70
     6
  9
$SPLINESEGS
 70
     8
  9
$HANDSEED
  5
21B
  9
$SURFTAB1
 70
     6
  9
$SURFTAB2
 70
     6
  9
$SURFTYPE
 70
     6
  9
$SURFU
 70
     6
  9
$SURFV
 70
     6
  9
$UCSBASE
  2

  9
$UCSNAME
  2

  9
$UCSORG
 10
0.0
 20
0.0
 30
0.0
  9
$UCSXDIR
 10
1.0
 20
0.0
 30
0.0
  9
$UCSYDIR
 10
0.0
 20
1.0
 30
0.0
  9
$UCSORTHOREF
  2

  9
$UCSORTHOVIEW
 70
     0
  9
$UCSORGTOP
 10
0.0
 20
0.0
 30
0.0
  9
$UCSORGBOTTOM
 10
0.0
 20
0.0
 30
0.0
  9
$UCSORGLEFT
 10
0.0
 20
0.0
 30
0.0
  9
$UCSORGRIGHT
 10
0.0
 20
0.0
 30
0.0
  9
$UCSORGFRONT
 10
0.0
 20
0.0
 30
0.0
  9
$UCSORGBACK
 10
0.0
 20
0.0
 30
0.0
  9
$PUCSBASE
  2

  9
$PUCSNAME
  2

  9
$PUCSORG
 10
0.0
 20
0.0
 30
0.0
  9
$PUCSXDIR
 10
1.0
 20
0.0
 30
0.0
  9
$PUCSYDIR
 10
0.0
 20
1.0
 30
0.0
  9
$PUCSORTHOREF
  2

  9
$PUCSORTHOVIEW
 70
     0
  9
$PUCSORGTOP
 10
0.0
 20
0.0
 30
0.0
  9
$PUCSORGBOTTOM
 10
0.0
 20
0.0
 30
0.0
  9
$PUCSORGLEFT
 10
0.0
 20
0.0
 30
0.0
  9
$PUCSORGRIGHT
 10
0.0
 20
0.0
 30
0.0
  9
$PUCSORGFRONT
 10
0.0
 20
0.0
 30
0.0
  9
$PUCSORGBACK
 10
0.0
 20
0.0
 30
0.0
  9
$USERI1
 70
     0
  9
$USERI2
 70
     0
  9
$USERI3
 70
     0
  9
$USERI4
 70
     0
  9
$USERI5
 70
     0
  9
$USERR1
 40
0.0
  9
$USERR2
 40
0.0
  9
$USERR3
 40
0.0
  9
$USERR4
 40
0.0
  9
$USERR5
 40
0.0
  9
$WORLDVIEW
 70
     1
  9
$SHADEDGE
 70
     3
  9
$SHADEDIF
 70
    70
  9
$TILEMODE
 70
     1
  9
$MAXACTVP
 70
    15
  9
$PINSBASE
 10
0.0004882961511612
 20
1.000276130627782
 30
0.0
  9
$PLIMCHECK
 70
     0
  9
$PEXTMIN
 10
1.000000000000000E+20
 20
1.000000000000000E+20
 30
1.000000000000000E+20
  9
$PEXTMAX
 10
-1.000000000000000E+20
 20
-1.000000000000000E+20
 30
-1.000000000000000E+20
  9
$PLIMMIN
 10
0.0
 20
0.0
  9
$PLIMMAX
 10
12.0
 20
9.0
  9
$UNITMODE
 70
     0
  9
$VISRETAIN
 70
     0
  9
$PLINEGEN
 70
     0
  9
$PSLTSCALE
 70
     1
  9
$TREEDEPTH
 70
  3020
  9
$CMLSTYLE
  2
STANDARD
  9
$CMLJUST
 70
     0
  9
$CMLSCALE
 40
1.0
  9
$PROXYGRAPHICS
 70
     1
  9
$MEASUREMENT
 70
     0
  9
$CELWEIGHT
370
    -1
  9
$ENDCAPS
280
     0
  9
$JOINSTYLE
280
     0
  9
$LWDISPLAY
290
     0
  9
$INSUNITS
 70
     0
  9
$HYPERLINKBASE
  1

  9
$STYLESHEET
  1

  9
$XEDIT
290
     1
  9
$CEPSNTYPE
380
     0
  9
$PSTYLEMODE
290
     1
  9
$FINGERPRINTGUID
  2
{4F9CE08E-89ED-49A9-8A58-1576B7A292E2}
  9
$VERSIONGUID
  2
{46B0FCAF-77D5-4EF2-9944-6CE8BED62775}
  9
$EXTNAMES
290
     1
  9
$PSVPSCALE
 40
0.0
  9
$OLESTARTUP
290
     0
  0
ENDSEC
  0
SECTION
  2
CLASSES
  0
CLASS
  1
DICTIONARYVAR
  2
AcDbDictionaryVar
  3
ObjectDBX Classes
 90
        0
280
     0
281
     0
  0
CLASS
  1
ACDBDICTIONARYWDFLT
  2
AcDbDictionaryWithDefault
  3
ObjectDBX Classes
 90
        0
280
     0
281
     0
  0
CLASS
  1
ACDBPLACEHOLDER
  2
AcDbPlaceHolder
  3
ObjectDBX Classes
 90
        0
280
     0
281
     0
  0
CLASS
  1
LAYOUT
  2
AcDbLayout
  3
ObjectDBX Classes
 90
        0
280
     0
281
     0
  0
CLASS
  1
MATERIAL
  2
AcDbMaterial
  3
ObjectDBX Classes
 90
     1024
280
     0
281
     0
  0
CLASS
  1
VISUALSTYLE
  2
AcDbVisualStyle
  3
ObjectDBX Classes
 90
     4095
280
     0
281
     0
  0
CLASS
  1
TABLESTYLE
  2
AcDbTableStyle
  3
ObjectDBX Classes
 90
     4095
280
     0
281
     0
  0
ENDSEC
  0
SECTION
  2
TABLES
  0
TABLE
  2
VPORT
  5
8
330
0
100
AcDbSymbolTable
 70
     1
  0
VPORT
  5
190
330
8
100
AcDbSymbolTableRecord
100
AcDbViewportTableRecord
  2
*Active
 70
     0
 10
0.0
 20
0.0
 11
1.0
 21
1.0
 12
10.32570451294358
 22
5.598338502520935
 13
0.0
 23
0.0
 14
0.5740882589684922
 24
0.5740882589684922
 15
0.5
 25
0.5
 16
0.0
 26
0.0
 36
1.0
 17
0.0
 27
0.0
 37
0.0
 40
4.584364480389825
 41
2.023012552301255
 42
50.0
 43
0.0
 44
0.0
 50
0.0
 51
0.0
 71
     0
 72
   100
 73
     1
 74
     0
 75
     0
 76
     0
 77
     0
 78
     0
281
     0
 65
     1
110
0.0
120
0.0
130
0.0
111
1.0
121
0.0
131
0.0
112
0.0
122
1.0
132
0.0
 79
     0
146
0.0
  0
ENDTAB
  0
TABLE
  2
LTYPE
  5
5
330
0
100
AcDbSymbolTable
 70
     3
  0
LTYPE
  5
11
330
5
100
AcDbSymbolTableRecord
100
AcDbLinetypeTableRecord
  2
BYBLOCK
 70
     0
  3

 72
    65
 73
     0
 40
0.0
  0
LTYPE
  5
12
330
5
100
AcDbSymbolTableRecord
100
AcDbLinetypeTableRecord
  2
BYLAYER
 70
     0
  3

 72
    65
 73
     0
 40
0.0
  0
LTYPE
  5
13
330
5
100
AcDbSymbolTableRecord
100
AcDbLinetypeTableRecord
  2
CONTINUOUS
 70
     0
  3
Solid line
 72
    65
 73
     0
 40
0.0
  0
LTYPE
  5
22
330
5
100
AcDbSymbolTableRecord
100
AcDbLinetypeTableRecord
  2
HIDDEN2
 70
     0
  3
_ _ _ _ _ _ _ _ _ _ _ _ _ _ _ _ _ _ _ _ _ _ _ _
 72
    65
 73
     2
 40
0.1875
 49
0.125
 74
     0
 49
-0.0625
 74
     0
  0
ENDTAB
  0
TABLE
  2
LAYER
  5
2
330
0
100
AcDbSymbolTable
 70
     5
  0
LAYER
  5
E
330
2
100
AcDbSymbolTableRecord
100
AcDbLayerTableRecord
  2
0
 70
     0
 62
     7
  6
CONTINUOUS
370
    -3
390
D1
  0
LAYER
  5
24
330
2
100
AcDbSymbolTableRecord
100
AcDbLayerTableRecord
  2
ADP2DETAIL
 70
     0
 62
     5
  6
CONTINUOUS
370
    -3
390
D1
  0
LAYER
  5
25
330
2
100
AcDbSymbolTableRecord
100
AcDbLayerTableRecord
  2
ADPDIM
 70
     0
 62
     3
  6
CONTINUOUS
370
    -3
390
D1
  0
LAYER
  5
26
330
2
100
AcDbSymbolTableRecord
100
AcDbLayerTableRecord
  2
ADP1DETAIL
 70
     0
 62
     7
  6
CONTINUOUS
370
    -3
390
D1
  0
LAYER
  5
27
330
2
100
AcDbSymbolTableRecord
100
AcDbLayerTableRecord
  2
DEFPOINTS
 70
     0
 62
     7
  6
CONTINUOUS
290
     0
370
    -3
390
D1
  0
ENDTAB
  0
TABLE
  2
STYLE
  5
3
330
0
100
AcDbSymbolTable
 70
     2
  0
STYLE
  5
F
330
3
100
AcDbSymbolTableRecord
100
AcDbTextStyleTableRecord
  2
STANDARD
 70
     0
 40
0.0
 41
1.0
 50
0.0
 71
     0
 42
0.2
  3
txt
  4

  0
STYLE
  5
C6
330
3
100
AcDbSymbolTableRecord
100
AcDbTextStyleTableRecord
  2
ARIAL_WIDE
 70
     0
 40
0.0
 41
1.25
 50
0.0
 71
     0
 42
0.2
  3
ARIAL.TTF
  4

1001
ACAD
1000
Arial
1071
       34
  0
ENDTAB
  0
TABLE
  2
VIEW
  5
6
330
0
100
AcDbSymbolTable
 70
     0
  0
ENDTAB
  0
TABLE
  2
UCS
  5
7
330
0
100
AcDbSymbolTable
 70
     0
  0
ENDTAB
  0
TABLE
  2
APPID
  5
9
330
0
100
AcDbSymbolTable
 70
     2
  0
APPID
  5
10
330
9
100
AcDbSymbolTableRecord
100
AcDbRegAppTableRecord
  2
ACAD
 70
     0
  0
APPID
  5
203
330
9
100
AcDbSymbolTableRecord
100
AcDbRegAppTableRecord
  2
ACAD_EXEMPT_FROM_CAD_STANDARDS
 70
     0
  0
ENDTAB
  0
TABLE
  2
DIMSTYLE
  5
A
330
0
100
AcDbSymbolTable
 70
     2
100
AcDbDimStyleTable
 71
     1
340
C4
  0
DIMSTYLE
105
C4
330
A
100
AcDbSymbolTableRecord
100
AcDbDimStyleTableRecord
  2
STANDARD
 70
     0
340
F
  0
ENDTAB
  0
TABLE
  2
BLOCK_RECORD
  5
1
330
0
100
AcDbSymbolTable
 70
     7
  0
BLOCK_RECORD
  5
17
102
{ACAD_XDICTIONARY
360
FF
102
}
330
1
100
AcDbSymbolTableRecord
100
AcDbBlockTableRecord
  2
*MODEL_SPACE
340
D4
  0
BLOCK_RECORD
  5
14
102
{ACAD_XDICTIONARY
360
FD
102
}
330
1
100
AcDbSymbolTableRecord
100
AcDbBlockTableRecord
  2
*PAPER_SPACE
340
D5
  0
BLOCK_RECORD
  5
1C
330
1
100
AcDbSymbolTableRecord
100
AcDbBlockTableRecord
  2
*D0
340
0
  0
BLOCK_RECORD
  5
1D
330
1
100
AcDbSymbolTableRecord
100
AcDbBlockTableRecord
  2
*D1
340
0
  0
BLOCK_RECORD
  5
1E
330
1
100
AcDbSymbolTableRecord
100
AcDbBlockTableRecord
  2
*D2
340
0
  0
BLOCK_RECORD
  5
1F
330
1
100
AcDbSymbolTableRecord
100
AcDbBlockTableRecord
  2
*D3
340
0
  0
BLOCK_RECORD
  5
20
330
1
100
AcDbSymbolTableRecord
100
AcDbBlockTableRecord
  2
*D4
340
0
  0
BLOCK_RECORD
  5
21
330
1
100
AcDbSymbolTableRecord
100
AcDbBlockTableRecord
  2
*D5
340
0
  0
ENDTAB
  0
ENDSEC
  0
SECTION
  2
BLOCKS
  0
BLOCK
  5
2A
330
17
100
AcDbEntity
  8
0
100
AcDbBlockBegin
  2
*MODEL_SPACE
 70
     0
 10
0.0
 20
0.0
 30
0.0
  3
*MODEL_SPACE
  1

  0
ENDBLK
  5
2B
330
17
100
AcDbEntity
  8
0
100
AcDbBlockEnd
  0
BLOCK
  5
28
330
14
100
AcDbEntity
 67
     1
  8
0
100
AcDbBlockBegin
  2
*PAPER_SPACE
 70
     0
 10
0.0
 20
0.0
 30
0.0
  3
*PAPER_SPACE
  1

  0
ENDBLK
  5
29
330
14
100
AcDbEntity
 67
     1
  8
0
100
AcDbBlockEnd
  0
BLOCK
  5
2E
330
1C
100
AcDbEntity
  8
0
100
AcDbBlockBegin
  2
*D0
 70
     1
 10
0.0
 20
0.0
 30
0.0
  3
*D0
  1

  0
LINE
  5
2F
330
1C
100
AcDbEntity
  8
0
  6
ByBlock
 62
     0
100
AcDbLine
 10
9.060860973432715
 20
5.374205753629133
 30
0.0
 11
7.459197432095281
 21
5.374205753629133
 31
0.0
  0
LINE
  5
30
330
1C
100
AcDbEntity
  8
0
  6
ByBlock
 62
     0
100
AcDbLine
 10
7.809080132026943
 20
6.438929217911166
 30
0.0
 11
7.459197432095281
 21
6.438929217911166
 31
0.0
  0
LINE
  5
31
330
1C
100
AcDbEntity
  8
0
  6
ByBlock
 62
     0
100
AcDbLine
 10
7.639197432095281
 20
5.374205753629133
 30
0.0
 11
7.639197432095281
 21
5.124205753629133
 31
0.0
  0
LINE
  5
32
330
1C
100
AcDbEntity
  8
0
  6
ByBlock
 62
     0
100
AcDbLine
 10
7.639197432095281
 20
6.438929217911166
 30
0.0
 11
7.639197432095281
 21
6.688929217911166
 31
0.0
  0
LINE
  5
33
330
1C
100
AcDbEntity
  8
0
  6
ByBlock
 62
     0
100
AcDbLine
 10
7.764197432095281
 20
5.249205753629133
 30
0.0
 11
7.514197432095281
 21
5.499205753629133
 31
0.0
  0
LINE
  5
34
330
1C
100
AcDbEntity
  8
0
  6
ByBlock
 62
     0
100
AcDbLine
 10
7.764197432095281
 20
6.313929217911166
 30
0.0
 11
7.514197432095281
 21
6.563929217911166
 31
0.0
  0
TEXT
  5
35
330
1C
100
AcDbEntity
  8
0
  6
ByBlock
 62
     0
100
AcDbText
 10
7.701697432095281
 20
6.813929217911166
 30
0.0
 40
0.125
  1
1 1/16
 50
90.0
 72
     1
 11
7.639197432095281
 21
7.105595884577833
 31
0.0
100
AcDbText
 73
     2
  0
POINT
  5
37
330
1C
100
AcDbEntity
  8
DEFPOINTS
  6
ByBlock
 62
     0
100
AcDbPoint
 10
9.123360973432715
 20
5.374205753629133
 30
0.0
  0
POINT
  5
38
330
1C
100
AcDbEntity
  8
DEFPOINTS
  6
ByBlock
 62
     0
100
AcDbPoint
 10
7.871580132026943
 20
6.438929217911166
 30
0.0
  0
POINT
  5
39
330
1C
100
AcDbEntity
  8
DEFPOINTS
  6
ByBlock
 62
     0
100
AcDbPoint
 10
7.639197432095281
 20
6.438929217911166
 30
0.0
  0
ENDBLK
  5
3A
330
1C
100
AcDbEntity
  8
0
100
AcDbBlockEnd
  0
BLOCK
  5
3B
330
1D
100
AcDbEntity
  8
0
100
AcDbBlockBegin
  2
*D1
 70
     1
 10
0.0
 20
0.0
 30
0.0
  3
*D1
  1

  0
LINE
  5
3C
330
1D
100
AcDbEntity
  8
0
  6
ByBlock
 62
     0
100
AcDbLine
 10
12.06944109459379
 20
6.514798201868385
 30
0.0
 11
12.06944109459379
 21
6.926124951159314
 31
0.0
  0
LINE
  5
3D
330
1D
100
AcDbEntity
  8
0
  6
ByBlock
 62
     0
100
AcDbLine
 10
12.82478868817667
 20
6.514798201868385
 30
0.0
 11
12.82478868817667
 21
6.926124951159314
 31
0.0
  0
LINE
  5
3E
330
1D
100
AcDbEntity
  8
0
  6
ByBlock
 62
     0
100
AcDbLine
 10
12.06944109459379
 20
6.746124951159314
 30
0.0
 11
11.81944109459379
 21
6.746124951159314
 31
0.0
  0
LINE
  5
3F
330
1D
100
AcDbEntity
  8
0
  6
ByBlock
 62
     0
100
AcDbLine
 10
12.82478868817667
 20
6.746124951159314
 30
0.0
 11
13.07478868817667
 21
6.746124951159314
 31
0.0
  0
LINE
  5
40
330
1D
100
AcDbEntity
  8
0
  6
ByBlock
 62
     0
100
AcDbLine
 10
11.94444109459379
 20
6.621124951159314
 30
0.0
 11
12.19444109459379
 21
6.871124951159314
 31
0.0
  0
LINE
  5
41
330
1D
100
AcDbEntity
  8
0
  6
ByBlock
 62
     0
100
AcDbLine
 10
12.69978868817667
 20
6.621124951159314
 30
0.0
 11
12.94978868817667
 21
6.871124951159314
 31
0.0
  0
TEXT
  5
42
330
1D
100
AcDbEntity
  8
0
  6
ByBlock
 62
     0
100
AcDbText
 10
13.19978868817667
 20
6.683624951159314
 30
0.0
 40
0.125
  1
3/4
 72
     1
 11
13.36645535484334
 21
6.746124951159314
 31
0.0
100
AcDbText
 73
     2
  0
POINT
  5
43
330
1D
100
AcDbEntity
  8
DEFPOINTS
  6
ByBlock
 62
     0
100
AcDbPoint
 10
12.06944109459379
 20
6.452298201868385
 30
0.0
  0
POINT
  5
44
330
1D
100
AcDbEntity
  8
DEFPOINTS
  6
ByBlock
 62
     0
100
AcDbPoint
 10
12.82478868817667
 20
6.452298201868385
 30
0.0
  0
POINT
  5
45
330
1D
100
AcDbEntity
  8
DEFPOINTS
  6
ByBlock
 62
     0
100
AcDbPoint
 10
12.82478868817667
 20
6.746124951159314
 30
0.0
  0
ENDBLK
  5
46
330
1D
100
AcDbEntity
  8
0
100
AcDbBlockEnd
  0
BLOCK
  5
47
330
1E
100
AcDbEntity
  8
0
100
AcDbBlockBegin
  2
*D2
 70
     1
 10
0.0
 20
0.0
 30
0.0
  3
*D2
  1

  0
LINE
  5
48
330
1E
100
AcDbEntity
  8
0
  6
ByBlock
 62
     0
100
AcDbLine
 10
7.871580132026943
 20
6.501429217911166
 30
0.0
 11
7.871580132026943
 21
6.926124951159314
 31
0.0
  0
LINE
  5
49
330
1E
100
AcDbEntity
  8
0
  6
ByBlock
 62
     0
100
AcDbLine
 10
10.37158013202694
 20
6.501429217911166
 30
0.0
 11
10.37158013202694
 21
6.926124951159314
 31
0.0
  0
LINE
  5
4A
330
1E
100
AcDbEntity
  8
0
  6
ByBlock
 62
     0
100
AcDbLine
 10
7.871580132026943
 20
6.746124951159314
 30
0.0
 11
8.725746798693609
 21
6.746124951159314
 31
0.0
  0
LINE
  5
4B
330
1E
100
AcDbEntity
  8
0
  6
ByBlock
 62
     0
100
AcDbLine
 10
10.37158013202694
 20
6.746124951159314
 30
0.0
 11
9.517413465360277
 21
6.746124951159314
 31
0.0
  0
LINE
  5
4C
330
1E
100
AcDbEntity
  8
0
  6
ByBlock
 62
     0
100
AcDbLine
 10
7.746580132026943
 20
6.621124951159314
 30
0.0
 11
7.996580132026943
 21
6.871124951159314
 31
0.0
  0
LINE
  5
4D
330
1E
100
AcDbEntity
  8
0
  6
ByBlock
 62
     0
100
AcDbLine
 10
10.24658013202694
 20
6.621124951159314
 30
0.0
 11
10.49658013202694
 21
6.871124951159314
 31
0.0
  0
TEXT
  5
4E
330
1E
100
AcDbEntity
  8
0
  6
ByBlock
 62
     0
100
AcDbText
 10
8.850746798693609
 20
6.683624951159314
 30
0.0
 40
0.125
  1
2 1/2
 72
     1
 11
9.121580132026943
 21
6.746124951159314
 31
0.0
100
AcDbText
 73
     2
  0
POINT
  5
4F
330
1E
100
AcDbEntity
  8
DEFPOINTS
  6
ByBlock
 62
     0
100
AcDbPoint
 10
7.871580132026943
 20
6.438929217911166
 30
0.0
  0
POINT
  5
50
330
1E
100
AcDbEntity
  8
DEFPOINTS
  6
ByBlock
 62
     0
100
AcDbPoint
 10
10.37158013202694
 20
6.438929217911166
 30
0.0
  0
POINT
  5
51
330
1E
100
AcDbEntity
  8
DEFPOINTS
  6
ByBlock
 62
     0
100
AcDbPoint
 10
10.37158013202694
 20
6.746124951159314
 30
0.0
  0
ENDBLK
  5
52
330
1E
100
AcDbEntity
  8
0
100
AcDbBlockEnd
  0
BLOCK
  5
53
330
1F
100
AcDbEntity
  8
0
100
AcDbBlockBegin
  2
*D3
 70
     1
 10
0.0
 20
0.0
 30
0.0
  3
*D3
  1

  0
LINE
  5
54
330
1F
100
AcDbEntity
  8
0
  6
ByBlock
 62
     0
100
AcDbLine
 10
12.88728868817667
 20
6.452298201868385
 30
0.0
 11
14.2249521520291
 21
6.452298201868385
 31
0.0
  0
LINE
  5
55
330
1F
100
AcDbEntity
  8
0
  6
ByBlock
 62
     0
100
AcDbLine
 10
13.21428077671959
 20
3.473744905041634
 30
0.0
 11
14.2249521520291
 21
3.473744905041634
 31
0.0
  0
LINE
  5
56
330
1F
100
AcDbEntity
  8
0
  6
ByBlock
 62
     0
100
AcDbLine
 10
14.04495215202909
 20
6.452298201868385
 30
0.0
 11
14.04495215202909
 21
5.129688220121677
 31
0.0
  0
LINE
  5
57
330
1F
100
AcDbEntity
  8
0
  6
ByBlock
 62
     0
100
AcDbLine
 10
14.04495215202909
 20
3.473744905041634
 30
0.0
 11
14.04495215202909
 21
4.796354886788343
 31
0.0
  0
LINE
  5
58
330
1F
100
AcDbEntity
  8
0
  6
ByBlock
 62
     0
100
AcDbLine
 10
14.16995215202909
 20
6.327298201868385
 30
0.0
 11
13.9199521520291
 21
6.577298201868385
 31
0.0
  0
LINE
  5
59
330
1F
100
AcDbEntity
  8
0
  6
ByBlock
 62
     0
100
AcDbLine
 10
14.16995215202909
 20
3.348744905041634
 30
0.0
 11
13.9199521520291
 21
3.598744905041634
 31
0.0
  0
TEXT
  5
5A
330
1F
100
AcDbEntity
  8
0
  6
ByBlock
 62
     0
100
AcDbText
 10
14.1074521520291
 20
4.921354886788343
 30
0.0
 40
0.125
  1
3
 50
90.0
 72
     1
 11
14.04495215202909
 21
4.96302155345501
 31
0.0
100
AcDbText
 73
     2
  0
POINT
  5
5B
330
1F
100
AcDbEntity
  8
DEFPOINTS
  6
ByBlock
 62
     0
100
AcDbPoint
 10
12.82478868817667
 20
6.452298201868385
 30
0.0
  0
POINT
  5
5C
330
1F
100
AcDbEntity
  8
DEFPOINTS
  6
ByBlock
 62
     0
100
AcDbPoint
 10
13.15178077671959
 20
3.473744905041634
 30
0.0
  0
POINT
  5
5D
330
1F
100
AcDbEntity
  8
DEFPOINTS
  6
ByBlock
 62
     0
100
AcDbPoint
 10
14.04495215202909
 20
3.473744905041634
 30
0.0
  0
ENDBLK
  5
5E
330
1F
100
AcDbEntity
  8
0
100
AcDbBlockEnd
  0
BLOCK
  5
5F
330
20
100
AcDbEntity
  8
0
100
AcDbBlockBegin
  2
*D4
 70
     1
 10
0.0
 20
0.0
 30
0.0
  3
*D4
  1

  0
LINE
  5
60
330
20
100
AcDbEntity
  8
0
  6
ByBlock
 62
     0
100
AcDbLine
 10
11.54044900605088
 20
4.676423959872122
 30
0.0
 11
11.54044900605088
 21
2.997925684238362
 31
0.0
  0
LINE
  5
61
330
20
100
AcDbEntity
  8
0
  6
ByBlock
 62
     0
100
AcDbLine
 10
13.35378077671959
 20
4.676423959872121
 30
0.0
 11
13.35378077671959
 21
2.997925684238362
 31
0.0
  0
LINE
  5
62
330
20
100
AcDbEntity
  8
0
  6
ByBlock
 62
     0
100
AcDbLine
 10
11.54044900605088
 20
3.177925684238362
 30
0.0
 11
12.1137815580519
 21
3.177925684238362
 31
0.0
  0
LINE
  5
63
330
20
100
AcDbEntity
  8
0
  6
ByBlock
 62
     0
100
AcDbLine
 10
13.35378077671959
 20
3.177925684238362
 30
0.0
 11
12.78044822471857
 21
3.177925684238362
 31
0.0
  0
LINE
  5
64
330
20
100
AcDbEntity
  8
0
  6
ByBlock
 62
     0
100
AcDbLine
 10
11.41544900605087
 20
3.052925684238362
 30
0.0
 11
11.66544900605088
 21
3.302925684238362
 31
0.0
  0
LINE
  5
65
330
20
100
AcDbEntity
  8
0
  6
ByBlock
 62
     0
100
AcDbLine
 10
13.22878077671959
 20
3.052925684238362
 30
0.0
 11
13.47878077671959
 21
3.302925684238362
 31
0.0
  0
TEXT
  5
66
330
20
100
AcDbEntity
  8
0
  6
ByBlock
 62
     0
100
AcDbText
 10
12.2387815580519
 20
3.115425684238362
 30
0.0
 40
0.125
  1
1.900
 72
     1
 11
12.44711489138523
 21
3.177925684238362
 31
0.0
100
AcDbText
 73
     2
  0
POINT
  5
67
330
20
100
AcDbEntity
  8
DEFPOINTS
  6
ByBlock
 62
     0
100
AcDbPoint
 10
11.54044900605088
 20
4.738923959872122
 30
0.0
  0
POINT
  5
68
330
20
100
AcDbEntity
  8
DEFPOINTS
  6
ByBlock
 62
     0
100
AcDbPoint
 10
13.35378077671959
 20
4.738923959872121
 30
0.0
  0
POINT
  5
69
330
20
100
AcDbEntity
  8
DEFPOINTS
  6
ByBlock
 62
     0
100
AcDbPoint
 10
13.35378077671959
 20
3.177925684238362
 30
0.0
  0
ENDBLK
  5
6A
330
20
100
AcDbEntity
  8
0
100
AcDbBlockEnd
  0
BLOCK
  5
6B
330
21
100
AcDbEntity
  8
0
100
AcDbBlockBegin
  2
*D5
 70
     1
 10
0.0
 20
0.0
 30
0.0
  3
*D5
  1

  0
LINE
  5
6C
330
21
100
AcDbEntity
  8
0
  6
ByBlock
 62
     0
100
AcDbLine
 10
8.197529202763998
 20
4.751429217911166
 30
0.0
 11
7.44930567505205
 21
4.751429217911166
 31
0.0
  0
LINE
  5
6D
330
21
100
AcDbEntity
  8
0
  6
ByBlock
 62
     0
100
AcDbLine
 10
8.399529202763998
 20
3.486250163080678
 30
0.0
 11
7.44930567505205
 21
3.486250163080678
 31
0.0
  0
LINE
  5
6E
330
21
100
AcDbEntity
  8
0
  6
ByBlock
 62
     0
100
AcDbLine
 10
7.62930567505205
 20
4.751429217911166
 30
0.0
 11
7.62930567505205
 21
4.493839690495922
 31
0.0
  0
LINE
  5
6F
330
21
100
AcDbEntity
  8
0
  6
ByBlock
 62
     0
100
AcDbLine
 10
7.62930567505205
 20
3.486250163080678
 30
0.0
 11
7.62930567505205
 21
3.743839690495922
 31
0.0
  0
LINE
  5
70
330
21
100
AcDbEntity
  8
0
  6
ByBlock
 62
     0
100
AcDbLine
 10
7.75430567505205
 20
4.626429217911166
 30
0.0
 11
7.50430567505205
 21
4.876429217911166
 31
0.0
  0
LINE
  5
71
330
21
100
AcDbEntity
  8
0
  6
ByBlock
 62
     0
100
AcDbLine
 10
7.75430567505205
 20
3.361250163080678
 30
0.0
 11
7.50430567505205
 21
3.611250163080678
 31
0.0
  0
TEXT
  5
72
330
21
100
AcDbEntity
  8
0
  6
ByBlock
 62
     0
100
AcDbText
 10
7.69180567505205
 20
3.868839690495922
 30
0.0
 40
0.125
  1
1 1/4
 50
90.0
 72
     1
 11
7.62930567505205
 21
4.118839690495922
 31
0.0
100
AcDbText
 73
     2
  0
POINT
  5
73
330
21
100
AcDbEntity
  8
DEFPOINTS
  6
ByBlock
 62
     0
100
AcDbPoint
 10
8.260029202763998
 20
4.751429217911166
 30
0.0
  0
POINT
  5
74
330
21
100
AcDbEntity
  8
DEFPOINTS
  6
ByBlock
 62
     0
100
AcDbPoint
 10
8.462029202763998
 20
3.486250163080678
 30
0.0
  0
POINT
  5
75
330
21
100
AcDbEntity
  8
DEFPOINTS
  6
ByBlock
 62
     0
100
AcDbPoint
 10
7.62930567505205
 20
3.486250163080678
 30
0.0
  0
ENDBLK
  5
76
330
21
100
AcDbEntity
  8
0
100
AcDbBlockEnd
  0
ENDSEC
  0
SECTION
  2
ENTITIES
  0
DIMENSION
  5
77
330
17
100
AcDbEntity
  8
ADPDIM
100
AcDbDimension
  2
*D3
 10
14.04495215202909
 20
3.473744905041634
 30
0.0
 11
14.04495215202909
 21
4.96302155345501
 31
0.0
 71
     5
 42
-1.0
100
AcDbAlignedDimension
 13
12.82478868817667
 23
6.452298201868385
 33
0.0
 14
13.15178077671959
 24
3.473744905041634
 34
0.0
 50
90.0
100
AcDbRotatedDimension
  0
DIMENSION
  5
78
330
17
100
AcDbEntity
  8
ADPDIM
100
AcDbDimension
  2
*D0
 10
7.639197432095281
 20
6.438929217911166
 30
0.0
 11
7.639197432095281
 21
7.105595884577833
 31
0.0
 71
     5
 42
-1.0
100
AcDbAlignedDimension
 13
9.123360973432715
 23
5.374205753629133
 33
0.0
 14
7.871580132026943
 24
6.438929217911166
 34
0.0
 50
90.0
100
AcDbRotatedDimension
  0
LINE
  5
79
330
17
100
AcDbEntity
  8
ADP1DETAIL
 62
     7
100
AcDbLine
 10
9.495911682829083
 20
5.995265494493681
 30
0.0
 11
9.495911682829083
 21
5.757111036092983
 31
0.0
  0
LINE
  5
7A
330
17
100
AcDbEntity
  8
ADP1DETAIL
 62
     7
100
AcDbLine
 10
9.308745907428013
 20
5.750426544114375
 30
0.0
 11
9.308745907428013
 21
6.438929217911166
 31
0.0
  0
LINE
  5
7B
330
17
100
AcDbEntity
  8
ADP1DETAIL
 62
     7
100
AcDbLine
 10
9.308745907428013
 20
5.750426544114375
 30
0.0
 11
9.308745907428013
 21
6.465667185825603
 31
0.0
  0
LINE
  5
7C
330
17
100
AcDbEntity
  8
ADP1DETAIL
 62
     7
100
AcDbLine
 10
8.747248581224804
 20
5.750426544114375
 30
0.0
 11
8.747248581224804
 21
5.995265494493681
 31
0.0
  0
LINE
  5
7D
330
17
100
AcDbEntity
  8
ADP1DETAIL
 62
     7
100
AcDbLine
 10
8.934414356625874
 20
6.438929217911166
 30
0.0
 11
8.934414356625874
 21
5.763795528071593
 31
0.0
  0
LINE
  5
7E
330
17
100
AcDbEntity
  8
ADP1DETAIL
 62
     7
100
AcDbLine
 10
8.934414356625874
 20
6.465667185825603
 30
0.0
 11
8.934414356625874
 21
5.763795528071593
 31
0.0
  0
LINE
  5
7F
330
17
100
AcDbEntity
  8
ADP1DETAIL
 62
     7
100
AcDbLine
 10
12.82478868817667
 20
5.015132426467316
 30
0.0
 11
12.82478868817667
 21
6.452298201868385
 31
0.0
  0
LINE
  5
80
330
17
100
AcDbEntity
  8
ADP1DETAIL
 62
     7
100
AcDbLine
 10
12.06944109459379
 20
6.452298201868385
 30
0.0
 11
12.06944109459379
 21
5.015132426467316
 31
0.0
  0
DIMENSION
  5
81
330
17
100
AcDbEntity
  8
ADPDIM
100
AcDbDimension
  2
*D4
 10
13.35378077671959
 20
3.177925684238362
 30
0.0
 11
12.44711489138523
 21
3.177925684238362
 31
0.0
  1
1.900
 71
     5
 42
-1.0
100
AcDbAlignedDimension
 13
11.54044900605088
 23
4.738923959872122
 33
0.0
 14
13.35378077671959
 24
4.738923959872121
 34
0.0
100
AcDbRotatedDimension
  0
LINE
  5
82
330
17
100
AcDbEntity
  8
ADP1DETAIL
 62
     7
100
AcDbLine
 10
11.68044900605088
 20
3.535744905041634
 30
0.0
 11
13.21378077671959
 21
3.535744905041635
 31
0.0
  0
LINE
  5
83
330
17
100
AcDbEntity
  8
ADP2DETAIL
  6
HIDDEN2
100
AcDbLine
 10
11.54044900605088
 20
5.563260768713305
 30
0.0
 11
13.35378077671959
 21
5.563260768713305
 31
0.0
  0
LINE
  5
84
330
17
100
AcDbEntity
  8
ADP2DETAIL
  6
HIDDEN2
100
AcDbLine
 10
11.54044900605088
 20
5.188929217911166
 30
0.0
 11
13.35378077671959
 21
5.188929217911166
 31
0.0
  0
LINE
  5
85
330
17
100
AcDbEntity
  8
ADP1DETAIL
 62
     7
100
AcDbLine
 10
11.54044900605088
 20
4.738923959872122
 30
0.0
 11
13.35378077671959
 21
4.738923959872121
 31
0.0
  0
LINE
  5
86
330
17
100
AcDbEntity
  8
ADP1DETAIL
 62
     7
100
AcDbLine
 10
11.74244900605088
 20
3.473744905041634
 30
0.0
 11
13.15178077671959
 21
3.473744905041634
 31
0.0
  0
LINE
  5
87
330
17
100
AcDbEntity
  8
ADP1DETAIL
 62
     7
100
AcDbLine
 10
13.35378077671959
 20
5.737921286075332
 30
0.0
 11
11.54044900605088
 21
5.73792128607533
 31
0.0
  0
LINE
  5
88
330
17
100
AcDbEntity
  8
ADP1DETAIL
 62
     7
100
AcDbLine
 10
12.06944109459379
 20
5.015132426467316
 30
0.0
 11
12.82478868817667
 21
5.015132426467316
 31
0.0
  0
LINE
  5
89
330
17
100
AcDbEntity
  8
ADP1DETAIL
 62
     7
100
AcDbLine
 10
12.83147318015528
 20
4.934918522724
 30
0.0
 11
12.06275660261518
 21
4.934918522724
 31
0.0
  0
LINE
  5
8A
330
17
100
AcDbEntity
  8
ADP1DETAIL
 62
     7
100
AcDbLine
 10
8.400029202763999
 20
3.548250163080678
 30
0.0
 11
9.933360973432712
 21
3.548250163080679
 31
0.0
  0
LINE
  5
8B
330
17
100
AcDbEntity
  8
ADP1DETAIL
 62
     7
100
AcDbLine
 10
10.07336097343271
 20
5.750426544114376
 30
0.0
 11
8.260029202763998
 21
5.750426544114374
 31
0.0
  0
LINE
  5
8C
330
17
100
AcDbEntity
  8
ADP1DETAIL
 62
     7
100
AcDbLine
 10
8.462029202763998
 20
3.486250163080678
 30
0.0
 11
9.871360973432713
 21
3.486250163080678
 31
0.0
  0
LINE
  5
8D
330
17
100
AcDbEntity
  8
ADP1DETAIL
 62
     7
100
AcDbLine
 10
8.260029202763998
 20
4.751429217911166
 30
0.0
 11
10.07336097343271
 21
4.751429217911165
 31
0.0
  0
LINE
  5
8E
330
17
100
AcDbEntity
  8
ADP2DETAIL
  6
HIDDEN2
100
AcDbLine
 10
10.07336097343271
 20
4.934918522724
 30
0.0
 11
8.260029202763998
 21
4.934918522724
 31
0.0
  0
DIMENSION
  5
8F
330
17
100
AcDbEntity
  8
ADPDIM
100
AcDbDimension
  2
*D5
 10
7.62930567505205
 20
3.486250163080678
 30
0.0
 11
7.62930567505205
 21
4.118839690495922
 31
0.0
 71
     5
 42
-1.0
100
AcDbAlignedDimension
 13
8.260029202763998
 23
4.751429217911166
 33
0.0
 14
8.462029202763998
 24
3.486250163080678
 34
0.0
 50
90.0
100
AcDbRotatedDimension
  0
LINE
  5
90
330
17
100
AcDbEntity
  8
ADP1DETAIL
 62
     7
100
AcDbLine
 10
8.400029202763999
 20
3.548250163080678
 30
0.0
 11
8.400029202763999
 21
4.751429217911166
 31
0.0
  0
LWPOLYLINE
  5
92
330
17
100
AcDbEntity
  8
ADP2DETAIL
  6
HIDDEN2
100
AcDbPolyline
 90
        4
 70
     0
 43
0.0
 10
8.751107133980136
 20
5.746134436568679
 10
8.751107133980136
 20
5.297782047271511
 42
0.8214597401204796
 10
9.495614812885291
 20
5.318161700828885
 10
9.495614812885291
 20
5.746134436568679
  0
LINE
  5
98
330
17
100
AcDbEntity
  8
ADP1DETAIL
 62
     7
100
AcDbLine
 10
8.260029202763998
 20
4.751429217911166
 30
0.0
 11
8.260029202763998
 21
5.750426544114374
 31
0.0
  0
CIRCLE
  5
99
330
17
100
AcDbEntity
  8
ADP2DETAIL
  6
HIDDEN2
100
AcDbCircle
 10
9.123360973432715
 20
5.374205753629133
 30
0.0
 40
0.1885807590099206
  0
LINE
  5
9A
330
17
100
AcDbEntity
  8
ADP2DETAIL
  6
HIDDEN2
100
AcDbLine
 10
8.934414356625874
 20
5.763795528071593
 30
0.0
 11
8.934414356625874
 21
5.46299338903416
 31
0.0
  0
LINE
  5
9B
330
17
100
AcDbEntity
  8
ADP2DETAIL
  6
HIDDEN2
100
AcDbLine
 10
9.308745907428013
 20
5.46299338903416
 30
0.0
 11
9.308745907428013
 21
5.750426544114375
 31
0.0
  0
LINE
  5
9C
330
17
100
AcDbEntity
  8
ADP1DETAIL
 62
     7
100
AcDbLine
 10
9.933360973432712
 20
3.548250163080678
 30
0.0
 11
9.933360973432716
 21
4.751429217911164
 31
0.0
  0
LINE
  5
9E
330
17
100
AcDbEntity
  8
ADP1DETAIL
 62
     7
100
AcDbLine
 10
10.07336097343271
 20
4.751429217911165
 30
0.0
 11
10.07336097343271
 21
5.750426544114376
 31
0.0
  0
LINE
  5
9F
330
17
100
AcDbEntity
  8
ADP1DETAIL
 62
     7
100
AcDbLine
 10
9.609548046465446
 20
5.750426544114375
 30
0.0
 11
9.609548046465446
 21
5.750426544114375
 31
0.0
  0
LINE
  5
A0
330
17
100
AcDbEntity
  8
ADP1DETAIL
 62
     7
100
AcDbLine
 10
11.68044900605088
 20
3.535744905041634
 30
0.0
 11
11.68044900605088
 21
4.738923959872122
 31
0.0
  0
LINE
  5
A2
330
17
100
AcDbEntity
  8
ADP1DETAIL
 62
     7
100
AcDbLine
 10
11.54044900605088
 20
4.738923959872122
 30
0.0
 11
11.54044900605088
 21
5.73792128607533
 31
0.0
  0
LINE
  5
A3
330
17
100
AcDbEntity
  8
ADP1DETAIL
 62
     7
100
AcDbLine
 10
12.06275660261518
 20
4.934918522724
 30
0.0
 11
12.06275660261518
 21
5.750426544114375
 31
0.0
  0
LINE
  5
A4
330
17
100
AcDbEntity
  8
ADP1DETAIL
 62
     7
100
AcDbLine
 10
13.21378077671959
 20
3.535744905041634
 30
0.0
 11
13.21378077671959
 21
4.73892395987212
 31
0.0
  0
LINE
  5
A6
330
17
100
AcDbEntity
  8
ADP1DETAIL
 62
     7
100
AcDbLine
 10
12.81810419619807
 20
4.738923959872122
 30
0.0
 11
13.27264965074352
 21
4.738923959872122
 31
0.0
  0
LINE
  5
A7
330
17
100
AcDbEntity
  8
ADP1DETAIL
 62
     7
100
AcDbLine
 10
12.83147318015528
 20
5.750426544114375
 30
0.0
 11
12.83147318015528
 21
4.934918522724
 31
0.0
  0
LINE
  5
A8
330
17
100
AcDbEntity
  8
ADP1DETAIL
 62
     7
100
AcDbLine
 10
12.83147318015528
 20
5.750426544114375
 30
0.0
 11
12.83147318015528
 21
5.750426544114375
 31
0.0
  0
LINE
  5
A9
330
17
100
AcDbEntity
  8
ADP1DETAIL
 62
     7
100
AcDbLine
 10
13.35378077671959
 20
4.738923959872121
 30
0.0
 11
13.35378077671959
 21
5.737921286075332
 31
0.0
  0
LINE
  5
AA
330
17
100
AcDbEntity
  8
ADP1DETAIL
 62
     7
100
AcDbLine
 10
12.82478868817667
 20
6.258447934488705
 30
0.0
 11
12.08281007855101
 21
6.258447934488705
 31
0.0
  0
LINE
  5
AB
330
17
100
AcDbEntity
  8
ADP1DETAIL
 62
     7
100
AcDbLine
 10
12.82478868817667
 20
6.452298201868385
 30
0.0
 11
12.06944109459379
 21
6.452298201868385
 31
0.0
  0
DIMENSION
  5
AC
330
17
100
AcDbEntity
  8
ADPDIM
100
AcDbDimension
  2
*D1
 10
12.82478868817667
 20
6.746124951159314
 30
0.0
 11
13.36645535484334
 21
6.746124951159314
 31
0.0
 71
     5
 42
-1.0
100
AcDbAlignedDimension
 13
12.06944109459379
 23
6.452298201868385
 33
0.0
 14
12.82478868817667
 24
6.452298201868385
 34
0.0
100
AcDbRotatedDimension
  0
DIMENSION
  5
AD
330
17
100
AcDbEntity
  8
ADPDIM
100
AcDbDimension
  2
*D2
 10
10.37158013202694
 20
6.746124951159314
 30
0.0
 11
9.121580132026943
 21
6.746124951159314
 31
0.0
 71
     5
 42
-1.0
100
AcDbAlignedDimension
 13
7.871580132026943
 23
6.438929217911166
 33
0.0
 14
10.37158013202694
 24
6.438929217911166
 34
0.0
100
AcDbRotatedDimension
  0
LINE
  5
AE
330
17
100
AcDbEntity
  8
ADP1DETAIL
 62
     7
100
AcDbLine
 10
9.308745907428013
 20
6.438929217911166
 30
0.0
 11
10.37158013202694
 21
6.438929217911166
 31
0.0
  0
ARC
  5
AF
330
17
100
AcDbEntity
  8
ADP1DETAIL
 62
     7
100
AcDbCircle
 10
9.7524096308455
 20
5.995265494493681
 30
0.0
 40
0.2564979480164158
100
AcDbArc
 50
90.0
 51
180.0
  0
LINE
  5
B0
330
17
100
AcDbEntity
  8
ADP2DETAIL
  6
HIDDEN2
100
AcDbLine
 10
8.212489222936037
 20
6.311923870317583
 30
0.0
 11
8.152328795128548
 21
6.251763442510097
 31
0.0
  0
LINE
  5
B1
330
17
100
AcDbEntity
  8
ADP1DETAIL
 62
     7
100
AcDbLine
 10
7.871580132026943
 20
6.438929217911166
 30
0.0
 11
8.934414356625874
 21
6.438929217911166
 31
0.0
  0
LINE
  5
B2
330
17
100
AcDbEntity
  8
ADP1DETAIL
 62
     7
100
AcDbLine
 10
8.49075063320839
 20
6.251763442510097
 30
0.0
 11
7.871580132026943
 21
6.251763442510097
 31
0.0
  0
LINE
  5
B3
330
17
100
AcDbEntity
  8
ADP1DETAIL
 62
     7
100
AcDbLine
 10
7.871580132026943
 20
6.251763442510097
 30
0.0
 11
7.871580132026943
 21
6.438929217911166
 31
0.0
  0
ARC
  5
B4
330
17
100
AcDbEntity
  8
ADP1DETAIL
 62
     7
100
AcDbCircle
 10
8.49075063320839
 20
5.995265494493681
 30
0.0
 40
0.2564979480164158
100
AcDbArc
 50
0.0
 51
90.0
  0
LINE
  5
B5
330
17
100
AcDbEntity
  8
ADP2DETAIL
  6
HIDDEN2
100
AcDbLine
 10
8.212489222936037
 20
6.432244725932555
 30
0.0
 11
8.212489222936037
 21
6.311923870317583
 31
0.0
  0
LINE
  5
B6
330
17
100
AcDbEntity
  8
ADP2DETAIL
  6
HIDDEN2
100
AcDbLine
 10
8.406339490315717
 20
6.432244725932555
 30
0.0
 11
8.406339490315717
 21
6.311923870317583
 31
0.0
  0
LINE
  5
B7
330
17
100
AcDbEntity
  8
ADP2DETAIL
  6
HIDDEN2
100
AcDbLine
 10
8.406339490315717
 20
6.311923870317583
 30
0.0
 11
8.459815426144588
 21
6.251763442510097
 31
0.0
  0
LINE
  5
B8
330
17
100
AcDbEntity
  8
ADP1DETAIL
 62
     7
100
AcDbLine
 10
9.308745907428013
 20
6.465667185825603
 30
0.0
 11
8.934414356625874
 21
6.465667185825603
 31
0.0
  0
LINE
  5
B9
330
17
100
AcDbEntity
  8
ADP1DETAIL
 62
     7
100
AcDbLine
 10
10.37158013202694
 20
6.251763442510097
 30
0.0
 11
9.7524096308455
 21
6.251763442510097
 31
0.0
  0
LINE
  5
BA
330
17
100
AcDbEntity
  8
ADP2DETAIL
  6
HIDDEN2
100
AcDbLine
 10
9.843505265716784
 20
6.432244725932555
 30
0.0
 11
9.843505265716784
 21
6.311923870317583
 31
0.0
  0
LINE
  5
BB
330
17
100
AcDbEntity
  8
ADP2DETAIL
  6
HIDDEN2
100
AcDbLine
 10
9.843505265716784
 20
6.311923870317583
 30
0.0
 11
9.776660345930688
 21
6.251763442510097
 31
0.0
  0
LINE
  5
BC
330
17
100
AcDbEntity
  8
ADP2DETAIL
  6
HIDDEN2
100
AcDbLine
 10
10.03067104111785
 20
6.432244725932555
 30
0.0
 11
10.03067104111785
 21
6.311923870317583
 31
0.0
  0
LINE
  5
BD
330
17
100
AcDbEntity
  8
ADP2DETAIL
  6
HIDDEN2
100
AcDbLine
 10
10.03067104111785
 20
6.311923870317583
 30
0.0
 11
10.09083146892534
 21
6.251763442510097
 31
0.0
  0
LINE
  5
BE
330
17
100
AcDbEntity
  8
ADP1DETAIL
 62
     7
100
AcDbLine
 10
10.37158013202694
 20
6.438929217911166
 30
0.0
 11
10.37158013202694
 21
6.251763442510097
 31
0.0
  0
LINE
  5
BF
330
17
100
AcDbEntity
  8
ADP1DETAIL
 62
     7
100
AcDbLine
 10
12.06944109459379
 20
6.452298201868385
 30
0.0
 11
12.06944109459379
 21
6.452298201868385
 31
0.0
  0
LINE
  5
C0
330
17
100
AcDbEntity
  8
ADP2DETAIL
  6
HIDDEN2
100
AcDbLine
 10
12.356874249674
 20
6.318608362296192
 30
0.0
 11
12.29002932988791
 21
6.258447934488705
 31
0.0
  0
LINE
  5
C1
330
17
100
AcDbEntity
  8
ADP2DETAIL
  6
HIDDEN2
100
AcDbLine
 10
12.356874249674
 20
6.445613709889775
 30
0.0
 11
12.356874249674
 21
6.318608362296192
 31
0.0
  0
LINE
  5
C2
330
17
100
AcDbEntity
  8
ADP2DETAIL
  6
HIDDEN2
100
AcDbLine
 10
12.54404002507507
 20
6.318608362296192
 30
0.0
 11
12.60420045288256
 21
6.258447934488705
 31
0.0
  0
LINE
  5
C3
330
17
100
AcDbEntity
  8
ADP2DETAIL
  6
HIDDEN2
100
AcDbLine
 10
12.54404002507507
 20
6.445613709889775
 30
0.0
 11
12.54404002507507
 21
6.318608362296192
 31
0.0
  0
TEXT
  5
CD
330
17
100
AcDbEntity
  8
ADPDIM
100
AcDbText
 10
4.344797233939085
 20
1.981771676382058
 30
0.0
 40
0.125
  1
J U L I U S  B L U M  &  C O . ,  I N C .      ( 8 0 0 )  5 2 6 - 6 2 9 3        W W W . J U L I U S B L U M . C O M        P A R T  N O .  1 4 5
 41
1.25
  7
ARIAL_WIDE
 72
     1
 11
10.80369900747251
 21
2.106771676382058
 31
0.0
100
AcDbText
 73
     3
  0
ARC
  5
209
330
17
100
AcDbEntity
  8
ADP1DETAIL
100
AcDbCircle
 10
11.74694251671656
 20
3.540238415707323
 30
0.0
 40
0.0666451693579571
100
AcDbArc
 50
183.8660666535942
 51
266.1339333464058
  0
ARC
  5
20A
330
17
100
AcDbEntity
  8
ADP1DETAIL
100
AcDbCircle
 10
13.14049404484798
 20
3.547031636913244
 30
0.0
 40
0.0741507611880209
100
AcDbArc
 50
278.7552122364929
 51
351.2447877635056
  0
ARC
  5
20C
330
17
100
AcDbEntity
  8
ADP1DETAIL
100
AcDbCircle
 10
8.472719987892483
 20
3.558940948209165
 30
0.0
 40
0.0734727373197652
100
AcDbArc
 50
188.36662970972
 51
261.6333702902812
  0
ARC
  5
20D
330
17
100
AcDbEntity
  8
ADP1DETAIL
100
AcDbCircle
 10
9.859948711436704
 20
3.559662425076689
 30
0.0
 40
0.0742940100898884
100
AcDbArc
 50
278.8361577926884
 51
351.16384220731
  0
ENDSEC
  0
SECTION
  2
OBJECTS
  0
DICTIONARY
  5
C
330
0
100
AcDbDictionary
281
     1
  3
ACAD_COLOR
350
1D0
  3
ACAD_GROUP
350
D
  3
ACAD_LAYOUT
350
D2
  3
ACAD_MATERIAL
350
1BB
  3
ACAD_MLINESTYLE
350
1A
  3
ACAD_PLOTSETTINGS
350
D3
  3
ACAD_PLOTSTYLENAME
350
D0
  3
ACAD_TABLESTYLE
350
1D1
  3
ACAD_VISUALSTYLE
350
1BF
  3
ACDBVARIABLEDICTIONARY
350
2C
  3
DWGPROPS
350
20E
  0
DICTIONARY
  5
FF
330
17
100
AcDbDictionary
280
     1
281
     1
  3
ACAD_LAYOUTSELFREF
360
1B5
  0
DICTIONARY
  5
FD
330
14
100
AcDbDictionary
280
     1
281
     1
  3
ACAD_LAYOUTSELFREF
360
1B4
  0
DICTIONARY
  5
1D0
102
{ACAD_REACTORS
330
C
102
}
330
C
100
AcDbDictionary
281
     1
  0
DICTIONARY
  5
D
102
{ACAD_REACTORS
330
C
102
}
330
C
100
AcDbDictionary
281
     1
  0
DICTIONARY
  5
D2
102
{ACAD_REACTORS
330
C
102
}
330
C
100
AcDbDictionary
281
     1
  3
Layout1
350
D5
  3
Model
350
D4
  0
DICTIONARY
  5
1BB
102
{ACAD_REACTORS
330
C
102
}
330
C
100
AcDbDictionary
281
     1
  3
ByBlock
350
1BD
  3
ByLayer
350
1BC
  3
Global
350
1BE
  0
DICTIONARY
  5
1A
102
{ACAD_REACTORS
330
C
102
}
330
C
100
AcDbDictionary
281
     1
  3
STANDARD
350
1B
  0
DICTIONARY
  5
D3
102
{ACAD_REACTORS
330
C
102
}
330
C
100
AcDbDictionary
281
     1
  0
ACDBDICTIONARYWDFLT
  5
D0
102
{ACAD_REACTORS
330
C
102
}
330
C
100
AcDbDictionary
281
     1
  3
Normal
350
D1
100
AcDbDictionaryWithDefault
340
D1
  0
DICTIONARY
  5
1D1
102
{ACAD_REACTORS
330
C
102
}
330
C
100
AcDbDictionary
281
     1
  3
Standard
350
1D2
  0
DICTIONARY
  5
1BF
102
{ACAD_REACTORS
330
C
102
}
330
C
100
AcDbDictionary
281
     1
  3
2dWireframe
350
1C5
  3
3D Hidden
350
1C7
  3
3dWireframe
350
1C6
  3
Basic
350
1C4
  3
Brighten
350
1CB
  3
ColorChange
350
1CF
  3
Conceptual
350
1C8
  3
Dim
350
1CA
  3
Facepattern
350
1CE
  3
Flat
350
1C0
  3
FlatWithEdges
350
1C1
  3
Gouraud
350
1C2
  3
GouraudWithEdges
350
1C3
  3
Linepattern
350
1CD
  3
Realistic
350
1C9
  3
Thicken
350
1CC
  0
DICTIONARY
  5
2C
102
{ACAD_REACTORS
330
C
102
}
330
C
100
AcDbDictionary
281
     1
  3
CTABLESTYLE
350
1F2
  3
DIMADEC
350
2D
  3
DIMASSOC
350
105
  3
INDEXCTL
350
1F4
  3
SORTENTS
350
1F3
  0
XRECORD
  5
20E
102
{ACAD_REACTORS
330
C
102
}
330
C
100
AcDbXrecord
280
     1
  1
DWGPROPS COOKIE
  2

  3

  4

  6

  7

  8
Yu Hu
  9

300
=
301
=
302
=
303
=
304
=
305
=
306
=
307
=
308
=
309
=
 40
0.0053655324074074
 41
2450242.516729549
 42
2453944.926781701
  1

 90
        0
  0
XRECORD
  5
1B5
102
{ACAD_REACTORS
330
FF
102
}
330
FF
100
AcDbXrecord
280
     1
340
17
  0
XRECORD
  5
1B4
102
{ACAD_REACTORS
330
FD
102
}
330
FD
100
AcDbXrecord
280
     1
340
14
  0
LAYOUT
  5
D5
102
{ACAD_XDICTIONARY
360
211
102
}
102
{ACAD_REACTORS
330
D2
102
}
330
D2
100
AcDbPlotSettings
  1

  2
Fax
  4

  6

 40
0.0
 41
0.0
 42
0.0
 43
0.0
 44
0.0
 45
0.0
 46
0.0
 47
0.0
 48
0.0
 49
0.0
140
0.0
141
0.0
142
1.0
143
1.0
 70
   688
 72
     0
 73
     0
 74
     5
  7
Default R14 pen assignments.ctb
 75
    16
147
1.0
148
0.0
149
0.0
100
AcDbLayout
  1
Layout1
 70
     1
 71
     1
 10
0.0
 20
0.0
 11
12.0
 21
9.0
 12
0.0004882961511612
 22
1.000276130627782
 32
0.0
 14
1.000000000000000E+20
 24
1.000000000000000E+20
 34
1.000000000000000E+20
 15
-1.000000000000000E+20
 25
-1.000000000000000E+20
 35
-1.000000000000000E+20
146
0.0
 13
0.0
 23
0.0
 33
0.0
 16
1.0
 26
0.0
 36
0.0
 17
0.0
 27
1.0
 37
0.0
 76
     0
330
14
  0
LAYOUT
  5
D4
102
{ACAD_XDICTIONARY
360
20F
102
}
102
{ACAD_REACTORS
330
D2
102
}
330
D2
100
AcDbPlotSettings
  1

  2
Fax
  4

  6

 40
0.0
 41
0.0
 42
0.0
 43
0.0
 44
0.0
 45
0.0
 46
0.0
 47
0.0
 48
0.0
 49
0.0
140
0.0
141
0.0
142
1.0
143
1.0
 70
  1712
 72
     0
 73
     0
 74
     0
  7
Default R14 pen assignments.ctb
 75
     0
147
1.0
148
0.0
149
0.0
100
AcDbLayout
  1
Model
 70
     1
 71
     0
 10
0.0
 20
0.0
 11
12.0
 21
9.0
 12
0.0
 22
0.0
 32
0.0
 14
0.0
 24
0.0
 34
0.0
 15
0.0
 25
0.0
 35
0.0
146
0.0
 13
0.0
 23
0.0
 33
0.0
 16
1.0
 26
0.0
 36
0.0
 17
0.0
 27
1.0
 37
0.0
 76
     0
330
17
331
190
  0
MATERIAL
  5
1BD
102
{ACAD_XDICTIONARY
360
215
102
}
102
{ACAD_REACTORS
330
1BB
102
}
330
1BB
100
AcDbMaterial
  1
ByBlock
  0
MATERIAL
  5
1BC
102
{ACAD_XDICTIONARY
360
213
102
}
102
{ACAD_REACTORS
330
1BB
102
}
330
1BB
100
AcDbMaterial
  1
ByLayer
  0
MATERIAL
  5
1BE
102
{ACAD_XDICTIONARY
360
217
102
}
102
{ACAD_REACTORS
330
1BB
102
}
330
1BB
100
AcDbMaterial
  1
Global
  0
MLINESTYLE
  5
1B
102
{ACAD_REACTORS
330
1A
102
}
330
1A
100
AcDbMlineStyle
  2
STANDARD
 70
     0
  3

 62
   256
 51
90.0
 52
90.0
 71
     2
 49
0.5
 62
   256
  6
BYLAYER
 49
-0.5
 62
   256
  6
BYLAYER
  0
ACDBPLACEHOLDER
  5
D1
102
{ACAD_REACTORS
330
D0
102
}
330
D0
  0
TABLESTYLE
  5
1D2
102
{ACAD_XDICTIONARY
360
219
102
}
102
{ACAD_REACTORS
330
1D1
102
}
330
1D1
100
AcDbTableStyle
  3
Standard
 70
     0
 71
     0
 40
0.06
 41
0.06
280
     0
281
     0
  7
STANDARD
140
0.18
170
     2
 62
     0
 63
     7
283
     0
274
    -2
284
     1
 64
     0
275
    -2
285
     1
 65
     0
276
    -2
286
     1
 66
     0
277
    -2
287
     1
 67
     0
278
    -2
288
     1
 68
     0
279
    -2
289
     1
 69
     0
  7
STANDARD
140
0.25
170
     5
 62
     0
 63
     7
283
     0
274
    -2
284
     1
 64
     0
275
    -2
285
     1
 65
     0
276
    -2
286
     1
 66
     0
277
    -2
287
     1
 67
     0
278
    -2
288
     1
 68
     0
279
    -2
289
     1
 69
     0
  7
STANDARD
140
0.18
170
     5
 62
     0
 63
     7
283
     0
274
    -2
284
     1
 64
     0
275
    -2
285
     1
 65
     0
276
    -2
286
     1
 66
     0
277
    -2
287
     1
 67
     0
278
    -2
288
     1
 68
     0
279
    -2
289
     1
 69
     0
  0
VISUALSTYLE
  5
1C5
102
{ACAD_REACTORS
330
1BF
102
}
330
1BF
100
AcDbVisualStyle
  2
2dWireframe
 70
     4
 71
     0
 72
     2
 73
     0
 90
        0
 40
-0.6
 41
-30.0
 62
     5
 63
     7
 74
     1
 91
        4
 64
     7
 65
   257
 75
     1
175
     1
 42
1.0
 92
        0
 66
   257
 43
1.0
 76
     1
 77
     6
 78
     2
 67
     7
 79
     5
170
     0
171
     0
290
     0
174
     0
 93
        1
 44
0.0
173
     0
291
     0
 45
0.0
1001
ACAD
1000
AcDbSavedByObjectVersion
1070
     0
  0
VISUALSTYLE
  5
1C7
102
{ACAD_REACTORS
330
1BF
102
}
330
1BF
100
AcDbVisualStyle
  2
3D Hidden
 70
     6
 71
     1
 72
     2
 73
     2
 90
        0
 40
-0.6
 41
-30.0
 62
     5
 63
     7
 74
     2
 91
        2
 64
     7
 65
   257
 75
     2
175
     1
 42
40.0
 92
        0
 66
   257
 43
1.0
 76
     1
 77
     6
 78
     2
 67
     7
 79
     3
170
     0
171
     0
290
     0
174
     0
 93
        1
 44
0.0
173
     0
291
     0
 45
0.0
1001
ACAD
1000
AcDbSavedByObjectVersion
1070
     0
  0
VISUALSTYLE
  5
1C6
102
{ACAD_REACTORS
330
1BF
102
}
330
1BF
100
AcDbVisualStyle
  2
3dWireframe
 70
     5
 71
     0
 72
     2
 73
     0
 90
        0
 40
-0.6
 41
-30.0
 62
     5
 63
     7
 74
     1
 91
        4
 64
     7
 65
   257
 75
     1
175
     1
 42
1.0
 92
        0
 66
   257
 43
1.0
 76
     1
 77
     6
 78
     2
 67
     7
 79
     5
170
     0
171
     0
290
     0
174
     0
 93
        1
 44
0.0
173
     0
291
     0
 45
0.0
1001
ACAD
1000
AcDbSavedByObjectVersion
1070
     0
  0
VISUALSTYLE
  5
1C4
102
{ACAD_REACTORS
330
1BF
102
}
330
1BF
100
AcDbVisualStyle
  2
Basic
 70
     7
 71
     1
 72
     0
 73
     1
 90
        0
 40
-0.6
 41
-30.0
 62
     5
 63
     7
 74
     0
 91
        4
 64
     7
 65
   257
 75
     1
175
     1
 42
1.0
 92
        8
 66
     7
 43
1.0
 76
     1
 77
     6
 78
     2
 67
     7
 79
     5
170
     0
171
     0
290
     0
174
     0
 93
        1
 44
0.0
173
     0
291
     1
 45
0.0
1001
ACAD
1000
AcDbSavedByObjectVersion
1070
     0
  0
VISUALSTYLE
  5
1CB
102
{ACAD_REACTORS
330
1BF
102
}
330
1BF
100
AcDbVisualStyle
  2
Brighten
 70
    12
 71
     2
 72
     2
 73
     0
 90
        0
 40
-0.6
 41
-30.0
 62
     5
 63
     7
 74
     1
 91
        4
 64
     7
 65
   257
 75
     1
175
     1
 42
1.0
 92
        8
 66
     7
 43
1.0
 76
     1
 77
     6
 78
     2
 67
     7
 79
     5
170
     0
171
     0
290
     0
174
     0
 93
        1
 44
50.0
173
     0
291
     1
 45
0.0
1001
ACAD
1000
AcDbSavedByObjectVersion
1070
     0
  0
VISUALSTYLE
  5
1CF
102
{ACAD_REACTORS
330
1BF
102
}
330
1BF
100
AcDbVisualStyle
  2
ColorChange
 70
    16
 71
     2
 72
     2
 73
     3
 90
        0
 40
-0.6
 41
-30.0
 62
     5
 63
     8
 74
     1
 91
        4
 64
     7
 65
   257
 75
     1
175
     1
 42
1.0
 92
        8
 66
     8
 43
1.0
 76
     1
 77
     6
 78
     2
 67
     7
 79
     5
170
     0
171
     0
290
     0
174
     0
 93
        1
 44
0.0
173
     0
291
     1
 45
0.0
1001
ACAD
1000
AcDbSavedByObjectVersion
1070
     0
  0
VISUALSTYLE
  5
1C8
102
{ACAD_REACTORS
330
1BF
102
}
330
1BF
100
AcDbVisualStyle
  2
Conceptual
 70
     9
 71
     3
 72
     2
 73
     0
 90
        0
 40
-0.6
 41
-30.0
 62
     5
 63
     7
 74
     2
 91
        2
 64
     7
 65
   257
 75
     1
175
     1
 42
40.0
 92
        8
 66
     7
 43
1.0
 76
     1
 77
     6
 78
     2
 67
     7
 79
     3
170
     0
171
     0
290
     0
174
     0
 93
        1
 44
0.0
173
     0
291
     0
 45
0.0
1001
ACAD
1000
AcDbSavedByObjectVersion
1070
     0
  0
VISUALSTYLE
  5
1CA
102
{ACAD_REACTORS
330
1BF
102
}
330
1BF
100
AcDbVisualStyle
  2
Dim
 70
    11
 71
     2
 72
     2
 73
     0
 90
        0
 40
-0.6
 41
-30.0
 62
     5
 63
     7
 74
     1
 91
        4
 64
     7
 65
   257
 75
     1
175
     1
 42
1.0
 92
        8
 66
     7
 43
1.0
 76
     1
 77
     6
 78
     2
 67
     7
 79
     5
170
     0
171
     0
290
     0
174
     0
 93
        1
 44
-50.0
173
     0
291
     1
 45
0.0
1001
ACAD
1000
AcDbSavedByObjectVersion
1070
     0
  0
VISUALSTYLE
  5
1CE
102
{ACAD_REACTORS
330
1BF
102
}
330
1BF
100
AcDbVisualStyle
  2
Facepattern
 70
    15
 71
     2
 72
     2
 73
     0
 90
        0
 40
-0.6
 41
-30.0
 62
     5
 63
     7
 74
     1
 91
        4
 64
     7
 65
   257
 75
     1
175
     1
 42
1.0
 92
        8
 66
     7
 43
1.0
 76
     1
 77
     6
 78
     2
 67
     7
 79
     5
170
     0
171
     0
290
     0
174
     0
 93
        1
 44
0.0
173
     0
291
     1
 45
0.0
1001
ACAD
1000
AcDbSavedByObjectVersion
1070
     0
  0
VISUALSTYLE
  5
1C0
102
{ACAD_REACTORS
330
1BF
102
}
330
1BF
100
AcDbVisualStyle
  2
Flat
 70
     0
 71
     2
 72
     1
 73
     1
 90
        2
 40
-0.6
 41
30.0
 62
     5
 63
     7
 74
     0
 91
        4
 64
     7
 65
   257
 75
     1
175
     1
 42
1.0
 92
        8
 66
     7
 43
1.0
 76
     1
 77
     6
 78
     2
 67
     7
 79
     5
170
     0
171
     0
290
     0
174
     0
 93
       13
 44
0.0
173
     0
291
     1
 45
0.0
1001
ACAD
1000
AcDbSavedByObjectVersion
1070
     0
  0
VISUALSTYLE
  5
1C1
102
{ACAD_REACTORS
330
1BF
102
}
330
1BF
100
AcDbVisualStyle
  2
FlatWithEdges
 70
     1
 71
     2
 72
     1
 73
     1
 90
        2
 40
-0.6
 41
30.0
 62
     5
 63
     7
 74
     1
 91
        4
 64
     7
 65
   257
 75
     1
175
     1
 42
1.0
 92
        0
 66
   257
 43
1.0
 76
     1
 77
     6
 78
     2
 67
     7
 79
     5
170
     0
171
     0
290
     0
174
     0
 93
       13
 44
0.0
173
     0
291
     1
 45
0.0
1001
ACAD
1000
AcDbSavedByObjectVersion
1070
     0
  0
VISUALSTYLE
  5
1C2
102
{ACAD_REACTORS
330
1BF
102
}
330
1BF
100
AcDbVisualStyle
  2
Gouraud
 70
     2
 71
     2
 72
     2
 73
     1
 90
        2
 40
-0.6
 41
30.0
 62
     5
 63
     7
 74
     0
 91
        4
 64
     7
 65
   257
 75
     1
175
     1
 42
1.0
 92
        0
 66
     7
 43
1.0
 76
     1
 77
     6
 78
     2
 67
     7
 79
     5
170
     0
171
     0
290
     0
174
     0
 93
       13
 44
0.0
173
     0
291
     1
 45
0.0
1001
ACAD
1000
AcDbSavedByObjectVersion
1070
     0
  0
VISUALSTYLE
  5
1C3
102
{ACAD_REACTORS
330
1BF
102
}
330
1BF
100
AcDbVisualStyle
  2
GouraudWithEdges
 70
     3
 71
     2
 72
     2
 73
     1
 90
        2
 40
-0.6
 41
30.0
 62
     5
 63
     7
 74
     1
 91
        4
 64
     7
 65
   257
 75
     1
175
     1
 42
1.0
 92
        0
 66
   257
 43
1.0
 76
     1
 77
     6
 78
     2
 67
     7
 79
     5
170
     0
171
     0
290
     0
174
     0
 93
       13
 44
0.0
173
     0
291
     1
 45
0.0
1001
ACAD
1000
AcDbSavedByObjectVersion
1070
     0
  0
VISUALSTYLE
  5
1CD
102
{ACAD_REACTORS
330
1BF
102
}
330
1BF
100
AcDbVisualStyle
  2
Linepattern
 70
    14
 71
     2
 72
     2
 73
     0
 90
        0
 40
-0.6
 41
-30.0
 62
     5
 63
     7
 74
     1
 91
        4
 64
     7
 65
   257
 75
     7
175
     7
 42
1.0
 92
        8
 66
     7
 43
1.0
 76
     1
 77
     6
 78
     2
 67
     7
 79
     5
170
     0
171
     0
290
     0
174
     0
 93
        1
 44
0.0
173
     0
291
     1
 45
0.0
1001
ACAD
1000
AcDbSavedByObjectVersion
1070
     0
  0
VISUALSTYLE
  5
1C9
102
{ACAD_REACTORS
330
1BF
102
}
330
1BF
100
AcDbVisualStyle
  2
Realistic
 70
     8
 71
     2
 72
     2
 73
     0
 90
        0
 40
-0.6
 41
-30.0
 62
     5
 63
     7
 74
     1
 91
        0
 64
     7
 65
   257
 75
     1
175
     1
 42
1.0
 92
        8
 66
     8
 43
1.0
 76
     1
 77
     6
 78
     2
 67
     7
 79
     5
170
     0
171
     0
290
     0
174
     0
 93
       13
 44
0.0
173
     0
291
     0
 45
0.0
1001
ACAD
1000
AcDbSavedByObjectVersion
1070
     0
  0
VISUALSTYLE
  5
1CC
102
{ACAD_REACTORS
330
1BF
102
}
330
1BF
100
AcDbVisualStyle
  2
Thicken
 70
    13
 71
     2
 72
     2
 73
     0
 90
        0
 40
-0.6
 41
-30.0
 62
     5
 63
     7
 74
     1
 91
        4
 64
     7
 65
   257
 75
     1
175
     1
 42
1.0
 92
       12
 66
     7
 43
1.0
 76
     1
 77
     6
 78
     2
 67
     7
 79
     5
170
     0
171
     0
290
     0
174
     0
 93
        1
 44
0.0
173
     0
291
     1
 45
0.0
1001
ACAD
1000
AcDbSavedByObjectVersion
1070
     0
  0
DICTIONARYVAR
  5
1F2
102
{ACAD_REACTORS
330
2C
102
}
330
2C
100
DictionaryVariables
280
     0
  1
STANDARD
  0
DICTIONARYVAR
  5
2D
102
{ACAD_REACTORS
330
2C
102
}
330
2C
100
DictionaryVariables
280
     0
  1
0
  0
DICTIONARYVAR
  5
105
102
{ACAD_REACTORS
330
2C
102
}
330
2C
100
DictionaryVariables
280
     0
  1
1
  0
DICTIONARYVAR
  5
1F4
102
{ACAD_REACTORS
330
2C
102
}
330
2C
100
DictionaryVariables
280
     0
  1
0
  0
DICTIONARYVAR
  5
1F3
102
{ACAD_REACTORS
330
2C
102
}
330
2C
100
DictionaryVariables
280
     0
  1
127
  0
DICTIONARY
  5
211
330
D5
100
AcDbDictionary
280
     1
281
     1
  3
ACAD_XREC_ROUNDTRIP
360
212
  0
DICTIONARY
  5
20F
330
D4
100
AcDbDictionary
280
     1
281
     1
  3
ACAD_XREC_ROUNDTRIP
360
210
  0
DICTIONARY
  5
215
330
1BD
100
AcDbDictionary
280
     1
281
     1
  3
ACAD_XREC_ROUNDTRIP
360
216
  0
DICTIONARY
  5
213
330
1BC
100
AcDbDictionary
280
     1
281
     1
  3
ACAD_XREC_ROUNDTRIP
360
214
  0
DICTIONARY
  5
217
330
1BE
100
AcDbDictionary
280
     1
281
     1
  3
ACAD_XREC_ROUNDTRIP
360
218
  0
DICTIONARY
  5
219
330
1D2
100
AcDbDictionary
280
     1
281
     1
  3
ACAD_XREC_ROUNDTRIP
360
21A
  0
XRECORD
  5
212
102
{ACAD_REACTORS
330
211
102
}
330
211
100
AcDbXrecord
280
     1
102
SHADEPLOT
 70
     0
102
SHADEPLOTRESLEVEL
 70
     2
102
SHADEPLOTCUSTOMDPI
 70
   300
  0
XRECORD
  5
210
102
{ACAD_REACTORS
330
20F
102
}
330
20F
100
AcDbXrecord
280
     1
102
SHADEPLOT
 70
     0
102
SHADEPLOTRESLEVEL
 70
     2
102
SHADEPLOTCUSTOMDPI
 70
   300
  0
XRECORD
  5
216
102
{ACAD_REACTORS
330
215
102
}
330
215
100
AcDbXrecord
280
     1
102
MATERIAL
148
0.0
149
0.0
149
0.0
 93
        0
 94
       63
282
     0
 72
     1
 77
     1
171
     1
175
     1
179
     1
273
     0
  0
XRECORD
  5
214
102
{ACAD_REACTORS
330
213
102
}
330
213
100
AcDbXrecord
280
     1
102
MATERIAL
148
0.0
149
0.0
149
0.0
 93
        0
 94
       63
282
     0
 72
     1
 77
     1
171
     1
175
     1
179
     1
273
     0
  0
XRECORD
  5
218
102
{ACAD_REACTORS
330
217
102
}
330
217
100
AcDbXrecord
280
     1
102
MATERIAL
148
0.0
149
0.0
149
0.0
 93
        0
 94
       63
282
     0
 72
     1
 77
     1
171
     1
175
     1
179
     1
273
     0
  0
XRECORD
  5
21A
102
{ACAD_REACTORS
330
219
102
}
330
219
100
AcDbXrecord
280
     1
102
ACAD_ROUNDTRIP_PRE2007_TABLESTYLE
 90
      512
 91
        0
  1

 92
      512
 93
        0
  2

 94
      512
 95
        0
  3

  0
ENDSEC
  0
EOF
