  0
SECTION
  2
HEADER
  9
$ACADVER
  1
AC1014
  9
$ACADMAINTVER
 70
     9
  9
$DWGCODEPAGE
  3
ANSI_1252
  9
$INSBASE
 10
-21.35225821870004
 20
-14.87529748558054
 30
0.0
  9
$EXTMIN
 10
-25.45656328781102
 20
-15.83034294820171
 30
0.0
  9
$EXTMAX
 10
-9.142240726419476
 20
-10.29279596109642
 30
0.0
  9
$LIMMIN
 10
0.0
 20
0.0
  9
$LIMMAX
 10
36.0
 20
36.0
  9
$ORTHOMODE
 70
     1
  9
$REGENMODE
 70
     1
  9
$FILLMODE
 70
     1
  9
$QTEXTMODE
 70
     0
  9
$MIRRTEXT
 70
     1
  9
$DRAGMODE
 70
     0
  9
$LTSCALE
 40
1.0
  9
$OSMODE
 70
    37
  9
$ATTMODE
 70
     1
  9
$TEXTSIZE
 40
0.2
  9
$TRACEWID
 40
0.05
  9
$TEXTSTYLE
  7
STANDARD
  9
$CLAYER
  8
ADPDIM
  9
$CELTYPE
  6
BYLAYER
  9
$CECOLOR
 62
   256
  9
$CELTSCALE
 40
1.0
  9
$DELOBJ
 70
     1
  9
$DISPSILH
 70
     0
  9
$DIMSCALE
 40
1.0
  9
$DIMASZ
 40
0.125
  9
$DIMEXO
 40
0.0625
  9
$DIMDLI
 40
0.38
  9
$DIMRND
 40
0.0
  9
$DIMDLE
 40
0.0
  9
$DIMEXE
 40
0.18
  9
$DIMTP
 40
0.0
  9
$DIMTM
 40
0.0
  9
$DIMTXT
 40
0.125
  9
$DIMCEN
 40
0.1875
  9
$DIMTSZ
 40
0.125
  9
$DIMTOL
 70
     0
  9
$DIMLIM
 70
     0
  9
$DIMTIH
 70
     0
  9
$DIMTOH
 70
     0
  9
$DIMSE1
 70
     0
  9
$DIMSE2
 70
     0
  9
$DIMTAD
 70
     0
  9
$DIMZIN
 70
     2
  9
$DIMBLK
  1

  9
$DIMASO
 70
     1
  9
$DIMSHO
 70
     1
  9
$DIMPOST
  1

  9
$DIMAPOST
  1

  9
$DIMALT
 70
     0
  9
$DIMALTD
 70
     1
  9
$DIMALTF
 40
25.4
  9
$DIMLFAC
 40
1.0
  9
$DIMTOFL
 70
     0
  9
$DIMTVP
 40
0.0
  9
$DIMTIX
 70
     0
  9
$DIMSOXD
 70
     0
  9
$DIMSAH
 70
     0
  9
$DIMBLK1
  1

  9
$DIMBLK2
  1

  9
$DIMSTYLE
  2
STANDARD
  9
$DIMCLRD
 70
     0
  9
$DIMCLRE
 70
     0
  9
$DIMCLRT
 70
     0
  9
$DIMTFAC
 40
1.0
  9
$DIMGAP
 40
0.125
  9
$DIMJUST
 70
     0
  9
$DIMSD1
 70
     0
  9
$DIMSD2
 70
     0
  9
$DIMTOLJ
 70
     1
  9
$DIMTZIN
 70
     0
  9
$DIMALTZ
 70
     0
  9
$DIMALTTZ
 70
     0
  9
$DIMFIT
 70
     3
  9
$DIMUPT
 70
     0
  9
$DIMUNIT
 70
     7
  9
$DIMDEC
 70
     4
  9
$DIMTDEC
 70
     4
  9
$DIMALTU
 70
     2
  9
$DIMALTTD
 70
     2
  9
$DIMTXSTY
  7
STANDARD
  9
$DIMAUNIT
 70
     0
  9
$LUNITS
 70
     5
  9
$LUPREC
 70
     4
  9
$SKETCHINC
 40
0.1
  9
$FILLETRAD
 40
0.062
  9
$AUNITS
 70
     0
  9
$AUPREC
 70
     0
  9
$MENU
  1
acad
  9
$ELEVATION
 40
0.0
  9
$PELEVATION
 40
0.0
  9
$THICKNESS
 40
0.0
  9
$LIMCHECK
 70
     0
  9
$BLIPMODE
 70
     0
  9
$CHAMFERA
 40
0.0
  9
$CHAMFERB
 40
0.0
  9
$CHAMFERC
 40
0.0
  9
$CHAMFERD
 40
0.0
  9
$SKPOLY
 70
     0
  9
$TDCREATE
 40
2450386.500912615
  9
$TDUPDATE
 40
2452297.081517106
  9
$TDINDWG
 40
0.0188435648
  9
$TDUSRTIMER
 40
0.0188435648
  9
$USRTIMER
 70
     1
  9
$ANGBASE
 50
0.0
  9
$ANGDIR
 70
     0
  9
$PDMODE
 70
     0
  9
$PDSIZE
 40
0.0
  9
$PLINEWID
 40
0.0
  9
$COORDS
 70
     2
  9
$SPLFRAME
 70
     0
  9
$SPLINETYPE
 70
     6
  9
$SPLINESEGS
 70
     8
  9
$ATTDIA
 70
     0
  9
$ATTREQ
 70
     1
  9
$HANDLING
 70
 22529
  9
$HANDSEED
  5
542
  9
$SURFTAB1
 70
     6
  9
$SURFTAB2
 70
     6
  9
$SURFTYPE
 70
     6
  9
$SURFU
 70
     6
  9
$SURFV
 70
     6
  9
$UCSNAME
  2

  9
$UCSORG
 10
0.0
 20
0.0
 30
0.0
  9
$UCSXDIR
 10
1.0
 20
0.0
 30
0.0
  9
$UCSYDIR
 10
0.0
 20
1.0
 30
0.0
  9
$PUCSNAME
  2

  9
$PUCSORG
 10
0.0
 20
0.0
 30
0.0
  9
$PUCSXDIR
 10
1.0
 20
0.0
 30
0.0
  9
$PUCSYDIR
 10
0.0
 20
1.0
 30
0.0
  9
$USERI1
 70
     0
  9
$USERI2
 70
     0
  9
$USERI3
 70
     0
  9
$USERI4
 70
     0
  9
$USERI5
 70
     0
  9
$USERR1
 40
0.0
  9
$USERR2
 40
0.0
  9
$USERR3
 40
0.0
  9
$USERR4
 40
0.0
  9
$USERR5
 40
0.0
  9
$WORLDVIEW
 70
     1
  9
$SHADEDGE
 70
     3
  9
$SHADEDIF
 70
    70
  9
$TILEMODE
 70
     1
  9
$MAXACTVP
 70
    15
  9
$PINSBASE
 10
4.403525741743744E+99
 20
7.061986388769092E+99
 30
0.0
  9
$PLIMCHECK
 70
     0
  9
$PEXTMIN
 10
1.000000000000000E+20
 20
1.000000000000000E+20
 30
1.000000000000000E+20
  9
$PEXTMAX
 10
-1.000000000000000E+20
 20
-1.000000000000000E+20
 30
-1.000000000000000E+20
  9
$PLIMMIN
 10
0.0
 20
0.0
  9
$PLIMMAX
 10
12.0
 20
9.0
  9
$UNITMODE
 70
     0
  9
$VISRETAIN
 70
     0
  9
$PLINEGEN
 70
     0
  9
$PSLTSCALE
 70
     1
  9
$TREEDEPTH
 70
  3020
  9
$PICKSTYLE
 70
     1
  9
$CMLSTYLE
  2
STANDARD
  9
$CMLJUST
 70
     0
  9
$CMLSCALE
 40
1.0
  9
$PROXYGRAPHICS
 70
     1
  9
$MEASUREMENT
 70
     0
  0
ENDSEC
  0
SECTION
  2
CLASSES
  0
CLASS
  1
ACDBDICTIONARYWDFLT
  2
AcDbDictionaryWithDefault
  3
AutoCAD 2000
 90
        0
280
     0
281
     0
  0
CLASS
  1
ACDBPLACEHOLDER
  2
AcDbPlaceHolder
  3
AutoCAD 2000
 90
        0
280
     0
281
     0
  0
CLASS
  1
LAYOUT
  2
AcDbLayout
  3
AutoCAD 2000
 90
        0
280
     0
281
     0
  0
CLASS
  1
DICTIONARYVAR
  2
AcDbDictionaryVar
  3
AutoCAD 2000
 90
        0
280
     0
281
     0
  0
CLASS
  1
LONG_TRANSACTION
  2
AcDbLongTransaction
  3
AutoCAD 2000
 90
        0
280
     0
281
     0
  0
CLASS
  1
LWPOLYLINE
  2
AcDbPolyline
  3
AutoCAD 2000
 90
        0
280
     0
281
     1
  0
CLASS
  1
HATCH
  2
AcDbHatch
  3
AutoCAD 2000
 90
        0
280
     0
281
     1
  0
CLASS
  1
XRECORD
  2
AcDbXrecord
  3
AutoCAD 2000
 90
        0
280
     0
281
     0
  0
CLASS
  1
LONG_TRANSACTION
  2
AcDbLongTransaction
  3
AutoCAD 2000
 90
        0
280
     0
281
     0
  0
CLASS
  1
LWPOLYLINE
  2
AcDbPolyline
  3
AutoCAD 2000
 90
        0
280
     0
281
     1
  0
CLASS
  1
HATCH
  2
AcDbHatch
  3
AutoCAD 2000
 90
        0
280
     0
281
     1
  0
CLASS
  1
XRECORD
  2
AcDbXrecord
  3
AutoCAD 2000
 90
        0
280
     0
281
     0
  0
CLASS
  1
LONG_TRANSACTION
  2
AcDbLongTransaction
  3
AutoCAD 2000
 90
        0
280
     0
281
     0
  0
CLASS
  1
LWPOLYLINE
  2
AcDbPolyline
  3
AutoCAD 2000
 90
        0
280
     0
281
     1
  0
CLASS
  1
HATCH
  2
AcDbHatch
  3
AutoCAD 2000
 90
        0
280
     0
281
     1
  0
CLASS
  1
XRECORD
  2
AcDbXrecord
  3
AutoCAD 2000
 90
        0
280
     0
281
     0
  0
CLASS
  1
LONG_TRANSACTION
  2
AcDbLongTransaction
  3
AutoCAD 2000
 90
        0
280
     0
281
     0
  0
CLASS
  1
LWPOLYLINE
  2
AcDbPolyline
  3
AutoCAD 2000
 90
        0
280
     0
281
     1
  0
CLASS
  1
HATCH
  2
AcDbHatch
  3
AutoCAD 2000
 90
        0
280
     0
281
     1
  0
CLASS
  1
XRECORD
  2
AcDbXrecord
  3
AutoCAD 2000
 90
        0
280
     0
281
     0
  0
CLASS
  1
LONG_TRANSACTION
  2
AcDbLongTransaction
  3
AutoCAD 2000
 90
        0
280
     0
281
     0
  0
CLASS
  1
LWPOLYLINE
  2
AcDbPolyline
  3
AutoCAD 2000
 90
        0
280
     0
281
     1
  0
CLASS
  1
HATCH
  2
AcDbHatch
  3
AutoCAD 2000
 90
        0
280
     0
281
     1
  0
CLASS
  1
XRECORD
  2
AcDbXrecord
  3
AutoCAD 2000
 90
        0
280
     0
281
     0
  0
CLASS
  1
LONG_TRANSACTION
  2
AcDbLongTransaction
  3
AutoCAD 2000
 90
        0
280
     0
281
     0
  0
CLASS
  1
LWPOLYLINE
  2
AcDbPolyline
  3
AutoCAD 2000
 90
        0
280
     0
281
     1
  0
CLASS
  1
HATCH
  2
AcDbHatch
  3
AutoCAD 2000
 90
        0
280
     0
281
     1
  0
CLASS
  1
XRECORD
  2
AcDbXrecord
  3
AutoCAD 2000
 90
        0
280
     0
281
     0
  0
ENDSEC
  0
SECTION
  2
TABLES
  0
TABLE
  2
VPORT
  5
8
330
0
100
AcDbSymbolTable
 70
     2
  0
VPORT
  5
4EF
330
8
100
AcDbSymbolTableRecord
100
AcDbViewportTableRecord
  2
*ACTIVE
 70
     0
 10
0.0
 20
0.0
 11
1.0
 21
1.0
 12
-17.28688690017145
 22
-13.06173238759164
 13
0.0
 23
0.0
 14
0.5740882589684922
 24
0.5740882589684922
 15
0.5
 25
0.5
 16
0.0
 26
0.0
 36
1.0
 17
0.0
 27
0.0
 37
0.0
 40
10.45904403831319
 41
1.570528967254408
 42
50.0
 43
0.0
 44
0.0
 50
0.0
 51
0.0
 71
     0
 72
   100
 73
     1
 74
     0
 75
     0
 76
     0
 77
     0
 78
     0
  0
ENDTAB
  0
TABLE
  2
LTYPE
  5
5
330
0
100
AcDbSymbolTable
 70
     2
  0
LTYPE
  5
12
330
5
100
AcDbSymbolTableRecord
100
AcDbLinetypeTableRecord
  2
BYBLOCK
 70
     0
  3

 72
    65
 73
     0
 40
0.0
  0
LTYPE
  5
13
330
5
100
AcDbSymbolTableRecord
100
AcDbLinetypeTableRecord
  2
BYLAYER
 70
     0
  3

 72
    65
 73
     0
 40
0.0
  0
LTYPE
  5
14
330
5
100
AcDbSymbolTableRecord
100
AcDbLinetypeTableRecord
  2
CONTINUOUS
 70
     0
  3
Solid line
 72
    65
 73
     0
 40
0.0
  0
LTYPE
  5
103
330
5
100
AcDbSymbolTableRecord
100
AcDbLinetypeTableRecord
  2
HIDDEN2
 70
     0
  3
_ _ _ _ _ _ _ _ _ _ _ _ _ _ _ _ _ _ _ _ _ _ _ _
 72
    65
 73
     2
 40
0.1875
 49
0.125
 74
     0
 49
-0.0625
 74
     0
  0
ENDTAB
  0
TABLE
  2
LAYER
  5
2
330
0
100
AcDbSymbolTable
 70
     5
  0
LAYER
  5
F
330
2
100
AcDbSymbolTableRecord
100
AcDbLayerTableRecord
  2
0
 70
     0
 62
     7
  6
CONTINUOUS
  0
LAYER
  5
107
330
2
100
AcDbSymbolTableRecord
100
AcDbLayerTableRecord
  2
ADP1DETAIL
 70
     0
 62
     7
  6
CONTINUOUS
  0
LAYER
  5
109
330
2
100
AcDbSymbolTableRecord
100
AcDbLayerTableRecord
  2
DEFPOINTS
 70
     0
 62
     7
  6
CONTINUOUS
  0
LAYER
  5
10A
330
2
100
AcDbSymbolTableRecord
100
AcDbLayerTableRecord
  2
ADP2DETAIL
 70
     0
 62
     5
  6
CONTINUOUS
  0
LAYER
  5
10B
330
2
100
AcDbSymbolTableRecord
100
AcDbLayerTableRecord
  2
ADPDIM
 70
     0
 62
     3
  6
CONTINUOUS
  0
ENDTAB
  0
TABLE
  2
STYLE
  5
3
330
0
100
AcDbSymbolTable
 70
     2
  0
STYLE
  5
10
330
3
100
AcDbSymbolTableRecord
100
AcDbTextStyleTableRecord
  2
STANDARD
 70
     0
 40
0.0
 41
1.0
 50
0.0
 71
     0
 42
0.2
  3
txt
  4

  0
STYLE
  5
1FC
330
3
100
AcDbSymbolTableRecord
100
AcDbTextStyleTableRecord
  2
ARIAL_WIDE
 70
     0
 40
0.0
 41
1.25
 50
0.0
 71
     0
 42
0.2
  3
ARIAL.TTF
  4

1001
ACAD
1000
Arial
1071
       34
  0
ENDTAB
  0
TABLE
  2
VIEW
  5
6
330
0
100
AcDbSymbolTable
 70
     0
  0
ENDTAB
  0
TABLE
  2
UCS
  5
7
330
0
100
AcDbSymbolTable
 70
     0
  0
ENDTAB
  0
TABLE
  2
APPID
  5
9
330
0
100
AcDbSymbolTable
 70
     1
  0
APPID
  5
11
330
9
100
AcDbSymbolTableRecord
100
AcDbRegAppTableRecord
  2
ACAD
 70
     0
  0
ENDTAB
  0
TABLE
  2
DIMSTYLE
  5
A
330
0
100
AcDbSymbolTable
 70
     1
  0
DIMSTYLE
105
180
102
{ACAD_REACTORS
330
14A
330
158
330
159
330
176
330
18F
102
}
330
A
100
AcDbSymbolTableRecord
100
AcDbDimStyleTableRecord
  2
STANDARD
 70
     0
  3

  4

  5

  6

  7

 40
1.0
 41
0.18
 42
0.0625
 43
0.38
 44
0.18
 45
0.0
 46
0.0
 47
0.0
 48
0.0
140
0.18
141
0.09
142
0.0
143
25.4
144
1.0
145
0.0
146
1.0
147
0.09
 71
     0
 72
     0
 73
     1
 74
     1
 75
     0
 76
     0
 77
     0
 78
     0
170
     0
171
     2
172
     0
173
     0
174
     0
175
     0
176
     0
177
     0
178
     0
270
     2
271
     4
272
     4
273
     2
274
     2
340
10
275
     0
280
     0
281
     0
282
     0
283
     1
284
     0
285
     0
286
     0
287
     3
288
     0
  0
ENDTAB
  0
TABLE
  2
BLOCK_RECORD
  5
1
330
0
100
AcDbSymbolTable
 70
     5
  0
BLOCK_RECORD
  5
18
102
{ACAD_XDICTIONARY
360
282
102
}
330
1
100
AcDbSymbolTableRecord
100
AcDbBlockTableRecord
  2
*MODEL_SPACE
  0
BLOCK_RECORD
  5
15
102
{ACAD_XDICTIONARY
360
280
102
}
330
1
100
AcDbSymbolTableRecord
100
AcDbBlockTableRecord
  2
*PAPER_SPACE
  0
BLOCK_RECORD
  5
182
330
1
100
AcDbSymbolTableRecord
100
AcDbBlockTableRecord
  2
*D0
  0
BLOCK_RECORD
  5
19C
330
1
100
AcDbSymbolTableRecord
100
AcDbBlockTableRecord
  2
*D1
  0
BLOCK_RECORD
  5
1A9
330
1
100
AcDbSymbolTableRecord
100
AcDbBlockTableRecord
  2
*D2
  0
BLOCK_RECORD
  5
1B6
330
1
100
AcDbSymbolTableRecord
100
AcDbBlockTableRecord
  2
*D3
  0
BLOCK_RECORD
  5
1C3
330
1
100
AcDbSymbolTableRecord
100
AcDbBlockTableRecord
  2
*D4
  0
ENDTAB
  0
ENDSEC
  0
SECTION
  2
BLOCKS
  0
BLOCK
  5
10E
330
18
100
AcDbEntity
  8
0
100
AcDbBlockBegin
  2
*MODEL_SPACE
 70
     0
 10
0.0
 20
0.0
 30
0.0
  3
*MODEL_SPACE
  1

  0
ENDBLK
  5
10F
330
18
100
AcDbEntity
  8
0
100
AcDbBlockEnd
  0
BLOCK
  5
10C
330
15
100
AcDbEntity
 67
     1
  8
0
100
AcDbBlockBegin
  2
*PAPER_SPACE
 70
     0
 10
0.0
 20
0.0
 30
0.0
  3
*PAPER_SPACE
  1

  0
ENDBLK
  5
10D
330
15
100
AcDbEntity
 67
     1
  8
0
100
AcDbBlockEnd
  0
BLOCK
  5
1E5
330
182
100
AcDbEntity
  8
0
100
AcDbBlockBegin
  2
*D0
 70
     1
 10
0.0
 20
0.0
 30
0.0
  3
*D0
  1

  0
LINE
  5
538
330
182
100
AcDbEntity
  8
ADPDIM
 62
     0
100
AcDbLine
 10
-21.35225821870004
 20
-11.06279748558054
 30
0.0
 11
-21.35225821870004
 21
-10.62963226528379
 31
0.0
  0
LINE
  5
539
330
182
100
AcDbEntity
  8
ADPDIM
 62
     0
100
AcDbLine
 10
-18.35225821870004
 20
-11.06279748558054
 30
0.0
 11
-18.35225821870004
 21
-10.62963226528379
 31
0.0
  0
LINE
  5
53A
330
182
100
AcDbEntity
  8
ADPDIM
 62
     0
100
AcDbLine
 10
-21.35225821870004
 20
-10.80963226528379
 30
0.0
 11
-20.01892488536671
 21
-10.80963226528379
 31
0.0
  0
LINE
  5
53B
330
182
100
AcDbEntity
  8
ADPDIM
 62
     0
100
AcDbLine
 10
-18.35225821870004
 20
-10.80963226528379
 30
0.0
 11
-19.68559155203338
 21
-10.80963226528379
 31
0.0
  0
LINE
  5
53C
330
182
100
AcDbEntity
  8
ADPDIM
 62
     0
100
AcDbLine
 10
-18.47725821870004
 20
-10.93463226528379
 30
0.0
 11
-18.22725821870004
 21
-10.68463226528379
 31
0.0
  0
LINE
  5
53D
330
182
100
AcDbEntity
  8
ADPDIM
 62
     0
100
AcDbLine
 10
-21.47725821870004
 20
-10.93463226528379
 30
0.0
 11
-21.22725821870004
 21
-10.68463226528379
 31
0.0
  0
MTEXT
  5
53E
330
182
100
AcDbEntity
  8
ADPDIM
 62
     0
100
AcDbMText
 10
-19.85225821870004
 20
-10.80963226528379
 30
0.0
 40
0.125
 41
0.0
 71
     5
 72
     1
  1
\A1;3
  0
POINT
  5
53F
330
182
100
AcDbEntity
  8
DEFPOINTS
 62
     0
100
AcDbPoint
 10
-21.35225821870004
 20
-11.12529748558054
 30
0.0
  0
POINT
  5
540
330
182
100
AcDbEntity
  8
DEFPOINTS
 62
     0
100
AcDbPoint
 10
-18.35225821870004
 20
-11.12529748558054
 30
0.0
  0
POINT
  5
541
330
182
100
AcDbEntity
  8
DEFPOINTS
 62
     0
100
AcDbPoint
 10
-18.35225821870004
 20
-10.80963226528379
 30
0.0
  0
ENDBLK
  5
1F0
330
182
100
AcDbEntity
  8
0
100
AcDbBlockEnd
  0
BLOCK
  5
19D
330
19C
100
AcDbEntity
  8
0
100
AcDbBlockBegin
  2
*D1
 70
     1
 10
0.0
 20
0.0
 30
0.0
  3
*D1
  1

  0
LINE
  5
52E
330
19C
100
AcDbEntity
  8
ADPDIM
 62
     0
100
AcDbLine
 10
-14.72813399623741
 20
-13.00553072746188
 30
0.0
 11
-12.40963399623741
 21
-13.00553072746188
 31
0.0
  0
LINE
  5
52F
330
19C
100
AcDbEntity
  8
ADPDIM
 62
     0
100
AcDbLine
 10
-13.87275821870004
 20
-11.11706279446279
 30
0.0
 11
-12.40963399623741
 21
-11.11706279446279
 31
0.0
  0
LINE
  5
530
330
19C
100
AcDbEntity
  8
ADPDIM
 62
     0
100
AcDbLine
 10
-12.58963399623741
 20
-13.00553072746188
 30
0.0
 11
-12.58963399623741
 21
-12.45713009429567
 31
0.0
  0
LINE
  5
531
330
19C
100
AcDbEntity
  8
ADPDIM
 62
     0
100
AcDbLine
 10
-12.58963399623741
 20
-11.11706279446279
 30
0.0
 11
-12.58963399623741
 21
-11.665463427629
 31
0.0
  0
LINE
  5
532
330
19C
100
AcDbEntity
  8
ADPDIM
 62
     0
100
AcDbLine
 10
-12.46463399623741
 20
-11.24206279446279
 30
0.0
 11
-12.71463399623741
 21
-10.99206279446279
 31
0.0
  0
LINE
  5
533
330
19C
100
AcDbEntity
  8
ADPDIM
 62
     0
100
AcDbLine
 10
-12.46463399623741
 20
-13.13053072746188
 30
0.0
 11
-12.71463399623741
 21
-12.88053072746188
 31
0.0
  0
MTEXT
  5
534
330
19C
100
AcDbEntity
  8
ADPDIM
 62
     0
100
AcDbMText
 10
-12.58963399623741
 20
-12.06129676096234
 30
0.0
 40
0.125
 41
0.0
 71
     5
 72
     1
  1
\A1;1 7/8
 11
0.0000000000000001
 21
1.0
 31
0.0
  0
POINT
  5
535
330
19C
100
AcDbEntity
  8
DEFPOINTS
 62
     0
100
AcDbPoint
 10
-14.79063399623741
 20
-13.00553072746188
 30
0.0
  0
POINT
  5
536
330
19C
100
AcDbEntity
  8
DEFPOINTS
 62
     0
100
AcDbPoint
 10
-13.93525821870005
 20
-11.11706279446279
 30
0.0
  0
POINT
  5
537
330
19C
100
AcDbEntity
  8
DEFPOINTS
 62
     0
100
AcDbPoint
 10
-12.58963399623741
 20
-11.11706279446279
 30
0.0
  0
ENDBLK
  5
1A8
330
19C
100
AcDbEntity
  8
0
100
AcDbBlockEnd
  0
BLOCK
  5
1AA
330
1A9
100
AcDbEntity
  8
0
100
AcDbBlockBegin
  2
*D2
 70
     1
 10
0.0
 20
0.0
 30
0.0
  3
*D2
  1

  0
LINE
  5
524
330
1A9
100
AcDbEntity
  8
ADPDIM
 62
     0
100
AcDbLine
 10
-15.93525821870004
 20
-10.93841178846174
 30
0.0
 11
-15.93525821870004
 21
-10.29279596109642
 31
0.0
  0
LINE
  5
525
330
1A9
100
AcDbEntity
  8
ADPDIM
 62
     0
100
AcDbLine
 10
-13.9391946422833
 20
-10.93841178846174
 30
0.0
 11
-13.9391946422833
 21
-10.29279596109642
 31
0.0
  0
LINE
  5
526
330
1A9
100
AcDbEntity
  8
ADPDIM
 62
     0
100
AcDbLine
 10
-15.93525821870004
 20
-10.47279596109642
 30
0.0
 11
-15.10389309715834
 21
-10.47279596109642
 31
0.0
  0
LINE
  5
527
330
1A9
100
AcDbEntity
  8
ADPDIM
 62
     0
100
AcDbLine
 10
-13.9391946422833
 20
-10.47279596109642
 30
0.0
 11
-14.77055976382501
 21
-10.47279596109642
 31
0.0
  0
LINE
  5
528
330
1A9
100
AcDbEntity
  8
ADPDIM
 62
     0
100
AcDbLine
 10
-14.0641946422833
 20
-10.59779596109642
 30
0.0
 11
-13.8141946422833
 21
-10.34779596109642
 31
0.0
  0
LINE
  5
529
330
1A9
100
AcDbEntity
  8
ADPDIM
 62
     0
100
AcDbLine
 10
-16.06025821870004
 20
-10.59779596109642
 30
0.0
 11
-15.81025821870004
 21
-10.34779596109642
 31
0.0
  0
MTEXT
  5
52A
330
1A9
100
AcDbEntity
  8
ADPDIM
 62
     0
100
AcDbMText
 10
-14.93722643049167
 20
-10.47279596109642
 30
0.0
 40
0.125
 41
0.0
 71
     5
 72
     1
  1
\A1;2
  0
POINT
  5
52B
330
1A9
100
AcDbEntity
  8
DEFPOINTS
 62
     0
100
AcDbPoint
 10
-15.93525821870004
 20
-11.00091178846174
 30
0.0
  0
POINT
  5
52C
330
1A9
100
AcDbEntity
  8
DEFPOINTS
 62
     0
100
AcDbPoint
 10
-13.9391946422833
 20
-11.00091178846174
 30
0.0
  0
POINT
  5
52D
330
1A9
100
AcDbEntity
  8
DEFPOINTS
 62
     0
100
AcDbPoint
 10
-13.9391946422833
 20
-10.47279596109642
 30
0.0
  0
ENDBLK
  5
1B5
330
1A9
100
AcDbEntity
  8
0
100
AcDbBlockEnd
  0
BLOCK
  5
1B7
330
1B6
100
AcDbEntity
  8
0
100
AcDbBlockBegin
  2
*D3
 70
     1
 10
0.0
 20
0.0
 30
0.0
  3
*D3
  1

  0
LINE
  5
51A
330
1B6
100
AcDbEntity
  8
ADPDIM
 62
     0
100
AcDbLine
 10
-15.608434408634
 20
-10.93241178846174
 30
0.0
 11
-15.608434408634
 21
-10.63491178846174
 31
0.0
  0
LINE
  5
51B
330
1B6
100
AcDbEntity
  8
ADPDIM
 62
     0
100
AcDbLine
 10
-14.25405005644563
 20
-10.87529596109642
 30
0.0
 11
-14.25405005644563
 21
-10.63491178846174
 31
0.0
  0
LINE
  5
51C
330
1B6
100
AcDbEntity
  8
ADPDIM
 62
     0
100
AcDbLine
 10
-15.608434408634
 20
-10.81491178846174
 30
0.0
 11
-15.32707556587315
 21
-10.81491178846174
 31
0.0
  0
LINE
  5
51D
330
1B6
100
AcDbEntity
  8
ADPDIM
 62
     0
100
AcDbLine
 10
-14.25405005644563
 20
-10.81491178846174
 30
0.0
 11
-14.53540889920648
 21
-10.81491178846174
 31
0.0
  0
LINE
  5
51E
330
1B6
100
AcDbEntity
  8
ADPDIM
 62
     0
100
AcDbLine
 10
-14.37905005644563
 20
-10.93991178846174
 30
0.0
 11
-14.12905005644563
 21
-10.68991178846174
 31
0.0
  0
LINE
  5
51F
330
1B6
100
AcDbEntity
  8
ADPDIM
 62
     0
100
AcDbLine
 10
-15.733434408634
 20
-10.93991178846174
 30
0.0
 11
-15.483434408634
 21
-10.68991178846174
 31
0.0
  0
MTEXT
  5
520
330
1B6
100
AcDbEntity
  8
ADPDIM
 62
     0
100
AcDbMText
 10
-14.93124223253981
 20
-10.81491178846174
 30
0.0
 40
0.125
 41
0.0
 71
     5
 72
     1
  1
\A1;1 3/8
  0
POINT
  5
521
330
1B6
100
AcDbEntity
  8
DEFPOINTS
 62
     0
100
AcDbPoint
 10
-15.608434408634
 20
-10.99491178846174
 30
0.0
  0
POINT
  5
522
330
1B6
100
AcDbEntity
  8
DEFPOINTS
 62
     0
100
AcDbPoint
 10
-14.25405005644563
 20
-10.93779596109642
 30
0.0
  0
POINT
  5
523
330
1B6
100
AcDbEntity
  8
DEFPOINTS
 62
     0
100
AcDbPoint
 10
-14.25405005644563
 20
-10.81491178846174
 30
0.0
  0
ENDBLK
  5
1C2
330
1B6
100
AcDbEntity
  8
0
100
AcDbBlockEnd
  0
BLOCK
  5
1C4
330
1C3
100
AcDbEntity
  8
0
100
AcDbBlockBegin
  2
*D4
 70
     1
 10
0.0
 20
0.0
 30
0.0
  3
*D4
  1

  0
LINE
  5
513
330
1C3
100
AcDbEntity
  8
ADPDIM
 62
     0
100
AcDbLine
 10
-16.80359004655283
 20
-14.46801056280173
 30
0.0
 11
-16.41064185272818
 21
-14.15883146103392
 31
0.0
  0
MTEXT
  5
514
330
1C3
100
AcDbEntity
  8
ADPDIM
 62
     0
100
AcDbMText
 10
-17.18016539896811
 20
-14.76430720199588
 30
0.0
 40
0.125
 41
0.0
 71
     5
 72
     1
  1
\A1;\U+22053 3/4
 11
0.7858963876492862
 21
0.618358203535623
 31
0.0
  0
LINE
  5
515
330
1C3
100
AcDbEntity
  8
ADPDIM
 62
     0
100
AcDbLine
 10
-16.43158412574239
 20
-14.33436328493203
 30
0.0
 11
-16.38969957971398
 21
-13.98329963713581
 31
0.0
  0
LINE
  5
516
330
1C3
100
AcDbEntity
  8
ADPDIM
 62
     0
100
AcDbLine
 10
-15.12275821870005
 20
-12.99797159731531
 30
0.0
 11
-14.74775821870005
 21
-12.99797159731531
 31
0.0
  0
LINE
  5
517
330
1C3
100
AcDbEntity
  8
ADPDIM
 62
     0
100
AcDbLine
 10
-14.93525821870005
 20
-13.18547159731531
 30
0.0
 11
-14.93525821870005
 21
-12.81047159731532
 31
0.0
  0
POINT
  5
518
330
1C3
100
AcDbEntity
  8
DEFPOINTS
 62
     0
100
AcDbPoint
 10
-16.41064185272818
 20
-14.15883146103392
 30
0.0
  0
POINT
  5
519
330
1C3
100
AcDbEntity
  8
DEFPOINTS
 62
     0
100
AcDbPoint
 10
-13.45987458467191
 20
-11.83711173359671
 30
0.0
  0
ENDBLK
  5
1CC
330
1C3
100
AcDbEntity
  8
0
100
AcDbBlockEnd
  0
ENDSEC
  0
SECTION
  2
ENTITIES
  0
DIMENSION
  5
14A
330
18
100
AcDbEntity
  8
ADPDIM
100
AcDbDimension
  2
*D4
 10
-13.45987458467191
 20
-11.83711173359671
 30
0.0
 11
-17.18016539896811
 21
-14.76430720199588
 31
0.0
 70
    35
  3
STANDARD
100
AcDbDiametricDimension
 15
-16.41064185272818
 25
-14.15883146103392
 35
0.0
 40
0.0
1001
ACAD
1000
DSTYLE
1002
{
1070
   270
1070
     7
1070
   270
1070
     7
1070
   270
1070
     7
1070
   270
1070
     7
1070
   270
1070
     7
1070
   270
1070
     7
1070
    41
1040
0.125
1070
    73
1070
     0
1070
    74
1070
     0
1070
    78
1070
     2
1070
   140
1040
0.125
1070
   141
1040
0.1875
1070
   142
1040
0.125
1070
   147
1040
0.125
1070
   171
1070
     1
1070
   276
1070
     2
1070
   277
1070
     5
1002
}
  0
LINE
  5
14B
330
18
100
AcDbEntity
  8
ADP1DETAIL
100
AcDbLine
 10
-21.35225821870004
 20
-14.87529748558054
 30
0.0
 11
-21.35225821870004
 21
-11.12529748558054
 31
0.0
  0
LINE
  5
14C
330
18
100
AcDbEntity
  8
ADP1DETAIL
100
AcDbLine
 10
-21.11116649224996
 20
-11.24209864923943
 30
0.0
 11
-21.11116649224996
 21
-14.75325206706005
 31
0.0
  0
ARC
  5
14D
330
18
100
AcDbEntity
  8
ADP1DETAIL
100
AcDbCircle
 10
-14.93525821870004
 20
-12.99797159731531
 30
0.0
 40
1.877325888265232
100
AcDbArc
 50
119.6738068919506
 51
60.32619310804935
  0
LINE
  5
14E
330
18
100
AcDbEntity
  8
ADP1DETAIL
100
AcDbLine
 10
-21.22725821870004
 20
-14.87529748558054
 30
0.0
 11
-21.35225821870004
 21
-14.87529748558054
 31
0.0
  0
ARC
  5
14F
330
18
100
AcDbEntity
  8
ADP1DETAIL
100
AcDbCircle
 10
-21.22127557792406
 20
-14.76475133290115
 30
0.0
 40
0.1107079214097603
100
AcDbArc
 50
266.9022350052179
 51
5.962084054173027
  0
LINE
  5
151
330
18
100
AcDbEntity
  8
ADP1DETAIL
100
AcDbLine
 10
-18.95652389275666
 20
-13.43779748558054
 30
0.0
 11
-20.85913664767508
 21
-13.49360577443871
 31
0.0
  0
LINE
  5
152
330
18
100
AcDbEntity
  8
ADP1DETAIL
100
AcDbLine
 10
-20.86142354586369
 20
-12.51133130168449
 30
0.0
 11
-19.17552389275666
 21
-12.59429748558054
 31
0.0
  0
ARC
  5
153
330
18
100
AcDbEntity
  8
ADP1DETAIL
100
AcDbCircle
 10
-20.81582193204931
 20
-12.21606915530938
 30
0.0
 40
0.29876285288589
100
AcDbArc
 50
188.6754878693441
 51
261.2203508494926
  0
ARC
  5
154
330
18
100
AcDbEntity
  8
ADP1DETAIL
100
AcDbCircle
 10
-20.85225821870004
 20
-13.7435111309536
 30
0.0
 40
0.25
100
AcDbArc
 50
91.5766187604145
 51
180.0
  0
LINE
  5
155
330
18
100
AcDbEntity
  8
ADP1DETAIL
100
AcDbLine
 10
-21.35225821870004
 20
-11.12529748558054
 30
0.0
 11
-21.22725821870004
 21
-11.12529748558054
 31
0.0
  0
ARC
  5
156
330
18
100
AcDbEntity
  8
ADP1DETAIL
100
AcDbCircle
 10
-21.22147500678154
 20
-11.23633557693283
 30
0.0
 40
0.1111885932605136
100
AcDbArc
 50
352.7863485952821
 51
92.9814498955298
  0
LINE
  5
157
330
18
100
AcDbEntity
  8
ADP2DETAIL
  6
HIDDEN2
100
AcDbLine
 10
-13.93525821870005
 20
-11.11706279446279
 30
0.0
 11
-15.93525821870004
 21
-11.11706279446279
 31
0.0
  0
DIMENSION
  5
158
330
18
100
AcDbEntity
  8
ADPDIM
100
AcDbDimension
  2
*D3
 10
-14.25405005644563
 20
-10.81491178846174
 30
0.0
 11
-14.93124223253981
 21
-10.81491178846174
 31
0.0
 70
    32
  3
STANDARD
100
AcDbAlignedDimension
 13
-15.608434408634
 23
-10.99491178846174
 33
0.0
 14
-14.25405005644563
 24
-10.93779596109642
 34
0.0
100
AcDbRotatedDimension
1001
ACAD
1000
DSTYLE
1002
{
1070
   270
1070
     7
1070
   270
1070
     7
1070
   270
1070
     7
1070
   270
1070
     7
1070
   270
1070
     7
1070
   270
1070
     7
1070
    41
1040
0.125
1070
    73
1070
     0
1070
    74
1070
     0
1070
    78
1070
     2
1070
   140
1040
0.125
1070
   141
1040
0.1875
1070
   142
1040
0.125
1070
   147
1040
0.125
1070
   171
1070
     1
1070
   276
1070
     2
1070
   277
1070
     5
1002
}
  0
DIMENSION
  5
159
330
18
100
AcDbEntity
  8
ADPDIM
100
AcDbDimension
  2
*D2
 10
-13.9391946422833
 20
-10.47279596109642
 30
0.0
 11
-14.93722643049167
 21
-10.47279596109642
 31
0.0
 70
    32
  3
STANDARD
100
AcDbAlignedDimension
 13
-15.93525821870004
 23
-11.00091178846174
 33
0.0
 14
-13.9391946422833
 24
-11.00091178846174
 34
0.0
100
AcDbRotatedDimension
1001
ACAD
1000
DSTYLE
1002
{
1070
   270
1070
     7
1070
   270
1070
     7
1070
   270
1070
     7
1070
   270
1070
     7
1070
   270
1070
     7
1070
   270
1070
     7
1070
    41
1040
0.125
1070
    73
1070
     0
1070
    74
1070
     0
1070
    78
1070
     2
1070
   140
1040
0.125
1070
   141
1040
0.1875
1070
   142
1040
0.125
1070
   147
1040
0.125
1070
   171
1070
     1
1070
   276
1070
     2
1070
   277
1070
     5
1002
}
  0
ARC
  5
15A
330
18
100
AcDbEntity
  8
ADP1DETAIL
100
AcDbCircle
 10
-14.93525821870004
 20
-12.99797159731531
 30
0.0
 40
0.375
100
AcDbArc
 50
171.2355192817106
 51
8.764480718289892
  0
LINE
  5
15B
330
18
100
AcDbEntity
  8
ADP1DETAIL
100
AcDbLine
 10
-15.93525821870004
 20
-11.00091178846174
 30
0.0
 11
-13.93525821870005
 21
-11.00091178846174
 31
0.0
  0
LINE
  5
15C
330
18
100
AcDbEntity
  8
ADP1DETAIL
100
AcDbLine
 10
-14.5479310595227
 20
-11.36684212044932
 30
0.0
 11
-15.93525821870004
 21
-11.36684212044932
 31
0.0
  0
LINE
  5
15D
330
18
100
AcDbEntity
  8
ADP1DETAIL
100
AcDbLine
 10
-18.04396088477387
 20
-11.35478548998897
 30
0.0
 11
-17.95652389275666
 21
-12.43779748558054
 31
0.0
  0
LINE
  5
15E
330
18
100
AcDbEntity
  8
ADP1DETAIL
100
AcDbLine
 10
-18.67552389275666
 20
-12.09429748558054
 30
0.0
 11
-18.66578456751865
 21
-11.32908505871789
 31
0.0
  0
ARC
  5
15F
330
18
100
AcDbEntity
  8
ADP1DETAIL
100
AcDbCircle
 10
-19.17552389275666
 20
-12.09429748558054
 30
0.0
 40
0.5
100
AcDbArc
 50
270.0
 51
0.0
  0
ARC
  5
160
330
18
100
AcDbEntity
  8
ADP1DETAIL
100
AcDbCircle
 10
-18.95652389275666
 20
-12.43779748558054
 30
0.0
 40
1.0
100
AcDbArc
 50
270.0
 51
0.0
  0
ARC
  5
161
330
18
100
AcDbEntity
  8
ADP1DETAIL
100
AcDbCircle
 10
-18.35225821870004
 20
-10.29529748558054
 30
0.0
 40
0.8299999999999998
100
AcDbArc
 50
243.8369756605774
 51
296.1630243394225
  0
ARC
  5
162
330
18
100
AcDbEntity
  8
ADP1DETAIL
100
AcDbCircle
 10
-18.91576432097182
 20
-11.32590341394013
 30
0.0
 40
0.25
100
AcDbArc
 50
359.2708010441794
 51
34.03606276599496
  0
ARC
  5
163
330
18
100
AcDbEntity
  8
ADP1DETAIL
100
AcDbCircle
 10
-18.35225821870004
 20
-10.94529748558054
 30
0.0
 40
0.43
100
AcDbArc
 50
197.9225350038457
 51
342.0774649961542
  0
ARC
  5
164
330
18
100
AcDbEntity
  8
ADP1DETAIL
100
AcDbCircle
 10
-18.731896122794
 20
-11.06808210096516
 30
0.0
 40
0.031
100
AcDbArc
 50
63.83697566057705
 51
197.922535003846
  0
ARC
  5
165
330
18
100
AcDbEntity
  8
ADP1DETAIL
100
AcDbCircle
 10
-18.35225821870004
 20
-10.94529748558054
 30
0.0
 40
0.43
100
AcDbArc
 50
197.9225350038457
 51
214.036062765995
  0
LINE
  5
166
330
18
100
AcDbEntity
  8
ADP2DETAIL
  6
HIDDEN2
100
AcDbLine
 10
-18.47454427778191
 20
-11.18468730415542
 30
0.0
 11
-18.2527594490469
 21
-11.18468730415542
 31
0.0
  0
LINE
  5
167
330
18
100
AcDbEntity
  8
ADP2DETAIL
  6
HIDDEN2
100
AcDbLine
 10
-18.46715144937206
 20
-11.18468730415542
 30
0.0
 11
-18.56325821870004
 21
-11.31029748558054
 31
0.0
  0
LINE
  5
168
330
18
100
AcDbEntity
  8
ADP2DETAIL
  6
HIDDEN2
100
AcDbLine
 10
-18.2527594490469
 20
-11.18468730415542
 30
0.0
 11
-18.14220311153001
 21
-11.2921272627879
 31
0.0
  0
LINE
  5
169
330
18
100
AcDbEntity
  8
ADP2DETAIL
  6
HIDDEN2
100
AcDbLine
 10
-18.46715144937206
 20
-11.11818779541515
 30
0.0
 11
-18.46715144937206
 21
-11.18468730415542
 31
0.0
  0
LINE
  5
16A
330
18
100
AcDbEntity
  8
ADP2DETAIL
  6
HIDDEN2
100
AcDbLine
 10
-18.25104154389503
 20
-11.12215909080991
 30
0.0
 11
-18.2527594490469
 21
-11.18468730415542
 31
0.0
  0
ARC
  5
16B
330
18
100
AcDbEntity
  8
ADP1DETAIL
100
AcDbCircle
 10
-17.97262031460609
 20
-11.06808210096516
 30
0.0
 40
0.031
100
AcDbArc
 50
342.0774649961539
 51
116.1630243394229
  0
ARC
  5
16C
330
18
100
AcDbEntity
  8
ADP1DETAIL
100
AcDbCircle
 10
-17.7947716910802
 20
-11.33466719616724
 30
0.0
 40
0.25
100
AcDbArc
 50
145.0680927988324
 51
184.61576437552
  0
ARC
  5
16D
330
18
100
AcDbEntity
  8
ADP1DETAIL
100
AcDbCircle
 10
-18.35225821870004
 20
-10.94529748558054
 30
0.0
 40
0.43
100
AcDbArc
 50
325.0680927988324
 51
342.0774649961542
  0
ARC
  5
16E
330
18
100
AcDbEntity
  8
ADP1DETAIL
100
AcDbCircle
 10
-15.32020398145414
 20
-11.49184212044932
 30
0.0
 40
0.125
100
AcDbArc
 50
355.6177596408554
 51
90.0
  0
LINE
  5
16F
330
18
100
AcDbEntity
  8
ADP1DETAIL
100
AcDbLine
 10
-15.30587935563017
 20
-12.94083165628785
 30
0.0
 11
-15.1955694208939
 21
-11.5013933671719
 31
0.0
  0
LINE
  5
170
330
18
100
AcDbEntity
  8
ADP2DETAIL
  6
HIDDEN2
100
AcDbLine
 10
-15.7591290542078
 20
-11.236910809836
 30
0.0
 11
-15.53734422547279
 21
-11.236910809836
 31
0.0
  0
LINE
  5
171
330
18
100
AcDbEntity
  8
ADP2DETAIL
  6
HIDDEN2
100
AcDbLine
 10
-15.75173622579796
 20
-11.236910809836
 30
0.0
 11
-15.84784299512594
 21
-11.36252099126112
 31
0.0
  0
LINE
  5
172
330
18
100
AcDbEntity
  8
ADP2DETAIL
  6
HIDDEN2
100
AcDbLine
 10
-15.75173622579796
 20
-11.1231302130729
 30
0.0
 11
-15.75173622579796
 21
-11.236910809836
 31
0.0
  0
LINE
  5
173
330
18
100
AcDbEntity
  8
ADP1DETAIL
100
AcDbLine
 10
-15.93525821870004
 20
-11.36684212044932
 30
0.0
 11
-15.93525821870004
 21
-11.00091178846174
 31
0.0
  0
LINE
  5
174
330
18
100
AcDbEntity
  8
ADP2DETAIL
  6
HIDDEN2
100
AcDbLine
 10
-15.53734422547279
 20
-11.236910809836
 30
0.0
 11
-15.41166614250543
 21
-11.36990982731653
 31
0.0
  0
LINE
  5
175
330
18
100
AcDbEntity
  8
ADP2DETAIL
  6
HIDDEN2
100
AcDbLine
 10
-15.53734422547279
 20
-11.11130062841087
 30
0.0
 11
-15.53734422547279
 21
-11.236910809836
 31
0.0
  0
DIMENSION
  5
176
330
18
100
AcDbEntity
  8
ADPDIM
100
AcDbDimension
  2
*D1
 10
-12.58963399623741
 20
-11.11706279446279
 30
0.0
 11
-12.58963399623741
 21
-12.06129676096234
 31
0.0
 70
    32
  3
STANDARD
100
AcDbAlignedDimension
 13
-14.79063399623741
 23
-13.00553072746188
 33
0.0
 14
-13.93525821870005
 24
-11.11706279446279
 34
0.0
 50
90.0
100
AcDbRotatedDimension
1001
ACAD
1000
DSTYLE
1002
{
1070
   270
1070
     7
1070
   270
1070
     7
1070
   270
1070
     7
1070
   270
1070
     7
1070
   270
1070
     7
1070
   270
1070
     7
1070
    41
1040
0.125
1070
    73
1070
     0
1070
    74
1070
     0
1070
    78
1070
     2
1070
   140
1040
0.125
1070
   141
1040
0.1875
1070
   142
1040
0.125
1070
   147
1040
0.125
1070
   171
1070
     1
1070
   276
1070
     2
1070
   277
1070
     5
1002
}
  0
ARC
  5
177
330
18
100
AcDbEntity
  8
ADP1DETAIL
100
AcDbCircle
 10
-14.55031245594595
 20
-11.49184212044932
 30
0.0
 40
0.125
100
AcDbArc
 50
90.0
 51
184.3822403591446
  0
LINE
  5
178
330
18
100
AcDbEntity
  8
ADP1DETAIL
100
AcDbLine
 10
-14.67494701650619
 20
-11.5013933671719
 30
0.0
 11
-14.56463708176992
 21
-12.94083165628785
 31
0.0
  0
LINE
  5
179
330
18
100
AcDbEntity
  8
ADP2DETAIL
  6
HIDDEN2
100
AcDbLine
 10
-14.36927738383799
 20
-11.236910809836
 30
0.0
 11
-14.46538415316597
 21
-11.36252099126112
 31
0.0
  0
LINE
  5
17A
330
18
100
AcDbEntity
  8
ADP1DETAIL
100
AcDbLine
 10
-13.93525821870005
 20
-11.36684212044932
 30
0.0
 11
-14.55031245594595
 21
-11.36684212044932
 31
0.0
  0
LINE
  5
17B
330
18
100
AcDbEntity
  8
ADP2DETAIL
  6
HIDDEN2
100
AcDbLine
 10
-14.37667021224784
 20
-11.236910809836
 30
0.0
 11
-14.15488538351282
 21
-11.236910809836
 31
0.0
  0
LINE
  5
17C
330
18
100
AcDbEntity
  8
ADP2DETAIL
  6
HIDDEN2
100
AcDbLine
 10
-14.15488538351282
 20
-11.236910809836
 30
0.0
 11
-14.02920730054547
 21
-11.36990982731653
 31
0.0
  0
LINE
  5
17D
330
18
100
AcDbEntity
  8
ADP2DETAIL
  6
HIDDEN2
100
AcDbLine
 10
-14.36740064211116
 20
-11.1231302130729
 30
0.0
 11
-14.36927738383799
 21
-11.236910809836
 31
0.0
  0
LINE
  5
17E
330
18
100
AcDbEntity
  8
ADP2DETAIL
  6
HIDDEN2
100
AcDbLine
 10
-14.15488538351282
 20
-11.11130062841087
 30
0.0
 11
-14.15488538351282
 21
-11.236910809836
 31
0.0
  0
LINE
  5
17F
330
18
100
AcDbEntity
  8
ADP1DETAIL
100
AcDbLine
 10
-13.93525821870005
 20
-11.00091178846174
 30
0.0
 11
-13.93525821870005
 21
-11.36684212044932
 31
0.0
  0
DIMENSION
  5
18F
330
18
100
AcDbEntity
  8
ADPDIM
100
AcDbDimension
  2
*D0
 10
-18.35225821870004
 20
-10.80963226528379
 30
0.0
 11
-19.85225821870004
 21
-10.80963226528379
 31
0.0
 70
    32
  3
STANDARD
100
AcDbAlignedDimension
 13
-21.35225821870004
 23
-11.12529748558054
 33
0.0
 14
-18.35225821870004
 24
-11.12529748558054
 34
0.0
100
AcDbRotatedDimension
1001
ACAD
1000
DSTYLE
1002
{
1070
   270
1070
     7
1070
   270
1070
     7
1070
   270
1070
     7
1070
   270
1070
     7
1070
   270
1070
     7
1070
   270
1070
     7
1070
    41
1040
0.125
1070
    73
1070
     0
1070
    74
1070
     0
1070
    78
1070
     2
1070
   140
1040
0.125
1070
   141
1040
0.1875
1070
   142
1040
0.125
1070
   147
1040
0.125
1070
   171
1070
     1
1070
   276
1070
     2
1070
   277
1070
     5
1002
}
  0
TEXT
  5
1FD
330
18
100
AcDbEntity
  8
ADPDIM
100
AcDbText
 10
-25.45656328781102
 20
-15.78408612691931
 30
0.0
 40
0.15625
  1
J U L I U S  B L U M  &  C O . ,  I N C .      ( 8 0 0 )  5 2 6 - 6 2 9 3        W W W . J U L I U S B L U M . C O M        P A R T  N o .  1 3 8 6
 41
1.25
  7
ARIAL_WIDE
 72
     1
 11
-17.29940200711524
 21
-15.62783612691931
 31
0.0
100
AcDbText
 73
     3
  0
ENDSEC
  0
SECTION
  2
OBJECTS
  0
DICTIONARY
  5
C
330
0
100
AcDbDictionary
  3
ACAD_GROUP
350
D
  3
ACAD_LAYOUT
350
1F6
  3
ACAD_MLINESTYLE
350
E
  3
ACAD_PLOTSETTINGS
350
1F7
  3
ACAD_PLOTSTYLENAME
350
1F4
  3
ACDBHEADERROUNDTRIPXREC
350
4F0
  3
ACDBVARIABLEDICTIONARY
350
2B7
  0
DICTIONARY
  5
282
330
18
100
AcDbDictionary
280
     1
  3
ACAD_LAYOUTSELFREF
360
512
  0
DICTIONARY
  5
280
330
15
100
AcDbDictionary
280
     1
  3
ACAD_LAYOUTSELFREF
360
511
  0
DICTIONARY
  5
D
102
{ACAD_REACTORS
330
C
102
}
330
C
100
AcDbDictionary
  0
DICTIONARY
  5
1F6
102
{ACAD_REACTORS
330
C
102
}
330
C
100
AcDbDictionary
  0
DICTIONARY
  5
E
102
{ACAD_REACTORS
330
C
102
}
330
C
100
AcDbDictionary
  3
STANDARD
350
1B
  0
DICTIONARY
  5
1F7
102
{ACAD_REACTORS
330
C
102
}
330
C
100
AcDbDictionary
  0
ACDBDICTIONARYWDFLT
  5
1F4
102
{ACAD_REACTORS
330
C
102
}
330
C
100
AcDbDictionary
281
     1
  3
Normal
350
1F5
100
AcDbDictionaryWithDefault
340
1F5
  0
DICTIONARY
  5
4F0
102
{ACAD_REACTORS
330
C
102
}
330
C
100
AcDbDictionary
  3
CEPSNTYPE
350
4FA
  3
DIMSTYLEDATA
350
4FE
  3
FINGERPRINTGUID
350
4FB
  3
HYPERLINKBASE
350
4F3
  3
INSUNITS
350
4F9
  3
LAYOUTDICT
350
4F5
  3
LWETCUNION
350
4F8
  3
PLOTSETDICT
350
4F6
  3
PLOTSTYLNAMDICT
350
4F7
  3
PSVPSCALE
350
4FD
  3
PUCSBASE
350
501
  3
PUCSORGBACK
350
507
  3
PUCSORGBOTTOM
350
503
  3
PUCSORGFRONT
350
506
  3
PUCSORGLEFT
350
504
  3
PUCSORGRIGHT
350
505
  3
PUCSORGTOP
350
502
  3
PUCSORTHOREF
350
4FF
  3
PUCSORTHOVIEW
350
500
  3
STYLESHEET
350
4F4
  3
TSTACKALIGN
350
4F1
  3
TSTACKSIZE
350
4F2
  3
UCSBASE
350
50A
  3
UCSORGBACK
350
510
  3
UCSORGBOTTOM
350
50C
  3
UCSORGFRONT
350
50F
  3
UCSORGLEFT
350
50D
  3
UCSORGRIGHT
350
50E
  3
UCSORGTOP
350
50B
  3
UCSORTHOREF
350
508
  3
UCSORTHOVIEW
350
509
  3
VERSIONGUID
350
4FC
  0
DICTIONARY
  5
2B7
102
{ACAD_REACTORS
330
C
102
}
330
C
100
AcDbDictionary
  3
DIMASSOC
350
2B8
  0
XRECORD
  5
512
102
{ACAD_REACTORS
330
282
102
}
330
282
100
AcDbXrecord
340
18
  0
XRECORD
  5
511
102
{ACAD_REACTORS
330
280
102
}
330
280
100
AcDbXrecord
340
15
  0
MLINESTYLE
  5
1B
102
{ACAD_REACTORS
330
E
102
}
330
E
100
AcDbMlineStyle
  2
STANDARD
 70
     0
  3

 62
     0
 51
90.0
 52
90.0
 71
     2
 49
0.5
 62
   256
  6
BYLAYER
 49
-0.5
 62
   256
  6
BYLAYER
  0
ACDBPLACEHOLDER
  5
1F5
102
{ACAD_REACTORS
330
1F4
102
}
330
1F4
100
AcDbPlaceHolder
280
     0
  0
XRECORD
  5
4FA
102
{ACAD_REACTORS
330
4F0
102
}
330
4F0
100
AcDbXrecord
 90
        0
  0
XRECORD
  5
4FE
102
{ACAD_REACTORS
330
4F0
102
}
330
4F0
100
AcDbXrecord
1000
DSTYLE
1002
{
1070
   276
 70
     2
1070
   277
 70
     5
1002
}
  0
XRECORD
  5
4FB
102
{ACAD_REACTORS
330
4F0
102
}
330
4F0
100
AcDbXrecord
  1
{23D298F4-6B17-4113-A826-9AA1CA6FF1CE}
  0
XRECORD
  5
4F3
102
{ACAD_REACTORS
330
4F0
102
}
330
4F0
100
AcDbXrecord
  1

  0
XRECORD
  5
4F9
102
{ACAD_REACTORS
330
4F0
102
}
330
4F0
100
AcDbXrecord
 90
        0
  0
XRECORD
  5
4F5
102
{ACAD_REACTORS
330
4F0
102
}
330
4F0
100
AcDbXrecord
340
1F6
  0
XRECORD
  5
4F8
102
{ACAD_REACTORS
330
4F0
102
}
330
4F0
100
AcDbXrecord
 90
    14877
  0
XRECORD
  5
4F6
102
{ACAD_REACTORS
330
4F0
102
}
330
4F0
100
AcDbXrecord
340
1F7
  0
XRECORD
  5
4F7
102
{ACAD_REACTORS
330
4F0
102
}
330
4F0
100
AcDbXrecord
340
1F4
  0
XRECORD
  5
4FD
102
{ACAD_REACTORS
330
4F0
102
}
330
4F0
100
AcDbXrecord
 40
0.0
  0
XRECORD
  5
501
102
{ACAD_REACTORS
330
4F0
102
}
330
4F0
100
AcDbXrecord
340
0
  0
XRECORD
  5
507
102
{ACAD_REACTORS
330
4F0
102
}
330
4F0
100
AcDbXrecord
 10
0.0
 20
0.0
 30
0.0
  0
XRECORD
  5
503
102
{ACAD_REACTORS
330
4F0
102
}
330
4F0
100
AcDbXrecord
 10
0.0
 20
0.0
 30
0.0
  0
XRECORD
  5
506
102
{ACAD_REACTORS
330
4F0
102
}
330
4F0
100
AcDbXrecord
 10
0.0
 20
0.0
 30
0.0
  0
XRECORD
  5
504
102
{ACAD_REACTORS
330
4F0
102
}
330
4F0
100
AcDbXrecord
 10
0.0
 20
0.0
 30
0.0
  0
XRECORD
  5
505
102
{ACAD_REACTORS
330
4F0
102
}
330
4F0
100
AcDbXrecord
 10
0.0
 20
0.0
 30
0.0
  0
XRECORD
  5
502
102
{ACAD_REACTORS
330
4F0
102
}
330
4F0
100
AcDbXrecord
 10
0.0
 20
0.0
 30
0.0
  0
XRECORD
  5
4FF
102
{ACAD_REACTORS
330
4F0
102
}
330
4F0
100
AcDbXrecord
340
0
  0
XRECORD
  5
500
102
{ACAD_REACTORS
330
4F0
102
}
330
4F0
100
AcDbXrecord
 70
     0
  0
XRECORD
  5
4F4
102
{ACAD_REACTORS
330
4F0
102
}
330
4F0
100
AcDbXrecord
  1

  0
XRECORD
  5
4F1
102
{ACAD_REACTORS
330
4F0
102
}
330
4F0
100
AcDbXrecord
 90
        1
  0
XRECORD
  5
4F2
102
{ACAD_REACTORS
330
4F0
102
}
330
4F0
100
AcDbXrecord
 90
       70
  0
XRECORD
  5
50A
102
{ACAD_REACTORS
330
4F0
102
}
330
4F0
100
AcDbXrecord
340
0
  0
XRECORD
  5
510
102
{ACAD_REACTORS
330
4F0
102
}
330
4F0
100
AcDbXrecord
 10
0.0
 20
0.0
 30
0.0
  0
XRECORD
  5
50C
102
{ACAD_REACTORS
330
4F0
102
}
330
4F0
100
AcDbXrecord
 10
0.0
 20
0.0
 30
0.0
  0
XRECORD
  5
50F
102
{ACAD_REACTORS
330
4F0
102
}
330
4F0
100
AcDbXrecord
 10
0.0
 20
0.0
 30
0.0
  0
XRECORD
  5
50D
102
{ACAD_REACTORS
330
4F0
102
}
330
4F0
100
AcDbXrecord
 10
0.0
 20
0.0
 30
0.0
  0
XRECORD
  5
50E
102
{ACAD_REACTORS
330
4F0
102
}
330
4F0
100
AcDbXrecord
 10
0.0
 20
0.0
 30
0.0
  0
XRECORD
  5
50B
102
{ACAD_REACTORS
330
4F0
102
}
330
4F0
100
AcDbXrecord
 10
0.0
 20
0.0
 30
0.0
  0
XRECORD
  5
508
102
{ACAD_REACTORS
330
4F0
102
}
330
4F0
100
AcDbXrecord
340
0
  0
XRECORD
  5
509
102
{ACAD_REACTORS
330
4F0
102
}
330
4F0
100
AcDbXrecord
 70
     0
  0
XRECORD
  5
4FC
102
{ACAD_REACTORS
330
4F0
102
}
330
4F0
100
AcDbXrecord
  1
{2F1F29E6-A32E-4C92-993B-858F0CA12472}
  0
DICTIONARYVAR
  5
2B8
102
{ACAD_REACTORS
330
2B7
102
}
330
2B7
100
DictionaryVariables
280
     0
  1
1
  0
ENDSEC
  0
EOF
