  0
SECTION
  2
HEADER
  9
$ACADVER
  1
AC1014
  9
$ACADMAINTVER
 70
     9
  9
$DWGCODEPAGE
  3
ANSI_1252
  9
$INSBASE
 10
10.82187017651893
 20
3.689947232551996
 30
0.0
  9
$EXTMIN
 10
7.012232104439909
 20
2.98681489221191
 30
0.0
  9
$EXTMAX
 10
16.80082564127483
 20
5.604792367150183
 30
0.0
  9
$LIMMIN
 10
0.0
 20
0.0
  9
$LIMMAX
 10
36.0
 20
36.0
  9
$ORTHOMODE
 70
     1
  9
$REGENMODE
 70
     1
  9
$FILLMODE
 70
     1
  9
$QTEXTMODE
 70
     0
  9
$MIRRTEXT
 70
     1
  9
$DRAGMODE
 70
     0
  9
$LTSCALE
 40
1.0
  9
$OSMODE
 70
    37
  9
$ATTMODE
 70
     1
  9
$TEXTSIZE
 40
0.2
  9
$TRACEWID
 40
0.05
  9
$TEXTSTYLE
  7
STANDARD
  9
$CLAYER
  8
ADP1DETAIL
  9
$CELTYPE
  6
BYLAYER
  9
$CECOLOR
 62
   256
  9
$CELTSCALE
 40
1.0
  9
$DELOBJ
 70
     1
  9
$DISPSILH
 70
     0
  9
$DIMSCALE
 40
1.0
  9
$DIMASZ
 40
0.125
  9
$DIMEXO
 40
0.0625
  9
$DIMDLI
 40
0.38
  9
$DIMRND
 40
0.0
  9
$DIMDLE
 40
0.0
  9
$DIMEXE
 40
0.18
  9
$DIMTP
 40
0.0
  9
$DIMTM
 40
0.0
  9
$DIMTXT
 40
0.125
  9
$DIMCEN
 40
0.1875
  9
$DIMTSZ
 40
0.125
  9
$DIMTOL
 70
     0
  9
$DIMLIM
 70
     0
  9
$DIMTIH
 70
     0
  9
$DIMTOH
 70
     0
  9
$DIMSE1
 70
     0
  9
$DIMSE2
 70
     0
  9
$DIMTAD
 70
     0
  9
$DIMZIN
 70
     3
  9
$DIMBLK
  1

  9
$DIMASO
 70
     1
  9
$DIMSHO
 70
     1
  9
$DIMPOST
  1

  9
$DIMAPOST
  1

  9
$DIMALT
 70
     0
  9
$DIMALTD
 70
     1
  9
$DIMALTF
 40
25.4
  9
$DIMLFAC
 40
1.0
  9
$DIMTOFL
 70
     0
  9
$DIMTVP
 40
0.0
  9
$DIMTIX
 70
     0
  9
$DIMSOXD
 70
     0
  9
$DIMSAH
 70
     0
  9
$DIMBLK1
  1

  9
$DIMBLK2
  1

  9
$DIMSTYLE
  2
STANDARD
  9
$DIMCLRD
 70
     0
  9
$DIMCLRE
 70
     0
  9
$DIMCLRT
 70
     0
  9
$DIMTFAC
 40
1.0
  9
$DIMGAP
 40
0.125
  9
$DIMJUST
 70
     0
  9
$DIMSD1
 70
     0
  9
$DIMSD2
 70
     0
  9
$DIMTOLJ
 70
     1
  9
$DIMTZIN
 70
     0
  9
$DIMALTZ
 70
     0
  9
$DIMALTTZ
 70
     0
  9
$DIMFIT
 70
     3
  9
$DIMUPT
 70
     0
  9
$DIMUNIT
 70
     2
  9
$DIMDEC
 70
     4
  9
$DIMTDEC
 70
     4
  9
$DIMALTU
 70
     2
  9
$DIMALTTD
 70
     2
  9
$DIMTXSTY
  7
STANDARD
  9
$DIMAUNIT
 70
     0
  9
$LUNITS
 70
     5
  9
$LUPREC
 70
     4
  9
$SKETCHINC
 40
0.1
  9
$FILLETRAD
 40
0.062
  9
$AUNITS
 70
     0
  9
$AUPREC
 70
     0
  9
$MENU
  1
acad
  9
$ELEVATION
 40
0.0
  9
$PELEVATION
 40
0.0
  9
$THICKNESS
 40
0.0
  9
$LIMCHECK
 70
     0
  9
$BLIPMODE
 70
     0
  9
$CHAMFERA
 40
0.0
  9
$CHAMFERB
 40
0.0
  9
$CHAMFERC
 40
0.0
  9
$CHAMFERD
 40
0.0
  9
$SKPOLY
 70
     0
  9
$TDCREATE
 40
2450415.456697523
  9
$TDUPDATE
 40
2452297.081377315
  9
$TDINDWG
 40
0.0183972338
  9
$TDUSRTIMER
 40
0.0183972338
  9
$USRTIMER
 70
     1
  9
$ANGBASE
 50
0.0
  9
$ANGDIR
 70
     0
  9
$PDMODE
 70
     0
  9
$PDSIZE
 40
0.0
  9
$PLINEWID
 40
0.0
  9
$COORDS
 70
     2
  9
$SPLFRAME
 70
     0
  9
$SPLINETYPE
 70
     6
  9
$SPLINESEGS
 70
     8
  9
$ATTDIA
 70
     0
  9
$ATTREQ
 70
     1
  9
$HANDLING
 70
 22529
  9
$HANDSEED
  5
3F2
  9
$SURFTAB1
 70
     6
  9
$SURFTAB2
 70
     6
  9
$SURFTYPE
 70
     6
  9
$SURFU
 70
     6
  9
$SURFV
 70
     6
  9
$UCSNAME
  2

  9
$UCSORG
 10
0.0
 20
0.0
 30
0.0
  9
$UCSXDIR
 10
1.0
 20
0.0
 30
0.0
  9
$UCSYDIR
 10
0.0
 20
1.0
 30
0.0
  9
$PUCSNAME
  2

  9
$PUCSORG
 10
0.0
 20
0.0
 30
0.0
  9
$PUCSXDIR
 10
1.0
 20
0.0
 30
0.0
  9
$PUCSYDIR
 10
0.0
 20
1.0
 30
0.0
  9
$USERI1
 70
     0
  9
$USERI2
 70
     0
  9
$USERI3
 70
     0
  9
$USERI4
 70
     0
  9
$USERI5
 70
     0
  9
$USERR1
 40
0.0
  9
$USERR2
 40
0.0
  9
$USERR3
 40
0.0
  9
$USERR4
 40
0.0
  9
$USERR5
 40
0.0
  9
$WORLDVIEW
 70
     1
  9
$SHADEDGE
 70
     3
  9
$SHADEDIF
 70
    70
  9
$TILEMODE
 70
     1
  9
$MAXACTVP
 70
    15
  9
$PINSBASE
 10
0.0
 20
0.0
 30
0.0
  9
$PLIMCHECK
 70
     0
  9
$PEXTMIN
 10
1.000000000000000E+20
 20
1.000000000000000E+20
 30
1.000000000000000E+20
  9
$PEXTMAX
 10
-1.000000000000000E+20
 20
-1.000000000000000E+20
 30
-1.000000000000000E+20
  9
$PLIMMIN
 10
0.0
 20
0.0
  9
$PLIMMAX
 10
12.0
 20
9.0
  9
$UNITMODE
 70
     0
  9
$VISRETAIN
 70
     0
  9
$PLINEGEN
 70
     0
  9
$PSLTSCALE
 70
     1
  9
$TREEDEPTH
 70
  3020
  9
$PICKSTYLE
 70
     1
  9
$CMLSTYLE
  2
STANDARD
  9
$CMLJUST
 70
     0
  9
$CMLSCALE
 40
1.0
  9
$PROXYGRAPHICS
 70
     1
  9
$MEASUREMENT
 70
     0
  0
ENDSEC
  0
SECTION
  2
CLASSES
  0
CLASS
  1
ACDBDICTIONARYWDFLT
  2
AcDbDictionaryWithDefault
  3
AutoCAD 2000
 90
        0
280
     0
281
     0
  0
CLASS
  1
ACDBPLACEHOLDER
  2
AcDbPlaceHolder
  3
AutoCAD 2000
 90
        0
280
     0
281
     0
  0
CLASS
  1
LAYOUT
  2
AcDbLayout
  3
AutoCAD 2000
 90
        0
280
     0
281
     0
  0
CLASS
  1
DICTIONARYVAR
  2
AcDbDictionaryVar
  3
AutoCAD 2000
 90
        0
280
     0
281
     0
  0
CLASS
  1
LONG_TRANSACTION
  2
AcDbLongTransaction
  3
AutoCAD 2000
 90
        0
280
     0
281
     0
  0
CLASS
  1
LWPOLYLINE
  2
AcDbPolyline
  3
AutoCAD 2000
 90
        0
280
     0
281
     1
  0
CLASS
  1
HATCH
  2
AcDbHatch
  3
AutoCAD 2000
 90
        0
280
     0
281
     1
  0
CLASS
  1
XRECORD
  2
AcDbXrecord
  3
AutoCAD 2000
 90
        0
280
     0
281
     0
  0
CLASS
  1
LONG_TRANSACTION
  2
AcDbLongTransaction
  3
AutoCAD 2000
 90
        0
280
     0
281
     0
  0
CLASS
  1
LWPOLYLINE
  2
AcDbPolyline
  3
AutoCAD 2000
 90
        0
280
     0
281
     1
  0
CLASS
  1
HATCH
  2
AcDbHatch
  3
AutoCAD 2000
 90
        0
280
     0
281
     1
  0
CLASS
  1
XRECORD
  2
AcDbXrecord
  3
AutoCAD 2000
 90
        0
280
     0
281
     0
  0
CLASS
  1
LONG_TRANSACTION
  2
AcDbLongTransaction
  3
AutoCAD 2000
 90
        0
280
     0
281
     0
  0
CLASS
  1
LWPOLYLINE
  2
AcDbPolyline
  3
AutoCAD 2000
 90
        0
280
     0
281
     1
  0
CLASS
  1
HATCH
  2
AcDbHatch
  3
AutoCAD 2000
 90
        0
280
     0
281
     1
  0
CLASS
  1
XRECORD
  2
AcDbXrecord
  3
AutoCAD 2000
 90
        0
280
     0
281
     0
  0
CLASS
  1
LONG_TRANSACTION
  2
AcDbLongTransaction
  3
AutoCAD 2000
 90
        0
280
     0
281
     0
  0
CLASS
  1
LWPOLYLINE
  2
AcDbPolyline
  3
AutoCAD 2000
 90
        0
280
     0
281
     1
  0
CLASS
  1
HATCH
  2
AcDbHatch
  3
AutoCAD 2000
 90
        0
280
     0
281
     1
  0
CLASS
  1
XRECORD
  2
AcDbXrecord
  3
AutoCAD 2000
 90
        0
280
     0
281
     0
  0
CLASS
  1
LONG_TRANSACTION
  2
AcDbLongTransaction
  3
AutoCAD 2000
 90
        0
280
     0
281
     0
  0
CLASS
  1
LWPOLYLINE
  2
AcDbPolyline
  3
AutoCAD 2000
 90
        0
280
     0
281
     1
  0
CLASS
  1
HATCH
  2
AcDbHatch
  3
AutoCAD 2000
 90
        0
280
     0
281
     1
  0
CLASS
  1
XRECORD
  2
AcDbXrecord
  3
AutoCAD 2000
 90
        0
280
     0
281
     0
  0
CLASS
  1
LONG_TRANSACTION
  2
AcDbLongTransaction
  3
AutoCAD 2000
 90
        0
280
     0
281
     0
  0
CLASS
  1
LWPOLYLINE
  2
AcDbPolyline
  3
AutoCAD 2000
 90
        0
280
     0
281
     1
  0
CLASS
  1
HATCH
  2
AcDbHatch
  3
AutoCAD 2000
 90
        0
280
     0
281
     1
  0
CLASS
  1
XRECORD
  2
AcDbXrecord
  3
AutoCAD 2000
 90
        0
280
     0
281
     0
  0
ENDSEC
  0
SECTION
  2
TABLES
  0
TABLE
  2
VPORT
  5
8
330
0
100
AcDbSymbolTable
 70
     2
  0
VPORT
  5
3CF
330
8
100
AcDbSymbolTableRecord
100
AcDbViewportTableRecord
  2
*ACTIVE
 70
     0
 10
0.0
 20
0.0
 11
1.0
 21
1.0
 12
11.91461040571402
 22
4.295929022943521
 13
0.0
 23
0.0
 14
0.5740882589684922
 24
0.5740882589684922
 15
0.5
 25
0.5
 16
0.0
 26
0.0
 36
1.0
 17
0.0
 27
0.0
 37
0.0
 40
6.274636861413388
 41
1.570528967254408
 42
50.0
 43
0.0
 44
0.0
 50
0.0
 51
0.0
 71
     0
 72
   100
 73
     1
 74
     0
 75
     0
 76
     0
 77
     0
 78
     0
  0
ENDTAB
  0
TABLE
  2
LTYPE
  5
5
330
0
100
AcDbSymbolTable
 70
     2
  0
LTYPE
  5
12
330
5
100
AcDbSymbolTableRecord
100
AcDbLinetypeTableRecord
  2
BYBLOCK
 70
     0
  3

 72
    65
 73
     0
 40
0.0
  0
LTYPE
  5
13
330
5
100
AcDbSymbolTableRecord
100
AcDbLinetypeTableRecord
  2
BYLAYER
 70
     0
  3

 72
    65
 73
     0
 40
0.0
  0
LTYPE
  5
14
330
5
100
AcDbSymbolTableRecord
100
AcDbLinetypeTableRecord
  2
CONTINUOUS
 70
     0
  3
Solid line
 72
    65
 73
     0
 40
0.0
  0
LTYPE
  5
27
330
5
100
AcDbSymbolTableRecord
100
AcDbLinetypeTableRecord
  2
HIDDEN2
 70
     0
  3
_ _ _ _ _ _ _ _ _ _ _ _ _ _ _ _ _ _ _ _ _ _ _ _
 72
    65
 73
     2
 40
0.1875
 49
0.125
 74
     0
 49
-0.0625
 74
     0
  0
ENDTAB
  0
TABLE
  2
LAYER
  5
2
330
0
100
AcDbSymbolTable
 70
     5
  0
LAYER
  5
F
330
2
100
AcDbSymbolTableRecord
100
AcDbLayerTableRecord
  2
0
 70
     0
 62
     7
  6
CONTINUOUS
  0
LAYER
  5
29
330
2
100
AcDbSymbolTableRecord
100
AcDbLayerTableRecord
  2
ADP2DETAIL
 70
     0
 62
     5
  6
CONTINUOUS
  0
LAYER
  5
2A
330
2
100
AcDbSymbolTableRecord
100
AcDbLayerTableRecord
  2
ADPDIM
 70
     0
 62
     3
  6
CONTINUOUS
  0
LAYER
  5
2B
330
2
100
AcDbSymbolTableRecord
100
AcDbLayerTableRecord
  2
ADP1DETAIL
 70
     0
 62
     7
  6
CONTINUOUS
  0
LAYER
  5
2C
330
2
100
AcDbSymbolTableRecord
100
AcDbLayerTableRecord
  2
DEFPOINTS
 70
     0
 62
     7
  6
CONTINUOUS
  0
ENDTAB
  0
TABLE
  2
STYLE
  5
3
330
0
100
AcDbSymbolTable
 70
     2
  0
STYLE
  5
10
330
3
100
AcDbSymbolTableRecord
100
AcDbTextStyleTableRecord
  2
STANDARD
 70
     0
 40
0.0
 41
1.0
 50
0.0
 71
     0
 42
0.2
  3
txt
  4

  0
STYLE
  5
231
330
3
100
AcDbSymbolTableRecord
100
AcDbTextStyleTableRecord
  2
ARIAL_WIDE
 70
     0
 40
0.0
 41
1.25
 50
0.0
 71
     0
 42
0.2
  3
ARIAL.TTF
  4

1001
ACAD
1000
Arial
1071
       34
  0
ENDTAB
  0
TABLE
  2
VIEW
  5
6
330
0
100
AcDbSymbolTable
 70
     0
  0
ENDTAB
  0
TABLE
  2
UCS
  5
7
330
0
100
AcDbSymbolTable
 70
     0
  0
ENDTAB
  0
TABLE
  2
APPID
  5
9
330
0
100
AcDbSymbolTable
 70
     1
  0
APPID
  5
11
330
9
100
AcDbSymbolTableRecord
100
AcDbRegAppTableRecord
  2
ACAD
 70
     0
  0
ENDTAB
  0
TABLE
  2
DIMSTYLE
  5
A
330
0
100
AcDbSymbolTable
 70
     1
  0
DIMSTYLE
105
225
330
A
100
AcDbSymbolTableRecord
100
AcDbDimStyleTableRecord
  2
STANDARD
 70
     0
  3

  4

  5

  6

  7

 40
1.0
 41
0.18
 42
0.0625
 43
0.38
 44
0.18
 45
0.0
 46
0.0
 47
0.0
 48
0.0
140
0.18
141
0.09
142
0.0
143
25.4
144
1.0
145
0.0
146
1.0
147
0.09
 71
     0
 72
     0
 73
     1
 74
     1
 75
     0
 76
     0
 77
     0
 78
     0
170
     0
171
     2
172
     0
173
     0
174
     0
175
     0
176
     0
177
     0
178
     0
270
     2
271
     4
272
     4
273
     2
274
     2
340
10
275
     0
280
     0
281
     0
282
     0
283
     1
284
     0
285
     0
286
     0
287
     3
288
     0
  0
ENDTAB
  0
TABLE
  2
BLOCK_RECORD
  5
1
330
0
100
AcDbSymbolTable
 70
     2
  0
BLOCK_RECORD
  5
18
102
{ACAD_XDICTIONARY
360
286
102
}
330
1
100
AcDbSymbolTableRecord
100
AcDbBlockTableRecord
  2
*MODEL_SPACE
  0
BLOCK_RECORD
  5
15
102
{ACAD_XDICTIONARY
360
284
102
}
330
1
100
AcDbSymbolTableRecord
100
AcDbBlockTableRecord
  2
*PAPER_SPACE
  0
BLOCK_RECORD
  5
1E
330
1
100
AcDbSymbolTableRecord
100
AcDbBlockTableRecord
  2
*D0
  0
BLOCK_RECORD
  5
26
330
1
100
AcDbSymbolTableRecord
100
AcDbBlockTableRecord
  2
*D1
  0
ENDTAB
  0
ENDSEC
  0
SECTION
  2
BLOCKS
  0
BLOCK
  5
2F
330
18
100
AcDbEntity
  8
0
100
AcDbBlockBegin
  2
*MODEL_SPACE
 70
     0
 10
0.0
 20
0.0
 30
0.0
  3
*MODEL_SPACE
  1

  0
ENDBLK
  5
30
330
18
100
AcDbEntity
  8
0
100
AcDbBlockEnd
  0
BLOCK
  5
2D
330
15
100
AcDbEntity
 67
     1
  8
0
100
AcDbBlockBegin
  2
*PAPER_SPACE
 70
     0
 10
0.0
 20
0.0
 30
0.0
  3
*PAPER_SPACE
  1

  0
ENDBLK
  5
2E
330
15
100
AcDbEntity
 67
     1
  8
0
100
AcDbBlockEnd
  0
BLOCK
  5
49
330
1E
100
AcDbEntity
  8
0
100
AcDbBlockBegin
  2
*D0
 70
     1
 10
0.0
 20
0.0
 30
0.0
  3
*D0
  1

  0
LINE
  5
4A
330
1E
100
AcDbEntity
  8
0
  6
BYBLOCK
 62
     0
100
AcDbLine
 10
10.75937017651892
 20
5.146960674571047
 30
0.0
 11
10.75937017651892
 21
5.601826212590053
 31
0.0
  0
LINE
  5
4B
330
1E
100
AcDbEntity
  8
0
  6
BYBLOCK
 62
     0
100
AcDbLine
 10
15.75937017651892
 20
5.146960674571047
 30
0.0
 11
15.75937017651892
 21
5.601826212590053
 31
0.0
  0
LINE
  5
4C
330
1E
100
AcDbEntity
  8
0
  6
BYBLOCK
 62
     0
100
AcDbLine
 10
10.75937017651892
 20
5.421826212590054
 30
0.0
 11
13.09270350985226
 21
5.421826212590054
 31
0.0
  0
LINE
  5
4D
330
1E
100
AcDbEntity
  8
0
  6
BYBLOCK
 62
     0
100
AcDbLine
 10
15.75937017651892
 20
5.421826212590054
 30
0.0
 11
13.42603684318559
 21
5.421826212590054
 31
0.0
  0
LINE
  5
4E
330
1E
100
AcDbEntity
  8
0
  6
BYBLOCK
 62
     0
100
AcDbLine
 10
10.63437017651893
 20
5.296826212590054
 30
0.0
 11
10.88437017651892
 21
5.546826212590054
 31
0.0
  0
LINE
  5
4F
330
1E
100
AcDbEntity
  8
0
  6
BYBLOCK
 62
     0
100
AcDbLine
 10
15.63437017651892
 20
5.296826212590054
 30
0.0
 11
15.88437017651892
 21
5.546826212590054
 31
0.0
  0
TEXT
  5
50
330
1E
100
AcDbEntity
  8
0
  6
BYBLOCK
 62
     0
100
AcDbText
 10
13.21770350985226
 20
5.359326212590054
 30
0.0
 40
0.125
  1
5
 72
     1
 11
13.25937017651892
 21
5.421826212590054
 31
0.0
100
AcDbText
 73
     2
  0
POINT
  5
51
330
1E
100
AcDbEntity
  8
DEFPOINTS
  6
BYBLOCK
 62
     0
100
AcDbPoint
 10
10.75937017651892
 20
5.084460674571047
 30
0.0
  0
POINT
  5
52
330
1E
100
AcDbEntity
  8
DEFPOINTS
  6
BYBLOCK
 62
     0
100
AcDbPoint
 10
15.75937017651892
 20
5.084460674571047
 30
0.0
  0
POINT
  5
53
330
1E
100
AcDbEntity
  8
DEFPOINTS
  6
BYBLOCK
 62
     0
100
AcDbPoint
 10
15.75937017651892
 20
5.421826212590054
 30
0.0
  0
ENDBLK
  5
54
330
1E
100
AcDbEntity
  8
0
100
AcDbBlockEnd
  0
BLOCK
  5
A9
330
26
100
AcDbEntity
  8
0
100
AcDbBlockBegin
  2
*D1
 70
     1
 10
0.0
 20
0.0
 30
0.0
  3
*D1
  1

  0
LINE
  5
AA
330
26
100
AcDbEntity
  8
0
  6
BYBLOCK
 62
     0
100
AcDbLine
 10
8.566109840417235
 20
4.40742214852322
 30
0.0
 11
8.566109840417235
 21
5.604792367150183
 31
0.0
  0
LINE
  5
AB
330
26
100
AcDbEntity
  8
0
  6
BYBLOCK
 62
     0
100
AcDbLine
 10
10.21610984041723
 20
4.40742214852322
 30
0.0
 11
10.21610984041723
 21
5.604792367150183
 31
0.0
  0
LINE
  5
AC
330
26
100
AcDbEntity
  8
0
  6
BYBLOCK
 62
     0
100
AcDbLine
 10
8.566109840417235
 20
5.424792367150184
 30
0.0
 11
9.047359840417234
 21
5.424792367150184
 31
0.0
  0
LINE
  5
AD
330
26
100
AcDbEntity
  8
0
  6
BYBLOCK
 62
     0
100
AcDbLine
 10
10.21610984041723
 20
5.424792367150184
 30
0.0
 11
9.734859840417234
 21
5.424792367150184
 31
0.0
  0
LINE
  5
AE
330
26
100
AcDbEntity
  8
0
  6
BYBLOCK
 62
     0
100
AcDbLine
 10
8.441109840417235
 20
5.299792367150184
 30
0.0
 11
8.691109840417235
 21
5.549792367150184
 31
0.0
  0
LINE
  5
AF
330
26
100
AcDbEntity
  8
0
  6
BYBLOCK
 62
     0
100
AcDbLine
 10
10.09110984041723
 20
5.299792367150184
 30
0.0
 11
10.34110984041723
 21
5.549792367150184
 31
0.0
  0
TEXT
  5
B0
330
26
100
AcDbEntity
  8
0
  6
BYBLOCK
 62
     0
100
AcDbText
 10
9.172359840417234
 20
5.362292367150184
 30
0.0
 40
0.125
  1
1.650
 72
     1
 11
9.391109840417234
 21
5.424792367150184
 31
0.0
100
AcDbText
 73
     2
  0
POINT
  5
B1
330
26
100
AcDbEntity
  8
DEFPOINTS
  6
BYBLOCK
 62
     0
100
AcDbPoint
 10
8.566109840417235
 20
4.34492214852322
 30
0.0
  0
POINT
  5
B2
330
26
100
AcDbEntity
  8
DEFPOINTS
  6
BYBLOCK
 62
     0
100
AcDbPoint
 10
10.21610984041723
 20
4.34492214852322
 30
0.0
  0
POINT
  5
B3
330
26
100
AcDbEntity
  8
DEFPOINTS
  6
BYBLOCK
 62
     0
100
AcDbPoint
 10
10.21610984041723
 20
5.424792367150184
 30
0.0
  0
ENDBLK
  5
B4
330
26
100
AcDbEntity
  8
0
100
AcDbBlockEnd
  0
ENDSEC
  0
SECTION
  2
ENTITIES
  0
DIMENSION
  5
B5
330
18
100
AcDbEntity
  8
ADPDIM
100
AcDbDimension
  2
*D0
 10
15.75937017651892
 20
5.421826212590054
 30
0.0
 11
13.25937017651892
 21
5.421826212590054
 31
0.0
100
AcDbAlignedDimension
 13
10.75937017651892
 23
5.084460674571047
 33
0.0
 14
15.75937017651892
 24
5.084460674571047
 34
0.0
100
AcDbRotatedDimension
  0
LINE
  5
B6
330
18
100
AcDbEntity
  8
ADP1DETAIL
100
AcDbLine
 10
15.69687017651892
 20
5.146960674571047
 30
0.0
 11
10.82187017651893
 21
5.146960674571047
 31
0.0
  0
LINE
  5
B7
330
18
100
AcDbEntity
  8
ADP2DETAIL
  6
HIDDEN2
100
AcDbLine
 10
10.75937017651892
 20
3.799736037613207
 30
0.0
 11
15.75937017651892
 21
3.799736037613207
 31
0.0
  0
LINE
  5
B8
330
18
100
AcDbEntity
  8
ADP1DETAIL
100
AcDbLine
 10
10.82187017651893
 20
3.689947232551996
 30
0.0
 11
15.69687017651892
 21
3.689947232551996
 31
0.0
  0
DIMENSION
  5
B9
330
18
100
AcDbEntity
  8
ADPDIM
100
AcDbDimension
  2
*D1
 10
10.21610984041723
 20
5.424792367150184
 30
0.0
 11
9.391109840417234
 21
5.424792367150184
 31
0.0
  1
1.650
100
AcDbAlignedDimension
 13
8.566109840417235
 23
4.34492214852322
 33
0.0
 14
10.21610984041723
 24
4.34492214852322
 34
0.0
100
AcDbRotatedDimension
  0
ARC
  5
BA
330
18
100
AcDbEntity
  8
ADP1DETAIL
100
AcDbCircle
 10
9.391109840417232
 20
4.19896834669572
 30
0.0
 40
0.800959413189796
100
AcDbArc
 50
55.83314579505286
 51
124.1668542049471
  0
ARC
  5
BB
330
18
100
AcDbEntity
  8
ADP1DETAIL
100
AcDbCircle
 10
9.55682625598393
 20
5.123482453900869
 30
0.0
 40
0.005853540169475
100
AcDbArc
 50
348.3333333333332
 51
168.3333333333331
  0
ARC
  5
BC
330
18
100
AcDbEntity
  8
ADP1DETAIL
100
AcDbCircle
 10
8.669788652347184
 20
3.931984174199291
 30
0.0
 40
0.005853540169475
100
AcDbArc
 50
118.3333333333333
 51
298.3333333333333
  0
ARC
  5
BD
330
18
100
AcDbEntity
  8
ADP1DETAIL
100
AcDbCircle
 10
9.391109840417232
 20
4.320917100226445
 30
0.0
 40
0.7034004103652168
100
AcDbArc
 50
129.7543446156547
 51
228.2732164408288
  0
ARC
  5
BE
330
18
100
AcDbEntity
  8
ADP1DETAIL
100
AcDbCircle
 10
8.882090971081336
 20
3.750027828804159
 30
0.0
 40
0.0604865817512398
100
AcDbArc
 50
228.279021418126
 51
322.8148013329217
  0
ARC
  5
BF
330
18
100
AcDbEntity
  8
ADP1DETAIL
100
AcDbCircle
 10
8.846312537875162
 20
3.708733323530497
 30
0.0
 40
0.005853540169475
100
AcDbArc
 50
138.3333333333332
 51
210.7210177703009
  0
ARC
  5
C0
330
18
100
AcDbEntity
  8
ADP1DETAIL
100
AcDbCircle
 10
8.68140581197994
 20
3.911169288363212
 30
0.0
 40
0.005853540169475
100
AcDbArc
 50
119.9999999999999
 51
299.9999999999999
  0
ARC
  5
C1
330
18
100
AcDbEntity
  8
ADP1DETAIL
100
AcDbCircle
 10
8.687440206246048
 20
3.900890763847137
 30
0.0
 40
0.005853540169475
100
AcDbArc
 50
120.8333333333332
 51
300.8333333333333
  0
ARC
  5
C2
330
18
100
AcDbEntity
  8
ADP1DETAIL
100
AcDbCircle
 10
8.693623452074477
 20
3.890701090083387
 30
0.0
 40
0.005853540169475
100
AcDbArc
 50
121.6666666666666
 51
301.6666666666667
  0
ARC
  5
C3
330
18
100
AcDbEntity
  8
ADP1DETAIL
100
AcDbCircle
 10
8.699954241485233
 20
3.880602422556278
 30
0.0
 40
0.005853540169475
100
AcDbArc
 50
122.4999999999999
 51
302.4999999999999
  0
ARC
  5
C4
330
18
100
AcDbEntity
  8
ADP1DETAIL
100
AcDbCircle
 10
8.706431235287528
 20
3.870596897499016
 30
0.0
 40
0.005853540169475
100
AcDbArc
 50
123.3333333333333
 51
303.3333333333333
  0
ARC
  5
C5
330
18
100
AcDbEntity
  8
ADP1DETAIL
100
AcDbCircle
 10
8.71305306336305
 20
3.860686631441808
 30
0.0
 40
0.005853540169475
100
AcDbArc
 50
124.1666666666666
 51
304.1666666666666
  0
ARC
  5
C6
330
18
100
AcDbEntity
  8
ADP1DETAIL
100
AcDbCircle
 10
8.719818324955813
 20
3.85087372076414
 30
0.0
 40
0.005853540169475
100
AcDbArc
 50
124.9999999999999
 51
304.9999999999999
  0
ARC
  5
C7
330
18
100
AcDbEntity
  8
ADP1DETAIL
100
AcDbCircle
 10
8.726725588968458
 20
3.841160241251315
 30
0.0
 40
0.005853540169475
100
AcDbArc
 50
125.8333333333333
 51
305.8333333333333
  0
ARC
  5
C8
330
18
100
AcDbEntity
  8
ADP1DETAIL
100
AcDbCircle
 10
8.733773394264972
 20
3.831548247655351
 30
0.0
 40
0.005853540169475
100
AcDbArc
 50
126.6666666666666
 51
306.6666666666666
  0
ARC
  5
C9
330
18
100
AcDbEntity
  8
ADP1DETAIL
100
AcDbCircle
 10
8.74096024997979
 20
3.822039773260329
 30
0.0
 40
0.005853540169475
100
AcDbArc
 50
127.4999999999999
 51
307.4999999999998
  0
ARC
  5
CA
330
18
100
AcDbEntity
  8
ADP1DETAIL
100
AcDbCircle
 10
8.748284635833153
 20
3.812636829452271
 30
0.0
 40
0.005853540169475
100
AcDbArc
 50
128.3333333333333
 51
308.3333333333333
  0
ARC
  5
CB
330
18
100
AcDbEntity
  8
ADP1DETAIL
100
AcDbCircle
 10
8.755745002452707
 20
3.803341405293671
 30
0.0
 40
0.005853540169475
100
AcDbArc
 50
129.1666666666666
 51
309.1666666666666
  0
ARC
  5
CC
330
18
100
AcDbEntity
  8
ADP1DETAIL
100
AcDbCircle
 10
8.763339771701252
 20
3.79415546710273
 30
0.0
 40
0.005853540169475
100
AcDbArc
 50
129.9999999999999
 51
309.9999999999999
  0
ARC
  5
CD
330
18
100
AcDbEntity
  8
ADP1DETAIL
100
AcDbCircle
 10
8.77106733701057
 20
3.785080958037407
 30
0.0
 40
0.005853540169475
100
AcDbArc
 50
130.8333333333333
 51
310.8333333333333
  0
ARC
  5
CE
330
18
100
AcDbEntity
  8
ADP1DETAIL
100
AcDbCircle
 10
8.778926063721284
 20
3.776119797684374
 30
0.0
 40
0.005853540169475
100
AcDbArc
 50
131.6666666666666
 51
311.6666666666666
  0
ARC
  5
CF
330
18
100
AcDbEntity
  8
ADP1DETAIL
100
AcDbCircle
 10
8.795030324334135
 20
3.758545081174134
 30
0.0
 40
0.005853540169475
100
AcDbArc
 50
133.3333333333333
 51
313.3333333333333
  0
ARC
  5
D0
330
18
100
AcDbEntity
  8
ADP1DETAIL
100
AcDbCircle
 10
8.803272451603053
 20
3.749935242704721
 30
0.0
 40
0.005853540169475
100
AcDbArc
 50
134.1666666666666
 51
314.1666666666665
  0
ARC
  5
D1
330
18
100
AcDbEntity
  8
ADP1DETAIL
100
AcDbCircle
 10
8.811638927727548
 20
3.74144618753676
 30
0.0
 40
0.005853540169475
100
AcDbArc
 50
134.9999999999999
 51
315.0
  0
ARC
  5
D2
330
18
100
AcDbEntity
  8
ADP1DETAIL
100
AcDbCircle
 10
8.82012798289551
 20
3.733079711412266
 30
0.0
 40
0.005853540169475
100
AcDbArc
 50
135.8333333333332
 51
315.8333333333333
  0
ARC
  5
D3
330
18
100
AcDbEntity
  8
ADP1DETAIL
100
AcDbCircle
 10
8.828737821364923
 20
3.72483758414335
 30
0.0
 40
0.005853540169475
100
AcDbArc
 50
136.6666666666666
 51
316.6666666666666
  0
ARC
  5
D4
330
18
100
AcDbEntity
  8
ADP1DETAIL
100
AcDbCircle
 10
8.837466621843743
 20
3.716721549237844
 30
0.0
 40
0.005853540169475
100
AcDbArc
 50
137.4999999999999
 51
317.5
  0
ARC
  5
D5
330
18
100
AcDbEntity
  8
ADP1DETAIL
100
AcDbCircle
 10
8.786914289428631
 20
3.767273881652956
 30
0.0
 40
0.005853540169475
100
AcDbArc
 50
132.4999999999999
 51
312.4999999999999
  0
ARC
  5
D6
330
18
100
AcDbEntity
  8
ADP1DETAIL
100
AcDbCircle
 10
8.675521545768653
 20
3.921534489352154
 30
0.0
 40
0.005853540169475
100
AcDbArc
 50
119.1666666666666
 51
299.1666666666667
  0
ARC
  5
D7
330
18
100
AcDbEntity
  8
ADP1DETAIL
100
AcDbCircle
 10
8.68140581197994
 20
3.911169288363213
 30
0.0
 40
0.005853540169475
100
AcDbArc
 50
119.9999999999999
 51
299.9999999999999
  0
ARC
  5
D8
330
18
100
AcDbEntity
  8
ADP1DETAIL
100
AcDbCircle
 10
8.882682466029804
 20
3.750807512780113
 30
0.0
 40
0.0604865817512392
100
AcDbArc
 50
322.8148013329221
 51
48.27321644082831
  0
LINE
  5
D9
330
18
100
AcDbEntity
  8
ADP1DETAIL
100
AcDbLine
 10
8.930871283661494
 20
3.714249826485586
 30
0.0
 11
8.930279788713026
 21
3.713470142509632
 31
0.0
  0
ARC
  5
DA
330
18
100
AcDbEntity
  8
ADP1DETAIL
100
AcDbCircle
 10
8.873534145484459
 20
4.956281938190969
 30
0.0
 40
0.005853540169475
100
AcDbArc
 50
39.16666666666667
 51
219.1666666666667
  0
ARC
  5
DB
330
18
100
AcDbEntity
  8
ADP1DETAIL
100
AcDbCircle
 10
8.625193721241807
 20
4.612371343108719
 30
0.0
 40
0.005853540169475
100
AcDbArc
 50
69.16666666666666
 51
249.1666666666666
  0
ARC
  5
DC
330
18
100
AcDbEntity
  8
ADP1DETAIL
100
AcDbCircle
 10
8.584064196611835
 20
4.463221021892571
 30
0.0
 40
0.005853540169475
100
AcDbArc
 50
80.0
 51
260.0
  0
ARC
  5
DD
330
18
100
AcDbEntity
  8
ADP1DETAIL
100
AcDbCircle
 10
8.582079902602185
 20
4.45146838143735
 30
0.0
 40
0.005853540169475
100
AcDbArc
 50
80.83333333333333
 51
260.8333333333333
  0
ARC
  5
DE
330
18
100
AcDbEntity
  8
ADP1DETAIL
100
AcDbCircle
 10
8.580266747667407
 20
4.439688124667275
 30
0.0
 40
0.005853540169475
100
AcDbArc
 50
81.66666666666666
 51
261.6666666666666
  0
ARC
  5
DF
330
18
100
AcDbEntity
  8
ADP1DETAIL
100
AcDbCircle
 10
8.578625115355302
 20
4.427882743532458
 30
0.0
 40
0.005853540169475
100
AcDbArc
 50
82.5
 51
262.5
  0
ARC
  5
E0
330
18
100
AcDbEntity
  8
ADP1DETAIL
100
AcDbCircle
 10
8.577155352930448
 20
4.416054735297723
 30
0.0
 40
0.005853540169475
100
AcDbArc
 50
83.33333333333333
 51
263.3333333333333
  0
ARC
  5
E1
330
18
100
AcDbEntity
  8
ADP1DETAIL
100
AcDbCircle
 10
8.575857771300722
 20
4.404206602014348
 30
0.0
 40
0.005853540169475
100
AcDbArc
 50
84.16666666666667
 51
264.1666666666666
  0
ARC
  5
E2
330
18
100
AcDbEntity
  8
ADP1DETAIL
100
AcDbCircle
 10
8.57473264495154
 20
4.392340849990781
 30
0.0
 40
0.005853540169475
100
AcDbArc
 50
84.99999999999998
 51
265.0
  0
ARC
  5
E3
330
18
100
AcDbEntity
  8
ADP1DETAIL
100
AcDbCircle
 10
8.573780211887791
 20
4.38045998926247
 30
0.0
 40
0.005853540169475
100
AcDbArc
 50
85.83333333333333
 51
265.8333333333333
  0
ARC
  5
E4
330
18
100
AcDbEntity
  8
ADP1DETAIL
100
AcDbCircle
 10
8.621035850035129
 20
4.601201110908129
 30
0.0
 40
0.005853540169475
100
AcDbArc
 50
70.0
 51
250.0
  0
ARC
  5
E5
330
18
100
AcDbEntity
  8
ADP1DETAIL
100
AcDbCircle
 10
8.617040877312348
 20
4.589971588508194
 30
0.0
 40
0.005853540169475
100
AcDbArc
 50
70.83333333333333
 51
250.8333333333333
  0
ARC
  5
E6
330
18
100
AcDbEntity
  8
ADP1DETAIL
100
AcDbCircle
 10
8.61320964815459
 20
4.5786851513588
 30
0.0
 40
0.005853540169475
100
AcDbArc
 50
71.66666666666667
 51
251.6666666666666
  0
ARC
  5
E7
330
18
100
AcDbEntity
  8
ADP1DETAIL
100
AcDbCircle
 10
8.606041627498839
 20
4.555951094303786
 30
0.0
 40
0.005853540169475
100
AcDbArc
 50
73.33333333333333
 51
253.3333333333333
  0
ARC
  5
E8
330
18
100
AcDbEntity
  8
ADP1DETAIL
100
AcDbCircle
 10
8.602706352296307
 20
4.544508283472971
 30
0.0
 40
0.005853540169475
100
AcDbArc
 50
74.16666666666667
 51
254.1666666666666
  0
ARC
  5
E9
330
18
100
AcDbEntity
  8
ADP1DETAIL
100
AcDbCircle
 10
8.599537852928971
 20
4.533018175025023
 30
0.0
 40
0.005853540169475
100
AcDbArc
 50
74.99999999999999
 51
255.0
  0
ARC
  5
EA
330
18
100
AcDbEntity
  8
ADP1DETAIL
100
AcDbCircle
 10
8.596536799648983
 20
4.521483199533194
 30
0.0
 40
0.005853540169475
100
AcDbArc
 50
75.83333333333333
 51
255.8333333333333
  0
ARC
  5
EB
330
18
100
AcDbEntity
  8
ADP1DETAIL
100
AcDbCircle
 10
8.593703827287583
 20
4.509905797061743
 30
0.0
 40
0.005853540169475
100
AcDbArc
 50
76.66666666666667
 51
256.6666666666666
  0
ARC
  5
EC
330
18
100
AcDbEntity
  8
ADP1DETAIL
100
AcDbCircle
 10
8.591039535120826
 20
4.498288416649765
 30
0.0
 40
0.005853540169475
100
AcDbArc
 50
77.49999999999999
 51
257.5
  0
ARC
  5
ED
330
18
100
AcDbEntity
  8
ADP1DETAIL
100
AcDbCircle
 10
8.588544486742808
 20
4.48663351579314
 30
0.0
 40
0.005853540169475
100
AcDbArc
 50
78.33333333333333
 51
258.3333333333333
  0
ARC
  5
EE
330
18
100
AcDbEntity
  8
ADP1DETAIL
100
AcDbCircle
 10
8.586219209946449
 20
4.474943559924671
 30
0.0
 40
0.005853540169475
100
AcDbArc
 50
79.16666666666666
 51
259.1666666666666
  0
ARC
  5
EF
330
18
100
AcDbEntity
  8
ADP1DETAIL
100
AcDbCircle
 10
8.584064196611837
 20
4.46322102189257
 30
0.0
 40
0.005853540169475
100
AcDbArc
 50
80.0
 51
260.0
  0
ARC
  5
F0
330
18
100
AcDbEntity
  8
ADP1DETAIL
100
AcDbCircle
 10
8.609542973005314
 20
4.567344186949363
 30
0.0
 40
0.005853540169475
100
AcDbArc
 50
72.5
 51
252.4999999999999
  0
ARC
  5
F1
330
18
100
AcDbEntity
  8
ADP1DETAIL
100
AcDbCircle
 10
8.584064196611834
 20
4.17861317856032
 30
0.0
 40
0.005853540169475
100
AcDbArc
 50
100.0
 51
280.0
  0
ARC
  5
F2
330
18
100
AcDbEntity
  8
ADP1DETAIL
100
AcDbCircle
 10
8.586219209946445
 20
4.166890640528219
 30
0.0
 40
0.005853540169475
100
AcDbArc
 50
100.8333333333333
 51
280.8333333333333
  0
ARC
  5
F3
330
18
100
AcDbEntity
  8
ADP1DETAIL
100
AcDbCircle
 10
8.588544486742808
 20
4.155200684659752
 30
0.0
 40
0.005853540169475
100
AcDbArc
 50
101.6666666666666
 51
281.6666666666666
  0
ARC
  5
F4
330
18
100
AcDbEntity
  8
ADP1DETAIL
100
AcDbCircle
 10
8.591039535120824
 20
4.143545783803125
 30
0.0
 40
0.005853540169475
100
AcDbArc
 50
102.4999999999999
 51
282.5
  0
ARC
  5
F5
330
18
100
AcDbEntity
  8
ADP1DETAIL
100
AcDbCircle
 10
8.59370382728758
 20
4.131928403391148
 30
0.0
 40
0.005853540169475
100
AcDbArc
 50
103.3333333333333
 51
283.3333333333333
  0
ARC
  5
F6
330
18
100
AcDbEntity
  8
ADP1DETAIL
100
AcDbCircle
 10
8.596536799648982
 20
4.120351000919696
 30
0.0
 40
0.005853540169475
100
AcDbArc
 50
104.1666666666666
 51
284.1666666666666
  0
ARC
  5
F7
330
18
100
AcDbEntity
  8
ADP1DETAIL
100
AcDbCircle
 10
8.599537852928969
 20
4.108816025427866
 30
0.0
 40
0.005853540169475
100
AcDbArc
 50
104.9999999999999
 51
285.0
  0
ARC
  5
F8
330
18
100
AcDbEntity
  8
ADP1DETAIL
100
AcDbCircle
 10
8.602706352296303
 20
4.097325916979918
 30
0.0
 40
0.005853540169475
100
AcDbArc
 50
105.8333333333333
 51
285.8333333333333
  0
ARC
  5
F9
330
18
100
AcDbEntity
  8
ADP1DETAIL
100
AcDbCircle
 10
8.606041627498839
 20
4.085883106149104
 30
0.0
 40
0.005853540169475
100
AcDbArc
 50
106.6666666666666
 51
286.6666666666666
  0
ARC
  5
FA
330
18
100
AcDbEntity
  8
ADP1DETAIL
100
AcDbCircle
 10
8.609542973005311
 20
4.074490013503526
 30
0.0
 40
0.005853540169475
100
AcDbArc
 50
107.4999999999999
 51
287.4999999999999
  0
ARC
  5
FB
330
18
100
AcDbEntity
  8
ADP1DETAIL
100
AcDbCircle
 10
8.613209648154589
 20
4.06314904909409
 30
0.0
 40
0.005853540169475
100
AcDbArc
 50
108.3333333333333
 51
288.3333333333333
  0
ARC
  5
FC
330
18
100
AcDbEntity
  8
ADP1DETAIL
100
AcDbCircle
 10
8.617040877312344
 20
4.051862611944697
 30
0.0
 40
0.005853540169475
100
AcDbArc
 50
109.1666666666666
 51
289.1666666666666
  0
ARC
  5
FD
330
18
100
AcDbEntity
  8
ADP1DETAIL
100
AcDbCircle
 10
8.621035850035127
 20
4.040633089544761
 30
0.0
 40
0.005853540169475
100
AcDbArc
 50
109.9999999999999
 51
290.0
  0
ARC
  5
FE
330
18
100
AcDbEntity
  8
ADP1DETAIL
100
AcDbCircle
 10
8.625193721241803
 20
4.029462857344171
 30
0.0
 40
0.005853540169475
100
AcDbArc
 50
110.8333333333333
 51
290.8333333333333
  0
ARC
  5
FF
330
18
100
AcDbEntity
  8
ADP1DETAIL
100
AcDbCircle
 10
8.629513611392324
 20
4.018354278250792
 30
0.0
 40
0.005853540169475
100
AcDbArc
 50
111.6666666666666
 51
291.6666666666666
  0
ARC
  5
100
330
18
100
AcDbEntity
  8
ADP1DETAIL
100
AcDbCircle
 10
8.638635759193695
 20
3.996331465310754
 30
0.0
 40
0.005853540169475
100
AcDbArc
 50
113.3333333333333
 51
293.3333333333333
  0
ARC
  5
101
330
18
100
AcDbEntity
  8
ADP1DETAIL
100
AcDbCircle
 10
8.643436087180555
 20
3.985421890085063
 30
0.0
 40
0.005853540169475
100
AcDbArc
 50
114.1666666666666
 51
294.1666666666666
  0
ARC
  5
102
330
18
100
AcDbEntity
  8
ADP1DETAIL
100
AcDbCircle
 10
8.648394575191479
 20
3.974583284223056
 30
0.0
 40
0.005853540169475
100
AcDbArc
 50
115.0
 51
295.0
  0
ARC
  5
103
330
18
100
AcDbEntity
  8
ADP1DETAIL
100
AcDbCircle
 10
8.653510174327024
 20
3.963817940481641
 30
0.0
 40
0.005853540169475
100
AcDbArc
 50
115.8333333333333
 51
295.8333333333333
  0
ARC
  5
104
330
18
100
AcDbEntity
  8
ADP1DETAIL
100
AcDbCircle
 10
8.658781802453068
 20
3.953128136120142
 30
0.0
 40
0.005853540169475
100
AcDbArc
 50
116.6666666666666
 51
296.6666666666666
  0
ARC
  5
105
330
18
100
AcDbEntity
  8
ADP1DETAIL
100
AcDbCircle
 10
8.664208344429713
 20
3.942516132418571
 30
0.0
 40
0.005853540169475
100
AcDbArc
 50
117.5
 51
297.5
  0
ARC
  5
106
330
18
100
AcDbEntity
  8
ADP1DETAIL
100
AcDbCircle
 10
8.633994606673779
 20
4.007309702130632
 30
0.0
 40
0.005853540169475
100
AcDbArc
 50
112.4999999999999
 51
292.5
  0
ARC
  5
107
330
18
100
AcDbEntity
  8
ADP1DETAIL
100
AcDbCircle
 10
8.572394194939192
 20
4.356662997281968
 30
0.0
 40
0.005853540169475
100
AcDbArc
 50
87.5
 51
267.4999999999999
  0
ARC
  5
108
330
18
100
AcDbEntity
  8
ADP1DETAIL
100
AcDbCircle
 10
8.571960904247022
 20
4.344751899953741
 30
0.0
 40
0.005853540169475
100
AcDbArc
 50
88.33333333333333
 51
268.3333333333333
  0
ARC
  5
109
330
18
100
AcDbEntity
  8
ADP1DETAIL
100
AcDbCircle
 10
8.571700893163633
 20
4.332835760703843
 30
0.0
 40
0.005853540169475
100
AcDbArc
 50
89.16666666666666
 51
269.1666666666666
  0
ARC
  5
10A
330
18
100
AcDbEntity
  8
ADP1DETAIL
100
AcDbCircle
 10
8.571614216690766
 20
4.320917100226446
 30
0.0
 40
0.005853540169475
100
AcDbArc
 50
90.0
 51
270.0
  0
ARC
  5
10B
330
18
100
AcDbEntity
  8
ADP1DETAIL
100
AcDbCircle
 10
8.571700893163633
 20
4.308998439749048
 30
0.0
 40
0.005853540169475
100
AcDbArc
 50
90.83333333333333
 51
270.8333333333333
  0
ARC
  5
10C
330
18
100
AcDbEntity
  8
ADP1DETAIL
100
AcDbCircle
 10
8.571960904247022
 20
4.297082300499151
 30
0.0
 40
0.005853540169475
100
AcDbArc
 50
91.66666666666667
 51
271.6666666666666
  0
ARC
  5
10D
330
18
100
AcDbEntity
  8
ADP1DETAIL
100
AcDbCircle
 10
8.5730006735835
 20
4.273267667391985
 30
0.0
 40
0.005853540169475
100
AcDbArc
 50
93.33333333333333
 51
273.3333333333333
  0
ARC
  5
10E
330
18
100
AcDbEntity
  8
ADP1DETAIL
100
AcDbCircle
 10
8.573780211887791
 20
4.26137421119042
 30
0.0
 40
0.005853540169475
100
AcDbArc
 50
94.16666666666667
 51
274.1666666666666
  0
ARC
  5
10F
330
18
100
AcDbEntity
  8
ADP1DETAIL
100
AcDbCircle
 10
8.57473264495154
 20
4.249493350462109
 30
0.0
 40
0.005853540169475
100
AcDbArc
 50
95.0
 51
275.0
  0
ARC
  5
110
330
18
100
AcDbEntity
  8
ADP1DETAIL
100
AcDbCircle
 10
8.575857771300723
 20
4.237627598438542
 30
0.0
 40
0.005853540169475
100
AcDbArc
 50
95.83333333333333
 51
275.8333333333333
  0
ARC
  5
111
330
18
100
AcDbEntity
  8
ADP1DETAIL
100
AcDbCircle
 10
8.577155352930448
 20
4.225779465155167
 30
0.0
 40
0.005853540169475
100
AcDbArc
 50
96.66666666666669
 51
276.6666666666666
  0
ARC
  5
112
330
18
100
AcDbEntity
  8
ADP1DETAIL
100
AcDbCircle
 10
8.578625115355302
 20
4.213951456920433
 30
0.0
 40
0.005853540169475
100
AcDbArc
 50
97.5
 51
277.4999999999999
  0
ARC
  5
113
330
18
100
AcDbEntity
  8
ADP1DETAIL
100
AcDbCircle
 10
8.580266747667407
 20
4.202146075785616
 30
0.0
 40
0.005853540169475
100
AcDbArc
 50
98.33333333333333
 51
278.3333333333333
  0
ARC
  5
114
330
18
100
AcDbEntity
  8
ADP1DETAIL
100
AcDbCircle
 10
8.582079902602187
 20
4.190365819015542
 30
0.0
 40
0.005853540169475
100
AcDbArc
 50
99.16666666666667
 51
279.1666666666666
  0
ARC
  5
115
330
18
100
AcDbEntity
  8
ADP1DETAIL
100
AcDbCircle
 10
8.584064196611835
 20
4.178613178560319
 30
0.0
 40
0.005853540169475
100
AcDbArc
 50
100.0
 51
280.0
  0
ARC
  5
116
330
18
100
AcDbEntity
  8
ADP1DETAIL
100
AcDbCircle
 10
8.572394194939192
 20
4.285171203170922
 30
0.0
 40
0.005853540169475
100
AcDbArc
 50
92.5
 51
272.5
  0
ARC
  5
117
330
18
100
AcDbEntity
  8
ADP1DETAIL
100
AcDbCircle
 10
8.5730006735835
 20
4.368566533060905
 30
0.0
 40
0.005853540169475
100
AcDbArc
 50
86.66666666666667
 51
266.6666666666666
  0
ARC
  5
118
330
18
100
AcDbEntity
  8
ADP1DETAIL
100
AcDbCircle
 10
8.681405811979942
 20
4.730664912089678
 30
0.0
 40
0.005853540169475
100
AcDbArc
 50
60.0
 51
239.9999999999999
  0
ARC
  5
119
330
18
100
AcDbEntity
  8
ADP1DETAIL
100
AcDbCircle
 10
8.675521545768656
 20
4.720299711100738
 30
0.0
 40
0.005853540169475
100
AcDbArc
 50
60.83333333333333
 51
240.8333333333333
  0
ARC
  5
11A
330
18
100
AcDbEntity
  8
ADP1DETAIL
100
AcDbCircle
 10
8.669788652347188
 20
4.709850026253599
 30
0.0
 40
0.005853540169475
100
AcDbArc
 50
61.66666666666666
 51
241.6666666666666
  0
ARC
  5
11B
330
18
100
AcDbEntity
  8
ADP1DETAIL
100
AcDbCircle
 10
8.664208344429717
 20
4.699318068034319
 30
0.0
 40
0.005853540169475
100
AcDbArc
 50
62.5
 51
242.4999999999999
  0
ARC
  5
11C
330
18
100
AcDbEntity
  8
ADP1DETAIL
100
AcDbCircle
 10
8.65878180245307
 20
4.688706064332748
 30
0.0
 40
0.005853540169475
100
AcDbArc
 50
63.33333333333333
 51
243.3333333333333
  0
ARC
  5
11D
330
18
100
AcDbEntity
  8
ADP1DETAIL
100
AcDbCircle
 10
8.653510174327028
 20
4.678016259971249
 30
0.0
 40
0.005853540169475
100
AcDbArc
 50
64.16666666666667
 51
244.1666666666666
  0
ARC
  5
11E
330
18
100
AcDbEntity
  8
ADP1DETAIL
100
AcDbCircle
 10
8.648394575191481
 20
4.667250916229833
 30
0.0
 40
0.005853540169475
100
AcDbArc
 50
64.99999999999999
 51
244.9999999999999
  0
ARC
  5
11F
330
18
100
AcDbEntity
  8
ADP1DETAIL
100
AcDbCircle
 10
8.643436087180557
 20
4.656412310367826
 30
0.0
 40
0.005853540169475
100
AcDbArc
 50
65.83333333333333
 51
245.8333333333333
  0
ARC
  5
120
330
18
100
AcDbEntity
  8
ADP1DETAIL
100
AcDbCircle
 10
8.638635759193697
 20
4.645502735142136
 30
0.0
 40
0.005853540169475
100
AcDbArc
 50
66.66666666666666
 51
246.6666666666666
  0
ARC
  5
121
330
18
100
AcDbEntity
  8
ADP1DETAIL
100
AcDbCircle
 10
8.633994606673782
 20
4.634524498322259
 30
0.0
 40
0.005853540169475
100
AcDbArc
 50
67.5
 51
247.4999999999999
  0
ARC
  5
122
330
18
100
AcDbEntity
  8
ADP1DETAIL
100
AcDbCircle
 10
8.629513611392328
 20
4.623479922202098
 30
0.0
 40
0.005853540169475
100
AcDbArc
 50
68.33333333333333
 51
248.3333333333333
  0
ARC
  5
123
330
18
100
AcDbEntity
  8
ADP1DETAIL
100
AcDbCircle
 10
8.864348207293517
 20
4.948687168942425
 30
0.0
 40
0.005853540169475
100
AcDbArc
 50
40.0
 51
220.0
  0
ARC
  5
124
330
18
100
AcDbEntity
  8
ADP1DETAIL
100
AcDbCircle
 10
8.855273698228193
 20
4.940959603633106
 30
0.0
 40
0.005853540169475
100
AcDbArc
 50
40.83333333333333
 51
220.8333333333333
  0
ARC
  5
125
330
18
100
AcDbEntity
  8
ADP1DETAIL
100
AcDbCircle
 10
8.846312537875162
 20
4.933100876922393
 30
0.0
 40
0.005853540169475
100
AcDbArc
 50
41.66666666666666
 51
221.6666666666667
  0
ARC
  5
126
330
18
100
AcDbEntity
  8
ADP1DETAIL
100
AcDbCircle
 10
8.837466621843745
 20
4.925112651215045
 30
0.0
 40
0.005853540169475
100
AcDbArc
 50
42.49999999999999
 51
222.5
  0
ARC
  5
127
330
18
100
AcDbEntity
  8
ADP1DETAIL
100
AcDbCircle
 10
8.828737821364923
 20
4.916996616309541
 30
0.0
 40
0.005853540169475
100
AcDbArc
 50
43.33333333333333
 51
223.3333333333333
  0
ARC
  5
128
330
18
100
AcDbEntity
  8
ADP1DETAIL
100
AcDbCircle
 10
8.82012798289551
 20
4.908754489040624
 30
0.0
 40
0.005853540169475
100
AcDbArc
 50
44.16666666666666
 51
224.1666666666666
  0
ARC
  5
129
330
18
100
AcDbEntity
  8
ADP1DETAIL
100
AcDbCircle
 10
8.811638927727548
 20
4.900388012916129
 30
0.0
 40
0.005853540169475
100
AcDbArc
 50
45.0
 51
225.0
  0
ARC
  5
12A
330
18
100
AcDbEntity
  8
ADP1DETAIL
100
AcDbCircle
 10
8.803272451603053
 20
4.891898957748168
 30
0.0
 40
0.005853540169475
100
AcDbArc
 50
45.83333333333332
 51
225.8333333333333
  0
ARC
  5
12B
330
18
100
AcDbEntity
  8
ADP1DETAIL
100
AcDbCircle
 10
8.795030324334137
 20
4.883289119278755
 30
0.0
 40
0.005853540169475
100
AcDbArc
 50
46.66666666666666
 51
226.6666666666667
  0
ARC
  5
12C
330
18
100
AcDbEntity
  8
ADP1DETAIL
100
AcDbCircle
 10
8.786914289428631
 20
4.874560318799932
 30
0.0
 40
0.005853540169475
100
AcDbArc
 50
47.5
 51
227.4999999999999
  0
ARC
  5
12D
330
18
100
AcDbEntity
  8
ADP1DETAIL
100
AcDbCircle
 10
8.778926063721284
 20
4.865714402768515
 30
0.0
 40
0.005853540169475
100
AcDbArc
 50
48.33333333333334
 51
228.3333333333333
  0
ARC
  5
12E
330
18
100
AcDbEntity
  8
ADP1DETAIL
100
AcDbCircle
 10
8.77106733701057
 20
4.856753242415482
 30
0.0
 40
0.005853540169475
100
AcDbArc
 50
49.16666666666666
 51
229.1666666666666
  0
ARC
  5
12F
330
18
100
AcDbEntity
  8
ADP1DETAIL
100
AcDbCircle
 10
8.763339771701252
 20
4.84767873335016
 30
0.0
 40
0.005853540169475
100
AcDbArc
 50
50.0
 51
230.0
  0
ARC
  5
130
330
18
100
AcDbEntity
  8
ADP1DETAIL
100
AcDbCircle
 10
8.755745002452707
 20
4.838492795159218
 30
0.0
 40
0.005853540169475
100
AcDbArc
 50
50.83333333333333
 51
230.8333333333333
  0
ARC
  5
131
330
18
100
AcDbEntity
  8
ADP1DETAIL
100
AcDbCircle
 10
8.748284635833153
 20
4.829197371000619
 30
0.0
 40
0.005853540169475
100
AcDbArc
 50
51.66666666666666
 51
231.6666666666666
  0
ARC
  5
132
330
18
100
AcDbEntity
  8
ADP1DETAIL
100
AcDbCircle
 10
8.733773394264972
 20
4.810285952797538
 30
0.0
 40
0.005853540169475
100
AcDbArc
 50
53.33333333333333
 51
233.3333333333333
  0
ARC
  5
133
330
18
100
AcDbEntity
  8
ADP1DETAIL
100
AcDbCircle
 10
8.726725588968458
 20
4.800673959201574
 30
0.0
 40
0.005853540169475
100
AcDbArc
 50
54.16666666666666
 51
234.1666666666666
  0
ARC
  5
134
330
18
100
AcDbEntity
  8
ADP1DETAIL
100
AcDbCircle
 10
8.719818324955813
 20
4.790960479688749
 30
0.0
 40
0.005853540169475
100
AcDbArc
 50
55.0
 51
235.0
  0
ARC
  5
135
330
18
100
AcDbEntity
  8
ADP1DETAIL
100
AcDbCircle
 10
8.713053063363052
 20
4.781147569011082
 30
0.0
 40
0.005853540169475
100
AcDbArc
 50
55.83333333333333
 51
235.8333333333333
  0
ARC
  5
136
330
18
100
AcDbEntity
  8
ADP1DETAIL
100
AcDbCircle
 10
8.706431235287528
 20
4.771237302953874
 30
0.0
 40
0.005853540169475
100
AcDbArc
 50
56.66666666666666
 51
236.6666666666666
  0
ARC
  5
137
330
18
100
AcDbEntity
  8
ADP1DETAIL
100
AcDbCircle
 10
8.699954241485235
 20
4.761231777896611
 30
0.0
 40
0.005853540169475
100
AcDbArc
 50
57.5
 51
237.4999999999999
  0
ARC
  5
138
330
18
100
AcDbEntity
  8
ADP1DETAIL
100
AcDbCircle
 10
8.693623452074479
 20
4.751133110369503
 30
0.0
 40
0.005853540169475
100
AcDbArc
 50
58.33333333333333
 51
238.3333333333333
  0
ARC
  5
139
330
18
100
AcDbEntity
  8
ADP1DETAIL
100
AcDbCircle
 10
8.687440206246051
 20
4.740943436605753
 30
0.0
 40
0.005853540169475
100
AcDbArc
 50
59.16666666666666
 51
239.1666666666667
  0
ARC
  5
13A
330
18
100
AcDbEntity
  8
ADP1DETAIL
100
AcDbCircle
 10
8.68140581197994
 20
4.730664912089678
 30
0.0
 40
0.005853540169475
100
AcDbArc
 50
60.0
 51
239.9999999999999
  0
ARC
  5
13B
330
18
100
AcDbEntity
  8
ADP1DETAIL
100
AcDbCircle
 10
8.74096024997979
 20
4.819794427192562
 30
0.0
 40
0.005853540169475
100
AcDbArc
 50
52.5
 51
232.5
  0
ARC
  5
13C
330
18
100
AcDbEntity
  8
ADP1DETAIL
100
AcDbCircle
 10
8.864348207293518
 20
4.948687168942424
 30
0.0
 40
0.005853540169475
100
AcDbArc
 50
40.0
 51
220.0
  0
ARC
  5
13D
330
18
100
AcDbEntity
  8
ADP1DETAIL
100
AcDbCircle
 10
9.213738523993912
 20
5.120987405522853
 30
0.0
 40
0.005853540169475
100
AcDbArc
 50
12.5
 51
192.4999999999999
  0
ARC
  5
13E
330
18
100
AcDbEntity
  8
ADP1DETAIL
100
AcDbCircle
 10
9.110825829735549
 20
5.09099109060855
 30
0.0
 40
0.005853540169475
100
AcDbArc
 50
20.0
 51
200.0
  0
ARC
  5
13F
330
18
100
AcDbEntity
  8
ADP1DETAIL
100
AcDbCircle
 10
9.099655597534958
 20
5.086833219401873
 30
0.0
 40
0.005853540169475
100
AcDbArc
 50
20.83333333333333
 51
200.8333333333333
  0
ARC
  5
140
330
18
100
AcDbEntity
  8
ADP1DETAIL
100
AcDbCircle
 10
9.110825829735549
 20
5.09099109060855
 30
0.0
 40
0.005853540169475
100
AcDbArc
 50
20.0
 51
200.0
  0
ARC
  5
141
330
18
100
AcDbEntity
  8
ADP1DETAIL
100
AcDbCircle
 10
9.122055352135484
 20
5.094986063331332
 30
0.0
 40
0.005853540169475
100
AcDbArc
 50
19.16666666666666
 51
199.1666666666667
  0
ARC
  5
142
330
18
100
AcDbEntity
  8
ADP1DETAIL
100
AcDbCircle
 10
9.133341789284877
 20
5.098817292489088
 30
0.0
 40
0.005853540169475
100
AcDbArc
 50
18.33333333333333
 51
198.3333333333333
  0
ARC
  5
143
330
18
100
AcDbEntity
  8
ADP1DETAIL
100
AcDbCircle
 10
9.144682753694313
 20
5.102483967638367
 30
0.0
 40
0.005853540169475
100
AcDbArc
 50
17.5
 51
197.5
  0
ARC
  5
144
330
18
100
AcDbEntity
  8
ADP1DETAIL
100
AcDbCircle
 10
9.156075846339893
 20
5.105985313144839
 30
0.0
 40
0.005853540169475
100
AcDbArc
 50
16.66666666666666
 51
196.6666666666666
  0
ARC
  5
145
330
18
100
AcDbEntity
  8
ADP1DETAIL
100
AcDbCircle
 10
9.167518657170706
 20
5.109320588347373
 30
0.0
 40
0.005853540169475
100
AcDbArc
 50
15.83333333333333
 51
195.8333333333333
  0
ARC
  5
146
330
18
100
AcDbEntity
  8
ADP1DETAIL
100
AcDbCircle
 10
9.179008765618654
 20
5.112489087714707
 30
0.0
 40
0.005853540169475
100
AcDbArc
 50
15.0
 51
195.0
  0
ARC
  5
147
330
18
100
AcDbEntity
  8
ADP1DETAIL
100
AcDbCircle
 10
9.190543741110483
 20
5.115490140994696
 30
0.0
 40
0.005853540169475
100
AcDbArc
 50
14.16666666666666
 51
194.1666666666666
  0
ARC
  5
148
330
18
100
AcDbEntity
  8
ADP1DETAIL
100
AcDbCircle
 10
9.202121143581933
 20
5.118323113356096
 30
0.0
 40
0.005853540169475
100
AcDbArc
 50
13.33333333333333
 51
193.3333333333333
  0
ARC
  5
149
330
18
100
AcDbEntity
  8
ADP1DETAIL
100
AcDbCircle
 10
9.055614630275851
 20
5.068590853463121
 30
0.0
 40
0.005853540169475
100
AcDbArc
 50
24.16666666666667
 51
204.1666666666666
  0
ARC
  5
14A
330
18
100
AcDbEntity
  8
ADP1DETAIL
100
AcDbCircle
 10
9.044776024413843
 20
5.063632365452197
 30
0.0
 40
0.005853540169475
100
AcDbArc
 50
25.0
 51
205.0
  0
ARC
  5
14B
330
18
100
AcDbEntity
  8
ADP1DETAIL
100
AcDbCircle
 10
9.034010680672428
 20
5.058516766316651
 30
0.0
 40
0.005853540169475
100
AcDbArc
 50
25.83333333333333
 51
205.8333333333333
  0
ARC
  5
14C
330
18
100
AcDbEntity
  8
ADP1DETAIL
100
AcDbCircle
 10
9.023320876310927
 20
5.053245138190607
 30
0.0
 40
0.005853540169475
100
AcDbArc
 50
26.66666666666666
 51
206.6666666666666
  0
ARC
  5
14D
330
18
100
AcDbEntity
  8
ADP1DETAIL
100
AcDbCircle
 10
9.012708872609358
 20
5.047818596213964
 30
0.0
 40
0.005853540169475
100
AcDbArc
 50
27.5
 51
207.5
  0
ARC
  5
14E
330
18
100
AcDbEntity
  8
ADP1DETAIL
100
AcDbCircle
 10
9.00217691439008
 20
5.042238288296493
 30
0.0
 40
0.005853540169475
100
AcDbArc
 50
28.33333333333333
 51
208.3333333333333
  0
ARC
  5
14F
330
18
100
AcDbEntity
  8
ADP1DETAIL
100
AcDbCircle
 10
8.99172722954294
 20
5.036505394875025
 30
0.0
 40
0.005853540169475
100
AcDbArc
 50
29.16666666666666
 51
209.1666666666666
  0
ARC
  5
150
330
18
100
AcDbEntity
  8
ADP1DETAIL
100
AcDbCircle
 10
8.981362028554
 20
5.030621128663738
 30
0.0
 40
0.005853540169475
100
AcDbArc
 50
30.0
 51
210.0
  0
ARC
  5
151
330
18
100
AcDbEntity
  8
ADP1DETAIL
100
AcDbCircle
 10
8.971083504037926
 20
5.024586734397628
 30
0.0
 40
0.005853540169475
100
AcDbArc
 50
30.83333333333333
 51
210.8333333333333
  0
ARC
  5
152
330
18
100
AcDbEntity
  8
ADP1DETAIL
100
AcDbCircle
 10
8.960893830274176
 20
5.018403488569198
 30
0.0
 40
0.005853540169475
100
AcDbArc
 50
31.66666666666666
 51
211.6666666666666
  0
ARC
  5
153
330
18
100
AcDbEntity
  8
ADP1DETAIL
100
AcDbCircle
 10
8.940789637689803
 20
5.005595705356149
 30
0.0
 40
0.005853540169475
100
AcDbArc
 50
33.33333333333333
 51
213.3333333333333
  0
ARC
  5
154
330
18
100
AcDbEntity
  8
ADP1DETAIL
100
AcDbCircle
 10
8.930879371632597
 20
4.998973877280626
 30
0.0
 40
0.005853540169475
100
AcDbArc
 50
34.16666666666667
 51
214.1666666666667
  0
ARC
  5
155
330
18
100
AcDbEntity
  8
ADP1DETAIL
100
AcDbCircle
 10
8.921066460954927
 20
4.992208615687862
 30
0.0
 40
0.005853540169475
100
AcDbArc
 50
35.0
 51
215.0
  0
ARC
  5
156
330
18
100
AcDbEntity
  8
ADP1DETAIL
100
AcDbCircle
 10
8.911352981442105
 20
4.985301351675218
 30
0.0
 40
0.005853540169475
100
AcDbArc
 50
35.83333333333333
 51
215.8333333333333
  0
ARC
  5
157
330
18
100
AcDbEntity
  8
ADP1DETAIL
100
AcDbCircle
 10
8.901740987846141
 20
4.978253546378704
 30
0.0
 40
0.005853540169475
100
AcDbArc
 50
36.66666666666666
 51
216.6666666666666
  0
ARC
  5
158
330
18
100
AcDbEntity
  8
ADP1DETAIL
100
AcDbCircle
 10
8.892232513451116
 20
4.971066690663887
 30
0.0
 40
0.005853540169475
100
AcDbArc
 50
37.49999999999999
 51
217.5
  0
ARC
  5
159
330
18
100
AcDbEntity
  8
ADP1DETAIL
100
AcDbCircle
 10
8.882829569643059
 20
4.963742304810523
 30
0.0
 40
0.005853540169475
100
AcDbArc
 50
38.33333333333333
 51
218.3333333333333
  0
ARC
  5
15A
330
18
100
AcDbEntity
  8
ADP1DETAIL
100
AcDbCircle
 10
8.950795162747066
 20
5.012072699158441
 30
0.0
 40
0.005853540169475
100
AcDbArc
 50
32.5
 51
212.5
  0
ARC
  5
15B
330
18
100
AcDbEntity
  8
ADP1DETAIL
100
AcDbCircle
 10
9.08854701844158
 20
5.082513329251352
 30
0.0
 40
0.005853540169475
100
AcDbArc
 50
21.66666666666666
 51
201.6666666666667
  0
ARC
  5
15C
330
18
100
AcDbEntity
  8
ADP1DETAIL
100
AcDbCircle
 10
9.077502442321417
 20
5.078032333969897
 30
0.0
 40
0.005853540169475
100
AcDbArc
 50
22.5
 51
202.4999999999999
  0
ARC
  5
15D
330
18
100
AcDbEntity
  8
ADP1DETAIL
100
AcDbCircle
 10
9.066524205501542
 20
5.073391181449982
 30
0.0
 40
0.005853540169475
100
AcDbArc
 50
23.33333333333333
 51
203.3333333333333
  0
ARC
  5
15E
330
18
100
AcDbEntity
  8
ADP1DETAIL
100
AcDbCircle
 10
9.545136300115462
 20
5.125807730697231
 30
0.0
 40
0.005853540169475
100
AcDbArc
 50
349.1666666666665
 51
169.1666666666664
  0
ARC
  5
15F
330
18
100
AcDbEntity
  8
ADP1DETAIL
100
AcDbCircle
 10
9.533413762083361
 20
5.127962744031844
 30
0.0
 40
0.005853540169475
100
AcDbArc
 50
349.9999999999998
 51
169.9999999999998
  0
ARC
  5
160
330
18
100
AcDbEntity
  8
ADP1DETAIL
100
AcDbCircle
 10
9.52166112162814
 20
5.129947038041493
 30
0.0
 40
0.005853540169475
100
AcDbArc
 50
350.8333333333331
 51
170.8333333333331
  0
ARC
  5
161
330
18
100
AcDbEntity
  8
ADP1DETAIL
100
AcDbCircle
 10
9.509880864858063
 20
5.131760192976273
 30
0.0
 40
0.005853540169475
100
AcDbArc
 50
351.6666666666665
 51
171.6666666666665
  0
ARC
  5
162
330
18
100
AcDbEntity
  8
ADP1DETAIL
100
AcDbCircle
 10
9.486247475488514
 20
5.134871587713231
 30
0.0
 40
0.005853540169475
100
AcDbArc
 50
353.3333333333331
 51
173.3333333333332
  0
ARC
  5
163
330
18
100
AcDbEntity
  8
ADP1DETAIL
100
AcDbCircle
 10
9.474399342205138
 20
5.136169169342956
 30
0.0
 40
0.005853540169475
100
AcDbArc
 50
354.1666666666665
 51
174.1666666666665
  0
ARC
  5
164
330
18
100
AcDbEntity
  8
ADP1DETAIL
100
AcDbCircle
 10
9.462533590181571
 20
5.137294295692139
 30
0.0
 40
0.005853540169475
100
AcDbArc
 50
354.9999999999998
 51
174.9999999999998
  0
ARC
  5
165
330
18
100
AcDbEntity
  8
ADP1DETAIL
100
AcDbCircle
 10
9.45065272945326
 20
5.138246728755885
 30
0.0
 40
0.005853540169475
100
AcDbArc
 50
355.8333333333332
 51
175.8333333333331
  0
ARC
  5
166
330
18
100
AcDbEntity
  8
ADP1DETAIL
100
AcDbCircle
 10
9.438759273251694
 20
5.139026267060176
 30
0.0
 40
0.005853540169475
100
AcDbArc
 50
356.6666666666665
 51
176.6666666666664
  0
ARC
  5
167
330
18
100
AcDbEntity
  8
ADP1DETAIL
100
AcDbCircle
 10
9.426855737472758
 20
5.139632745704487
 30
0.0
 40
0.005853540169475
100
AcDbArc
 50
357.4999999999998
 51
177.4999999999998
  0
ARC
  5
168
330
18
100
AcDbEntity
  8
ADP1DETAIL
100
AcDbCircle
 10
9.414944640144529
 20
5.140066036396657
 30
0.0
 40
0.005853540169475
100
AcDbArc
 50
358.3333333333332
 51
178.3333333333331
  0
ARC
  5
169
330
18
100
AcDbEntity
  8
ADP1DETAIL
100
AcDbCircle
 10
9.403028500894633
 20
5.140326047480043
 30
0.0
 40
0.005853540169475
100
AcDbArc
 50
359.1666666666665
 51
179.1666666666665
  0
ARC
  5
16A
330
18
100
AcDbEntity
  8
ADP1DETAIL
100
AcDbCircle
 10
9.391109840417234
 20
5.140412723952912
 30
0.0
 40
0.005853540169475
100
AcDbArc
 50
359.9999999999998
 51
179.9999999999998
  0
ARC
  5
16B
330
18
100
AcDbEntity
  8
ADP1DETAIL
100
AcDbCircle
 10
9.498075483723248
 20
5.133401825288375
 30
0.0
 40
0.005853540169475
100
AcDbArc
 50
352.4999999999998
 51
172.4999999999998
  0
ARC
  5
16C
330
18
100
AcDbEntity
  8
ADP1DETAIL
100
AcDbCircle
 10
9.225393424850539
 20
5.123482453900871
 30
0.0
 40
0.005853540169475
100
AcDbArc
 50
11.66666666666666
 51
191.6666666666666
  0
ARC
  5
16D
330
18
100
AcDbEntity
  8
ADP1DETAIL
100
AcDbCircle
 10
9.237083380719006
 20
5.125807730697231
 30
0.0
 40
0.005853540169475
100
AcDbArc
 50
10.83333333333333
 51
190.8333333333333
  0
ARC
  5
16E
330
18
100
AcDbEntity
  8
ADP1DETAIL
100
AcDbCircle
 10
9.248805918751108
 20
5.127962744031844
 30
0.0
 40
0.005853540169475
100
AcDbArc
 50
10.0
 51
190.0
  0
ARC
  5
16F
330
18
100
AcDbEntity
  8
ADP1DETAIL
100
AcDbCircle
 10
9.260558559206328
 20
5.129947038041493
 30
0.0
 40
0.005853540169475
100
AcDbArc
 50
9.166666666666666
 51
189.1666666666666
  0
ARC
  5
170
330
18
100
AcDbEntity
  8
ADP1DETAIL
100
AcDbCircle
 10
9.272338815976405
 20
5.131760192976273
 30
0.0
 40
0.005853540169475
100
AcDbArc
 50
8.333333333333332
 51
188.3333333333333
  0
ARC
  5
171
330
18
100
AcDbEntity
  8
ADP1DETAIL
100
AcDbCircle
 10
9.284144197111221
 20
5.133401825288375
 30
0.0
 40
0.005853540169475
100
AcDbArc
 50
7.499999999999999
 51
187.4999999999999
  0
ARC
  5
172
330
18
100
AcDbEntity
  8
ADP1DETAIL
100
AcDbCircle
 10
9.295972205345954
 20
5.134871587713229
 30
0.0
 40
0.005853540169475
100
AcDbArc
 50
6.666666666666666
 51
186.6666666666666
  0
ARC
  5
173
330
18
100
AcDbEntity
  8
ADP1DETAIL
100
AcDbCircle
 10
9.30782033862933
 20
5.136169169342956
 30
0.0
 40
0.005853540169475
100
AcDbArc
 50
5.833333333333333
 51
185.8333333333333
  0
ARC
  5
174
330
18
100
AcDbEntity
  8
ADP1DETAIL
100
AcDbCircle
 10
9.319686090652897
 20
5.137294295692139
 30
0.0
 40
0.005853540169475
100
AcDbArc
 50
5.0
 51
185.0
  0
ARC
  5
175
330
18
100
AcDbEntity
  8
ADP1DETAIL
100
AcDbCircle
 10
9.331566951381208
 20
5.138246728755886
 30
0.0
 40
0.005853540169475
100
AcDbArc
 50
4.166666666666666
 51
184.1666666666666
  0
ARC
  5
176
330
18
100
AcDbEntity
  8
ADP1DETAIL
100
AcDbCircle
 10
9.343460407582774
 20
5.139026267060177
 30
0.0
 40
0.005853540169475
100
AcDbArc
 50
3.333333333333333
 51
183.3333333333333
  0
ARC
  5
177
330
18
100
AcDbEntity
  8
ADP1DETAIL
100
AcDbCircle
 10
9.355363943361711
 20
5.139632745704486
 30
0.0
 40
0.005853540169475
100
AcDbArc
 50
2.5
 51
182.5
  0
ARC
  5
178
330
18
100
AcDbEntity
  8
ADP1DETAIL
100
AcDbCircle
 10
9.367275040689939
 20
5.140066036396656
 30
0.0
 40
0.005853540169475
100
AcDbArc
 50
1.666666666666666
 51
181.6666666666666
  0
ARC
  5
179
330
18
100
AcDbEntity
  8
ADP1DETAIL
100
AcDbCircle
 10
9.379191179939835
 20
5.140326047480045
 30
0.0
 40
0.005853540169475
100
AcDbArc
 50
0.8333333333333332
 51
180.8333333333333
  0
ARC
  5
17A
330
18
100
AcDbEntity
  8
ADP1DETAIL
100
AcDbCircle
 10
9.391109840417232
 20
5.140412723952911
 30
0.0
 40
0.005853540169475
100
AcDbArc
 50
0.0
 51
180.0
  0
LINE
  5
17B
330
18
100
AcDbEntity
  8
ADP1DETAIL
100
AcDbLine
 10
10.75937017651892
 20
5.084460674571047
 30
0.0
 11
10.75937017651892
 21
3.752447232551996
 31
0.0
  0
LINE
  5
17C
330
18
100
AcDbEntity
  8
ADP1DETAIL
100
AcDbLine
 10
10.82187017651893
 20
5.146960674571047
 30
0.0
 11
10.82187017651893
 21
3.689947232551996
 31
0.0
  0
ARC
  5
17D
330
18
100
AcDbEntity
  8
ADP1DETAIL
100
AcDbCircle
 10
10.11243102848728
 20
3.931984174199289
 30
0.0
 40
0.005853540169475
100
AcDbArc
 50
241.6666666666666
 51
61.66666666666666
  0
ARC
  5
17E
330
18
100
AcDbEntity
  8
ADP1DETAIL
100
AcDbCircle
 10
9.391109840417232
 20
4.320917100226445
 30
0.0
 40
0.7034004103652168
100
AcDbArc
 50
311.6149303919278
 51
50.24565538434528
  0
ARC
  5
17F
330
18
100
AcDbEntity
  8
ADP1DETAIL
100
AcDbCircle
 10
9.899013263496474
 20
3.749035236967305
 30
0.0
 40
0.0604866126203126
100
AcDbArc
 50
217.0733582953931
 51
312.7310107329468
  0
ARC
  5
180
330
18
100
AcDbEntity
  8
ADP1DETAIL
100
AcDbCircle
 10
9.898423275291813
 20
3.749816044790125
 30
0.0
 40
0.0604865817512392
100
AcDbArc
 50
131.6149303919277
 51
217.0733454998345
  0
LINE
  5
181
330
18
100
AcDbEntity
  8
ADP1DETAIL
100
AcDbLine
 10
9.850753153114112
 20
3.712571665390154
 30
0.0
 11
9.850163181395574
 21
3.71335250259966
 31
0.0
  0
ARC
  5
182
330
18
100
AcDbEntity
  8
ADP1DETAIL
100
AcDbCircle
 10
9.935907142959299
 20
3.708733323530494
 30
0.0
 40
0.005853540169475
100
AcDbArc
 50
315.1479928958624
 51
41.66666666666665
  0
ARC
  5
183
330
18
100
AcDbEntity
  8
ADP1DETAIL
100
AcDbCircle
 10
10.10081386885452
 20
3.911169288363211
 30
0.0
 40
0.005853540169475
100
AcDbArc
 50
239.9999999999999
 51
59.99999999999999
  0
ARC
  5
184
330
18
100
AcDbEntity
  8
ADP1DETAIL
100
AcDbCircle
 10
10.10669813506581
 20
3.921534489352151
 30
0.0
 40
0.005853540169475
100
AcDbArc
 50
240.8333333333332
 51
60.83333333333331
  0
ARC
  5
185
330
18
100
AcDbEntity
  8
ADP1DETAIL
100
AcDbCircle
 10
9.94475305899072
 20
3.716721549237842
 30
0.0
 40
0.005853540169475
100
AcDbArc
 50
222.5
 51
42.5
  0
ARC
  5
186
330
18
100
AcDbEntity
  8
ADP1DETAIL
100
AcDbCircle
 10
9.95348185946954
 20
3.724837584143346
 30
0.0
 40
0.005853540169475
100
AcDbArc
 50
223.3333333333333
 51
43.33333333333334
  0
ARC
  5
187
330
18
100
AcDbEntity
  8
ADP1DETAIL
100
AcDbCircle
 10
9.962091697938953
 20
3.733079711412263
 30
0.0
 40
0.005853540169475
100
AcDbArc
 50
224.1666666666666
 51
44.16666666666667
  0
ARC
  5
188
330
18
100
AcDbEntity
  8
ADP1DETAIL
100
AcDbCircle
 10
9.970580753106913
 20
3.741446187536758
 30
0.0
 40
0.005853540169475
100
AcDbArc
 50
225.0
 51
45.0
  0
ARC
  5
189
330
18
100
AcDbEntity
  8
ADP1DETAIL
100
AcDbCircle
 10
9.97894722923141
 20
3.749935242704719
 30
0.0
 40
0.005853540169475
100
AcDbArc
 50
225.8333333333333
 51
45.83333333333334
  0
ARC
  5
18A
330
18
100
AcDbEntity
  8
ADP1DETAIL
100
AcDbCircle
 10
9.987189356500326
 20
3.758545081174133
 30
0.0
 40
0.005853540169475
100
AcDbArc
 50
226.6666666666667
 51
46.66666666666666
  0
ARC
  5
18B
330
18
100
AcDbEntity
  8
ADP1DETAIL
100
AcDbCircle
 10
9.995305391405832
 20
3.767273881652954
 30
0.0
 40
0.005853540169475
100
AcDbArc
 50
227.4999999999999
 51
47.49999999999997
  0
ARC
  5
18C
330
18
100
AcDbEntity
  8
ADP1DETAIL
100
AcDbCircle
 10
10.00329361711318
 20
3.776119797684372
 30
0.0
 40
0.005853540169475
100
AcDbArc
 50
228.3333333333333
 51
48.33333333333334
  0
ARC
  5
18D
330
18
100
AcDbEntity
  8
ADP1DETAIL
100
AcDbCircle
 10
10.01115234382389
 20
3.785080958037404
 30
0.0
 40
0.005853540169475
100
AcDbArc
 50
229.1666666666666
 51
49.16666666666664
  0
ARC
  5
18E
330
18
100
AcDbEntity
  8
ADP1DETAIL
100
AcDbCircle
 10
10.0188799091332
 20
3.794155467102727
 30
0.0
 40
0.005853540169475
100
AcDbArc
 50
230.0
 51
50.00000000000002
  0
ARC
  5
18F
330
18
100
AcDbEntity
  8
ADP1DETAIL
100
AcDbCircle
 10
10.02647467838175
 20
3.803341405293668
 30
0.0
 40
0.005853540169475
100
AcDbArc
 50
230.8333333333333
 51
50.83333333333332
  0
ARC
  5
190
330
18
100
AcDbEntity
  8
ADP1DETAIL
100
AcDbCircle
 10
10.0339350450013
 20
3.812636829452268
 30
0.0
 40
0.005853540169475
100
AcDbArc
 50
231.6666666666666
 51
51.6666666666667
  0
ARC
  5
191
330
18
100
AcDbEntity
  8
ADP1DETAIL
100
AcDbCircle
 10
10.04844628656949
 20
3.83154824765535
 30
0.0
 40
0.005853540169475
100
AcDbArc
 50
233.3333333333333
 51
53.33333333333337
  0
ARC
  5
192
330
18
100
AcDbEntity
  8
ADP1DETAIL
100
AcDbCircle
 10
10.055494091866
 20
3.841160241251313
 30
0.0
 40
0.005853540169475
100
AcDbArc
 50
234.1666666666666
 51
54.16666666666666
  0
ARC
  5
193
330
18
100
AcDbEntity
  8
ADP1DETAIL
100
AcDbCircle
 10
10.06240135587864
 20
3.850873720764139
 30
0.0
 40
0.005853540169475
100
AcDbArc
 50
235.0
 51
55.00000000000004
  0
ARC
  5
194
330
18
100
AcDbEntity
  8
ADP1DETAIL
100
AcDbCircle
 10
10.06916661747141
 20
3.860686631441806
 30
0.0
 40
0.005853540169475
100
AcDbArc
 50
235.8333333333333
 51
55.83333333333334
  0
ARC
  5
195
330
18
100
AcDbEntity
  8
ADP1DETAIL
100
AcDbCircle
 10
10.07578844554693
 20
3.870596897499013
 30
0.0
 40
0.005853540169475
100
AcDbArc
 50
236.6666666666666
 51
56.66666666666666
  0
ARC
  5
196
330
18
100
AcDbEntity
  8
ADP1DETAIL
100
AcDbCircle
 10
10.08226543934922
 20
3.880602422556275
 30
0.0
 40
0.005853540169475
100
AcDbArc
 50
237.4999999999999
 51
57.50000000000001
  0
ARC
  5
197
330
18
100
AcDbEntity
  8
ADP1DETAIL
100
AcDbCircle
 10
10.08859622875998
 20
3.890701090083384
 30
0.0
 40
0.005853540169475
100
AcDbArc
 50
238.3333333333333
 51
58.33333333333333
  0
ARC
  5
198
330
18
100
AcDbEntity
  8
ADP1DETAIL
100
AcDbCircle
 10
10.09477947458841
 20
3.900890763847134
 30
0.0
 40
0.005853540169475
100
AcDbArc
 50
239.1666666666667
 51
59.16666666666671
  0
ARC
  5
199
330
18
100
AcDbEntity
  8
ADP1DETAIL
100
AcDbCircle
 10
10.10081386885452
 20
3.911169288363209
 30
0.0
 40
0.005853540169475
100
AcDbArc
 50
240.0
 51
60.0
  0
ARC
  5
19A
330
18
100
AcDbEntity
  8
ADP1DETAIL
100
AcDbCircle
 10
10.04125943085467
 20
3.822039773260326
 30
0.0
 40
0.005853540169475
100
AcDbArc
 50
232.5
 51
52.5
  0
LINE
  5
19B
330
18
100
AcDbEntity
  8
ADP1DETAIL
100
AcDbLine
 10
10.75937017651892
 20
3.752447232551996
 30
0.0
 11
10.82187017651893
 21
3.689947232551996
 31
0.0
  0
ARC
  5
19C
330
18
100
AcDbEntity
  8
ADP1DETAIL
100
AcDbCircle
 10
10.15702595959266
 20
4.612371343108716
 30
0.0
 40
0.005853540169475
100
AcDbArc
 50
290.8333333333332
 51
110.8333333333332
  0
ARC
  5
19D
330
18
100
AcDbEntity
  8
ADP1DETAIL
100
AcDbCircle
 10
10.19815548422263
 20
4.463221021892566
 30
0.0
 40
0.005853540169475
100
AcDbArc
 50
279.9999999999999
 51
99.99999999999992
  0
ARC
  5
19E
330
18
100
AcDbEntity
  8
ADP1DETAIL
100
AcDbCircle
 10
10.19600047088802
 20
4.474943559924668
 30
0.0
 40
0.005853540169475
100
AcDbArc
 50
280.8333333333332
 51
100.8333333333332
  0
ARC
  5
19F
330
18
100
AcDbEntity
  8
ADP1DETAIL
100
AcDbCircle
 10
10.19367519409166
 20
4.486633515793136
 30
0.0
 40
0.005853540169475
100
AcDbArc
 50
281.6666666666666
 51
101.6666666666665
  0
ARC
  5
1A0
330
18
100
AcDbEntity
  8
ADP1DETAIL
100
AcDbCircle
 10
10.19118014571364
 20
4.498288416649763
 30
0.0
 40
0.005853540169475
100
AcDbArc
 50
282.4999999999999
 51
102.4999999999999
  0
ARC
  5
1A1
330
18
100
AcDbEntity
  8
ADP1DETAIL
100
AcDbCircle
 10
10.18851585354688
 20
4.50990579706174
 30
0.0
 40
0.005853540169475
100
AcDbArc
 50
283.3333333333332
 51
103.3333333333332
  0
ARC
  5
1A2
330
18
100
AcDbEntity
  8
ADP1DETAIL
100
AcDbCircle
 10
10.18568288118548
 20
4.521483199533191
 30
0.0
 40
0.005853540169475
100
AcDbArc
 50
284.1666666666665
 51
104.1666666666666
  0
ARC
  5
1A3
330
18
100
AcDbEntity
  8
ADP1DETAIL
100
AcDbCircle
 10
10.18268182790549
 20
4.53301817502502
 30
0.0
 40
0.005853540169475
100
AcDbArc
 50
284.9999999999999
 51
104.9999999999999
  0
ARC
  5
1A4
330
18
100
AcDbEntity
  8
ADP1DETAIL
100
AcDbCircle
 10
10.17951332853816
 20
4.544508283472969
 30
0.0
 40
0.005853540169475
100
AcDbArc
 50
285.8333333333332
 51
105.8333333333332
  0
ARC
  5
1A5
330
18
100
AcDbEntity
  8
ADP1DETAIL
100
AcDbCircle
 10
10.17617805333562
 20
4.555951094303784
 30
0.0
 40
0.005853540169475
100
AcDbArc
 50
286.6666666666665
 51
106.6666666666665
  0
ARC
  5
1A6
330
18
100
AcDbEntity
  8
ADP1DETAIL
100
AcDbCircle
 10
10.17267670782915
 20
4.567344186949362
 30
0.0
 40
0.005853540169475
100
AcDbArc
 50
287.4999999999999
 51
107.4999999999999
  0
ARC
  5
1A7
330
18
100
AcDbEntity
  8
ADP1DETAIL
100
AcDbCircle
 10
10.16901003267987
 20
4.578685151358797
 30
0.0
 40
0.005853540169475
100
AcDbArc
 50
288.3333333333332
 51
108.3333333333332
  0
ARC
  5
1A8
330
18
100
AcDbEntity
  8
ADP1DETAIL
100
AcDbCircle
 10
10.16517880352212
 20
4.58997158850819
 30
0.0
 40
0.005853540169475
100
AcDbArc
 50
289.1666666666665
 51
109.1666666666665
  0
ARC
  5
1A9
330
18
100
AcDbEntity
  8
ADP1DETAIL
100
AcDbCircle
 10
10.16118383079934
 20
4.601201110908125
 30
0.0
 40
0.005853540169475
100
AcDbArc
 50
289.9999999999999
 51
109.9999999999999
  0
ARC
  5
1AA
330
18
100
AcDbEntity
  8
ADP1DETAIL
100
AcDbCircle
 10
10.20843946894667
 20
4.380459989262471
 30
0.0
 40
0.005853540169475
100
AcDbArc
 50
274.1666666666666
 51
94.16666666666662
  0
ARC
  5
1AB
330
18
100
AcDbEntity
  8
ADP1DETAIL
100
AcDbCircle
 10
10.20748703588292
 20
4.392340849990781
 30
0.0
 40
0.005853540169475
100
AcDbArc
 50
274.9999999999999
 51
95.0
  0
ARC
  5
1AC
330
18
100
AcDbEntity
  8
ADP1DETAIL
100
AcDbCircle
 10
10.20636190953374
 20
4.404206602014348
 30
0.0
 40
0.005853540169475
100
AcDbArc
 50
275.8333333333333
 51
95.8333333333333
  0
ARC
  5
1AD
330
18
100
AcDbEntity
  8
ADP1DETAIL
100
AcDbCircle
 10
10.20506432790401
 20
4.416054735297723
 30
0.0
 40
0.005853540169475
100
AcDbArc
 50
276.6666666666666
 51
96.66666666666662
  0
ARC
  5
1AE
330
18
100
AcDbEntity
  8
ADP1DETAIL
100
AcDbCircle
 10
10.20359456547916
 20
4.427882743532457
 30
0.0
 40
0.005853540169475
100
AcDbArc
 50
277.4999999999999
 51
97.49999999999998
  0
ARC
  5
1AF
330
18
100
AcDbEntity
  8
ADP1DETAIL
100
AcDbCircle
 10
10.20195293316705
 20
4.439688124667274
 30
0.0
 40
0.005853540169475
100
AcDbArc
 50
278.3333333333333
 51
98.33333333333328
  0
ARC
  5
1B0
330
18
100
AcDbEntity
  8
ADP1DETAIL
100
AcDbCircle
 10
10.20013977823228
 20
4.451468381437349
 30
0.0
 40
0.005853540169475
100
AcDbArc
 50
279.1666666666666
 51
99.16666666666667
  0
ARC
  5
1B1
330
18
100
AcDbEntity
  8
ADP1DETAIL
100
AcDbCircle
 10
10.19815548422263
 20
4.463221021892571
 30
0.0
 40
0.005853540169475
100
AcDbArc
 50
280.0
 51
99.99999999999996
  0
ARC
  5
1B2
330
18
100
AcDbEntity
  8
ADP1DETAIL
100
AcDbCircle
 10
10.19815548422263
 20
4.178613178560319
 30
0.0
 40
0.005853540169475
100
AcDbArc
 50
259.9999999999999
 51
79.99999999999996
  0
ARC
  5
1B3
330
18
100
AcDbEntity
  8
ADP1DETAIL
100
AcDbCircle
 10
10.20013977823228
 20
4.190365819015541
 30
0.0
 40
0.005853540169475
100
AcDbArc
 50
260.8333333333333
 51
80.83333333333328
  0
ARC
  5
1B4
330
18
100
AcDbEntity
  8
ADP1DETAIL
100
AcDbCircle
 10
10.20195293316705
 20
4.202146075785615
 30
0.0
 40
0.005853540169475
100
AcDbArc
 50
261.6666666666666
 51
81.66666666666662
  0
ARC
  5
1B5
330
18
100
AcDbEntity
  8
ADP1DETAIL
100
AcDbCircle
 10
10.20359456547916
 20
4.213951456920433
 30
0.0
 40
0.005853540169475
100
AcDbArc
 50
262.4999999999999
 51
82.49999999999996
  0
ARC
  5
1B6
330
18
100
AcDbEntity
  8
ADP1DETAIL
100
AcDbCircle
 10
10.20506432790401
 20
4.225779465155167
 30
0.0
 40
0.005853540169475
100
AcDbArc
 50
263.3333333333333
 51
83.3333333333333
  0
ARC
  5
1B7
330
18
100
AcDbEntity
  8
ADP1DETAIL
100
AcDbCircle
 10
10.20636190953374
 20
4.237627598438542
 30
0.0
 40
0.005853540169475
100
AcDbArc
 50
264.1666666666666
 51
84.16666666666662
  0
ARC
  5
1B8
330
18
100
AcDbEntity
  8
ADP1DETAIL
100
AcDbCircle
 10
10.20748703588292
 20
4.24949335046211
 30
0.0
 40
0.005853540169475
100
AcDbArc
 50
264.9999999999999
 51
84.99999999999996
  0
ARC
  5
1B9
330
18
100
AcDbEntity
  8
ADP1DETAIL
100
AcDbCircle
 10
10.20843946894667
 20
4.26137421119042
 30
0.0
 40
0.005853540169475
100
AcDbArc
 50
265.8333333333333
 51
85.8333333333333
  0
ARC
  5
1BA
330
18
100
AcDbEntity
  8
ADP1DETAIL
100
AcDbCircle
 10
10.20921900725096
 20
4.273267667391986
 30
0.0
 40
0.005853540169475
100
AcDbArc
 50
266.6666666666666
 51
86.66666666666662
  0
ARC
  5
1BB
330
18
100
AcDbEntity
  8
ADP1DETAIL
100
AcDbCircle
 10
10.20982548589527
 20
4.285171203170923
 30
0.0
 40
0.005853540169475
100
AcDbArc
 50
267.4999999999999
 51
87.49999999999992
  0
ARC
  5
1BC
330
18
100
AcDbEntity
  8
ADP1DETAIL
100
AcDbCircle
 10
10.21025877658744
 20
4.29708230049915
 30
0.0
 40
0.005853540169475
100
AcDbArc
 50
268.3333333333333
 51
88.3333333333333
  0
ARC
  5
1BD
330
18
100
AcDbEntity
  8
ADP1DETAIL
100
AcDbCircle
 10
10.21051878767083
 20
4.308998439749048
 30
0.0
 40
0.005853540169475
100
AcDbArc
 50
269.1666666666666
 51
89.1666666666666
  0
ARC
  5
1BE
330
18
100
AcDbEntity
  8
ADP1DETAIL
100
AcDbCircle
 10
10.2106054641437
 20
4.320917100226445
 30
0.0
 40
0.005853540169475
100
AcDbArc
 50
269.9999999999999
 51
89.99999999999998
  0
ARC
  5
1BF
330
18
100
AcDbEntity
  8
ADP1DETAIL
100
AcDbCircle
 10
10.21051878767083
 20
4.332835760703842
 30
0.0
 40
0.005853540169475
100
AcDbArc
 50
270.8333333333333
 51
90.83333333333326
  0
ARC
  5
1C0
330
18
100
AcDbEntity
  8
ADP1DETAIL
100
AcDbCircle
 10
10.21025877658744
 20
4.34475189995374
 30
0.0
 40
0.005853540169475
100
AcDbArc
 50
271.6666666666665
 51
91.66666666666664
  0
ARC
  5
1C1
330
18
100
AcDbEntity
  8
ADP1DETAIL
100
AcDbCircle
 10
10.20982548589527
 20
4.356662997281968
 30
0.0
 40
0.005853540169475
100
AcDbArc
 50
272.4999999999999
 51
92.49999999999994
  0
ARC
  5
1C2
330
18
100
AcDbEntity
  8
ADP1DETAIL
100
AcDbCircle
 10
10.11801133640475
 20
3.942516132418569
 30
0.0
 40
0.005853540169475
100
AcDbArc
 50
242.4999999999999
 51
62.49999999999998
  0
ARC
  5
1C3
330
18
100
AcDbEntity
  8
ADP1DETAIL
100
AcDbCircle
 10
10.12343787838139
 20
3.95312813612014
 30
0.0
 40
0.005853540169475
100
AcDbArc
 50
243.3333333333333
 51
63.33333333333333
  0
ARC
  5
1C4
330
18
100
AcDbEntity
  8
ADP1DETAIL
100
AcDbCircle
 10
10.12870950650744
 20
3.963817940481639
 30
0.0
 40
0.005853540169475
100
AcDbArc
 50
244.1666666666666
 51
64.16666666666666
  0
ARC
  5
1C5
330
18
100
AcDbEntity
  8
ADP1DETAIL
100
AcDbCircle
 10
10.13382510564298
 20
3.974583284223054
 30
0.0
 40
0.005853540169475
100
AcDbArc
 50
244.9999999999999
 51
64.99999999999997
  0
ARC
  5
1C6
330
18
100
AcDbEntity
  8
ADP1DETAIL
100
AcDbCircle
 10
10.13878359365391
 20
3.985421890085062
 30
0.0
 40
0.005853540169475
100
AcDbArc
 50
245.8333333333333
 51
65.83333333333333
  0
ARC
  5
1C7
330
18
100
AcDbEntity
  8
ADP1DETAIL
100
AcDbCircle
 10
10.14358392164077
 20
3.996331465310753
 30
0.0
 40
0.005853540169475
100
AcDbArc
 50
246.6666666666666
 51
66.66666666666666
  0
ARC
  5
1C8
330
18
100
AcDbEntity
  8
ADP1DETAIL
100
AcDbCircle
 10
10.14822507416068
 20
4.00730970213063
 30
0.0
 40
0.005853540169475
100
AcDbArc
 50
247.4999999999999
 51
67.49999999999994
  0
ARC
  5
1C9
330
18
100
AcDbEntity
  8
ADP1DETAIL
100
AcDbCircle
 10
10.15270606944214
 20
4.018354278250789
 30
0.0
 40
0.005853540169475
100
AcDbArc
 50
248.3333333333333
 51
68.33333333333333
  0
ARC
  5
1CA
330
18
100
AcDbEntity
  8
ADP1DETAIL
100
AcDbCircle
 10
10.15702595959266
 20
4.029462857344169
 30
0.0
 40
0.005853540169475
100
AcDbArc
 50
249.1666666666666
 51
69.16666666666663
  0
ARC
  5
1CB
330
18
100
AcDbEntity
  8
ADP1DETAIL
100
AcDbCircle
 10
10.16118383079933
 20
4.040633089544759
 30
0.0
 40
0.005853540169475
100
AcDbArc
 50
250.0
 51
70.0
  0
ARC
  5
1CC
330
18
100
AcDbEntity
  8
ADP1DETAIL
100
AcDbCircle
 10
10.16517880352212
 20
4.051862611944695
 30
0.0
 40
0.005853540169475
100
AcDbArc
 50
250.8333333333333
 51
70.8333333333333
  0
ARC
  5
1CD
330
18
100
AcDbEntity
  8
ADP1DETAIL
100
AcDbCircle
 10
10.16901003267987
 20
4.063149049094088
 30
0.0
 40
0.005853540169475
100
AcDbArc
 50
251.6666666666666
 51
71.66666666666667
  0
ARC
  5
1CE
330
18
100
AcDbEntity
  8
ADP1DETAIL
100
AcDbCircle
 10
10.17617805333562
 20
4.085883106149103
 30
0.0
 40
0.005853540169475
100
AcDbArc
 50
253.3333333333333
 51
73.33333333333334
  0
ARC
  5
1CF
330
18
100
AcDbEntity
  8
ADP1DETAIL
100
AcDbCircle
 10
10.17951332853816
 20
4.097325916979916
 30
0.0
 40
0.005853540169475
100
AcDbArc
 50
254.1666666666666
 51
74.16666666666664
  0
ARC
  5
1D0
330
18
100
AcDbEntity
  8
ADP1DETAIL
100
AcDbCircle
 10
10.18268182790549
 20
4.108816025427866
 30
0.0
 40
0.005853540169475
100
AcDbArc
 50
254.9999999999999
 51
75.00000000000001
  0
ARC
  5
1D1
330
18
100
AcDbEntity
  8
ADP1DETAIL
100
AcDbCircle
 10
10.18568288118548
 20
4.120351000919693
 30
0.0
 40
0.005853540169475
100
AcDbArc
 50
255.8333333333333
 51
75.83333333333332
  0
ARC
  5
1D2
330
18
100
AcDbEntity
  8
ADP1DETAIL
100
AcDbCircle
 10
10.18851585354688
 20
4.131928403391145
 30
0.0
 40
0.005853540169475
100
AcDbArc
 50
256.6666666666666
 51
76.66666666666664
  0
ARC
  5
1D3
330
18
100
AcDbEntity
  8
ADP1DETAIL
100
AcDbCircle
 10
10.19118014571364
 20
4.143545783803122
 30
0.0
 40
0.005853540169475
100
AcDbArc
 50
257.4999999999999
 51
77.49999999999999
  0
ARC
  5
1D4
330
18
100
AcDbEntity
  8
ADP1DETAIL
100
AcDbCircle
 10
10.19367519409166
 20
4.155200684659749
 30
0.0
 40
0.005853540169475
100
AcDbArc
 50
258.3333333333333
 51
78.33333333333332
  0
ARC
  5
1D5
330
18
100
AcDbEntity
  8
ADP1DETAIL
100
AcDbCircle
 10
10.19600047088802
 20
4.166890640528216
 30
0.0
 40
0.005853540169475
100
AcDbArc
 50
259.1666666666666
 51
79.16666666666668
  0
ARC
  5
1D6
330
18
100
AcDbEntity
  8
ADP1DETAIL
100
AcDbCircle
 10
10.19815548422263
 20
4.178613178560318
 30
0.0
 40
0.005853540169475
100
AcDbArc
 50
260.0
 51
79.99999999999999
  0
ARC
  5
1D7
330
18
100
AcDbEntity
  8
ADP1DETAIL
100
AcDbCircle
 10
10.17267670782915
 20
4.074490013503524
 30
0.0
 40
0.005853540169475
100
AcDbArc
 50
252.4999999999999
 51
72.49999999999997
  0
ARC
  5
1D8
330
18
100
AcDbEntity
  8
ADP1DETAIL
100
AcDbCircle
 10
10.20921900725096
 20
4.368566533060905
 30
0.0
 40
0.005853540169475
100
AcDbArc
 50
273.3333333333333
 51
93.33333333333333
  0
ARC
  5
1D9
330
18
100
AcDbEntity
  8
ADP1DETAIL
100
AcDbCircle
 10
9.899390111191408
 20
4.963742304810521
 30
0.0
 40
0.005853540169475
100
AcDbArc
 50
321.6666666666665
 51
141.6666666666665
  0
ARC
  5
1DA
330
18
100
AcDbEntity
  8
ADP1DETAIL
100
AcDbCircle
 10
9.671393851098919
 20
5.090991090608549
 30
0.0
 40
0.005853540169475
100
AcDbArc
 50
339.9999999999999
 51
159.9999999999998
  0
ARC
  5
1DB
330
18
100
AcDbEntity
  8
ADP1DETAIL
100
AcDbCircle
 10
9.660164328698984
 20
5.094986063331333
 30
0.0
 40
0.005853540169475
100
AcDbArc
 50
340.8333333333331
 51
160.8333333333331
  0
ARC
  5
1DC
330
18
100
AcDbEntity
  8
ADP1DETAIL
100
AcDbCircle
 10
9.648877891549592
 20
5.098817292489088
 30
0.0
 40
0.005853540169475
100
AcDbArc
 50
341.6666666666665
 51
161.6666666666665
  0
ARC
  5
1DD
330
18
100
AcDbEntity
  8
ADP1DETAIL
100
AcDbCircle
 10
9.637536927140155
 20
5.102483967638367
 30
0.0
 40
0.005853540169475
100
AcDbArc
 50
342.4999999999998
 51
162.4999999999998
  0
ARC
  5
1DE
330
18
100
AcDbEntity
  8
ADP1DETAIL
100
AcDbCircle
 10
9.626143834494575
 20
5.105985313144838
 30
0.0
 40
0.005853540169475
100
AcDbArc
 50
343.3333333333331
 51
163.3333333333331
  0
ARC
  5
1DF
330
18
100
AcDbEntity
  8
ADP1DETAIL
100
AcDbCircle
 10
9.614701023663762
 20
5.109320588347374
 30
0.0
 40
0.005853540169475
100
AcDbArc
 50
344.1666666666665
 51
164.1666666666665
  0
ARC
  5
1E0
330
18
100
AcDbEntity
  8
ADP1DETAIL
100
AcDbCircle
 10
9.603210915215814
 20
5.112489087714707
 30
0.0
 40
0.005853540169475
100
AcDbArc
 50
344.9999999999998
 51
164.9999999999998
  0
ARC
  5
1E1
330
18
100
AcDbEntity
  8
ADP1DETAIL
100
AcDbCircle
 10
9.591675939723986
 20
5.115490140994696
 30
0.0
 40
0.005853540169475
100
AcDbArc
 50
345.8333333333331
 51
165.8333333333332
  0
ARC
  5
1E2
330
18
100
AcDbEntity
  8
ADP1DETAIL
100
AcDbCircle
 10
9.580098537252535
 20
5.118323113356096
 30
0.0
 40
0.005853540169475
100
AcDbArc
 50
346.6666666666665
 51
166.6666666666665
  0
ARC
  5
1E3
330
18
100
AcDbEntity
  8
ADP1DETAIL
100
AcDbCircle
 10
9.568481156840556
 20
5.120987405522852
 30
0.0
 40
0.005853540169475
100
AcDbArc
 50
347.4999999999998
 51
167.4999999999998
  0
ARC
  5
1E4
330
18
100
AcDbEntity
  8
ADP1DETAIL
100
AcDbCircle
 10
9.693672662392888
 20
5.082513329251351
 30
0.0
 40
0.005853540169475
100
AcDbArc
 50
338.3333333333331
 51
158.3333333333332
  0
ARC
  5
1E5
330
18
100
AcDbEntity
  8
ADP1DETAIL
100
AcDbCircle
 10
9.682564083299508
 20
5.086833219401873
 30
0.0
 40
0.005853540169475
100
AcDbArc
 50
339.1666666666665
 51
159.1666666666665
  0
ARC
  5
1E6
330
18
100
AcDbEntity
  8
ADP1DETAIL
100
AcDbCircle
 10
9.671393851098917
 20
5.090991090608549
 30
0.0
 40
0.005853540169475
100
AcDbArc
 50
339.9999999999999
 51
159.9999999999998
  0
ARC
  5
1E7
330
18
100
AcDbEntity
  8
ADP1DETAIL
100
AcDbCircle
 10
9.889987167383351
 20
4.971066690663885
 30
0.0
 40
0.005853540169475
100
AcDbArc
 50
322.4999999999998
 51
142.4999999999998
  0
ARC
  5
1E8
330
18
100
AcDbEntity
  8
ADP1DETAIL
100
AcDbCircle
 10
9.880478692988328
 20
4.978253546378703
 30
0.0
 40
0.005853540169475
100
AcDbArc
 50
323.3333333333332
 51
143.3333333333332
  0
ARC
  5
1E9
330
18
100
AcDbEntity
  8
ADP1DETAIL
100
AcDbCircle
 10
9.870866699392363
 20
4.985301351675218
 30
0.0
 40
0.005853540169475
100
AcDbArc
 50
324.1666666666665
 51
144.1666666666665
  0
ARC
  5
1EA
330
18
100
AcDbEntity
  8
ADP1DETAIL
100
AcDbCircle
 10
9.86115321987954
 20
4.992208615687861
 30
0.0
 40
0.005853540169475
100
AcDbArc
 50
324.9999999999999
 51
144.9999999999998
  0
ARC
  5
1EB
330
18
100
AcDbEntity
  8
ADP1DETAIL
100
AcDbCircle
 10
9.851340309201869
 20
4.998973877280625
 30
0.0
 40
0.005853540169475
100
AcDbArc
 50
325.8333333333331
 51
145.8333333333332
  0
ARC
  5
1EC
330
18
100
AcDbEntity
  8
ADP1DETAIL
100
AcDbCircle
 10
9.841430043144661
 20
5.005595705356148
 30
0.0
 40
0.005853540169475
100
AcDbArc
 50
326.6666666666665
 51
146.6666666666665
  0
ARC
  5
1ED
330
18
100
AcDbEntity
  8
ADP1DETAIL
100
AcDbCircle
 10
9.8314245180874
 20
5.012072699158441
 30
0.0
 40
0.005853540169475
100
AcDbArc
 50
327.4999999999999
 51
147.4999999999998
  0
ARC
  5
1EE
330
18
100
AcDbEntity
  8
ADP1DETAIL
100
AcDbCircle
 10
9.821325850560292
 20
5.018403488569198
 30
0.0
 40
0.005853540169475
100
AcDbArc
 50
328.3333333333332
 51
148.3333333333332
  0
ARC
  5
1EF
330
18
100
AcDbEntity
  8
ADP1DETAIL
100
AcDbCircle
 10
9.811136176796543
 20
5.024586734397626
 30
0.0
 40
0.005853540169475
100
AcDbArc
 50
329.1666666666665
 51
149.1666666666665
  0
ARC
  5
1F0
330
18
100
AcDbEntity
  8
ADP1DETAIL
100
AcDbCircle
 10
9.800857652280468
 20
5.030621128663736
 30
0.0
 40
0.005853540169475
100
AcDbArc
 50
329.9999999999998
 51
149.9999999999998
  0
ARC
  5
1F1
330
18
100
AcDbEntity
  8
ADP1DETAIL
100
AcDbCircle
 10
9.790492451291529
 20
5.036505394875025
 30
0.0
 40
0.005853540169475
100
AcDbArc
 50
330.8333333333332
 51
150.8333333333331
  0
ARC
  5
1F2
330
18
100
AcDbEntity
  8
ADP1DETAIL
100
AcDbCircle
 10
9.780042766444388
 20
5.042238288296493
 30
0.0
 40
0.005853540169475
100
AcDbArc
 50
331.6666666666665
 51
151.6666666666665
  0
ARC
  5
1F3
330
18
100
AcDbEntity
  8
ADP1DETAIL
100
AcDbCircle
 10
9.758898804523539
 20
5.053245138190607
 30
0.0
 40
0.005853540169475
100
AcDbArc
 50
333.3333333333332
 51
153.3333333333332
  0
ARC
  5
1F4
330
18
100
AcDbEntity
  8
ADP1DETAIL
100
AcDbCircle
 10
9.748209000162038
 20
5.05851676631665
 30
0.0
 40
0.005853540169475
100
AcDbArc
 50
334.1666666666665
 51
154.1666666666665
  0
ARC
  5
1F5
330
18
100
AcDbEntity
  8
ADP1DETAIL
100
AcDbCircle
 10
9.737443656420625
 20
5.063632365452198
 30
0.0
 40
0.005853540169475
100
AcDbArc
 50
334.9999999999998
 51
154.9999999999999
  0
ARC
  5
1F6
330
18
100
AcDbEntity
  8
ADP1DETAIL
100
AcDbCircle
 10
9.726605050558617
 20
5.06859085346312
 30
0.0
 40
0.005853540169475
100
AcDbArc
 50
335.8333333333332
 51
155.8333333333332
  0
ARC
  5
1F7
330
18
100
AcDbEntity
  8
ADP1DETAIL
100
AcDbCircle
 10
9.769510808225108
 20
5.047818596213963
 30
0.0
 40
0.005853540169475
100
AcDbArc
 50
332.4999999999998
 51
152.4999999999998
  0
ARC
  5
1F8
330
18
100
AcDbEntity
  8
ADP1DETAIL
100
AcDbCircle
 10
9.715695475332926
 20
5.073391181449981
 30
0.0
 40
0.005853540169475
100
AcDbArc
 50
336.6666666666665
 51
156.6666666666665
  0
ARC
  5
1F9
330
18
100
AcDbEntity
  8
ADP1DETAIL
100
AcDbCircle
 10
9.704717238513049
 20
5.078032333969899
 30
0.0
 40
0.005853540169475
100
AcDbArc
 50
337.4999999999999
 51
157.4999999999998
  0
ARC
  5
1FA
330
18
100
AcDbEntity
  8
ADP1DETAIL
100
AcDbCircle
 10
9.91787147354095
 20
4.948687168942424
 30
0.0
 40
0.005853540169475
100
AcDbArc
 50
319.9999999999998
 51
139.9999999999998
  0
ARC
  5
1FB
330
18
100
AcDbEntity
  8
ADP1DETAIL
100
AcDbCircle
 10
9.908685535350008
 20
4.956281938190968
 30
0.0
 40
0.005853540169475
100
AcDbArc
 50
320.8333333333332
 51
140.8333333333332
  0
ARC
  5
1FC
330
18
100
AcDbEntity
  8
ADP1DETAIL
100
AcDbCircle
 10
10.10081386885452
 20
4.730664912089677
 30
0.0
 40
0.005853540169475
100
AcDbArc
 50
299.9999999999999
 51
119.9999999999999
  0
ARC
  5
1FD
330
18
100
AcDbEntity
  8
ADP1DETAIL
100
AcDbCircle
 10
10.09477947458841
 20
4.740943436605752
 30
0.0
 40
0.005853540169475
100
AcDbArc
 50
300.8333333333331
 51
120.8333333333332
  0
ARC
  5
1FE
330
18
100
AcDbEntity
  8
ADP1DETAIL
100
AcDbCircle
 10
10.08859622875998
 20
4.751133110369501
 30
0.0
 40
0.005853540169475
100
AcDbArc
 50
301.6666666666665
 51
121.6666666666665
  0
ARC
  5
1FF
330
18
100
AcDbEntity
  8
ADP1DETAIL
100
AcDbCircle
 10
10.08226543934923
 20
4.761231777896609
 30
0.0
 40
0.005853540169475
100
AcDbArc
 50
302.4999999999999
 51
122.4999999999999
  0
ARC
  5
200
330
18
100
AcDbEntity
  8
ADP1DETAIL
100
AcDbCircle
 10
10.07578844554694
 20
4.771237302953872
 30
0.0
 40
0.005853540169475
100
AcDbArc
 50
303.3333333333331
 51
123.3333333333332
  0
ARC
  5
201
330
18
100
AcDbEntity
  8
ADP1DETAIL
100
AcDbCircle
 10
10.06916661747141
 20
4.78114756901108
 30
0.0
 40
0.005853540169475
100
AcDbArc
 50
304.1666666666665
 51
124.1666666666665
  0
ARC
  5
202
330
18
100
AcDbEntity
  8
ADP1DETAIL
100
AcDbCircle
 10
10.06240135587865
 20
4.790960479688748
 30
0.0
 40
0.005853540169475
100
AcDbArc
 50
304.9999999999998
 51
124.9999999999999
  0
ARC
  5
203
330
18
100
AcDbEntity
  8
ADP1DETAIL
100
AcDbCircle
 10
10.05549409186601
 20
4.800673959201574
 30
0.0
 40
0.005853540169475
100
AcDbArc
 50
305.8333333333332
 51
125.8333333333332
  0
ARC
  5
204
330
18
100
AcDbEntity
  8
ADP1DETAIL
100
AcDbCircle
 10
10.04844628656949
 20
4.810285952797537
 30
0.0
 40
0.005853540169475
100
AcDbArc
 50
306.6666666666665
 51
126.6666666666665
  0
ARC
  5
205
330
18
100
AcDbEntity
  8
ADP1DETAIL
100
AcDbCircle
 10
10.04125943085467
 20
4.81979442719256
 30
0.0
 40
0.005853540169475
100
AcDbArc
 50
307.4999999999998
 51
127.4999999999998
  0
ARC
  5
206
330
18
100
AcDbEntity
  8
ADP1DETAIL
100
AcDbCircle
 10
10.03393504500131
 20
4.829197371000617
 30
0.0
 40
0.005853540169475
100
AcDbArc
 50
308.3333333333332
 51
128.3333333333332
  0
ARC
  5
207
330
18
100
AcDbEntity
  8
ADP1DETAIL
100
AcDbCircle
 10
10.02647467838176
 20
4.838492795159218
 30
0.0
 40
0.005853540169475
100
AcDbArc
 50
309.1666666666665
 51
129.1666666666665
  0
ARC
  5
208
330
18
100
AcDbEntity
  8
ADP1DETAIL
100
AcDbCircle
 10
10.01887990913321
 20
4.847678733350159
 30
0.0
 40
0.005853540169475
100
AcDbArc
 50
309.9999999999998
 51
129.9999999999999
  0
ARC
  5
209
330
18
100
AcDbEntity
  8
ADP1DETAIL
100
AcDbCircle
 10
10.01115234382389
 20
4.85675324241548
 30
0.0
 40
0.005853540169475
100
AcDbArc
 50
310.8333333333332
 51
130.8333333333332
  0
ARC
  5
20A
330
18
100
AcDbEntity
  8
ADP1DETAIL
100
AcDbCircle
 10
10.00329361711318
 20
4.865714402768514
 30
0.0
 40
0.005853540169475
100
AcDbArc
 50
311.6666666666665
 51
131.6666666666665
  0
ARC
  5
20B
330
18
100
AcDbEntity
  8
ADP1DETAIL
100
AcDbCircle
 10
9.98718935650033
 20
4.883289119278755
 30
0.0
 40
0.005853540169475
100
AcDbArc
 50
313.3333333333332
 51
133.3333333333332
  0
ARC
  5
20C
330
18
100
AcDbEntity
  8
ADP1DETAIL
100
AcDbCircle
 10
9.978947229231414
 20
4.891898957748168
 30
0.0
 40
0.005853540169475
100
AcDbArc
 50
314.1666666666665
 51
134.1666666666665
  0
ARC
  5
20D
330
18
100
AcDbEntity
  8
ADP1DETAIL
100
AcDbCircle
 10
9.970580753106917
 20
4.900388012916129
 30
0.0
 40
0.005853540169475
100
AcDbArc
 50
314.9999999999999
 51
134.9999999999999
  0
ARC
  5
20E
330
18
100
AcDbEntity
  8
ADP1DETAIL
100
AcDbCircle
 10
9.962091697938957
 20
4.908754489040623
 30
0.0
 40
0.005853540169475
100
AcDbArc
 50
315.8333333333332
 51
135.8333333333332
  0
ARC
  5
20F
330
18
100
AcDbEntity
  8
ADP1DETAIL
100
AcDbCircle
 10
9.953481859469544
 20
4.91699661630954
 30
0.0
 40
0.005853540169475
100
AcDbArc
 50
316.6666666666665
 51
136.6666666666665
  0
ARC
  5
210
330
18
100
AcDbEntity
  8
ADP1DETAIL
100
AcDbCircle
 10
9.944753058990722
 20
4.925112651215044
 30
0.0
 40
0.005853540169475
100
AcDbArc
 50
317.4999999999998
 51
137.4999999999998
  0
ARC
  5
211
330
18
100
AcDbEntity
  8
ADP1DETAIL
100
AcDbCircle
 10
9.935907142959306
 20
4.933100876922392
 30
0.0
 40
0.005853540169475
100
AcDbArc
 50
318.3333333333332
 51
138.3333333333332
  0
ARC
  5
212
330
18
100
AcDbEntity
  8
ADP1DETAIL
100
AcDbCircle
 10
9.926945982606273
 20
4.940959603633104
 30
0.0
 40
0.005853540169475
100
AcDbArc
 50
319.1666666666665
 51
139.1666666666665
  0
ARC
  5
213
330
18
100
AcDbEntity
  8
ADP1DETAIL
100
AcDbCircle
 10
9.91787147354095
 20
4.948687168942424
 30
0.0
 40
0.005853540169475
100
AcDbArc
 50
319.9999999999998
 51
139.9999999999998
  0
ARC
  5
214
330
18
100
AcDbEntity
  8
ADP1DETAIL
100
AcDbCircle
 10
9.995305391405835
 20
4.874560318799932
 30
0.0
 40
0.005853540169475
100
AcDbArc
 50
312.4999999999999
 51
132.4999999999998
  0
ARC
  5
215
330
18
100
AcDbEntity
  8
ADP1DETAIL
100
AcDbCircle
 10
10.15270606944214
 20
4.623479922202095
 30
0.0
 40
0.005853540169475
100
AcDbArc
 50
291.6666666666665
 51
111.6666666666666
  0
ARC
  5
216
330
18
100
AcDbEntity
  8
ADP1DETAIL
100
AcDbCircle
 10
10.14358392164077
 20
4.645502735142134
 30
0.0
 40
0.005853540169475
100
AcDbArc
 50
293.3333333333332
 51
113.3333333333332
  0
ARC
  5
217
330
18
100
AcDbEntity
  8
ADP1DETAIL
100
AcDbCircle
 10
10.13878359365391
 20
4.656412310367825
 30
0.0
 40
0.005853540169475
100
AcDbArc
 50
294.1666666666666
 51
114.1666666666665
  0
ARC
  5
218
330
18
100
AcDbEntity
  8
ADP1DETAIL
100
AcDbCircle
 10
10.13382510564298
 20
4.667250916229831
 30
0.0
 40
0.005853540169475
100
AcDbArc
 50
294.9999999999999
 51
114.9999999999999
  0
ARC
  5
219
330
18
100
AcDbEntity
  8
ADP1DETAIL
100
AcDbCircle
 10
10.12870950650744
 20
4.678016259971246
 30
0.0
 40
0.005853540169475
100
AcDbArc
 50
295.8333333333332
 51
115.8333333333332
  0
ARC
  5
21A
330
18
100
AcDbEntity
  8
ADP1DETAIL
100
AcDbCircle
 10
10.12343787838139
 20
4.688706064332745
 30
0.0
 40
0.005853540169475
100
AcDbArc
 50
296.6666666666665
 51
116.6666666666665
  0
ARC
  5
21B
330
18
100
AcDbEntity
  8
ADP1DETAIL
100
AcDbCircle
 10
10.11801133640475
 20
4.699318068034316
 30
0.0
 40
0.005853540169475
100
AcDbArc
 50
297.4999999999999
 51
117.4999999999999
  0
ARC
  5
21C
330
18
100
AcDbEntity
  8
ADP1DETAIL
100
AcDbCircle
 10
10.11243102848728
 20
4.709850026253596
 30
0.0
 40
0.005853540169475
100
AcDbArc
 50
298.3333333333332
 51
118.3333333333332
  0
ARC
  5
21D
330
18
100
AcDbEntity
  8
ADP1DETAIL
100
AcDbCircle
 10
10.10669813506581
 20
4.720299711100734
 30
0.0
 40
0.005853540169475
100
AcDbArc
 50
299.1666666666666
 51
119.1666666666666
  0
ARC
  5
21E
330
18
100
AcDbEntity
  8
ADP1DETAIL
100
AcDbCircle
 10
10.10081386885452
 20
4.730664912089674
 30
0.0
 40
0.005853540169475
100
AcDbArc
 50
299.9999999999999
 51
119.9999999999999
  0
ARC
  5
21F
330
18
100
AcDbEntity
  8
ADP1DETAIL
100
AcDbCircle
 10
10.14822507416068
 20
4.634524498322257
 30
0.0
 40
0.005853540169475
100
AcDbArc
 50
292.4999999999999
 51
112.4999999999999
  0
LINE
  5
220
330
18
100
AcDbEntity
  8
ADP1DETAIL
100
AcDbLine
 10
10.75937017651892
 20
5.084460674571047
 30
0.0
 11
10.82187017651893
 21
5.146960674571047
 31
0.0
  0
LINE
  5
221
330
18
100
AcDbEntity
  8
ADP1DETAIL
100
AcDbLine
 10
15.75937017651892
 20
3.752447232551996
 30
0.0
 11
15.75937017651892
 21
5.084460674571047
 31
0.0
  0
LINE
  5
222
330
18
100
AcDbEntity
  8
ADP1DETAIL
100
AcDbLine
 10
15.69687017651892
 20
3.689947232551996
 30
0.0
 11
15.69687017651892
 21
5.146960674571047
 31
0.0
  0
LINE
  5
223
330
18
100
AcDbEntity
  8
ADP1DETAIL
100
AcDbLine
 10
15.69687017651892
 20
3.689947232551996
 30
0.0
 11
15.75937017651892
 21
3.752447232551996
 31
0.0
  0
LINE
  5
224
330
18
100
AcDbEntity
  8
ADP1DETAIL
100
AcDbLine
 10
15.69687017651892
 20
5.146960674571047
 30
0.0
 11
15.75937017651892
 21
5.084460674571047
 31
0.0
  0
TEXT
  5
232
330
18
100
AcDbEntity
  8
ADPDIM
100
AcDbText
 10
7.012232104439909
 20
3.014568984981351
 30
0.0
 40
0.09375
  1
J U L I U S  B L U M  &  C O . ,  I N C .      ( 8 0 0 )  5 2 6 - 6 2 9 3        W W W . J U L I U S B L U M . C O M        P A R T  N o .  1 3 6 3
 41
1.25
  7
ARIAL_WIDE
 72
     1
 11
11.90652887285737
 21
3.108318984981351
 31
0.0
100
AcDbText
 73
     3
  0
ENDSEC
  0
SECTION
  2
OBJECTS
  0
DICTIONARY
  5
C
330
0
100
AcDbDictionary
  3
ACAD_GROUP
350
D
  3
ACAD_LAYOUT
350
22B
  3
ACAD_MLINESTYLE
350
E
  3
ACAD_PLOTSETTINGS
350
22C
  3
ACAD_PLOTSTYLENAME
350
229
  3
ACDBHEADERROUNDTRIPXREC
350
3D0
  3
ACDBVARIABLEDICTIONARY
350
28C
  0
DICTIONARY
  5
286
330
18
100
AcDbDictionary
280
     1
  3
ACAD_LAYOUTSELFREF
360
3F1
  0
DICTIONARY
  5
284
330
15
100
AcDbDictionary
280
     1
  3
ACAD_LAYOUTSELFREF
360
3F0
  0
DICTIONARY
  5
D
102
{ACAD_REACTORS
330
C
102
}
330
C
100
AcDbDictionary
  0
DICTIONARY
  5
22B
102
{ACAD_REACTORS
330
C
102
}
330
C
100
AcDbDictionary
  0
DICTIONARY
  5
E
102
{ACAD_REACTORS
330
C
102
}
330
C
100
AcDbDictionary
  3
STANDARD
350
1B
  0
DICTIONARY
  5
22C
102
{ACAD_REACTORS
330
C
102
}
330
C
100
AcDbDictionary
  0
ACDBDICTIONARYWDFLT
  5
229
102
{ACAD_REACTORS
330
C
102
}
330
C
100
AcDbDictionary
281
     1
  3
Normal
350
22A
100
AcDbDictionaryWithDefault
340
22A
  0
DICTIONARY
  5
3D0
102
{ACAD_REACTORS
330
C
102
}
330
C
100
AcDbDictionary
  3
CEPSNTYPE
350
3DA
  3
FINGERPRINTGUID
350
3DB
  3
HYPERLINKBASE
350
3D3
  3
INSUNITS
350
3D9
  3
LAYOUTDICT
350
3D5
  3
LWETCUNION
350
3D8
  3
PLOTSETDICT
350
3D6
  3
PLOTSTYLNAMDICT
350
3D7
  3
PSVPSCALE
350
3DD
  3
PUCSBASE
350
3E0
  3
PUCSORGBACK
350
3E6
  3
PUCSORGBOTTOM
350
3E2
  3
PUCSORGFRONT
350
3E5
  3
PUCSORGLEFT
350
3E3
  3
PUCSORGRIGHT
350
3E4
  3
PUCSORGTOP
350
3E1
  3
PUCSORTHOREF
350
3DE
  3
PUCSORTHOVIEW
350
3DF
  3
STYLESHEET
350
3D4
  3
TSTACKALIGN
350
3D1
  3
TSTACKSIZE
350
3D2
  3
UCSBASE
350
3E9
  3
UCSORGBACK
350
3EF
  3
UCSORGBOTTOM
350
3EB
  3
UCSORGFRONT
350
3EE
  3
UCSORGLEFT
350
3EC
  3
UCSORGRIGHT
350
3ED
  3
UCSORGTOP
350
3EA
  3
UCSORTHOREF
350
3E7
  3
UCSORTHOVIEW
350
3E8
  3
VERSIONGUID
350
3DC
  0
DICTIONARY
  5
28C
102
{ACAD_REACTORS
330
C
102
}
330
C
100
AcDbDictionary
  3
DIMASSOC
350
28D
  0
XRECORD
  5
3F1
102
{ACAD_REACTORS
330
286
102
}
330
286
100
AcDbXrecord
340
18
  0
XRECORD
  5
3F0
102
{ACAD_REACTORS
330
284
102
}
330
284
100
AcDbXrecord
340
15
  0
MLINESTYLE
  5
1B
102
{ACAD_REACTORS
330
E
102
}
330
E
100
AcDbMlineStyle
  2
STANDARD
 70
     0
  3

 62
     0
 51
90.0
 52
90.0
 71
     2
 49
0.5
 62
   256
  6
BYLAYER
 49
-0.5
 62
   256
  6
BYLAYER
  0
ACDBPLACEHOLDER
  5
22A
102
{ACAD_REACTORS
330
229
102
}
330
229
100
AcDbPlaceHolder
280
     0
  0
XRECORD
  5
3DA
102
{ACAD_REACTORS
330
3D0
102
}
330
3D0
100
AcDbXrecord
 90
        0
  0
XRECORD
  5
3DB
102
{ACAD_REACTORS
330
3D0
102
}
330
3D0
100
AcDbXrecord
  1
{7195D028-A32B-4745-98A4-3469C9C2FA87}
  0
XRECORD
  5
3D3
102
{ACAD_REACTORS
330
3D0
102
}
330
3D0
100
AcDbXrecord
  1

  0
XRECORD
  5
3D9
102
{ACAD_REACTORS
330
3D0
102
}
330
3D0
100
AcDbXrecord
 90
        0
  0
XRECORD
  5
3D5
102
{ACAD_REACTORS
330
3D0
102
}
330
3D0
100
AcDbXrecord
340
22B
  0
XRECORD
  5
3D8
102
{ACAD_REACTORS
330
3D0
102
}
330
3D0
100
AcDbXrecord
 90
    14877
  0
XRECORD
  5
3D6
102
{ACAD_REACTORS
330
3D0
102
}
330
3D0
100
AcDbXrecord
340
22C
  0
XRECORD
  5
3D7
102
{ACAD_REACTORS
330
3D0
102
}
330
3D0
100
AcDbXrecord
340
229
  0
XRECORD
  5
3DD
102
{ACAD_REACTORS
330
3D0
102
}
330
3D0
100
AcDbXrecord
 40
0.0
  0
XRECORD
  5
3E0
102
{ACAD_REACTORS
330
3D0
102
}
330
3D0
100
AcDbXrecord
340
0
  0
XRECORD
  5
3E6
102
{ACAD_REACTORS
330
3D0
102
}
330
3D0
100
AcDbXrecord
 10
0.0
 20
0.0
 30
0.0
  0
XRECORD
  5
3E2
102
{ACAD_REACTORS
330
3D0
102
}
330
3D0
100
AcDbXrecord
 10
0.0
 20
0.0
 30
0.0
  0
XRECORD
  5
3E5
102
{ACAD_REACTORS
330
3D0
102
}
330
3D0
100
AcDbXrecord
 10
0.0
 20
0.0
 30
0.0
  0
XRECORD
  5
3E3
102
{ACAD_REACTORS
330
3D0
102
}
330
3D0
100
AcDbXrecord
 10
0.0
 20
0.0
 30
0.0
  0
XRECORD
  5
3E4
102
{ACAD_REACTORS
330
3D0
102
}
330
3D0
100
AcDbXrecord
 10
0.0
 20
0.0
 30
0.0
  0
XRECORD
  5
3E1
102
{ACAD_REACTORS
330
3D0
102
}
330
3D0
100
AcDbXrecord
 10
0.0
 20
0.0
 30
0.0
  0
XRECORD
  5
3DE
102
{ACAD_REACTORS
330
3D0
102
}
330
3D0
100
AcDbXrecord
340
0
  0
XRECORD
  5
3DF
102
{ACAD_REACTORS
330
3D0
102
}
330
3D0
100
AcDbXrecord
 70
     0
  0
XRECORD
  5
3D4
102
{ACAD_REACTORS
330
3D0
102
}
330
3D0
100
AcDbXrecord
  1

  0
XRECORD
  5
3D1
102
{ACAD_REACTORS
330
3D0
102
}
330
3D0
100
AcDbXrecord
 90
        1
  0
XRECORD
  5
3D2
102
{ACAD_REACTORS
330
3D0
102
}
330
3D0
100
AcDbXrecord
 90
       70
  0
XRECORD
  5
3E9
102
{ACAD_REACTORS
330
3D0
102
}
330
3D0
100
AcDbXrecord
340
0
  0
XRECORD
  5
3EF
102
{ACAD_REACTORS
330
3D0
102
}
330
3D0
100
AcDbXrecord
 10
0.0
 20
0.0
 30
0.0
  0
XRECORD
  5
3EB
102
{ACAD_REACTORS
330
3D0
102
}
330
3D0
100
AcDbXrecord
 10
0.0
 20
0.0
 30
0.0
  0
XRECORD
  5
3EE
102
{ACAD_REACTORS
330
3D0
102
}
330
3D0
100
AcDbXrecord
 10
0.0
 20
0.0
 30
0.0
  0
XRECORD
  5
3EC
102
{ACAD_REACTORS
330
3D0
102
}
330
3D0
100
AcDbXrecord
 10
0.0
 20
0.0
 30
0.0
  0
XRECORD
  5
3ED
102
{ACAD_REACTORS
330
3D0
102
}
330
3D0
100
AcDbXrecord
 10
0.0
 20
0.0
 30
0.0
  0
XRECORD
  5
3EA
102
{ACAD_REACTORS
330
3D0
102
}
330
3D0
100
AcDbXrecord
 10
0.0
 20
0.0
 30
0.0
  0
XRECORD
  5
3E7
102
{ACAD_REACTORS
330
3D0
102
}
330
3D0
100
AcDbXrecord
340
0
  0
XRECORD
  5
3E8
102
{ACAD_REACTORS
330
3D0
102
}
330
3D0
100
AcDbXrecord
 70
     0
  0
XRECORD
  5
3DC
102
{ACAD_REACTORS
330
3D0
102
}
330
3D0
100
AcDbXrecord
  1
{89C032CF-08B4-4AEE-A02D-E6FA6FC0FE53}
  0
DICTIONARYVAR
  5
28D
102
{ACAD_REACTORS
330
28C
102
}
330
28C
100
DictionaryVariables
280
     0
  1
1
  0
ENDSEC
  0
EOF
